  0
SECTION
  2
HEADER
  9
$ACADVER
  1
AC1015
  9
$ACADMAINTVER
 70
     6
  9
$DWGCODEPAGE
  3
ANSI_1252
  9
$INSBASE
 10
0.0
 20
0.0
 30
0.0
  9
$EXTMIN
 10
0.0
 20
0.0
 30
0.0
  9
$EXTMAX
 10
33.0
 20
25.5
 30
0.0
  9
$LIMMIN
 10
0.0
 20
0.0
  9
$LIMMAX
 10
33.0
 20
25.5
  9
$ORTHOMODE
 70
     0
  9
$REGENMODE
 70
     1
  9
$FILLMODE
 70
     1
  9
$QTEXTMODE
 70
     0
  9
$MIRRTEXT
 70
     1
  9
$LTSCALE
 40
3.0
  9
$ATTMODE
 70
     1
  9
$TEXTSIZE
 40
0.375
  9
$TRACEWID
 40
0.05
  9
$TEXTSTYLE
  7
Standard
  9
$CLAYER
  8
0
  9
$CELTYPE
  6
ByLayer
  9
$CECOLOR
 62
   256
  9
$CELTSCALE
 40
1.0
  9
$DISPSILH
 70
     0
  9
$DIMSCALE
 40
1.0
  9
$DIMASZ
 40
0.39
  9
$DIMEXO
 40
0.15
  9
$DIMDLI
 40
0.38
  9
$DIMRND
 40
0.0
  9
$DIMDLE
 40
0.0
  9
$DIMEXE
 40
0.375
  9
$DIMTP
 40
0.0
  9
$DIMTM
 40
0.0
  9
$DIMTXT
 40
0.375
  9
$DIMCEN
 40
0.09
  9
$DIMTSZ
 40
0.0
  9
$DIMTOL
 70
     0
  9
$DIMLIM
 70
     0
  9
$DIMTIH
 70
     1
  9
$DIMTOH
 70
     1
  9
$DIMSE1
 70
     0
  9
$DIMSE2
 70
     0
  9
$DIMTAD
 70
     0
  9
$DIMZIN
 70
     1
  9
$DIMBLK
  1

  9
$DIMASO
 70
     1
  9
$DIMSHO
 70
     1
  9
$DIMPOST
  1

  9
$DIMAPOST
  1

  9
$DIMALT
 70
     0
  9
$DIMALTD
 70
     2
  9
$DIMALTF
 40
25.4
  9
$DIMLFAC
 40
1.0
  9
$DIMTOFL
 70
     0
  9
$DIMTVP
 40
0.0
  9
$DIMTIX
 70
     0
  9
$DIMSOXD
 70
     0
  9
$DIMSAH
 70
     0
  9
$DIMBLK1
  1

  9
$DIMBLK2
  1

  9
$DIMSTYLE
  2
Standard
  9
$DIMCLRD
 70
     0
  9
$DIMCLRE
 70
     0
  9
$DIMCLRT
 70
     0
  9
$DIMTFAC
 40
1.0
  9
$DIMGAP
 40
0.18
  9
$DIMJUST
 70
     0
  9
$DIMSD1
 70
     0
  9
$DIMSD2
 70
     0
  9
$DIMTOLJ
 70
     1
  9
$DIMTZIN
 70
     1
  9
$DIMALTZ
 70
     0
  9
$DIMALTTZ
 70
     0
  9
$DIMUPT
 70
     0
  9
$DIMDEC
 70
     0
  9
$DIMTDEC
 70
     0
  9
$DIMALTU
 70
     2
  9
$DIMALTTD
 70
     2
  9
$DIMTXSTY
  7
Standard
  9
$DIMAUNIT
 70
     0
  9
$DIMADEC
 70
     0
  9
$DIMALTRND
 40
0.0
  9
$DIMAZIN
 70
     0
  9
$DIMDSEP
 70
    46
  9
$DIMATFIT
 70
     3
  9
$DIMFRAC
 70
     0
  9
$DIMLDRBLK
  1

  9
$DIMLUNIT
 70
     2
  9
$DIMLWD
 70
    -2
  9
$DIMLWE
 70
    -2
  9
$DIMTMOVE
 70
     0
  9
$LUNITS
 70
     2
  9
$LUPREC
 70
     6
  9
$SKETCHINC
 40
0.1
  9
$FILLETRAD
 40
0.0
  9
$AUNITS
 70
     0
  9
$AUPREC
 70
     2
  9
$MENU
  1
.
  9
$ELEVATION
 40
0.0
  9
$PELEVATION
 40
0.0
  9
$THICKNESS
 40
0.0
  9
$LIMCHECK
 70
     0
  9
$CHAMFERA
 40
0.0
  9
$CHAMFERB
 40
0.0
  9
$CHAMFERC
 40
0.0
  9
$CHAMFERD
 40
0.0
  9
$SKPOLY
 70
     0
  9
$TDCREATE
 40
2460903.330929306
  9
$TDUCREATE
 40
2460903.622595973
  9
$TDUPDATE
 40
2460903.330930185
  9
$TDUUPDATE
 40
2460903.622596852
  9
$TDINDWG
 40
0.0000000116
  9
$TDUSRTIMER
 40
0.0000000116
  9
$USRTIMER
 70
     1
  9
$ANGBASE
 50
0.0
  9
$ANGDIR
 70
     0
  9
$PDMODE
 70
     0
  9
$PDSIZE
 40
-1.0
  9
$PLINEWID
 40
0.0
  9
$SPLFRAME
 70
     0
  9
$SPLINETYPE
 70
     6
  9
$SPLINESEGS
 70
     8
  9
$HANDSEED
  5
58C
  9
$SURFTAB1
 70
     6
  9
$SURFTAB2
 70
     6
  9
$SURFTYPE
 70
     6
  9
$SURFU
 70
     6
  9
$SURFV
 70
     6
  9
$UCSBASE
  2

  9
$UCSNAME
  2

  9
$UCSORG
 10
0.0
 20
0.0
 30
0.0
  9
$UCSXDIR
 10
1.0
 20
0.0
 30
0.0
  9
$UCSYDIR
 10
0.0
 20
1.0
 30
0.0
  9
$UCSORTHOREF
  2

  9
$UCSORTHOVIEW
 70
     0
  9
$UCSORGTOP
 10
0.0
 20
0.0
 30
0.0
  9
$UCSORGBOTTOM
 10
0.0
 20
0.0
 30
0.0
  9
$UCSORGLEFT
 10
0.0
 20
0.0
 30
0.0
  9
$UCSORGRIGHT
 10
0.0
 20
0.0
 30
0.0
  9
$UCSORGFRONT
 10
0.0
 20
0.0
 30
0.0
  9
$UCSORGBACK
 10
0.0
 20
0.0
 30
0.0
  9
$PUCSBASE
  2

  9
$PUCSNAME
  2

  9
$PUCSORG
 10
0.0
 20
0.0
 30
0.0
  9
$PUCSXDIR
 10
1.0
 20
0.0
 30
0.0
  9
$PUCSYDIR
 10
0.0
 20
1.0
 30
0.0
  9
$PUCSORTHOREF
  2

  9
$PUCSORTHOVIEW
 70
     0
  9
$PUCSORGTOP
 10
0.0
 20
0.0
 30
0.0
  9
$PUCSORGBOTTOM
 10
0.0
 20
0.0
 30
0.0
  9
$PUCSORGLEFT
 10
0.0
 20
0.0
 30
0.0
  9
$PUCSORGRIGHT
 10
0.0
 20
0.0
 30
0.0
  9
$PUCSORGFRONT
 10
0.0
 20
0.0
 30
0.0
  9
$PUCSORGBACK
 10
0.0
 20
0.0
 30
0.0
  9
$USERI1
 70
     0
  9
$USERI2
 70
     0
  9
$USERI3
 70
     0
  9
$USERI4
 70
     0
  9
$USERI5
 70
     0
  9
$USERR1
 40
0.0
  9
$USERR2
 40
0.0
  9
$USERR3
 40
0.0
  9
$USERR4
 40
0.0
  9
$USERR5
 40
0.0
  9
$WORLDVIEW
 70
     1
  9
$SHADEDGE
 70
     3
  9
$SHADEDIF
 70
    70
  9
$TILEMODE
 70
     1
  9
$MAXACTVP
 70
    64
  9
$PINSBASE
 10
0.0
 20
0.0
 30
0.0
  9
$PLIMCHECK
 70
     0
  9
$PEXTMIN
 10
1.0000000000E+20
 20
1.0000000000E+20
 30
1.0000000000E+20
  9
$PEXTMAX
 10
-1.0000000000E+20
 20
-1.0000000000E+20
 30
-1.0000000000E+20
  9
$PLIMMIN
 10
0.0
 20
0.0
  9
$PLIMMAX
 10
12.0
 20
9.0
  9
$UNITMODE
 70
     0
  9
$VISRETAIN
 70
     1
  9
$PLINEGEN
 70
     0
  9
$PSLTSCALE
 70
     1
  9
$TREEDEPTH
 70
  3020
  9
$CMLSTYLE
  2
Standard
  9
$CMLJUST
 70
     0
  9
$CMLSCALE
 40
1.0
  9
$PROXYGRAPHICS
 70
     1
  9
$MEASUREMENT
 70
     0
  9
$CELWEIGHT
370
    -1
  9
$ENDCAPS
280
     0
  9
$JOINSTYLE
280
     0
  9
$LWDISPLAY
290
     1
  9
$INSUNITS
 70
     1
  9
$HYPERLINKBASE
  1

  9
$STYLESHEET
  1

  9
$XEDIT
290
     1
  9
$CEPSNTYPE
380
     0
  9
$PSTYLEMODE
290
     1
  9
$FINGERPRINTGUID
  2
{23ce2eb9-920d-4bd1-a020-1faad161475a}
  9
$VERSIONGUID
  2
{FAEB1C32-E019-11D5-929B-00C0DF256EC4}
  9
$EXTNAMES
290
     1
  9
$PSVPSCALE
 40
0.0
  9
$OLESTARTUP
290
     0
  0
ENDSEC
  0
SECTION
  2
CLASSES
  0
CLASS
  1
ACDBDICTIONARYWDFLT
  2
AcDbDictionaryWithDefault
  3
ObjectDBX Classes
 90
        0
280
     0
281
     0
  0
CLASS
  1
VISUALSTYLE
  2
AcDbVisualStyle
  3
ObjectDBX Classes
 90
     4095
280
     0
281
     0
  0
CLASS
  1
MATERIAL
  2
AcDbMaterial
  3
ObjectDBX Classes
 90
     1153
280
     0
281
     0
  0
CLASS
  1
SCALE
  2
AcDbScale
  3
ObjectDBX Classes
 90
     1153
280
     0
281
     0
  0
CLASS
  1
TABLESTYLE
  2
AcDbTableStyle
  3
ObjectDBX Classes
 90
     4095
280
     0
281
     0
  0
CLASS
  1
MLEADERSTYLE
  2
AcDbMLeaderStyle
  3
ACDB_MLEADERSTYLE_CLASS
 90
     4095
280
     0
281
     0
  0
CLASS
  1
SUN
  2
AcDbSun
  3
SCENEOE
 90
     1153
280
     0
281
     0
  0
CLASS
  1
ACDBPLACEHOLDER
  2
AcDbPlaceHolder
  3
ObjectDBX Classes
 90
        0
280
     0
281
     0
  0
CLASS
  1
LAYOUT
  2
AcDbLayout
  3
ObjectDBX Classes
 90
        0
280
     0
281
     0
  0
ENDSEC
  0
SECTION
  2
TABLES
  0
TABLE
  2
VPORT
  5
8
330
0
100
AcDbSymbolTable
 70
     1
  0
VPORT
  5
29
330
8
100
AcDbSymbolTableRecord
100
AcDbViewportTableRecord
  2
*Active
 70
     0
 10
0.0
 20
0.0
 11
1.0
 21
1.0
 12
16.5
 22
12.75
 13
0.0
 23
0.0
 14
0.5
 24
0.5
 15
0.5
 25
0.5
 16
0.0
 26
0.0
 36
1.0
 17
0.0
 27
0.0
 37
0.0
 40
25.5
 41
1.2941176471
 42
50.0
 43
0.0
 44
0.0
 50
0.0
 51
0.0
 71
     0
 72
  2000
 73
     1
 74
     3
 75
     0
 76
     0
 77
     0
 78
     0
281
     0
 65
     1
110
0.0
120
0.0
130
0.0
111
1.0
121
0.0
131
0.0
112
0.0
122
1.0
132
0.0
 79
     0
146
0.0
  0
ENDTAB
  0
TABLE
  2
LTYPE
  5
5
330
0
100
AcDbSymbolTable
 70
     6
  0
LTYPE
  5
14
330
5
100
AcDbSymbolTableRecord
100
AcDbLinetypeTableRecord
  2
ByBlock
 70
     0
  3

 72
    65
 73
     0
 40
0.0
  0
LTYPE
  5
15
330
5
100
AcDbSymbolTableRecord
100
AcDbLinetypeTableRecord
  2
ByLayer
 70
     0
  3

 72
    65
 73
     0
 40
0.0
  0
LTYPE
  5
16
330
5
100
AcDbSymbolTableRecord
100
AcDbLinetypeTableRecord
  2
Continuous
 70
     0
  3
Solid line
 72
    65
 73
     0
 40
0.0
  0
LTYPE
  5
5E
330
5
100
AcDbSymbolTableRecord
100
AcDbLinetypeTableRecord
  2
HIDDEN
 70
     0
  3
Hidden __ __ __ __ __ __ __ __ __ __ __ __ __ __
 72
    65
 73
     2
 40
0.075
 49
0.05
 74
     0
 49
-0.025
 74
     0
  0
LTYPE
  5
5F
330
5
100
AcDbSymbolTableRecord
100
AcDbLinetypeTableRecord
  2
PHANTOM
 70
     0
  3
Phantom ______  __  __  ______  __  __  ______
 72
    65
 73
     6
 40
0.5
 49
0.25
 74
     0
 49
-0.05
 74
     0
 49
0.05
 74
     0
 49
-0.05
 74
     0
 49
0.05
 74
     0
 49
-0.05
 74
     0
  0
LTYPE
  5
60
330
5
100
AcDbSymbolTableRecord
100
AcDbLinetypeTableRecord
  2
CENTER
 70
     0
  3
Center ____ _ ____ _ ____ _ ____ _ ____ _ ____
 72
    65
 73
     4
 40
0.4
 49
0.25
 74
     0
 49
-0.05
 74
     0
 49
0.05
 74
     0
 49
-0.05
 74
     0
  0
LTYPE
  5
61
330
5
100
AcDbSymbolTableRecord
100
AcDbLinetypeTableRecord
  2
CENTERX2
 70
     0
  3
Center (2x) ________  __  ________  __  _____
 72
    65
 73
     4
 40
0.8
 49
0.5
 74
     0
 49
-0.1
 74
     0
 49
0.1
 74
     0
 49
-0.1
 74
     0
  0
LTYPE
  5
62
330
5
100
AcDbSymbolTableRecord
100
AcDbLinetypeTableRecord
  2
DOT2
 70
     0
  3
Dot (.5x) ........................................
 72
    65
 73
     2
 40
0.025
 49
0.0
 74
     0
 49
-0.025
 74
     0
  0
ENDTAB
  0
TABLE
  2
LAYER
  5
2
330
0
100
AcDbSymbolTable
 70
    11
  0
LAYER
  5
10
330
2
100
AcDbSymbolTableRecord
100
AcDbLayerTableRecord
  2
0
 70
     0
 62
     7
  6
Continuous
370
    -3
390
F
  0
LAYER
  5
63
330
2
100
AcDbSymbolTableRecord
100
AcDbLayerTableRecord
  2
SLD-0
 70
     0
 62
     7
  6
Continuous
370
    -3
390
F
  0
LAYER
  5
64
330
2
100
AcDbSymbolTableRecord
100
AcDbLayerTableRecord
  2
DIM
 70
     0
 62
     7
  6
Continuous
370
    -3
390
F
  0
LAYER
  5
65
330
2
100
AcDbSymbolTableRecord
100
AcDbLayerTableRecord
  2
CEN
 70
     0
 62
     1
  6
CENTER
370
    -3
390
F
  0
LAYER
  5
66
330
2
100
AcDbSymbolTableRecord
100
AcDbLayerTableRecord
  2
HAT
 70
     0
 62
     4
  6
Continuous
370
    -3
390
F
  0
LAYER
  5
67
330
2
100
AcDbSymbolTableRecord
100
AcDbLayerTableRecord
  2
OBJ
 70
     0
 62
     5
  6
Continuous
370
    -3
390
F
  0
LAYER
  5
68
330
2
100
AcDbSymbolTableRecord
100
AcDbLayerTableRecord
  2
SLD-DEFPOINTS
 70
     0
 62
     7
  6
Continuous
370
    -3
390
F
  0
LAYER
  5
69
330
2
100
AcDbSymbolTableRecord
100
AcDbLayerTableRecord
  2
HID
 70
     0
 62
     4
  6
HIDDEN
370
    -3
390
F
  0
LAYER
  5
6A
330
2
100
AcDbSymbolTableRecord
100
AcDbLayerTableRecord
  2
NOTE
 70
     0
 62
     7
  6
Continuous
370
    -3
390
F
  0
LAYER
  5
6B
330
2
100
AcDbSymbolTableRecord
100
AcDbLayerTableRecord
  2
TITLE
 70
     0
 62
     7
  6
Continuous
370
    -3
390
F
  0
LAYER
  5
6C
330
2
100
AcDbSymbolTableRecord
100
AcDbLayerTableRecord
  2
THICK_TITLE
 70
     0
 62
     7
  6
Continuous
370
   100
390
F
  0
ENDTAB
  0
TABLE
  2
STYLE
  5
3
330
0
100
AcDbSymbolTable
 70
     2
  0
STYLE
  5
11
330
3
100
AcDbSymbolTableRecord
100
AcDbTextStyleTableRecord
  2
Standard
 70
     0
 40
0.0
 41
1.0
 50
0.0
 71
     0
 42
0.375
  3
txt
  4

  0
STYLE
  5
6D
330
3
100
AcDbSymbolTableRecord
100
AcDbTextStyleTableRecord
  2
SLDTEXTSTYLE0
 70
     0
 40
0.0
 41
0.75
 50
0.0
 71
     0
 42
0.375
  3
TXT
  4

  0
ENDTAB
  0
TABLE
  2
VIEW
  5
6
330
0
100
AcDbSymbolTable
 70
     0
  0
ENDTAB
  0
TABLE
  2
UCS
  5
7
330
0
100
AcDbSymbolTable
 70
     0
  0
ENDTAB
  0
TABLE
  2
APPID
  5
9
330
0
100
AcDbSymbolTable
 70
     1
  0
APPID
  5
12
330
9
100
AcDbSymbolTableRecord
100
AcDbRegAppTableRecord
  2
ACAD
 70
     0
  0
ENDTAB
  0
TABLE
  2
DIMSTYLE
  5
A
330
0
100
AcDbSymbolTable
 70
     4
100
AcDbDimStyleTable
  0
DIMSTYLE
105
27
330
A
100
AcDbSymbolTableRecord
100
AcDbDimStyleTableRecord
  2
Standard
 70
     0
178
     0
340
11
  0
DIMSTYLE
105
1A9
102
{ACAD_REACTORS
330
1A8
330
1BD
330
1D2
330
576
102
}
330
A
100
AcDbSymbolTableRecord
100
AcDbDimStyleTableRecord
  2
SLDDIMSTYLE0
 70
     0
 41
0.39
 44
0.0
 45
0.000000001
 78
    12
 79
     3
140
0.375
147
0.09375
148
0.000000001
170
     1
172
     1
173
     1
178
     0
271
     6
272
     0
276
     2
277
     5
284
    12
289
     0
340
6D
  0
DIMSTYLE
105
4A9
102
{ACAD_REACTORS
330
4A8
330
4BD
102
}
330
A
100
AcDbSymbolTableRecord
100
AcDbDimStyleTableRecord
  2
SLDDIMSTYLE1
 70
     0
 41
0.39
 44
0.0
 45
0.000000001
 78
    12
 79
     3
140
0.375
147
0.09375
148
0.000000001
170
     1
173
     1
178
     0
271
     6
272
     0
276
     2
277
     5
284
    12
340
6D
  0
DIMSTYLE
105
54E
102
{ACAD_REACTORS
330
54D
330
562
102
}
330
A
100
AcDbSymbolTableRecord
100
AcDbDimStyleTableRecord
  2
SLDDIMSTYLE2
 70
     0
 41
0.39
 44
0.0
 45
0.000000001
 78
    12
 79
     3
140
0.375
147
0.09375
148
0.000000001
170
     1
173
     1
178
     0
271
     0
272
     0
276
     2
277
     5
284
    12
340
6D
  0
ENDTAB
  0
TABLE
  2
BLOCK_RECORD
  5
1
330
0
100
AcDbSymbolTable
 70
     9
  0
BLOCK_RECORD
  5
1F
330
1
100
AcDbSymbolTableRecord
100
AcDbBlockTableRecord
  2
*Model_Space
340
22
  0
BLOCK_RECORD
  5
1B
330
1
100
AcDbSymbolTableRecord
100
AcDbBlockTableRecord
  2
*Paper_Space
340
1E
  0
BLOCK_RECORD
  5
23
330
1
100
AcDbSymbolTableRecord
100
AcDbBlockTableRecord
  2
*Paper_Space0
340
26
  0
BLOCK_RECORD
  5
1AA
330
1
100
AcDbSymbolTableRecord
100
AcDbBlockTableRecord
  2
_D
340
0
  0
BLOCK_RECORD
  5
1BE
330
1
100
AcDbSymbolTableRecord
100
AcDbBlockTableRecord
  2
_D_1
340
0
  0
BLOCK_RECORD
  5
1D3
330
1
100
AcDbSymbolTableRecord
100
AcDbBlockTableRecord
  2
_D_2
340
0
  0
BLOCK_RECORD
  5
4AA
330
1
100
AcDbSymbolTableRecord
100
AcDbBlockTableRecord
  2
_D_3
340
0
  0
BLOCK_RECORD
  5
4BE
330
1
100
AcDbSymbolTableRecord
100
AcDbBlockTableRecord
  2
_D_4
340
0
  0
BLOCK_RECORD
  5
54F
330
1
100
AcDbSymbolTableRecord
100
AcDbBlockTableRecord
  2
_D_5
340
0
  0
BLOCK_RECORD
  5
563
330
1
100
AcDbSymbolTableRecord
100
AcDbBlockTableRecord
  2
_D_6
340
0
  0
BLOCK_RECORD
  5
577
330
1
100
AcDbSymbolTableRecord
100
AcDbBlockTableRecord
  2
_D_7
340
0
  0
ENDTAB
  0
ENDSEC
  0
SECTION
  2
BLOCKS
  0
BLOCK
  5
20
330
1F
100
AcDbEntity
  8
0
100
AcDbBlockBegin
  2
*Model_Space
 70
     0
 10
0.0
 20
0.0
 30
0.0
  3
*Model_Space
  1

  0
ENDBLK
  5
21
330
1F
100
AcDbEntity
  8
0
100
AcDbBlockEnd
  0
BLOCK
  5
1C
330
1B
100
AcDbEntity
 67
     1
  8
0
100
AcDbBlockBegin
  2
*Paper_Space
 70
     0
 10
0.0
 20
0.0
 30
0.0
  3
*Paper_Space
  1

  0
ENDBLK
  5
1D
330
1B
100
AcDbEntity
 67
     1
  8
0
100
AcDbBlockEnd
  0
BLOCK
  5
24
330
23
100
AcDbEntity
  8
0
100
AcDbBlockBegin
  2
*Paper_Space0
 70
     0
 10
0.0
 20
0.0
 30
0.0
  3
*Paper_Space0
  1

  0
ENDBLK
  5
25
330
23
100
AcDbEntity
  8
0
100
AcDbBlockEnd
  0
BLOCK
  5
1AB
330
1AA
100
AcDbEntity
  8
0
100
AcDbBlockBegin
  2
_D
 70
     0
 10
0.0
 20
0.0
 30
0.0
  3
_D
  1

  0
SOLID
  5
1AD
330
1AA
100
AcDbEntity
  8
SLD-0
100
AcDbTrace
 10
13.5621675017
 20
7.7820281578
 30
0.0
 11
13.5021675017
 21
7.3920281578
 31
0.0
 12
13.6221675017
 22
7.3920281578
 32
0.0
 13
13.6221675017
 23
7.3920281578
 33
0.0
  0
SOLID
  5
1AE
330
1AA
100
AcDbEntity
  8
SLD-0
100
AcDbTrace
 10
13.5621675017
 20
10.1016781578
 30
0.0
 11
13.6221675017
 21
10.4916781578
 31
0.0
 12
13.5021675017
 22
10.4916781578
 32
0.0
 13
13.5021675017
 23
10.4916781578
 33
0.0
  0
LINE
  5
1AF
330
1AA
100
AcDbEntity
  8
SLD-0
100
AcDbLine
 10
12.8163342077
 20
8.9389885159
 30
0.0
 11
12.7020763963
 21
8.9389885159
 31
0.0
  0
LINE
  5
1B0
330
1AA
100
AcDbEntity
  8
SLD-0
100
AcDbLine
 10
12.7020763963
 20
8.9389885159
 30
0.0
 11
12.7020763963
 21
8.343675998
 31
0.0
  0
LINE
  5
1B1
330
1AA
100
AcDbEntity
  8
SLD-0
100
AcDbLine
 10
12.7020763963
 20
8.343675998
 30
0.0
 11
12.8163342077
 21
8.343675998
 31
0.0
  0
LINE
  5
1B2
330
1AA
100
AcDbEntity
  8
SLD-0
100
AcDbLine
 10
14.3080009058
 20
8.9389885159
 30
0.0
 11
14.4222587171
 21
8.9389885159
 31
0.0
  0
LINE
  5
1B3
330
1AA
100
AcDbEntity
  8
SLD-0
100
AcDbLine
 10
14.4222587171
 20
8.9389885159
 30
0.0
 11
14.4222587171
 21
8.343675998
 31
0.0
  0
LINE
  5
1B4
330
1AA
100
AcDbEntity
  8
SLD-0
100
AcDbLine
 10
14.4222587171
 20
8.343675998
 30
0.0
 11
14.3080009058
 21
8.343675998
 31
0.0
  0
LINE
  5
1B5
330
1AA
100
AcDbEntity
  8
SLD-0
100
AcDbLine
 10
10.3454650965
 20
7.7820281578
 30
0.0
 11
13.9371675017
 21
7.7820281578
 31
0.0
  0
LINE
  5
1B6
330
1AA
100
AcDbEntity
  8
SLD-0
100
AcDbLine
 10
10.6879650965
 20
10.1016781578
 30
0.0
 11
13.9371675017
 21
10.1016781578
 31
0.0
  0
LINE
  5
1B7
330
1AA
100
AcDbEntity
  8
SLD-0
100
AcDbLine
 10
13.5621675017
 20
7.7820281578
 30
0.0
 11
13.5621675017
 21
7.0320281578
 31
0.0
  0
LINE
  5
1B8
330
1AA
100
AcDbEntity
  8
SLD-0
100
AcDbLine
 10
13.5621675017
 20
10.1016781578
 30
0.0
 11
13.5621675017
 21
10.8516781578
 31
0.0
  0
MTEXT
  5
1B9
330
1AA
100
AcDbEntity
  8
SLD-0
100
AcDbMText
 10
12.5899019179
 20
9.5042899985
 30
0.0
 40
0.375
 41
0.0
 71
     1
 72
     1
  1

  7
SLDTEXTSTYLE0
 73
     1
 44
1.0
  0
MTEXT
  5
1BA
330
1AA
100
AcDbEntity
  8
SLD-0
100
AcDbMText
 10
12.7520112682
 20
9.498560804
 30
0.0
 40
0.375
 41
0.0
 71
     1
 72
     1
  1
2 5/16"
  7
SLDTEXTSTYLE0
 73
     1
 44
1.0
  0
MTEXT
  5
1BB
330
1AA
100
AcDbEntity
  8
SLD-0
100
AcDbMText
 10
12.8163342077
 20
8.8270764417
 30
0.0
 40
0.375
 41
0.0
 71
     1
 72
     1
  1
59mm
  7
SLDTEXTSTYLE0
 73
     1
 44
1.0
  0
MTEXT
  5
1BC
330
1AA
100
AcDbEntity
  8
SLD-0
100
AcDbMText
 10
14.677141446
 20
9.5042899985
 30
0.0
 40
0.375
 41
0.0
 71
     1
 72
     1
  1

  7
SLDTEXTSTYLE0
 73
     1
 44
1.0
  0
ENDBLK
  5
1AC
330
1AA
100
AcDbEntity
  8
0
100
AcDbBlockEnd
  0
BLOCK
  5
1BF
330
1BE
100
AcDbEntity
  8
0
100
AcDbBlockBegin
  2
_D_1
 70
     0
 10
0.0
 20
0.0
 30
0.0
  3
_D_1
  1

  0
SOLID
  5
1C1
330
1BE
100
AcDbEntity
  8
SLD-0
100
AcDbTrace
 10
12.1448446671
 20
7.6570281578
 30
0.0
 11
12.0848446671
 21
7.2670281578
 31
0.0
 12
12.2048446671
 22
7.2670281578
 32
0.0
 13
12.2048446671
 23
7.2670281578
 33
0.0
  0
SOLID
  5
1C2
330
1BE
100
AcDbEntity
  8
SLD-0
100
AcDbTrace
 10
12.1448446671
 20
7.7820281578
 30
0.0
 11
12.2048446671
 21
8.1720281578
 31
0.0
 12
12.0848446671
 22
8.1720281578
 32
0.0
 13
12.0848446671
 23
8.1720281578
 33
0.0
  0
LINE
  5
1C3
330
1BE
100
AcDbEntity
  8
SLD-0
100
AcDbLine
 10
13.4768606345
 20
6.2298146011
 30
0.0
 11
13.3626028232
 21
6.2298146011
 31
0.0
  0
LINE
  5
1C4
330
1BE
100
AcDbEntity
  8
SLD-0
100
AcDbLine
 10
13.3626028232
 20
6.2298146011
 30
0.0
 11
13.3626028232
 21
5.6345020832
 31
0.0
  0
LINE
  5
1C5
330
1BE
100
AcDbEntity
  8
SLD-0
100
AcDbLine
 10
13.3626028232
 20
5.6345020832
 30
0.0
 11
13.4768606345
 21
5.6345020832
 31
0.0
  0
LINE
  5
1C6
330
1BE
100
AcDbEntity
  8
SLD-0
100
AcDbLine
 10
14.6914439435
 20
6.2298146011
 30
0.0
 11
14.8057017549
 21
6.2298146011
 31
0.0
  0
LINE
  5
1C7
330
1BE
100
AcDbEntity
  8
SLD-0
100
AcDbLine
 10
14.8057017549
 20
6.2298146011
 30
0.0
 11
14.8057017549
 21
5.6345020832
 31
0.0
  0
LINE
  5
1C8
330
1BE
100
AcDbEntity
  8
SLD-0
100
AcDbLine
 10
14.8057017549
 20
5.6345020832
 30
0.0
 11
14.6914439435
 21
5.6345020832
 31
0.0
  0
LINE
  5
1C9
330
1BE
100
AcDbEntity
  8
SLD-0
100
AcDbLine
 10
10.3754650965
 20
7.6570281578
 30
0.0
 11
12.5198446671
 21
7.6570281578
 31
0.0
  0
LINE
  5
1CA
330
1BE
100
AcDbEntity
  8
SLD-0
100
AcDbLine
 10
10.3454650965
 20
7.7820281578
 30
0.0
 11
12.5198446671
 21
7.7820281578
 31
0.0
  0
LINE
  5
1CB
330
1BE
100
AcDbEntity
  8
SLD-0
100
AcDbLine
 10
12.8948446671
 20
6.232679243
 30
0.0
 11
12.1448446671
 21
6.232679243
 31
0.0
  0
LINE
  5
1CC
330
1BE
100
AcDbEntity
  8
SLD-0
100
AcDbLine
 10
12.1448446671
 20
6.232679243
 30
0.0
 11
12.1448446671
 21
7.6570281578
 31
0.0
  0
LINE
  5
1CD
330
1BE
100
AcDbEntity
  8
SLD-0
100
AcDbLine
 10
12.1448446671
 20
7.7820281578
 30
0.0
 11
12.1448446671
 21
8.5320281578
 31
0.0
  0
MTEXT
  5
1CE
330
1BE
100
AcDbEntity
  8
SLD-0
100
AcDbMText
 10
13.2504283448
 20
6.7951160836
 30
0.0
 40
0.375
 41
0.0
 71
     1
 72
     1
  1

  7
SLDTEXTSTYLE0
 73
     1
 44
1.0
  0
MTEXT
  5
1CF
330
1BE
100
AcDbEntity
  8
SLD-0
100
AcDbMText
 10
13.6203501544
 20
6.7893868892
 30
0.0
 40
0.375
 41
0.0
 71
     1
 72
     1
  1
1/8"
  7
SLDTEXTSTYLE0
 73
     1
 44
1.0
  0
MTEXT
  5
1D0
330
1BE
100
AcDbEntity
  8
SLD-0
100
AcDbMText
 10
13.4768606345
 20
6.1179025268
 30
0.0
 40
0.375
 41
0.0
 71
     1
 72
     1
  1
3mm
  7
SLDTEXTSTYLE0
 73
     1
 44
1.0
  0
MTEXT
  5
1D1
330
1BE
100
AcDbEntity
  8
SLD-0
100
AcDbMText
 10
15.0605844837
 20
6.7951160836
 30
0.0
 40
0.375
 41
0.0
 71
     1
 72
     1
  1

  7
SLDTEXTSTYLE0
 73
     1
 44
1.0
  0
ENDBLK
  5
1C0
330
1BE
100
AcDbEntity
  8
0
100
AcDbBlockEnd
  0
BLOCK
  5
1D4
330
1D3
100
AcDbEntity
  8
0
100
AcDbBlockBegin
  2
_D_2
 70
     0
 10
0.0
 20
0.0
 30
0.0
  3
_D_2
  1

  0
SOLID
  5
1D6
330
1D3
100
AcDbEntity
  8
SLD-0
100
AcDbTrace
 10
3.306085526
 20
7.6570281578
 30
0.0
 11
3.366085526
 21
8.0470281578
 31
0.0
 12
3.246085526
 22
8.0470281578
 32
0.0
 13
3.246085526
 23
8.0470281578
 33
0.0
  0
SOLID
  5
1D7
330
1D3
100
AcDbEntity
  8
SLD-0
100
AcDbTrace
 10
3.306085526
 20
7.2820281578
 30
0.0
 11
3.246085526
 21
6.8920281578
 31
0.0
 12
3.366085526
 22
6.8920281578
 32
0.0
 13
3.366085526
 23
6.8920281578
 33
0.0
  0
LINE
  5
1D8
330
1D3
100
AcDbEntity
  8
SLD-0
100
AcDbLine
 10
4.6381014934
 20
5.8548146011
 30
0.0
 11
4.523843682
 21
5.8548146011
 31
0.0
  0
LINE
  5
1D9
330
1D3
100
AcDbEntity
  8
SLD-0
100
AcDbLine
 10
4.523843682
 20
5.8548146011
 30
0.0
 11
4.523843682
 21
5.2595020832
 31
0.0
  0
LINE
  5
1DA
330
1D3
100
AcDbEntity
  8
SLD-0
100
AcDbLine
 10
4.523843682
 20
5.2595020832
 30
0.0
 11
4.6381014934
 21
5.2595020832
 31
0.0
  0
LINE
  5
1DB
330
1D3
100
AcDbEntity
  8
SLD-0
100
AcDbLine
 10
6.1297681915
 20
5.8548146011
 30
0.0
 11
6.2440260028
 21
5.8548146011
 31
0.0
  0
LINE
  5
1DC
330
1D3
100
AcDbEntity
  8
SLD-0
100
AcDbLine
 10
6.2440260028
 20
5.8548146011
 30
0.0
 11
6.2440260028
 21
5.2595020832
 31
0.0
  0
LINE
  5
1DD
330
1D3
100
AcDbEntity
  8
SLD-0
100
AcDbLine
 10
6.2440260028
 20
5.2595020832
 30
0.0
 11
6.1297681915
 21
5.2595020832
 31
0.0
  0
LINE
  5
1DE
330
1D3
100
AcDbEntity
  8
SLD-0
100
AcDbLine
 10
5.0754650965
 20
7.6570281578
 30
0.0
 11
2.931085526
 21
7.6570281578
 31
0.0
  0
LINE
  5
1DF
330
1D3
100
AcDbEntity
  8
SLD-0
100
AcDbLine
 10
5.2604650965
 20
7.2820281578
 30
0.0
 11
2.931085526
 21
7.2820281578
 31
0.0
  0
LINE
  5
1E0
330
1D3
100
AcDbEntity
  8
SLD-0
100
AcDbLine
 10
4.056085526
 20
5.857679243
 30
0.0
 11
3.306085526
 21
5.857679243
 31
0.0
  0
LINE
  5
1E1
330
1D3
100
AcDbEntity
  8
SLD-0
100
AcDbLine
 10
3.306085526
 20
5.857679243
 30
0.0
 11
3.306085526
 21
7.2820281578
 31
0.0
  0
LINE
  5
1E2
330
1D3
100
AcDbEntity
  8
SLD-0
100
AcDbLine
 10
3.306085526
 20
7.6570281578
 30
0.0
 11
3.306085526
 21
8.4070281578
 31
0.0
  0
MTEXT
  5
1E3
330
1D3
100
AcDbEntity
  8
SLD-0
100
AcDbMText
 10
4.4116692037
 20
6.4201160836
 30
0.0
 40
0.375
 41
0.0
 71
     1
 72
     1
  1

  7
SLDTEXTSTYLE0
 73
     1
 44
1.0
  0
MTEXT
  5
1E4
330
1D3
100
AcDbEntity
  8
SLD-0
100
AcDbMText
 10
4.9201327078
 20
6.4143868892
 30
0.0
 40
0.375
 41
0.0
 71
     1
 72
     1
  1
3/8"
  7
SLDTEXTSTYLE0
 73
     1
 44
1.0
  0
MTEXT
  5
1E5
330
1D3
100
AcDbEntity
  8
SLD-0
100
AcDbMText
 10
4.6381014934
 20
5.7429025268
 30
0.0
 40
0.375
 41
0.0
 71
     1
 72
     1
  1
10mm
  7
SLDTEXTSTYLE0
 73
     1
 44
1.0
  0
MTEXT
  5
1E6
330
1D3
100
AcDbEntity
  8
SLD-0
100
AcDbMText
 10
6.4989087317
 20
6.4201160836
 30
0.0
 40
0.375
 41
0.0
 71
     1
 72
     1
  1

  7
SLDTEXTSTYLE0
 73
     1
 44
1.0
  0
ENDBLK
  5
1D5
330
1D3
100
AcDbEntity
  8
0
100
AcDbBlockEnd
  0
BLOCK
  5
4AB
330
4AA
100
AcDbEntity
  8
0
100
AcDbBlockBegin
  2
_D_3
 70
     0
 10
0.0
 20
0.0
 30
0.0
  3
_D_3
  1

  0
SOLID
  5
4AD
330
4AA
100
AcDbEntity
  8
SLD-0
100
AcDbTrace
 10
3.306085526
 20
19.832749312
 30
0.0
 11
3.246085526
 21
19.442749312
 31
0.0
 12
3.366085526
 22
19.442749312
 32
0.0
 13
3.366085526
 23
19.442749312
 33
0.0
  0
SOLID
  5
4AE
330
4AA
100
AcDbEntity
  8
SLD-0
100
AcDbTrace
 10
3.306085526
 20
16.4964810702
 30
0.0
 11
3.366085526
 21
16.8864810702
 31
0.0
 12
3.246085526
 22
16.8864810702
 32
0.0
 13
3.246085526
 23
16.8864810702
 33
0.0
  0
LINE
  5
4AF
330
4AA
100
AcDbEntity
  8
SLD-0
100
AcDbLine
 10
2.5602522319
 20
18.1617505492
 30
0.0
 11
2.4459944206
 21
18.1617505492
 31
0.0
  0
LINE
  5
4B0
330
4AA
100
AcDbEntity
  8
SLD-0
100
AcDbLine
 10
2.4459944206
 20
18.1617505492
 30
0.0
 11
2.4459944206
 21
17.5664380313
 31
0.0
  0
LINE
  5
4B1
330
4AA
100
AcDbEntity
  8
SLD-0
100
AcDbLine
 10
2.4459944206
 20
17.5664380313
 30
0.0
 11
2.5602522319
 21
17.5664380313
 31
0.0
  0
LINE
  5
4B2
330
4AA
100
AcDbEntity
  8
SLD-0
100
AcDbLine
 10
4.05191893
 20
18.1617505492
 30
0.0
 11
4.1661767414
 21
18.1617505492
 31
0.0
  0
LINE
  5
4B3
330
4AA
100
AcDbEntity
  8
SLD-0
100
AcDbLine
 10
4.1661767414
 20
18.1617505492
 30
0.0
 11
4.1661767414
 21
17.5664380313
 31
0.0
  0
LINE
  5
4B4
330
4AA
100
AcDbEntity
  8
SLD-0
100
AcDbLine
 10
4.1661767414
 20
17.5664380313
 30
0.0
 11
4.05191893
 21
17.5664380313
 31
0.0
  0
LINE
  5
4B5
330
4AA
100
AcDbEntity
  8
SLD-0
100
AcDbLine
 10
4.7317150965
 20
19.832749312
 30
0.0
 11
2.931085526
 21
19.832749312
 31
0.0
  0
LINE
  5
4B6
330
4AA
100
AcDbEntity
  8
SLD-0
100
AcDbLine
 10
4.7317150965
 20
16.4964810702
 30
0.0
 11
2.931085526
 21
16.4964810702
 31
0.0
  0
LINE
  5
4B7
330
4AA
100
AcDbEntity
  8
SLD-0
100
AcDbLine
 10
3.306085526
 20
19.832749312
 30
0.0
 11
3.306085526
 21
18.838964106
 31
0.0
  0
LINE
  5
4B8
330
4AA
100
AcDbEntity
  8
SLD-0
100
AcDbLine
 10
3.306085526
 20
16.4964810702
 30
0.0
 11
3.306085526
 21
17.4902662762
 31
0.0
  0
MTEXT
  5
4B9
330
4AA
100
AcDbEntity
  8
SLD-0
100
AcDbMText
 10
2.3338199422
 20
18.7270520317
 30
0.0
 40
0.375
 41
0.0
 71
     1
 72
     1
  1

  7
SLDTEXTSTYLE0
 73
     1
 44
1.0
  0
MTEXT
  5
4BA
330
4AA
100
AcDbEntity
  8
SLD-0
100
AcDbMText
 10
2.4959292925
 20
18.7213228373
 30
0.0
 40
0.375
 41
0.0
 71
     1
 72
     1
  1
3 5/16"
  7
SLDTEXTSTYLE0
 73
     1
 44
1.0
  0
MTEXT
  5
4BB
330
4AA
100
AcDbEntity
  8
SLD-0
100
AcDbMText
 10
2.5602522319
 20
18.0498384749
 30
0.0
 40
0.375
 41
0.0
 71
     1
 72
     1
  1
85mm
  7
SLDTEXTSTYLE0
 73
     1
 44
1.0
  0
MTEXT
  5
4BC
330
4AA
100
AcDbEntity
  8
SLD-0
100
AcDbMText
 10
4.4210594702
 20
18.7270520317
 30
0.0
 40
0.375
 41
0.0
 71
     1
 72
     1
  1

  7
SLDTEXTSTYLE0
 73
     1
 44
1.0
  0
ENDBLK
  5
4AC
330
4AA
100
AcDbEntity
  8
0
100
AcDbBlockEnd
  0
BLOCK
  5
4BF
330
4BE
100
AcDbEntity
  8
0
100
AcDbBlockBegin
  2
_D_4
 70
     0
 10
0.0
 20
0.0
 30
0.0
  3
_D_4
  1

  0
SOLID
  5
4C1
330
4BE
100
AcDbEntity
  8
SLD-0
100
AcDbTrace
 10
4.5067150965
 20
21.028201022
 30
0.0
 11
4.8967150965
 21
20.968201022
 31
0.0
 12
4.8967150965
 22
21.088201022
 32
0.0
 13
4.8967150965
 23
21.088201022
 33
0.0
  0
SOLID
  5
4C2
330
4BE
100
AcDbEntity
  8
SLD-0
100
AcDbTrace
 10
10.9442150965
 20
21.028201022
 30
0.0
 11
10.5542150965
 21
21.088201022
 31
0.0
 12
10.5542150965
 22
20.968201022
 32
0.0
 13
10.5542150965
 23
20.968201022
 33
0.0
  0
LINE
  5
4C3
330
4BE
100
AcDbEntity
  8
SLD-0
100
AcDbLine
 10
6.8410901629
 20
21.0253363801
 30
0.0
 11
6.7268323516
 21
21.0253363801
 31
0.0
  0
LINE
  5
4C4
330
4BE
100
AcDbEntity
  8
SLD-0
100
AcDbLine
 10
6.7268323516
 20
21.0253363801
 30
0.0
 11
6.7268323516
 21
20.4300238622
 31
0.0
  0
LINE
  5
4C5
330
4BE
100
AcDbEntity
  8
SLD-0
100
AcDbLine
 10
6.7268323516
 20
20.4300238622
 30
0.0
 11
6.8410901629
 21
20.4300238622
 31
0.0
  0
LINE
  5
4C6
330
4BE
100
AcDbEntity
  8
SLD-0
100
AcDbLine
 10
8.6098401402
 20
21.0253363801
 30
0.0
 11
8.7240979515
 21
21.0253363801
 31
0.0
  0
LINE
  5
4C7
330
4BE
100
AcDbEntity
  8
SLD-0
100
AcDbLine
 10
8.7240979515
 20
21.0253363801
 30
0.0
 11
8.7240979515
 21
20.4300238622
 31
0.0
  0
LINE
  5
4C8
330
4BE
100
AcDbEntity
  8
SLD-0
100
AcDbLine
 10
8.7240979515
 20
20.4300238622
 30
0.0
 11
8.6098401402
 21
20.4300238622
 31
0.0
  0
LINE
  5
4C9
330
4BE
100
AcDbEntity
  8
SLD-0
100
AcDbLine
 10
4.5067150965
 20
19.6900766178
 30
0.0
 11
4.5067150965
 21
21.403201022
 31
0.0
  0
LINE
  5
4CA
330
4BE
100
AcDbEntity
  8
SLD-0
100
AcDbLine
 10
10.9442150965
 20
19.6900766178
 30
0.0
 11
10.9442150965
 21
21.403201022
 31
0.0
  0
LINE
  5
4CB
330
4BE
100
AcDbEntity
  8
SLD-0
100
AcDbLine
 10
4.5067150965
 20
21.028201022
 30
0.0
 11
6.4023799806
 21
21.028201022
 31
0.0
  0
LINE
  5
4CC
330
4BE
100
AcDbEntity
  8
SLD-0
100
AcDbLine
 10
10.9442150965
 20
21.028201022
 30
0.0
 11
9.0485502124
 21
21.028201022
 31
0.0
  0
MTEXT
  5
4CD
330
4BE
100
AcDbEntity
  8
SLD-0
100
AcDbMText
 10
6.6146578732
 20
21.5906378627
 30
0.0
 40
0.375
 41
0.0
 71
     1
 72
     1
  1

  7
SLDTEXTSTYLE0
 73
     1
 44
1.0
  0
MTEXT
  5
4CE
330
4BE
100
AcDbEntity
  8
SLD-0
100
AcDbMText
 10
6.915308863
 20
21.5849086682
 30
0.0
 40
0.375
 41
0.0
 71
     1
 72
     1
  1
6 7/16"
  7
SLDTEXTSTYLE0
 73
     1
 44
1.0
  0
MTEXT
  5
4CF
330
4BE
100
AcDbEntity
  8
SLD-0
100
AcDbMText
 10
6.8410901629
 20
20.9134243059
 30
0.0
 40
0.375
 41
0.0
 71
     1
 72
     1
  1
164mm
  7
SLDTEXTSTYLE0
 73
     1
 44
1.0
  0
MTEXT
  5
4D0
330
4BE
100
AcDbEntity
  8
SLD-0
100
AcDbMText
 10
8.9789806803
 20
21.5906378627
 30
0.0
 40
0.375
 41
0.0
 71
     1
 72
     1
  1

  7
SLDTEXTSTYLE0
 73
     1
 44
1.0
  0
ENDBLK
  5
4C0
330
4BE
100
AcDbEntity
  8
0
100
AcDbBlockEnd
  0
BLOCK
  5
550
330
54F
100
AcDbEntity
  8
0
100
AcDbBlockBegin
  2
_D_5
 70
     0
 10
0.0
 20
0.0
 30
0.0
  3
_D_5
  1

  0
SOLID
  5
552
330
54F
100
AcDbEntity
  8
SLD-0
100
AcDbTrace
 10
24.6414949242
 20
10.4165702479
 30
0.0
 11
24.5814949242
 21
10.0265702479
 31
0.0
 12
24.7014949242
 22
10.0265702479
 32
0.0
 13
24.7014949242
 23
10.0265702479
 33
0.0
  0
SOLID
  5
553
330
54F
100
AcDbEntity
  8
SLD-0
100
AcDbTrace
 10
24.6414949242
 20
7.4165702479
 30
0.0
 11
24.7014949242
 21
7.8065702479
 31
0.0
 12
24.5814949242
 22
7.8065702479
 32
0.0
 13
24.5814949242
 23
7.8065702479
 33
0.0
  0
LINE
  5
554
330
54F
100
AcDbEntity
  8
SLD-0
100
AcDbLine
 10
23.8956616301
 20
8.913705606
 30
0.0
 11
23.7814038188
 21
8.913705606
 31
0.0
  0
LINE
  5
555
330
54F
100
AcDbEntity
  8
SLD-0
100
AcDbLine
 10
23.7814038188
 20
8.913705606
 30
0.0
 11
23.7814038188
 21
8.3183930881
 31
0.0
  0
LINE
  5
556
330
54F
100
AcDbEntity
  8
SLD-0
100
AcDbLine
 10
23.7814038188
 20
8.3183930881
 30
0.0
 11
23.8956616301
 21
8.3183930881
 31
0.0
  0
LINE
  5
557
330
54F
100
AcDbEntity
  8
SLD-0
100
AcDbLine
 10
25.3873283283
 20
8.913705606
 30
0.0
 11
25.5015861396
 21
8.913705606
 31
0.0
  0
LINE
  5
558
330
54F
100
AcDbEntity
  8
SLD-0
100
AcDbLine
 10
25.5015861396
 20
8.913705606
 30
0.0
 11
25.5015861396
 21
8.3183930881
 31
0.0
  0
LINE
  5
559
330
54F
100
AcDbEntity
  8
SLD-0
100
AcDbLine
 10
25.5015861396
 20
8.3183930881
 30
0.0
 11
25.3873283283
 21
8.3183930881
 31
0.0
  0
LINE
  5
55A
330
54F
100
AcDbEntity
  8
SLD-0
100
AcDbLine
 10
23.610392562
 20
10.4165702479
 30
0.0
 11
25.0164949242
 21
10.4165702479
 31
0.0
  0
LINE
  5
55B
330
54F
100
AcDbEntity
  8
SLD-0
100
AcDbLine
 10
23.610392562
 20
7.4165702479
 30
0.0
 11
25.0164949242
 21
7.4165702479
 31
0.0
  0
LINE
  5
55C
330
54F
100
AcDbEntity
  8
SLD-0
100
AcDbLine
 10
24.6414949242
 20
10.4165702479
 30
0.0
 11
24.6414949242
 21
9.5909191628
 31
0.0
  0
LINE
  5
55D
330
54F
100
AcDbEntity
  8
SLD-0
100
AcDbLine
 10
24.6414949242
 20
7.4165702479
 30
0.0
 11
24.6414949242
 21
8.2422213331
 31
0.0
  0
MTEXT
  5
55E
330
54F
100
AcDbEntity
  8
SLD-0
100
AcDbMText
 10
23.6692293404
 20
9.4790070886
 30
0.0
 40
0.375
 41
0.0
 71
     1
 72
     1
  1

  7
SLDTEXTSTYLE0
 73
     1
 44
1.0
  0
MTEXT
  5
55F
330
54F
100
AcDbEntity
  8
SLD-0
100
AcDbMText
 10
24.4256095344
 20
9.4732778941
 30
0.0
 40
0.375
 41
0.0
 71
     1
 72
     1
  1
3"
  7
SLDTEXTSTYLE0
 73
     1
 44
1.0
  0
MTEXT
  5
560
330
54F
100
AcDbEntity
  8
SLD-0
100
AcDbMText
 10
23.8956616301
 20
8.8017935318
 30
0.0
 40
0.375
 41
0.0
 71
     1
 72
     1
  1
76mm
  7
SLDTEXTSTYLE0
 73
     1
 44
1.0
  0
MTEXT
  5
561
330
54F
100
AcDbEntity
  8
SLD-0
100
AcDbMText
 10
25.7564688684
 20
9.4790070886
 30
0.0
 40
0.375
 41
0.0
 71
     1
 72
     1
  1

  7
SLDTEXTSTYLE0
 73
     1
 44
1.0
  0
ENDBLK
  5
551
330
54F
100
AcDbEntity
  8
0
100
AcDbBlockEnd
  0
BLOCK
  5
564
330
563
100
AcDbEntity
  8
0
100
AcDbBlockBegin
  2
_D_6
 70
     0
 10
0.0
 20
0.0
 30
0.0
  3
_D_6
  1

  0
SOLID
  5
566
330
563
100
AcDbEntity
  8
SLD-0
100
AcDbTrace
 10
23.460392562
 20
13.0149954448
 30
0.0
 11
23.070392562
 21
13.0749954448
 31
0.0
 12
23.070392562
 22
12.9549954448
 32
0.0
 13
23.070392562
 23
12.9549954448
 33
0.0
  0
SOLID
  5
567
330
563
100
AcDbEntity
  8
SLD-0
100
AcDbTrace
 10
18.460392562
 20
13.0149954448
 30
0.0
 11
18.850392562
 21
12.9549954448
 31
0.0
 12
18.850392562
 22
13.0749954448
 32
0.0
 13
18.850392562
 23
13.0749954448
 33
0.0
  0
LINE
  5
568
330
563
100
AcDbEntity
  8
SLD-0
100
AcDbLine
 10
20.0760176284
 20
13.0121308029
 30
0.0
 11
19.961759817
 21
13.0121308029
 31
0.0
  0
LINE
  5
569
330
563
100
AcDbEntity
  8
SLD-0
100
AcDbLine
 10
19.961759817
 20
13.0121308029
 30
0.0
 11
19.961759817
 21
12.416818285
 31
0.0
  0
LINE
  5
56A
330
563
100
AcDbEntity
  8
SLD-0
100
AcDbLine
 10
19.961759817
 20
12.416818285
 30
0.0
 11
20.0760176284
 21
12.416818285
 31
0.0
  0
LINE
  5
56B
330
563
100
AcDbEntity
  8
SLD-0
100
AcDbLine
 10
21.8447676056
 20
13.0121308029
 30
0.0
 11
21.9590254169
 21
13.0121308029
 31
0.0
  0
LINE
  5
56C
330
563
100
AcDbEntity
  8
SLD-0
100
AcDbLine
 10
21.9590254169
 20
13.0121308029
 30
0.0
 11
21.9590254169
 21
12.416818285
 31
0.0
  0
LINE
  5
56D
330
563
100
AcDbEntity
  8
SLD-0
100
AcDbLine
 10
21.9590254169
 20
12.416818285
 30
0.0
 11
21.8447676056
 21
12.416818285
 31
0.0
  0
LINE
  5
56E
330
563
100
AcDbEntity
  8
SLD-0
100
AcDbLine
 10
23.460392562
 20
10.5665702479
 30
0.0
 11
23.460392562
 21
13.3899954448
 31
0.0
  0
LINE
  5
56F
330
563
100
AcDbEntity
  8
SLD-0
100
AcDbLine
 10
18.460392562
 20
10.5665702479
 30
0.0
 11
18.460392562
 21
13.3899954448
 31
0.0
  0
LINE
  5
570
330
563
100
AcDbEntity
  8
SLD-0
100
AcDbLine
 10
23.460392562
 20
13.0149954448
 30
0.0
 11
22.2834776779
 21
13.0149954448
 31
0.0
  0
LINE
  5
571
330
563
100
AcDbEntity
  8
SLD-0
100
AcDbLine
 10
18.460392562
 20
13.0149954448
 30
0.0
 11
19.6373074461
 21
13.0149954448
 31
0.0
  0
MTEXT
  5
572
330
563
100
AcDbEntity
  8
SLD-0
100
AcDbMText
 10
19.8495853386
 20
13.5774322854
 30
0.0
 40
0.375
 41
0.0
 71
     1
 72
     1
  1

  7
SLDTEXTSTYLE0
 73
     1
 44
1.0
  0
MTEXT
  5
573
330
563
100
AcDbEntity
  8
SLD-0
100
AcDbMText
 10
20.7445071722
 20
13.571703091
 30
0.0
 40
0.375
 41
0.0
 71
     1
 72
     1
  1
5"
  7
SLDTEXTSTYLE0
 73
     1
 44
1.0
  0
MTEXT
  5
574
330
563
100
AcDbEntity
  8
SLD-0
100
AcDbMText
 10
20.0760176284
 20
12.9002187286
 30
0.0
 40
0.375
 41
0.0
 71
     1
 72
     1
  1
127mm
  7
SLDTEXTSTYLE0
 73
     1
 44
1.0
  0
MTEXT
  5
575
330
563
100
AcDbEntity
  8
SLD-0
100
AcDbMText
 10
22.2139081458
 20
13.5774322854
 30
0.0
 40
0.375
 41
0.0
 71
     1
 72
     1
  1

  7
SLDTEXTSTYLE0
 73
     1
 44
1.0
  0
ENDBLK
  5
565
330
563
100
AcDbEntity
  8
0
100
AcDbBlockEnd
  0
BLOCK
  5
578
330
577
100
AcDbEntity
  8
0
100
AcDbBlockBegin
  2
_D_7
 70
     0
 10
0.0
 20
0.0
 30
0.0
  3
_D_7
  1

  0
SOLID
  5
57A
330
577
100
AcDbEntity
  8
SLD-0
100
AcDbTrace
 10
19.319767562
 20
11.5976726101
 30
0.0
 11
18.929767562
 21
11.6576726101
 31
0.0
 12
18.929767562
 22
11.5376726101
 32
0.0
 13
18.929767562
 23
11.5376726101
 33
0.0
  0
SOLID
  5
57B
330
577
100
AcDbEntity
  8
SLD-0
100
AcDbTrace
 10
22.601017562
 20
11.5976726101
 30
0.0
 11
22.991017562
 21
11.5376726101
 31
0.0
 12
22.991017562
 22
11.6576726101
 32
0.0
 13
22.991017562
 23
11.6576726101
 33
0.0
  0
LINE
  5
57C
330
577
100
AcDbEntity
  8
SLD-0
100
AcDbLine
 10
20.2145592679
 20
11.5948079682
 30
0.0
 11
20.1003014566
 21
11.5948079682
 31
0.0
  0
LINE
  5
57D
330
577
100
AcDbEntity
  8
SLD-0
100
AcDbLine
 10
20.1003014566
 20
11.5948079682
 30
0.0
 11
20.1003014566
 21
10.9994954503
 31
0.0
  0
LINE
  5
57E
330
577
100
AcDbEntity
  8
SLD-0
100
AcDbLine
 10
20.1003014566
 20
10.9994954503
 30
0.0
 11
20.2145592679
 21
10.9994954503
 31
0.0
  0
LINE
  5
57F
330
577
100
AcDbEntity
  8
SLD-0
100
AcDbLine
 10
21.7062259661
 20
11.5948079682
 30
0.0
 11
21.8204837774
 21
11.5948079682
 31
0.0
  0
LINE
  5
580
330
577
100
AcDbEntity
  8
SLD-0
100
AcDbLine
 10
21.8204837774
 20
11.5948079682
 30
0.0
 11
21.8204837774
 21
10.9994954503
 31
0.0
  0
LINE
  5
581
330
577
100
AcDbEntity
  8
SLD-0
100
AcDbLine
 10
21.8204837774
 20
10.9994954503
 30
0.0
 11
21.7062259661
 21
10.9994954503
 31
0.0
  0
LINE
  5
582
330
577
100
AcDbEntity
  8
SLD-0
100
AcDbLine
 10
19.319767562
 20
9.0665702479
 30
0.0
 11
19.319767562
 21
11.9726726101
 31
0.0
  0
LINE
  5
583
330
577
100
AcDbEntity
  8
SLD-0
100
AcDbLine
 10
22.601017562
 20
9.0665702479
 30
0.0
 11
22.601017562
 21
11.9726726101
 31
0.0
  0
LINE
  5
584
330
577
100
AcDbEntity
  8
SLD-0
100
AcDbLine
 10
19.319767562
 20
11.5976726101
 30
0.0
 11
18.569767562
 21
11.5976726101
 31
0.0
  0
LINE
  5
585
330
577
100
AcDbEntity
  8
SLD-0
100
AcDbLine
 10
22.601017562
 20
11.5976726101
 30
0.0
 11
23.351017562
 21
11.5976726101
 31
0.0
  0
MTEXT
  5
586
330
577
100
AcDbEntity
  8
SLD-0
100
AcDbMText
 10
19.9881269782
 20
12.1601094508
 30
0.0
 40
0.375
 41
0.0
 71
     1
 72
     1
  1

  7
SLDTEXTSTYLE0
 73
     1
 44
1.0
  0
MTEXT
  5
587
330
577
100
AcDbEntity
  8
SLD-0
100
AcDbMText
 10
20.1502363285
 20
12.1543802563
 30
0.0
 40
0.375
 41
0.0
 71
     1
 72
     1
  1
3 5/16"
  7
SLDTEXTSTYLE0
 73
     1
 44
1.0
  0
MTEXT
  5
588
330
577
100
AcDbEntity
  8
SLD-0
100
AcDbMText
 10
20.2145592679
 20
11.482895894
 30
0.0
 40
0.375
 41
0.0
 71
     1
 72
     1
  1
83mm
  7
SLDTEXTSTYLE0
 73
     1
 44
1.0
  0
MTEXT
  5
589
330
577
100
AcDbEntity
  8
SLD-0
100
AcDbMText
 10
22.0753665062
 20
12.1601094508
 30
0.0
 40
0.375
 41
0.0
 71
     1
 72
     1
  1

  7
SLDTEXTSTYLE0
 73
     1
 44
1.0
  0
ENDBLK
  5
579
330
577
100
AcDbEntity
  8
0
100
AcDbBlockEnd
  0
ENDSEC
  0
SECTION
  2
ENTITIES
  0
MTEXT
  5
6E
330
1F
100
AcDbEntity
  8
SLD-0
100
AcDbMText
 10
26.2627066116
 20
2.5297529888
 30
0.0
 40
0.375
 41
0.0
 71
     1
 72
     1
  1
PM1-CT-TR-RM
  7
SLDTEXTSTYLE0
 73
     1
 44
1.0
  0
LINE
  5
6F
330
1F
100
AcDbEntity
  8
0
  6
Continuous
 62
     7
370
    25
100
AcDbLine
 10
9.2970900965
 20
7.2060775389
 30
0.0
 11
9.2970900965
 21
7.2010881387
 31
0.0
  0
LINE
  5
70
330
1F
100
AcDbEntity
  8
0
  6
Continuous
 62
     7
370
    25
100
AcDbLine
 10
9.4350900965
 20
7.2010881387
 30
0.0
 11
9.4350900965
 21
7.2060775389
 31
0.0
  0
LINE
  5
71
330
1F
100
AcDbEntity
  8
0
  6
Continuous
 62
     7
370
    25
100
AcDbLine
 10
9.4350900965
 20
7.2060775389
 30
0.0
 11
9.4164900965
 21
7.2191013991
 31
0.0
  0
LINE
  5
72
330
1F
100
AcDbEntity
  8
0
  6
Continuous
 62
     7
370
    25
100
AcDbLine
 10
9.3156900965
 20
7.2191013991
 30
0.0
 11
9.2970900965
 21
7.2060775389
 31
0.0
  0
LINE
  5
73
330
1F
100
AcDbEntity
  8
0
  6
Continuous
 62
     7
370
    25
100
AcDbLine
 10
9.4350900965
 20
7.2371146595
 30
0.0
 11
9.4164900965
 21
7.2501385197
 31
0.0
  0
LINE
  5
74
330
1F
100
AcDbEntity
  8
0
  6
Continuous
 62
     7
370
    25
100
AcDbLine
 10
9.3156900965
 20
7.2501385197
 30
0.0
 11
9.2970900965
 21
7.2371146595
 31
0.0
  0
LINE
  5
75
330
1F
100
AcDbEntity
  8
0
  6
Continuous
 62
     7
370
    25
100
AcDbLine
 10
9.2970900965
 20
7.2681517801
 30
0.0
 11
9.2970900965
 21
7.2631623799
 31
0.0
  0
LINE
  5
76
330
1F
100
AcDbEntity
  8
0
  6
Continuous
 62
     7
370
    25
100
AcDbLine
 10
9.4350900965
 20
7.2631623799
 30
0.0
 11
9.4350900965
 21
7.2681517801
 31
0.0
  0
LINE
  5
77
330
1F
100
AcDbEntity
  8
0
  6
Continuous
 62
     7
370
    25
100
AcDbLine
 10
9.2970900965
 20
7.2371146595
 30
0.0
 11
9.2970900965
 21
7.2321252593
 31
0.0
  0
LINE
  5
78
330
1F
100
AcDbEntity
  8
0
  6
Continuous
 62
     7
370
    25
100
AcDbLine
 10
9.4350900965
 20
7.2321252593
 30
0.0
 11
9.4350900965
 21
7.2371146595
 31
0.0
  0
LINE
  5
79
330
1F
100
AcDbEntity
  8
0
  6
Continuous
 62
     7
370
    25
100
AcDbLine
 10
9.4350900965
 20
7.2681517801
 30
0.0
 11
9.4164900965
 21
7.2811756403
 31
0.0
  0
LINE
  5
7A
330
1F
100
AcDbEntity
  8
0
  6
Continuous
 62
     7
370
    25
100
AcDbLine
 10
9.3156900965
 20
7.2811756403
 30
0.0
 11
9.2970900965
 21
7.2681517801
 31
0.0
  0
LINE
  5
7B
330
1F
100
AcDbEntity
  8
0
  6
Continuous
 62
     7
370
    25
100
AcDbLine
 10
9.2970900965
 20
7.2321252593
 30
0.0
 11
9.3156900965
 21
7.2191013991
 31
0.0
  0
LINE
  5
7C
330
1F
100
AcDbEntity
  8
0
  6
Continuous
 62
     7
370
    25
100
AcDbLine
 10
9.4164900965
 20
7.2191013991
 30
0.0
 11
9.4350900965
 21
7.2321252593
 31
0.0
  0
LINE
  5
7D
330
1F
100
AcDbEntity
  8
0
  6
Continuous
 62
     7
370
    25
100
AcDbLine
 10
9.3144725753
 20
7.2820281578
 30
0.0
 11
9.3156900965
 21
7.2811756403
 31
0.0
  0
LINE
  5
7E
330
1F
100
AcDbEntity
  8
0
  6
Continuous
 62
     7
370
    25
100
AcDbLine
 10
9.4164900965
 20
7.2811756403
 30
0.0
 11
9.4177076178
 21
7.2820281578
 31
0.0
  0
LINE
  5
7F
330
1F
100
AcDbEntity
  8
0
  6
Continuous
 62
     7
370
    25
100
AcDbLine
 10
9.2970900965
 20
7.2631623799
 30
0.0
 11
9.3156900965
 21
7.2501385197
 31
0.0
  0
LINE
  5
80
330
1F
100
AcDbEntity
  8
0
  6
Continuous
 62
     7
370
    25
100
AcDbLine
 10
9.4164900965
 20
7.2501385197
 30
0.0
 11
9.4350900965
 21
7.2631623799
 31
0.0
  0
LINE
  5
81
330
1F
100
AcDbEntity
  8
0
  6
Continuous
 62
     7
370
    25
100
AcDbLine
 10
9.2970900965
 20
7.2010881387
 30
0.0
 11
9.3156900965
 21
7.1880642785
 31
0.0
  0
LINE
  5
82
330
1F
100
AcDbEntity
  8
0
  6
Continuous
 62
     7
370
    25
100
AcDbLine
 10
9.4164900965
 20
7.1880642785
 30
0.0
 11
9.4350900965
 21
7.2010881387
 31
0.0
  0
LINE
  5
83
330
1F
100
AcDbEntity
  8
0
  6
Continuous
 62
     7
370
    25
100
AcDbLine
 10
9.2974357835
 20
7.1752824709
 30
0.0
 11
9.3156900965
 21
7.1570281578
 31
0.0
  0
LINE
  5
84
330
1F
100
AcDbEntity
  8
0
  6
Continuous
 62
     7
370
    25
100
AcDbLine
 10
9.4164900965
 20
7.1570281578
 30
0.0
 11
9.4347444096
 21
7.1752824709
 31
0.0
  0
LINE
  5
85
330
1F
100
AcDbEntity
  8
0
  6
Continuous
 62
     7
370
    25
100
AcDbLine
 10
9.4347444096
 20
7.1752824709
 30
0.0
 11
9.4164900965
 21
7.1880642785
 31
0.0
  0
LINE
  5
86
330
1F
100
AcDbEntity
  8
0
  6
Continuous
 62
     7
370
    25
100
AcDbLine
 10
9.3156900965
 20
7.1880642785
 30
0.0
 11
9.2974357835
 21
7.1752824709
 31
0.0
  0
LINE
  5
87
330
1F
100
AcDbEntity
  8
0
  6
Continuous
 62
     7
370
    25
100
AcDbLine
 10
6.0158400965
 20
7.2681517801
 30
0.0
 11
6.0158400965
 21
7.2631623799
 31
0.0
  0
LINE
  5
88
330
1F
100
AcDbEntity
  8
0
  6
Continuous
 62
     7
370
    25
100
AcDbLine
 10
6.1538400965
 20
7.2631623799
 30
0.0
 11
6.1538400965
 21
7.2681517801
 31
0.0
  0
LINE
  5
89
330
1F
100
AcDbEntity
  8
0
  6
Continuous
 62
     7
370
    25
100
AcDbLine
 10
6.0332225753
 20
7.2820281578
 30
0.0
 11
6.0344400965
 21
7.2811756403
 31
0.0
  0
LINE
  5
8A
330
1F
100
AcDbEntity
  8
0
  6
Continuous
 62
     7
370
    25
100
AcDbLine
 10
6.1352400965
 20
7.2811756403
 30
0.0
 11
6.1364576178
 21
7.2820281578
 31
0.0
  0
LINE
  5
8B
330
1F
100
AcDbEntity
  8
0
  6
Continuous
 62
     7
370
    25
100
AcDbLine
 10
6.1538400965
 20
7.2681517801
 30
0.0
 11
6.1352400965
 21
7.2811756403
 31
0.0
  0
LINE
  5
8C
330
1F
100
AcDbEntity
  8
0
  6
Continuous
 62
     7
370
    25
100
AcDbLine
 10
6.0344400965
 20
7.2811756403
 30
0.0
 11
6.0158400965
 21
7.2681517801
 31
0.0
  0
LINE
  5
8D
330
1F
100
AcDbEntity
  8
0
  6
Continuous
 62
     7
370
    25
100
AcDbLine
 10
6.1538400965
 20
7.2060775389
 30
0.0
 11
6.1352400965
 21
7.2191013991
 31
0.0
  0
LINE
  5
8E
330
1F
100
AcDbEntity
  8
0
  6
Continuous
 62
     7
370
    25
100
AcDbLine
 10
6.0344400965
 20
7.2191013991
 30
0.0
 11
6.0158400965
 21
7.2060775389
 31
0.0
  0
LINE
  5
8F
330
1F
100
AcDbEntity
  8
0
  6
Continuous
 62
     7
370
    25
100
AcDbLine
 10
6.0158400965
 20
7.2631623799
 30
0.0
 11
6.0344400965
 21
7.2501385197
 31
0.0
  0
LINE
  5
90
330
1F
100
AcDbEntity
  8
0
  6
Continuous
 62
     7
370
    25
100
AcDbLine
 10
6.1352400965
 20
7.2501385197
 30
0.0
 11
6.1538400965
 21
7.2631623799
 31
0.0
  0
LINE
  5
91
330
1F
100
AcDbEntity
  8
0
  6
Continuous
 62
     7
370
    25
100
AcDbLine
 10
6.0158400965
 20
7.2371146595
 30
0.0
 11
6.0158400965
 21
7.2321252593
 31
0.0
  0
LINE
  5
92
330
1F
100
AcDbEntity
  8
0
  6
Continuous
 62
     7
370
    25
100
AcDbLine
 10
6.1538400965
 20
7.2321252593
 30
0.0
 11
6.1538400965
 21
7.2371146595
 31
0.0
  0
LINE
  5
93
330
1F
100
AcDbEntity
  8
0
  6
Continuous
 62
     7
370
    25
100
AcDbLine
 10
6.1538400965
 20
7.2371146595
 30
0.0
 11
6.1352400965
 21
7.2501385197
 31
0.0
  0
LINE
  5
94
330
1F
100
AcDbEntity
  8
0
  6
Continuous
 62
     7
370
    25
100
AcDbLine
 10
6.0344400965
 20
7.2501385197
 30
0.0
 11
6.0158400965
 21
7.2371146595
 31
0.0
  0
LINE
  5
95
330
1F
100
AcDbEntity
  8
0
  6
Continuous
 62
     7
370
    25
100
AcDbLine
 10
6.0158400965
 20
7.2060775389
 30
0.0
 11
6.0158400965
 21
7.2010881387
 31
0.0
  0
LINE
  5
96
330
1F
100
AcDbEntity
  8
0
  6
Continuous
 62
     7
370
    25
100
AcDbLine
 10
6.1538400965
 20
7.2010881387
 30
0.0
 11
6.1538400965
 21
7.2060775389
 31
0.0
  0
LINE
  5
97
330
1F
100
AcDbEntity
  8
0
  6
Continuous
 62
     7
370
    25
100
AcDbLine
 10
6.0158400965
 20
7.2321252593
 30
0.0
 11
6.0344400965
 21
7.2191013991
 31
0.0
  0
LINE
  5
98
330
1F
100
AcDbEntity
  8
0
  6
Continuous
 62
     7
370
    25
100
AcDbLine
 10
6.1352400965
 20
7.2191013991
 30
0.0
 11
6.1538400965
 21
7.2321252593
 31
0.0
  0
LINE
  5
99
330
1F
100
AcDbEntity
  8
0
  6
Continuous
 62
     7
370
    25
100
AcDbLine
 10
6.0158400965
 20
7.2010881387
 30
0.0
 11
6.0344400965
 21
7.1880642785
 31
0.0
  0
LINE
  5
9A
330
1F
100
AcDbEntity
  8
0
  6
Continuous
 62
     7
370
    25
100
AcDbLine
 10
6.1352400965
 20
7.1880642785
 30
0.0
 11
6.1538400965
 21
7.2010881387
 31
0.0
  0
LINE
  5
9B
330
1F
100
AcDbEntity
  8
0
  6
Continuous
 62
     7
370
    25
100
AcDbLine
 10
6.1534944096
 20
7.1752824709
 30
0.0
 11
6.1352400965
 21
7.1880642785
 31
0.0
  0
LINE
  5
9C
330
1F
100
AcDbEntity
  8
0
  6
Continuous
 62
     7
370
    25
100
AcDbLine
 10
6.0344400965
 20
7.1880642785
 30
0.0
 11
6.0161857835
 21
7.1752824709
 31
0.0
  0
LINE
  5
9D
330
1F
100
AcDbEntity
  8
0
  6
Continuous
 62
     7
370
    25
100
AcDbLine
 10
6.0161857835
 20
7.1752824709
 30
0.0
 11
6.0344400965
 21
7.1570281578
 31
0.0
  0
LINE
  5
9E
330
1F
100
AcDbEntity
  8
0
  6
Continuous
 62
     7
370
    25
100
AcDbLine
 10
6.1352400965
 20
7.1570281578
 30
0.0
 11
6.1534944096
 21
7.1752824709
 31
0.0
  0
ARC
  5
9F
330
1F
100
AcDbEntity
  8
0
  6
Continuous
 62
     7
370
    25
100
AcDbCircle
 10
4.7567150965
 20
9.8516781578
 30
0.0
 40
0.25
100
AcDbArc
 50
90.0
 51
180.0
  0
LINE
  5
A0
330
1F
100
AcDbEntity
  8
0
  6
Continuous
 62
     7
370
    25
100
AcDbLine
 10
4.8817150965
 20
10.1016781578
 30
0.0
 11
4.7567150965
 21
10.1016781578
 31
0.0
  0
ARC
  5
A1
330
1F
100
AcDbEntity
  8
0
  6
Continuous
 62
     7
370
    25
100
AcDbCircle
 10
10.6942150965
 20
9.8516781578
 30
0.0
 40
0.25
100
AcDbArc
 50
0.0
 51
90.0
  0
LINE
  5
A2
330
1F
100
AcDbEntity
  8
0
  6
Continuous
 62
     7
370
    25
100
AcDbLine
 10
10.6942150965
 20
10.1016781578
 30
0.0
 11
10.5692150965
 21
10.1016781578
 31
0.0
  0
ARC
  5
A3
330
1F
100
AcDbEntity
  8
0
  6
Continuous
 62
     7
370
    25
100
AcDbCircle
 10
5.6942150965
 20
9.8523530985
 30
0.0
 40
0.1317840283913903
100
AcDbArc
 50
119.8033916864
 51
157.2796517096
  0
ARC
  5
A4
330
1F
100
AcDbEntity
  8
0
  6
Continuous
 62
     7
370
    25
100
AcDbCircle
 10
5.6942150965
 20
9.8523530985
 30
0.0
 40
0.1317840283913903
100
AcDbArc
 50
22.3455551585
 51
60.1966083136
  0
ARC
  5
A5
330
1F
100
AcDbEntity
  8
0
  6
Continuous
 62
     7
370
    25
100
AcDbCircle
 10
9.7567150965
 20
9.8523530985
 30
0.0
 40
0.1317840283913903
100
AcDbArc
 50
119.8033916864
 51
157.2796517096
  0
ARC
  5
A6
330
1F
100
AcDbEntity
  8
0
  6
Continuous
 62
     7
370
    25
100
AcDbCircle
 10
9.7567150965
 20
9.8523530985
 30
0.0
 40
0.1317840283913903
100
AcDbArc
 50
22.3053148703
 51
60.1966083136
  0
LINE
  5
A7
330
1F
100
AcDbEntity
  8
0
  6
Continuous
 62
     7
370
    25
100
AcDbLine
 10
10.5379650965
 20
10.1016781578
 30
0.0
 11
4.9129650965
 21
10.1016781578
 31
0.0
  0
ARC
  5
A8
330
1F
100
AcDbEntity
  8
0
  6
Continuous
 62
     7
370
    25
100
AcDbCircle
 10
4.5069650965
 20
9.3822781578
 30
0.0
 40
0.010000000000001
100
AcDbArc
 50
91.4325437373
 51
179.9999999957
  0
ARC
  5
A9
330
1F
100
AcDbEntity
  8
0
  6
Continuous
 62
     7
370
    25
100
AcDbCircle
 10
4.5069650965
 20
8.4842781578
 30
0.0
 40
0.0099999999999993
100
AcDbArc
 50
180.0000000043
 51
268.5674562627
  0
ARC
  5
AA
330
1F
100
AcDbEntity
  8
0
  6
Continuous
 62
     7
370
    25
100
AcDbCircle
 10
10.9439650965
 20
8.4842781578
 30
0.0
 40
0.0099999999999998
100
AcDbArc
 50
271.4325437374
 51
359.9999999957
  0
ARC
  5
AB
330
1F
100
AcDbEntity
  8
0
  6
Continuous
 62
     7
370
    25
100
AcDbCircle
 10
10.9439650965
 20
9.3822781578
 30
0.0
 40
0.0099999999999998
100
AcDbArc
 50
0.0000000043
 51
88.5674562626
  0
LINE
  5
AC
330
1F
100
AcDbEntity
  8
0
  6
Continuous
 62
     7
370
    25
100
AcDbLine
 10
9.7904650965
 20
7.6570281578
 30
0.0
 11
9.7904650965
 21
7.2820281578
 31
0.0
  0
LINE
  5
AD
330
1F
100
AcDbEntity
  8
0
  6
Continuous
 62
     7
370
    25
100
AcDbLine
 10
10.0404650965
 20
7.6570281578
 30
0.0
 11
10.0404650965
 21
7.2820281578
 31
0.0
  0
LINE
  5
AE
330
1F
100
AcDbEntity
  8
0
  6
Continuous
 62
     7
370
    25
100
AcDbLine
 10
9.7904650965
 20
7.2820281578
 30
0.0
 11
10.0404650965
 21
7.2820281578
 31
0.0
  0
LINE
  5
AF
330
1F
100
AcDbEntity
  8
0
  6
Continuous
 62
     7
370
    25
100
AcDbLine
 10
5.4104650965
 20
7.6570281578
 30
0.0
 11
5.4104650965
 21
7.2820281578
 31
0.0
  0
LINE
  5
B0
330
1F
100
AcDbEntity
  8
0
  6
Continuous
 62
     7
370
    25
100
AcDbLine
 10
5.6604650965
 20
7.6570281578
 30
0.0
 11
5.6604650965
 21
7.2820281578
 31
0.0
  0
LINE
  5
B1
330
1F
100
AcDbEntity
  8
0
  6
Continuous
 62
     7
370
    25
100
AcDbLine
 10
5.4104650965
 20
7.2820281578
 30
0.0
 11
5.6604650965
 21
7.2820281578
 31
0.0
  0
LINE
  5
B2
330
1F
100
AcDbEntity
  8
0
  6
Continuous
 62
     7
370
    25
100
AcDbLine
 10
5.6604650965
 20
7.2820281578
 30
0.0
 11
9.7904650965
 21
7.2820281578
 31
0.0
  0
LINE
  5
B3
330
1F
100
AcDbEntity
  8
0
  6
Continuous
 62
     7
370
    25
100
AcDbLine
 10
5.2254650965
 20
7.6570281578
 30
0.0
 11
10.2254650965
 21
7.6570281578
 31
0.0
  0
LINE
  5
B4
330
1F
100
AcDbEntity
  8
0
  6
Continuous
 62
     7
370
    25
100
AcDbLine
 10
5.2254650965
 20
7.7520281578
 30
0.0
 11
5.2254650965
 21
7.6570281578
 31
0.0
  0
LINE
  5
B5
330
1F
100
AcDbEntity
  8
0
  6
Continuous
 62
     7
370
    25
100
AcDbLine
 10
10.2254650965
 20
7.7520281578
 30
0.0
 11
5.2254650965
 21
7.7520281578
 31
0.0
  0
LINE
  5
B6
330
1F
100
AcDbEntity
  8
0
  6
Continuous
 62
     7
370
    25
100
AcDbLine
 10
10.2254650965
 20
7.7520281578
 30
0.0
 11
10.2254650965
 21
7.6570281578
 31
0.0
  0
LINE
  5
B7
330
1F
100
AcDbEntity
  8
0
  6
Continuous
 62
     7
370
    25
100
AcDbLine
 10
5.2254650965
 20
7.7520281578
 30
0.0
 11
5.2554650965
 21
7.7820281578
 31
0.0
  0
LINE
  5
B8
330
1F
100
AcDbEntity
  8
0
  6
Continuous
 62
     7
370
    25
100
AcDbLine
 10
5.2554650965
 20
7.7820281578
 30
0.0
 11
10.1954650965
 21
7.7820281578
 31
0.0
  0
LINE
  5
B9
330
1F
100
AcDbEntity
  8
0
  6
Continuous
 62
     7
370
    25
100
AcDbLine
 10
10.2254650965
 20
7.7520281578
 30
0.0
 11
10.1954650965
 21
7.7820281578
 31
0.0
  0
LINE
  5
BA
330
1F
100
AcDbEntity
  8
0
  6
Continuous
 62
     7
370
    25
100
AcDbLine
 10
9.3660900965
 20
7.2060775389
 30
0.0
 11
9.4350900965
 21
7.2060775389
 31
0.0
  0
LINE
  5
BB
330
1F
100
AcDbEntity
  8
0
  6
Continuous
 62
     7
370
    25
100
AcDbLine
 10
9.2970900965
 20
7.2060775389
 30
0.0
 11
9.3660900965
 21
7.2060775389
 31
0.0
  0
LINE
  5
BC
330
1F
100
AcDbEntity
  8
0
  6
Continuous
 62
     7
370
    25
100
AcDbLine
 10
9.3660900965
 20
7.2010881387
 30
0.0
 11
9.4350900965
 21
7.2010881387
 31
0.0
  0
LINE
  5
BD
330
1F
100
AcDbEntity
  8
0
  6
Continuous
 62
     7
370
    25
100
AcDbLine
 10
9.2970900965
 20
7.2010881387
 30
0.0
 11
9.3660900965
 21
7.2010881387
 31
0.0
  0
LINE
  5
BE
330
1F
100
AcDbEntity
  8
0
  6
Continuous
 62
     7
370
    25
100
AcDbLine
 10
9.3660900965
 20
7.2191013991
 30
0.0
 11
9.4164900965
 21
7.2191013991
 31
0.0
  0
LINE
  5
BF
330
1F
100
AcDbEntity
  8
0
  6
Continuous
 62
     7
370
    25
100
AcDbLine
 10
9.3156900965
 20
7.2191013991
 30
0.0
 11
9.3660900965
 21
7.2191013991
 31
0.0
  0
LINE
  5
C0
330
1F
100
AcDbEntity
  8
0
  6
Continuous
 62
     7
370
    25
100
AcDbLine
 10
9.3660900965
 20
7.2371146595
 30
0.0
 11
9.4350900965
 21
7.2371146595
 31
0.0
  0
LINE
  5
C1
330
1F
100
AcDbEntity
  8
0
  6
Continuous
 62
     7
370
    25
100
AcDbLine
 10
9.2970900965
 20
7.2371146595
 30
0.0
 11
9.3660900965
 21
7.2371146595
 31
0.0
  0
LINE
  5
C2
330
1F
100
AcDbEntity
  8
0
  6
Continuous
 62
     7
370
    25
100
AcDbLine
 10
9.3660900965
 20
7.2501385197
 30
0.0
 11
9.4164900965
 21
7.2501385197
 31
0.0
  0
LINE
  5
C3
330
1F
100
AcDbEntity
  8
0
  6
Continuous
 62
     7
370
    25
100
AcDbLine
 10
9.3156900965
 20
7.2501385197
 30
0.0
 11
9.3660900965
 21
7.2501385197
 31
0.0
  0
LINE
  5
C4
330
1F
100
AcDbEntity
  8
0
  6
Continuous
 62
     7
370
    25
100
AcDbLine
 10
9.3660900965
 20
7.2681517801
 30
0.0
 11
9.4350900965
 21
7.2681517801
 31
0.0
  0
LINE
  5
C5
330
1F
100
AcDbEntity
  8
0
  6
Continuous
 62
     7
370
    25
100
AcDbLine
 10
9.2970900965
 20
7.2681517801
 30
0.0
 11
9.3660900965
 21
7.2681517801
 31
0.0
  0
LINE
  5
C6
330
1F
100
AcDbEntity
  8
0
  6
Continuous
 62
     7
370
    25
100
AcDbLine
 10
9.3660900965
 20
7.2631623799
 30
0.0
 11
9.4350900965
 21
7.2631623799
 31
0.0
  0
LINE
  5
C7
330
1F
100
AcDbEntity
  8
0
  6
Continuous
 62
     7
370
    25
100
AcDbLine
 10
9.2970900965
 20
7.2631623799
 30
0.0
 11
9.3660900965
 21
7.2631623799
 31
0.0
  0
LINE
  5
C8
330
1F
100
AcDbEntity
  8
0
  6
Continuous
 62
     7
370
    25
100
AcDbLine
 10
9.3660900965
 20
7.2321252593
 30
0.0
 11
9.4350900965
 21
7.2321252593
 31
0.0
  0
LINE
  5
C9
330
1F
100
AcDbEntity
  8
0
  6
Continuous
 62
     7
370
    25
100
AcDbLine
 10
9.2970900965
 20
7.2321252593
 30
0.0
 11
9.3660900965
 21
7.2321252593
 31
0.0
  0
LINE
  5
CA
330
1F
100
AcDbEntity
  8
0
  6
Continuous
 62
     7
370
    25
100
AcDbLine
 10
9.3660900965
 20
7.2811756403
 30
0.0
 11
9.4164900965
 21
7.2811756403
 31
0.0
  0
LINE
  5
CB
330
1F
100
AcDbEntity
  8
0
  6
Continuous
 62
     7
370
    25
100
AcDbLine
 10
9.3156900965
 20
7.2811756403
 30
0.0
 11
9.3660900965
 21
7.2811756403
 31
0.0
  0
LINE
  5
CC
330
1F
100
AcDbEntity
  8
0
  6
Continuous
 62
     7
370
    25
100
AcDbLine
 10
9.3660900965
 20
7.1880642785
 30
0.0
 11
9.4164900965
 21
7.1880642785
 31
0.0
  0
LINE
  5
CD
330
1F
100
AcDbEntity
  8
0
  6
Continuous
 62
     7
370
    25
100
AcDbLine
 10
9.3156900965
 20
7.1880642785
 30
0.0
 11
9.3660900965
 21
7.1880642785
 31
0.0
  0
LINE
  5
CE
330
1F
100
AcDbEntity
  8
0
  6
Continuous
 62
     7
370
    25
100
AcDbLine
 10
9.3156900965
 20
7.1570281578
 30
0.0
 11
9.4164900965
 21
7.1570281578
 31
0.0
  0
LINE
  5
CF
330
1F
100
AcDbEntity
  8
0
  6
Continuous
 62
     7
370
    25
100
AcDbLine
 10
9.4347444096
 20
7.1752824709
 30
0.0
 11
9.2974357835
 21
7.1752824709
 31
0.0
  0
LINE
  5
D0
330
1F
100
AcDbEntity
  8
0
  6
Continuous
 62
     7
370
    25
100
AcDbLine
 10
6.0848400965
 20
7.2681517801
 30
0.0
 11
6.1538400965
 21
7.2681517801
 31
0.0
  0
LINE
  5
D1
330
1F
100
AcDbEntity
  8
0
  6
Continuous
 62
     7
370
    25
100
AcDbLine
 10
6.0158400965
 20
7.2681517801
 30
0.0
 11
6.0848400965
 21
7.2681517801
 31
0.0
  0
LINE
  5
D2
330
1F
100
AcDbEntity
  8
0
  6
Continuous
 62
     7
370
    25
100
AcDbLine
 10
6.0848400965
 20
7.2631623799
 30
0.0
 11
6.1538400965
 21
7.2631623799
 31
0.0
  0
LINE
  5
D3
330
1F
100
AcDbEntity
  8
0
  6
Continuous
 62
     7
370
    25
100
AcDbLine
 10
6.0158400965
 20
7.2631623799
 30
0.0
 11
6.0848400965
 21
7.2631623799
 31
0.0
  0
LINE
  5
D4
330
1F
100
AcDbEntity
  8
0
  6
Continuous
 62
     7
370
    25
100
AcDbLine
 10
6.0848400965
 20
7.2811756403
 30
0.0
 11
6.1352400965
 21
7.2811756403
 31
0.0
  0
LINE
  5
D5
330
1F
100
AcDbEntity
  8
0
  6
Continuous
 62
     7
370
    25
100
AcDbLine
 10
6.0344400965
 20
7.2811756403
 30
0.0
 11
6.0848400965
 21
7.2811756403
 31
0.0
  0
LINE
  5
D6
330
1F
100
AcDbEntity
  8
0
  6
Continuous
 62
     7
370
    25
100
AcDbLine
 10
6.0848400965
 20
7.2060775389
 30
0.0
 11
6.1538400965
 21
7.2060775389
 31
0.0
  0
LINE
  5
D7
330
1F
100
AcDbEntity
  8
0
  6
Continuous
 62
     7
370
    25
100
AcDbLine
 10
6.0158400965
 20
7.2060775389
 30
0.0
 11
6.0848400965
 21
7.2060775389
 31
0.0
  0
LINE
  5
D8
330
1F
100
AcDbEntity
  8
0
  6
Continuous
 62
     7
370
    25
100
AcDbLine
 10
6.0848400965
 20
7.2191013991
 30
0.0
 11
6.1352400965
 21
7.2191013991
 31
0.0
  0
LINE
  5
D9
330
1F
100
AcDbEntity
  8
0
  6
Continuous
 62
     7
370
    25
100
AcDbLine
 10
6.0344400965
 20
7.2191013991
 30
0.0
 11
6.0848400965
 21
7.2191013991
 31
0.0
  0
LINE
  5
DA
330
1F
100
AcDbEntity
  8
0
  6
Continuous
 62
     7
370
    25
100
AcDbLine
 10
6.0848400965
 20
7.2501385197
 30
0.0
 11
6.1352400965
 21
7.2501385197
 31
0.0
  0
LINE
  5
DB
330
1F
100
AcDbEntity
  8
0
  6
Continuous
 62
     7
370
    25
100
AcDbLine
 10
6.0344400965
 20
7.2501385197
 30
0.0
 11
6.0848400965
 21
7.2501385197
 31
0.0
  0
LINE
  5
DC
330
1F
100
AcDbEntity
  8
0
  6
Continuous
 62
     7
370
    25
100
AcDbLine
 10
6.0848400965
 20
7.2371146595
 30
0.0
 11
6.1538400965
 21
7.2371146595
 31
0.0
  0
LINE
  5
DD
330
1F
100
AcDbEntity
  8
0
  6
Continuous
 62
     7
370
    25
100
AcDbLine
 10
6.0158400965
 20
7.2371146595
 30
0.0
 11
6.0848400965
 21
7.2371146595
 31
0.0
  0
LINE
  5
DE
330
1F
100
AcDbEntity
  8
0
  6
Continuous
 62
     7
370
    25
100
AcDbLine
 10
6.0848400965
 20
7.2321252593
 30
0.0
 11
6.1538400965
 21
7.2321252593
 31
0.0
  0
LINE
  5
DF
330
1F
100
AcDbEntity
  8
0
  6
Continuous
 62
     7
370
    25
100
AcDbLine
 10
6.0158400965
 20
7.2321252593
 30
0.0
 11
6.0848400965
 21
7.2321252593
 31
0.0
  0
LINE
  5
E0
330
1F
100
AcDbEntity
  8
0
  6
Continuous
 62
     7
370
    25
100
AcDbLine
 10
6.0848400965
 20
7.2010881387
 30
0.0
 11
6.1538400965
 21
7.2010881387
 31
0.0
  0
LINE
  5
E1
330
1F
100
AcDbEntity
  8
0
  6
Continuous
 62
     7
370
    25
100
AcDbLine
 10
6.0158400965
 20
7.2010881387
 30
0.0
 11
6.0848400965
 21
7.2010881387
 31
0.0
  0
LINE
  5
E2
330
1F
100
AcDbEntity
  8
0
  6
Continuous
 62
     7
370
    25
100
AcDbLine
 10
6.0848400965
 20
7.1880642785
 30
0.0
 11
6.1352400965
 21
7.1880642785
 31
0.0
  0
LINE
  5
E3
330
1F
100
AcDbEntity
  8
0
  6
Continuous
 62
     7
370
    25
100
AcDbLine
 10
6.0344400965
 20
7.1880642785
 30
0.0
 11
6.0848400965
 21
7.1880642785
 31
0.0
  0
LINE
  5
E4
330
1F
100
AcDbEntity
  8
0
  6
Continuous
 62
     7
370
    25
100
AcDbLine
 10
6.1534944096
 20
7.1752824709
 30
0.0
 11
6.0161857835
 21
7.1752824709
 31
0.0
  0
LINE
  5
E5
330
1F
100
AcDbEntity
  8
0
  6
Continuous
 62
     7
370
    25
100
AcDbLine
 10
6.0344400965
 20
7.1570281578
 30
0.0
 11
6.1352400965
 21
7.1570281578
 31
0.0
  0
LINE
  5
E6
330
1F
100
AcDbEntity
  8
0
  6
Continuous
 62
     7
370
    25
100
AcDbLine
 10
4.5067150965
 20
8.5942781578
 30
0.0
 11
4.5067150965
 21
8.7105545409
 31
0.0
  0
SPLINE
  5
E7
330
1F
100
AcDbEntity
  8
0
  6
Continuous
 62
     7
370
    25
100
AcDbSpline
210
0.0
220
0.0
230
1.0
 70
    24
 71
     3
 72
    14
 73
    10
 74
     0
 42
0.00000001
 43
0.00000001
 40
0.0
 40
0.0
 40
0.0
 40
0.0
 40
0.0588494686556863
 40
0.2134762068023789
 40
0.3725840679202399
 40
0.5271963573192765
 40
0.6862914072957779
 40
0.8409037175808196
 40
1.0
 40
1.0
 40
1.0
 40
1.0
 10
4.506715096529372
 20
8.710554540884896
 30
0.0
 10
4.506817439784338
 20
8.710554540884896
 30
0.0
 10
4.507188689523053
 20
8.710554540884896
 30
0.0
 10
4.512248026069313
 20
8.710554540884896
 30
0.0
 10
4.525239722493933
 20
8.710554540884894
 30
0.0
 10
4.545009210728538
 20
8.710554540884896
 30
0.0
 10
4.570627103059691
 20
8.710554540884894
 30
0.0
 10
4.601547560625804
 20
8.710554540884894
 30
0.0
 10
4.62561887707882
 20
8.710554540884894
 30
0.0
 10
4.637826566156119
 20
8.710554540884894
 30
0.0
  0
SPLINE
  5
E8
330
1F
100
AcDbEntity
  8
0
  6
Continuous
 62
     7
370
    25
100
AcDbSpline
210
0.0
220
0.0
230
1.0
 70
     8
 71
     3
 72
    10
 73
     6
 74
     0
 42
0.00000001
 43
0.00000001
 40
0.0
 40
0.0
 40
0.0
 40
0.0
 40
0.3210776847983214
 40
0.6556894045021275
 40
1.0
 40
1.0
 40
1.0
 40
1.0
 10
4.637826566156119
 20
8.710554540884894
 30
0.0
 10
4.649777969326828
 20
8.711056176787654
 30
0.0
 10
4.67418455003607
 20
8.712080593500271
 30
0.0
 10
4.714481328091737
 20
8.712994512480002
 30
0.0
 10
4.742503733887665
 20
8.713119306864387
 30
0.0
 10
4.756715096529373
 20
8.713182595443714
 30
0.0
  0
LINE
  5
E9
330
1F
100
AcDbEntity
  8
0
  6
Continuous
 62
     7
370
    25
100
AcDbLine
 10
4.7567150965
 20
8.7131825954
 30
0.0
 11
4.7567150965
 21
8.4692781578
 31
0.0
  0
LWPOLYLINE
  5
EA
330
1F
100
AcDbEntity
  8
0
  6
Continuous
 62
     7
370
    25
100
AcDbPolyline
 90
       11
 70
   128
 43
0.0
 10
4.7567150965
 20
8.4692781578
 10
4.7176064803
 20
8.4708171153
 10
4.6794608479
 20
8.4753960933
 10
4.6432174716
 20
8.4829023423
 10
4.6097687835
 20
8.4931510335
 10
4.5799384012
 20
8.5058898102
 10
4.5544608479
 20
8.5208050013
 10
4.5339634655
 20
8.5375293454
 10
4.5189509675
 20
8.5556510335
 10
4.5097930114
 20
8.5747238497
 10
4.5067150965
 20
8.5942781578
  0
LINE
  5
EB
330
1F
100
AcDbEntity
  8
0
  6
Continuous
 62
     7
370
    25
100
AcDbLine
 10
4.7567150965
 20
8.4692781578
 30
0.0
 11
4.8817150965
 21
8.4692781578
 31
0.0
  0
LINE
  5
EC
330
1F
100
AcDbEntity
  8
0
  6
Continuous
 62
     7
370
    25
100
AcDbLine
 10
4.8817150965
 20
8.4692781578
 30
0.0
 11
4.8817150965
 21
8.7131825954
 31
0.0
  0
LINE
  5
ED
330
1F
100
AcDbEntity
  8
0
  6
Continuous
 62
     7
370
    25
100
AcDbLine
 10
4.8817150965
 20
8.7131825954
 30
0.0
 11
4.7567150965
 21
8.7131825954
 31
0.0
  0
LINE
  5
EE
330
1F
100
AcDbEntity
  8
0
  6
Continuous
 62
     7
370
    25
100
AcDbLine
 10
4.8817150965
 20
8.7755403265
 30
0.0
 11
4.7567150965
 21
8.7755403265
 31
0.0
  0
LINE
  5
EF
330
1F
100
AcDbEntity
  8
0
  6
Continuous
 62
     7
370
    25
100
AcDbLine
 10
4.7567150965
 20
9.1462781578
 30
0.0
 11
4.7567150965
 21
8.7755403265
 31
0.0
  0
LINE
  5
F0
330
1F
100
AcDbEntity
  8
0
  6
Continuous
 62
     7
370
    25
100
AcDbLine
 10
4.8817150965
 20
9.1462781578
 30
0.0
 11
4.7567150965
 21
9.1462781578
 31
0.0
  0
LINE
  5
F1
330
1F
100
AcDbEntity
  8
0
  6
Continuous
 62
     7
370
    25
100
AcDbLine
 10
4.8817150965
 20
8.7755403265
 30
0.0
 11
4.8817150965
 21
8.8572384966
 31
0.0
  0
LINE
  5
F2
330
1F
100
AcDbEntity
  8
0
  6
Continuous
 62
     7
370
    25
100
AcDbLine
 10
4.635684367
 20
8.7728167095
 30
0.0
 11
4.5067150965
 21
8.7728167095
 31
0.0
  0
LINE
  5
F3
330
1F
100
AcDbEntity
  8
0
  6
Continuous
 62
     7
370
    25
100
AcDbLine
 10
4.5067150965
 20
8.7728167095
 30
0.0
 11
4.5067150965
 21
9.1435545409
 31
0.0
  0
LINE
  5
F4
330
1F
100
AcDbEntity
  8
0
  6
Continuous
 62
     7
370
    25
100
AcDbLine
 10
4.5067150965
 20
9.1435545409
 30
0.0
 11
4.635684367
 21
9.1435545409
 31
0.0
  0
ARC
  5
F5
330
1F
100
AcDbEntity
  8
0
  6
Continuous
 62
     7
370
    25
100
AcDbCircle
 10
4.7536791104
 20
6.5906764425
 30
0.0
 40
2.555603518654228
100
AcDbArc
 50
89.9319341861
 51
92.6463436357
  0
ARC
  5
F6
330
1F
100
AcDbEntity
  8
0
  6
Continuous
 62
     7
370
    25
100
AcDbCircle
 10
4.7536791104
 20
6.2199386112
 30
0.0
 40
2.555603518650548
100
AcDbArc
 50
89.9319341861
 51
92.6463436357
  0
LINE
  5
F7
330
1F
100
AcDbEntity
  8
0
  6
Continuous
 62
     7
370
    25
100
AcDbLine
 10
4.8817150965
 20
8.7728167095
 30
0.0
 11
4.7879650965
 21
8.7728167095
 31
0.0
  0
LINE
  5
F8
330
1F
100
AcDbEntity
  8
0
  6
Continuous
 62
     7
370
    25
100
AcDbLine
 10
4.7879650965
 20
8.7728167095
 30
0.0
 11
4.635684367
 21
8.7728167095
 31
0.0
  0
LINE
  5
F9
330
1F
100
AcDbEntity
  8
0
  6
Continuous
 62
     7
370
    25
100
AcDbLine
 10
4.8817150965
 20
8.7728167095
 30
0.0
 11
4.8817150965
 21
8.7755403265
 31
0.0
  0
LINE
  5
FA
330
1F
100
AcDbEntity
  8
0
  6
Continuous
 62
     7
370
    25
100
AcDbLine
 10
4.5379650965
 20
8.7105545409
 30
0.0
 11
4.5379650965
 21
8.7728167095
 31
0.0
  0
LINE
  5
FB
330
1F
100
AcDbEntity
  8
0
  6
Continuous
 62
     7
370
    25
100
AcDbLine
 10
4.8817150965
 20
8.7431978941
 30
0.0
 11
4.8817150965
 21
8.7728167095
 31
0.0
  0
LINE
  5
FC
330
1F
100
AcDbEntity
  8
0
  6
Continuous
 62
     7
370
    25
100
AcDbLine
 10
4.8817150965
 20
9.2085403265
 30
0.0
 11
4.7567150965
 21
9.2085403265
 31
0.0
  0
LINE
  5
FD
330
1F
100
AcDbEntity
  8
0
  6
Continuous
 62
     7
370
    25
100
AcDbLine
 10
4.7567150965
 20
9.4652781578
 30
0.0
 11
4.7567150965
 21
9.2085403265
 31
0.0
  0
LINE
  5
FE
330
1F
100
AcDbEntity
  8
0
  6
Continuous
 62
     7
370
    25
100
AcDbLine
 10
4.8817150965
 20
9.4652781578
 30
0.0
 11
4.7567150965
 21
9.4652781578
 31
0.0
  0
LINE
  5
FF
330
1F
100
AcDbEntity
  8
0
  6
Continuous
 62
     7
370
    25
100
AcDbLine
 10
4.8817150965
 20
9.2085403265
 30
0.0
 11
4.8817150965
 21
9.2385475974
 31
0.0
  0
LINE
  5
100
330
1F
100
AcDbEntity
  8
0
  6
Continuous
 62
     7
370
    25
100
AcDbLine
 10
4.635684367
 20
9.2058167095
 30
0.0
 11
4.5067150965
 21
9.2058167095
 31
0.0
  0
LINE
  5
101
330
1F
100
AcDbEntity
  8
0
  6
Continuous
 62
     7
370
    25
100
AcDbLine
 10
4.5067150965
 20
9.2058167095
 30
0.0
 11
4.5067150965
 21
9.4625545409
 31
0.0
  0
LINE
  5
102
330
1F
100
AcDbEntity
  8
0
  6
Continuous
 62
     7
370
    25
100
AcDbLine
 10
4.5067150965
 20
9.4625545409
 30
0.0
 11
4.635684367
 21
9.4625545409
 31
0.0
  0
ARC
  5
103
330
1F
100
AcDbEntity
  8
0
  6
Continuous
 62
     7
370
    25
100
AcDbCircle
 10
4.7536791104
 20
6.9096764425
 30
0.0
 40
2.555603518656957
100
AcDbArc
 50
89.9319341861
 51
92.6463436357
  0
ARC
  5
104
330
1F
100
AcDbEntity
  8
0
  6
Continuous
 62
     7
370
    25
100
AcDbCircle
 10
4.7536791104
 20
6.6529386112
 30
0.0
 40
2.555603518657011
100
AcDbArc
 50
89.9319341861
 51
92.6463436357
  0
LINE
  5
105
330
1F
100
AcDbEntity
  8
0
  6
Continuous
 62
     7
370
    25
100
AcDbLine
 10
4.8817150965
 20
9.2058167095
 30
0.0
 11
4.7879650965
 21
9.2058167095
 31
0.0
  0
LINE
  5
106
330
1F
100
AcDbEntity
  8
0
  6
Continuous
 62
     7
370
    25
100
AcDbLine
 10
4.7879650965
 20
9.2058167095
 30
0.0
 11
4.635684367
 21
9.2058167095
 31
0.0
  0
LINE
  5
107
330
1F
100
AcDbEntity
  8
0
  6
Continuous
 62
     7
370
    25
100
AcDbLine
 10
4.8817150965
 20
9.2059243833
 30
0.0
 11
4.8817150965
 21
9.2085403265
 31
0.0
  0
SPLINE
  5
108
330
1F
100
AcDbEntity
  8
0
  6
Continuous
 62
     7
370
    25
100
AcDbSpline
210
0.0
220
0.0
230
1.0
 70
     8
 71
     3
 72
    13
 73
     9
 74
     0
 42
0.00000001
 43
0.00000001
 40
0.0
 40
0.0
 40
0.0
 40
0.0
 40
0.0029746048710194
 40
0.2982131828498495
 40
0.5931642682589912
 40
0.7855449308324336
 40
0.9776787511359859
 40
1.0
 40
1.0
 40
1.0
 40
1.0
 10
4.756715096529373
 20
7.870778157845782
 30
0.0
 10
4.756544325428598
 20
7.870673640938461
 30
0.0
 10
4.739424003332452
 20
7.860195503187205
 30
0.0
 10
4.705324517076635
 20
7.841061046558057
 30
0.0
 10
4.661107142676043
 20
7.821910142162996
 30
0.0
 10
4.624194495121308
 20
7.811261265179875
 30
0.0
 10
4.603057951927187
 20
7.808381682754842
 30
0.0
 10
4.59245883364112
 20
7.80828791728996
 30
0.0
 10
4.591355639587835
 20
7.808278157845782
 30
0.0
  0
LINE
  5
109
330
1F
100
AcDbEntity
  8
0
  6
Continuous
 62
     7
370
    25
100
AcDbLine
 10
4.5913556396
 20
7.8082781578
 30
0.0
 11
4.5683271459
 21
7.8082781578
 31
0.0
  0
ELLIPSE
  5
10A
330
1F
100
AcDbEntity
  8
0
  6
Continuous
 62
     7
370
    25
100
AcDbEllipse
 10
4.7567150965
 20
8.1369724235
 30
0.0
 11
0.0
 21
-0.5000000000000027
 31
-3.552713678800501E-15
210
0.0
220
-7.105427357600964E-15
230
1.0
 40
0.5
 41
4.870434645921087
 42
5.429736933316447
  0
LINE
  5
10B
330
1F
100
AcDbEntity
  8
0
  6
Continuous
 62
     7
370
    25
100
AcDbLine
 10
4.5098309068
 20
8.0582781578
 30
0.0
 11
4.5067150965
 21
8.0582781578
 31
0.0
  0
LINE
  5
10C
330
1F
100
AcDbEntity
  8
0
  6
Continuous
 62
     7
370
    25
100
AcDbLine
 10
4.5067150965
 20
8.0582781578
 30
0.0
 11
4.5067150965
 21
8.5942781578
 31
0.0
  0
LINE
  5
10D
330
1F
100
AcDbEntity
  8
0
  6
Continuous
 62
     7
370
    25
100
AcDbLine
 10
4.7567150965
 20
8.4692781578
 30
0.0
 11
4.7567150965
 21
7.8707781578
 31
0.0
  0
LINE
  5
10E
330
1F
100
AcDbEntity
  8
0
  6
Continuous
 62
     7
370
    25
100
AcDbLine
 10
4.7567150965
 20
7.8707781578
 30
0.0
 11
4.8817150965
 21
7.8707781578
 31
0.0
  0
LINE
  5
10F
330
1F
100
AcDbEntity
  8
0
  6
Continuous
 62
     7
370
    25
100
AcDbLine
 10
4.8817150965
 20
7.8707781578
 30
0.0
 11
4.8817150965
 21
8.4692781578
 31
0.0
  0
LINE
  5
110
330
1F
100
AcDbEntity
  8
0
  6
Continuous
 62
     7
370
    25
100
AcDbLine
 10
4.5379650965
 20
9.1435545409
 30
0.0
 11
4.5379650965
 21
9.2058167095
 31
0.0
  0
LINE
  5
111
330
1F
100
AcDbEntity
  8
0
  6
Continuous
 62
     7
370
    25
100
AcDbLine
 10
4.635684367
 20
9.5248167095
 30
0.0
 11
4.5067150965
 21
9.5248167095
 31
0.0
  0
LINE
  5
112
330
1F
100
AcDbEntity
  8
0
  6
Continuous
 62
     7
370
    25
100
AcDbLine
 10
4.5067150965
 20
9.5248167095
 30
0.0
 11
4.5067150965
 21
9.672606021
 31
0.0
  0
SPLINE
  5
113
330
1F
100
AcDbEntity
  8
0
  6
Continuous
 62
     7
370
    25
100
AcDbSpline
210
0.0
220
0.0
230
1.0
 70
     8
 71
     3
 72
    25
 73
    21
 74
     0
 42
0.00000001
 43
0.00000001
 40
0.0
 40
0.0
 40
0.0
 40
0.0
 40
0.0513829149485504
 40
0.1509430104509155
 40
0.2534768788520935
 40
0.3491881264753666
 40
0.4473389028817016
 40
0.5582265909402928
 40
0.6725628238034311
 40
0.7216764284159897
 40
0.8357377736141871
 40
0.9531346657525201
 40
0.9732522494077248
 40
0.9847219835122979
 40
0.9912710103774964
 40
0.9950122779640205
 40
0.9971499289606269
 40
0.9980282182533292
 40
0.9984025359693617
 40
1.0
 40
1.0
 40
1.0
 40
1.0
 10
4.756715096529373
 20
9.780347949378882
 30
0.0
 10
4.749798561388249
 20
9.780273754689324
 30
0.0
 10
4.729480472444949
 20
9.780055799561389
 30
0.0
 10
4.695699951088242
 20
9.777578535940677
 30
0.0
 10
4.657779617939294
 20
9.772107910865731
 30
0.0
 10
4.622797804632179
 20
9.764191059460346
 30
0.0
 10
4.590428251976025
 20
9.753859628097505
 30
0.0
 10
4.560989503220733
 20
9.740714403696792
 30
0.0
 10
4.541125915484196
 20
9.727945901786358
 30
0.0
 10
4.525141390729017
 20
9.714176964755481
 30
0.0
 10
4.513164962321643
 20
9.699476393679337
 30
0.0
 10
4.508008086495017
 20
9.685710638761662
 30
0.0
 10
4.506945626660798
 20
9.677508037770066
 30
0.0
 10
4.506790260674394
 20
9.675405652601265
 30
0.0
 10
4.506739627473422
 20
9.674205550663928
 30
0.0
 10
4.506723107741514
 20
9.673519994826062
 30
0.0
 10
4.506717968809511
 20
9.673147218882429
 30
0.0
 10
4.506716391582568
 20
9.672960180846596
 30
0.0
 10
4.506715389194776
 20
9.672802942359821
 30
0.0
 10
4.506715227515717
 20
9.672694155798757
 30
0.0
 10
4.506715096529372
 20
9.672606020984338
 30
0.0
  0
LINE
  5
114
330
1F
100
AcDbEntity
  8
0
  6
Continuous
 62
     7
370
    25
100
AcDbLine
 10
4.7567150965
 20
9.7803479494
 30
0.0
 11
4.7567150965
 21
9.5275403265
 31
0.0
  0
ARC
  5
115
330
1F
100
AcDbEntity
  8
0
  6
Continuous
 62
     7
370
    25
100
AcDbCircle
 10
4.7536791104
 20
6.9719386112
 30
0.0
 40
2.55560351865159
100
AcDbArc
 50
89.9319341861
 51
92.6463436357
  0
LINE
  5
116
330
1F
100
AcDbEntity
  8
0
  6
Continuous
 62
     7
370
    25
100
AcDbLine
 10
4.8817150965
 20
9.5275403265
 30
0.0
 11
4.7567150965
 21
9.5275403265
 31
0.0
  0
LINE
  5
117
330
1F
100
AcDbEntity
  8
0
  6
Continuous
 62
     7
370
    25
100
AcDbLine
 10
4.8817150965
 20
9.7803479494
 30
0.0
 11
4.7567150965
 21
9.7803479494
 31
0.0
  0
LINE
  5
118
330
1F
100
AcDbEntity
  8
0
  6
Continuous
 62
     7
370
    25
100
AcDbLine
 10
4.8817150965
 20
9.5275403265
 30
0.0
 11
4.8817150965
 21
9.5572177055
 31
0.0
  0
LINE
  5
119
330
1F
100
AcDbEntity
  8
0
  6
Continuous
 62
     7
370
    25
100
AcDbLine
 10
4.8817150965
 20
9.7267068485
 30
0.0
 11
4.8817150965
 21
9.7803479494
 31
0.0
  0
LINE
  5
11A
330
1F
100
AcDbEntity
  8
0
  6
Continuous
 62
     7
370
    25
100
AcDbLine
 10
4.8817150965
 20
9.5248167095
 30
0.0
 11
4.7879650965
 21
9.5248167095
 31
0.0
  0
LINE
  5
11B
330
1F
100
AcDbEntity
  8
0
  6
Continuous
 62
     7
370
    25
100
AcDbLine
 10
4.7879650965
 20
9.5248167095
 30
0.0
 11
4.635684367
 21
9.5248167095
 31
0.0
  0
LINE
  5
11C
330
1F
100
AcDbEntity
  8
0
  6
Continuous
 62
     7
370
    25
100
AcDbLine
 10
4.8817150965
 20
9.5250221717
 30
0.0
 11
4.8817150965
 21
9.5275403265
 31
0.0
  0
SPLINE
  5
11D
330
1F
100
AcDbEntity
  8
0
  6
Continuous
 62
     7
370
    25
100
AcDbSpline
210
0.0
220
0.0
230
1.0
 70
     8
 71
     3
 72
    26
 73
    22
 74
     0
 42
0.00000001
 43
0.00000001
 40
0.0
 40
0.0
 40
0.0
 40
0.0
 40
0.0513589524446582
 40
0.1523634210121039
 40
0.253381453895611
 40
0.3503173957720114
 40
0.4472728496258525
 40
0.5727167973453237
 40
0.698209312425687
 40
0.7216376226509528
 40
0.8570753707914767
 40
0.9190964840553281
 40
0.9538966993999762
 40
0.9736750956353687
 40
0.9849596741664206
 40
0.9914055815089102
 40
0.9950887731394963
 40
0.9971935102480093
 40
0.9980291395437697
 40
0.998403297687183
 40
0.9999999999999999
 40
0.9999999999999999
 40
0.9999999999999999
 40
0.9999999999999999
 10
4.756715096529372
 20
9.889460597083074
 30
0.0
 10
4.749798246010901
 20
9.88931218522389
 30
0.0
 10
4.729278454281128
 20
9.888871900959758
 30
0.0
 10
4.695510540872341
 20
9.883797450918753
 30
0.0
 10
4.65743480013776
 20
9.87275077163021
 30
0.0
 10
4.622675808056739
 20
9.856808091678127
 30
0.0
 10
4.588758034082115
 20
9.835033966575521
 30
0.0
 10
4.557542565701652
 20
9.806173673945052
 30
0.0
 10
4.538565773673202
 20
9.779995627343903
 30
0.0
 10
4.522870637549065
 20
9.751374384919533
 30
0.0
 10
4.513864686833908
 20
9.727890639527052
 30
0.0
 10
4.508837418451085
 20
9.702481544756825
 30
0.0
 10
4.5074011314407
 20
9.68960487166604
 30
0.0
 10
4.506938512557999
 20
9.682309297968937
 30
0.0
 10
4.506787995881979
 20
9.678149680230604
 30
0.0
 10
4.506738896514154
 20
9.675773913129987
 30
0.0
 10
4.506722870764733
 20
9.674416356265949
 30
0.0
 10
4.506717906008374
 20
9.673681293546059
 30
0.0
 10
4.506716376751523
 20
9.67331344348542
 30
0.0
 10
4.506715389155926
 20
9.673001971474408
 30
0.0
 10
4.506715227497634
 20
9.672783233020729
 30
0.0
 10
4.506715096529372
 20
9.672606020984338
 30
0.0
  0
LINE
  5
11E
330
1F
100
AcDbEntity
  8
0
  6
Continuous
 62
     7
370
    25
100
AcDbLine
 10
4.7567150965
 20
9.8894605971
 30
0.0
 11
4.7567150965
 21
9.7803479494
 31
0.0
  0
LINE
  5
11F
330
1F
100
AcDbEntity
  8
0
  6
Continuous
 62
     7
370
    25
100
AcDbLine
 10
4.7567150965
 20
9.8894605971
 30
0.0
 11
4.8817150965
 21
9.8894605971
 31
0.0
  0
LINE
  5
120
330
1F
100
AcDbEntity
  8
0
  6
Continuous
 62
     7
370
    25
100
AcDbLine
 10
4.8817150965
 20
9.8894605971
 30
0.0
 11
4.8817150965
 21
9.7803479494
 31
0.0
  0
LINE
  5
121
330
1F
100
AcDbEntity
  8
0
  6
Continuous
 62
     7
370
    25
100
AcDbLine
 10
4.5379650965
 20
9.4625545409
 30
0.0
 11
4.5379650965
 21
9.5248167095
 31
0.0
  0
LINE
  5
122
330
1F
100
AcDbEntity
  8
0
  6
Continuous
 62
     7
370
    25
100
AcDbLine
 10
4.5067150965
 20
9.672606021
 30
0.0
 11
4.5067150965
 21
9.8516781578
 31
0.0
  0
LINE
  5
123
330
1F
100
AcDbEntity
  8
0
  6
Continuous
 62
     7
370
    25
100
AcDbLine
 10
4.8817150965
 20
9.8894605971
 30
0.0
 11
4.8817150965
 21
10.1016781578
 31
0.0
  0
LINE
  5
124
330
1F
100
AcDbEntity
  8
0
  6
Continuous
 62
     7
370
    25
100
AcDbLine
 10
4.5067150965
 20
8.7105545409
 30
0.0
 11
4.5067150965
 21
8.7728167095
 31
0.0
  0
LINE
  5
125
330
1F
100
AcDbEntity
  8
0
  6
Continuous
 62
     7
370
    25
100
AcDbLine
 10
4.5067150965
 20
9.1435545409
 30
0.0
 11
4.5067150965
 21
9.2058167095
 31
0.0
  0
LINE
  5
126
330
1F
100
AcDbEntity
  8
0
  6
Continuous
 62
     7
370
    25
100
AcDbLine
 10
4.8817150965
 20
7.8082781578
 30
0.0
 11
4.5913556396
 21
7.8082781578
 31
0.0
  0
LINE
  5
127
330
1F
100
AcDbEntity
  8
0
  6
Continuous
 62
     7
370
    25
100
AcDbLine
 10
4.8817150965
 20
7.8707781578
 30
0.0
 11
4.8817150965
 21
7.8082781578
 31
0.0
  0
LINE
  5
128
330
1F
100
AcDbEntity
  8
0
  6
Continuous
 62
     7
370
    25
100
AcDbLine
 10
4.5067150965
 20
9.4625545409
 30
0.0
 11
4.5067150965
 21
9.5248167095
 31
0.0
  0
SPLINE
  5
129
330
1F
100
AcDbEntity
  8
0
  6
Continuous
 62
     7
370
    25
100
AcDbSpline
210
0.0
220
0.0
230
1.0
 70
     8
 71
     3
 72
    10
 73
     6
 74
     0
 42
0.00000001
 43
0.00000001
 40
0.0
 40
0.0
 40
0.0
 40
0.0
 40
0.334743991516577
 40
0.6792001051787622
 40
1.0
 40
1.0
 40
1.0
 40
1.0
 10
10.69421509652937
 20
8.713182595443715
 30
0.0
 10
10.70803029136525
 20
8.71312254909168
 30
0.0
 10
10.73606150932106
 20
8.71300071422787
 30
0.0
 10
10.77640018080846
 20
8.712095034450655
 30
0.0
 10
10.80116265924843
 20
8.711055719542427
 30
0.0
 10
10.81310362690262
 20
8.710554540884898
 30
0.0
  0
SPLINE
  5
12A
330
1F
100
AcDbEntity
  8
0
  6
Continuous
 62
     7
370
    25
100
AcDbSpline
210
0.0
220
0.0
230
1.0
 70
    24
 71
     3
 72
    14
 73
    10
 74
     0
 42
0.00000001
 43
0.00000001
 40
0.0
 40
0.0
 40
0.0
 40
0.0
 40
0.1568538100917823
 40
0.3137076768638609
 40
0.4705608260779713
 40
0.627414104594037
 40
0.7842807834577424
 40
0.9411477917167119
 40
0.9999999999999999
 40
0.9999999999999999
 40
0.9999999999999999
 40
0.9999999999999999
 10
10.81310362690262
 20
8.710554540884898
 30
0.0
 10
10.82513352521403
 20
8.710554540884898
 30
0.0
 10
10.84919332618395
 20
8.710554540884898
 30
0.0
 10
10.8800518357905
 20
8.710554540884898
 30
0.0
 10
10.90576812766721
 20
8.710554540884898
 30
0.0
 10
10.92555686146545
 20
8.710554540884898
 30
0.0
 10
10.93858876001147
 20
8.710554540884898
 30
0.0
 10
10.94374108973079
 20
8.710554540884896
 30
0.0
 10
10.94411349692972
 20
8.710554540884898
 30
0.0
 10
10.94421509652937
 20
8.710554540884898
 30
0.0
  0
LINE
  5
12B
330
1F
100
AcDbEntity
  8
0
  6
Continuous
 62
     7
370
    25
100
AcDbLine
 10
10.9442150965
 20
8.7105545409
 30
0.0
 11
10.9442150965
 21
8.5942781578
 31
0.0
  0
LWPOLYLINE
  5
12C
330
1F
100
AcDbEntity
  8
0
  6
Continuous
 62
     7
370
    25
100
AcDbPolyline
 90
       11
 70
   128
 43
0.0
 10
10.6942150965
 20
8.4692781578
 10
10.7333237128
 20
8.4708171153
 10
10.7714693451
 20
8.4753960933
 10
10.8077127215
 20
8.4829023423
 10
10.8411614096
 20
8.4931510335
 10
10.8709917918
 20
8.5058898102
 10
10.8964693451
 20
8.5208050013
 10
10.9169667276
 20
8.5375293454
 10
10.9319792256
 20
8.5556510335
 10
10.9411371817
 20
8.5747238497
 10
10.9442150965
 20
8.5942781578
  0
LINE
  5
12D
330
1F
100
AcDbEntity
  8
0
  6
Continuous
 62
     7
370
    25
100
AcDbLine
 10
10.6942150965
 20
8.4692781578
 30
0.0
 11
10.6942150965
 21
8.7131825954
 31
0.0
  0
LINE
  5
12E
330
1F
100
AcDbEntity
  8
0
  6
Continuous
 62
     7
370
    25
100
AcDbLine
 10
10.6942150965
 20
8.4692781578
 30
0.0
 11
10.5692150965
 21
8.4692781578
 31
0.0
  0
LINE
  5
12F
330
1F
100
AcDbEntity
  8
0
  6
Continuous
 62
     7
370
    25
100
AcDbLine
 10
10.5692150965
 20
8.7131825954
 30
0.0
 11
10.5692150965
 21
8.4692781578
 31
0.0
  0
LINE
  5
130
330
1F
100
AcDbEntity
  8
0
  6
Continuous
 62
     7
370
    25
100
AcDbLine
 10
10.5692150965
 20
8.7131825954
 30
0.0
 11
10.6942150965
 21
8.7131825954
 31
0.0
  0
LINE
  5
131
330
1F
100
AcDbEntity
  8
0
  6
Continuous
 62
     7
370
    25
100
AcDbLine
 10
10.5692150965
 20
8.7728167095
 30
0.0
 11
10.6629650965
 21
8.7728167095
 31
0.0
  0
LINE
  5
132
330
1F
100
AcDbEntity
  8
0
  6
Continuous
 62
     7
370
    25
100
AcDbLine
 10
10.5692150965
 20
8.7755403265
 30
0.0
 11
10.6942150965
 21
8.7755403265
 31
0.0
  0
ARC
  5
133
330
1F
100
AcDbEntity
  8
0
  6
Continuous
 62
     7
370
    25
100
AcDbCircle
 10
10.6972510827
 20
6.2199386112
 30
0.0
 40
2.555603518654284
100
AcDbArc
 50
87.3536563643
 51
90.0680658139
  0
LINE
  5
134
330
1F
100
AcDbEntity
  8
0
  6
Continuous
 62
     7
370
    25
100
AcDbLine
 10
10.6629650965
 20
8.7728167095
 30
0.0
 11
10.8152458261
 21
8.7728167095
 31
0.0
  0
LINE
  5
135
330
1F
100
AcDbEntity
  8
0
  6
Continuous
 62
     7
370
    25
100
AcDbLine
 10
10.5692150965
 20
8.7728167095
 30
0.0
 11
10.5692150965
 21
8.7755403265
 31
0.0
  0
LINE
  5
136
330
1F
100
AcDbEntity
  8
0
  6
Continuous
 62
     7
370
    25
100
AcDbLine
 10
10.5692150965
 20
9.1462781578
 30
0.0
 11
10.6942150965
 21
9.1462781578
 31
0.0
  0
LINE
  5
137
330
1F
100
AcDbEntity
  8
0
  6
Continuous
 62
     7
370
    25
100
AcDbLine
 10
10.6942150965
 20
8.7755403265
 30
0.0
 11
10.6942150965
 21
9.1462781578
 31
0.0
  0
LINE
  5
138
330
1F
100
AcDbEntity
  8
0
  6
Continuous
 62
     7
370
    25
100
AcDbLine
 10
10.5692150965
 20
8.8572384966
 30
0.0
 11
10.5692150965
 21
8.7755403265
 31
0.0
  0
LINE
  5
139
330
1F
100
AcDbEntity
  8
0
  6
Continuous
 62
     7
370
    25
100
AcDbLine
 10
10.8152458261
 20
9.1435545409
 30
0.0
 11
10.9442150965
 21
9.1435545409
 31
0.0
  0
LINE
  5
13A
330
1F
100
AcDbEntity
  8
0
  6
Continuous
 62
     7
370
    25
100
AcDbLine
 10
10.9442150965
 20
9.1435545409
 30
0.0
 11
10.9442150965
 21
8.7728167095
 31
0.0
  0
LINE
  5
13B
330
1F
100
AcDbEntity
  8
0
  6
Continuous
 62
     7
370
    25
100
AcDbLine
 10
10.9442150965
 20
8.7728167095
 30
0.0
 11
10.8152458261
 21
8.7728167095
 31
0.0
  0
ARC
  5
13C
330
1F
100
AcDbEntity
  8
0
  6
Continuous
 62
     7
370
    25
100
AcDbCircle
 10
10.6972510827
 20
6.5906764425
 30
0.0
 40
2.555603518654284
100
AcDbArc
 50
87.3536563643
 51
90.0680658139
  0
LINE
  5
13D
330
1F
100
AcDbEntity
  8
0
  6
Continuous
 62
     7
370
    25
100
AcDbLine
 10
10.9129650965
 20
8.7728167095
 30
0.0
 11
10.9129650965
 21
8.7105545409
 31
0.0
  0
LINE
  5
13E
330
1F
100
AcDbEntity
  8
0
  6
Continuous
 62
     7
370
    25
100
AcDbLine
 10
10.5692150965
 20
8.7431978941
 30
0.0
 11
10.5692150965
 21
8.7728167095
 31
0.0
  0
LINE
  5
13F
330
1F
100
AcDbEntity
  8
0
  6
Continuous
 62
     7
370
    25
100
AcDbLine
 10
10.5692150965
 20
9.2058167095
 30
0.0
 11
10.6629650965
 21
9.2058167095
 31
0.0
  0
LINE
  5
140
330
1F
100
AcDbEntity
  8
0
  6
Continuous
 62
     7
370
    25
100
AcDbLine
 10
10.5692150965
 20
9.2085403265
 30
0.0
 11
10.6942150965
 21
9.2085403265
 31
0.0
  0
ARC
  5
141
330
1F
100
AcDbEntity
  8
0
  6
Continuous
 62
     7
370
    25
100
AcDbCircle
 10
10.6972510827
 20
6.6529386112
 30
0.0
 40
2.555603518650454
100
AcDbArc
 50
87.3536563643
 51
90.0680658139
  0
LINE
  5
142
330
1F
100
AcDbEntity
  8
0
  6
Continuous
 62
     7
370
    25
100
AcDbLine
 10
10.6629650965
 20
9.2058167095
 30
0.0
 11
10.8152458261
 21
9.2058167095
 31
0.0
  0
LINE
  5
143
330
1F
100
AcDbEntity
  8
0
  6
Continuous
 62
     7
370
    25
100
AcDbLine
 10
10.5692150965
 20
9.2059243833
 30
0.0
 11
10.5692150965
 21
9.2085403265
 31
0.0
  0
LINE
  5
144
330
1F
100
AcDbEntity
  8
0
  6
Continuous
 62
     7
370
    25
100
AcDbLine
 10
10.5692150965
 20
9.4652781578
 30
0.0
 11
10.6942150965
 21
9.4652781578
 31
0.0
  0
LINE
  5
145
330
1F
100
AcDbEntity
  8
0
  6
Continuous
 62
     7
370
    25
100
AcDbLine
 10
10.6942150965
 20
9.2085403265
 30
0.0
 11
10.6942150965
 21
9.4652781578
 31
0.0
  0
LINE
  5
146
330
1F
100
AcDbEntity
  8
0
  6
Continuous
 62
     7
370
    25
100
AcDbLine
 10
10.5692150965
 20
9.2385475974
 30
0.0
 11
10.5692150965
 21
9.2085403265
 31
0.0
  0
LINE
  5
147
330
1F
100
AcDbEntity
  8
0
  6
Continuous
 62
     7
370
    25
100
AcDbLine
 10
10.8152458261
 20
9.4625545409
 30
0.0
 11
10.9442150965
 21
9.4625545409
 31
0.0
  0
LINE
  5
148
330
1F
100
AcDbEntity
  8
0
  6
Continuous
 62
     7
370
    25
100
AcDbLine
 10
10.9442150965
 20
9.4625545409
 30
0.0
 11
10.9442150965
 21
9.2058167095
 31
0.0
  0
LINE
  5
149
330
1F
100
AcDbEntity
  8
0
  6
Continuous
 62
     7
370
    25
100
AcDbLine
 10
10.9442150965
 20
9.2058167095
 30
0.0
 11
10.8152458261
 21
9.2058167095
 31
0.0
  0
ARC
  5
14A
330
1F
100
AcDbEntity
  8
0
  6
Continuous
 62
     7
370
    25
100
AcDbCircle
 10
10.6972510827
 20
6.9096764425
 30
0.0
 40
2.555603518650913
100
AcDbArc
 50
87.3536563643
 51
90.0680658139
  0
LINE
  5
14B
330
1F
100
AcDbEntity
  8
0
  6
Continuous
 62
     7
370
    25
100
AcDbLine
 10
10.6942150965
 20
7.8707781578
 30
0.0
 11
10.6942150965
 21
8.4692781578
 31
0.0
  0
LINE
  5
14C
330
1F
100
AcDbEntity
  8
0
  6
Continuous
 62
     7
370
    25
100
AcDbLine
 10
10.5692150965
 20
7.8707781578
 30
0.0
 11
10.6942150965
 21
7.8707781578
 31
0.0
  0
LINE
  5
14D
330
1F
100
AcDbEntity
  8
0
  6
Continuous
 62
     7
370
    25
100
AcDbLine
 10
10.5692150965
 20
8.4692781578
 30
0.0
 11
10.5692150965
 21
7.8707781578
 31
0.0
  0
LINE
  5
14E
330
1F
100
AcDbEntity
  8
0
  6
Continuous
 62
     7
370
    25
100
AcDbLine
 10
10.9442150965
 20
8.5942781578
 30
0.0
 11
10.9442150965
 21
8.0582781578
 31
0.0
  0
LINE
  5
14F
330
1F
100
AcDbEntity
  8
0
  6
Continuous
 62
     7
370
    25
100
AcDbLine
 10
10.9442150965
 20
8.0582781578
 30
0.0
 11
10.9410992863
 21
8.0582781578
 31
0.0
  0
ELLIPSE
  5
150
330
1F
100
AcDbEntity
  8
0
  6
Continuous
 62
     7
370
    25
100
AcDbEllipse
 10
10.6942150965
 20
8.1369724235
 30
0.0
 11
0.0
 21
0.4999999999999947
 31
1.332267629550188E-15
210
0.0
220
-2.664535259100404E-15
230
1.0
 40
0.5
 41
3.995041027452949
 42
4.554343314848297
  0
LINE
  5
151
330
1F
100
AcDbEntity
  8
0
  6
Continuous
 62
     7
370
    25
100
AcDbLine
 10
10.8826030471
 20
7.8082781578
 30
0.0
 11
10.8595745535
 21
7.8082781578
 31
0.0
  0
SPLINE
  5
152
330
1F
100
AcDbEntity
  8
0
  6
Continuous
 62
     7
370
    25
100
AcDbSpline
210
0.0
220
0.0
230
1.0
 70
     8
 71
     3
 72
    12
 73
     8
 74
     0
 42
0.00000001
 43
0.00000001
 40
0.0
 40
0.0
 40
0.0
 40
0.0
 40
0.1983294903264961
 40
0.4022258023004641
 40
0.6947469694547725
 40
0.9970251540811728
 40
1.0
 40
1.0
 40
1.0
 40
1.0
 10
10.85957455347091
 20
7.808278157845776
 30
0.0
 10
10.84953926911565
 20
7.80896446451385
 30
0.0
 10
10.82918702450261
 20
7.810356341484522
 30
0.0
 10
10.79130787025586
 20
7.821443522468085
 30
0.0
 10
10.7463073979621
 20
7.840672068192116
 30
0.0
 10
10.71190886503196
 20
7.859949077578576
 30
0.0
 10
10.69438586705026
 20
7.870673641519715
 30
0.0
 10
10.69421509652937
 20
7.870778157845776
 30
0.0
  0
LINE
  5
153
330
1F
100
AcDbEntity
  8
0
  6
Continuous
 62
     7
370
    25
100
AcDbLine
 10
10.9129650965
 20
9.2058167095
 30
0.0
 11
10.9129650965
 21
9.1435545409
 31
0.0
  0
LINE
  5
154
330
1F
100
AcDbEntity
  8
0
  6
Continuous
 62
     7
370
    25
100
AcDbLine
 10
10.6942150965
 20
9.7803479494
 30
0.0
 11
10.5692150965
 21
9.7803479494
 31
0.0
  0
LINE
  5
155
330
1F
100
AcDbEntity
  8
0
  6
Continuous
 62
     7
370
    25
100
AcDbLine
 10
10.6942150965
 20
9.5275403265
 30
0.0
 11
10.6942150965
 21
9.7803479494
 31
0.0
  0
LINE
  5
156
330
1F
100
AcDbEntity
  8
0
  6
Continuous
 62
     7
370
    25
100
AcDbLine
 10
10.5692150965
 20
9.5275403265
 30
0.0
 11
10.6942150965
 21
9.5275403265
 31
0.0
  0
LINE
  5
157
330
1F
100
AcDbEntity
  8
0
  6
Continuous
 62
     7
370
    25
100
AcDbLine
 10
10.5692150965
 20
9.7803479494
 30
0.0
 11
10.5692150965
 21
9.7267068485
 31
0.0
  0
LINE
  5
158
330
1F
100
AcDbEntity
  8
0
  6
Continuous
 62
     7
370
    25
100
AcDbLine
 10
10.5692150965
 20
9.5572177055
 30
0.0
 11
10.5692150965
 21
9.5275403265
 31
0.0
  0
LINE
  5
159
330
1F
100
AcDbEntity
  8
0
  6
Continuous
 62
     7
370
    25
100
AcDbLine
 10
10.5692150965
 20
9.5248167095
 30
0.0
 11
10.6629650965
 21
9.5248167095
 31
0.0
  0
ARC
  5
15A
330
1F
100
AcDbEntity
  8
0
  6
Continuous
 62
     7
370
    25
100
AcDbCircle
 10
10.6972510827
 20
6.9719386112
 30
0.0
 40
2.555603518646097
100
AcDbArc
 50
87.3536563643
 51
90.0680658139
  0
LINE
  5
15B
330
1F
100
AcDbEntity
  8
0
  6
Continuous
 62
     7
370
    25
100
AcDbLine
 10
10.6629650965
 20
9.5248167095
 30
0.0
 11
10.8152458261
 21
9.5248167095
 31
0.0
  0
LINE
  5
15C
330
1F
100
AcDbEntity
  8
0
  6
Continuous
 62
     7
370
    25
100
AcDbLine
 10
10.5692150965
 20
9.5250221717
 30
0.0
 11
10.5692150965
 21
9.5275403265
 31
0.0
  0
SPLINE
  5
15D
330
1F
100
AcDbEntity
  8
0
  6
Continuous
 62
     7
370
    25
100
AcDbSpline
210
0.0
220
0.0
230
1.0
 70
     8
 71
     3
 72
    25
 73
    21
 74
     0
 42
0.00000001
 43
0.00000001
 40
0.0
 40
0.0
 40
0.0
 40
0.0
 40
0.0513850693150597
 40
0.1524241890469363
 40
0.2534759907806241
 40
0.3503979232870195
 40
0.4473384291932198
 40
0.5599330655514725
 40
0.672559503815134
 40
0.7216751676472398
 40
0.8373960506914643
 40
0.9531327007977187
 40
0.973251127936561
 40
0.9847213429404905
 40
0.9912706443912006
 40
0.9950120688404014
 40
0.9971498094637546
 40
0.9980281355810945
 40
0.9984024689913982
 40
0.9999999999999999
 40
0.9999999999999999
 40
0.9999999999999999
 40
0.9999999999999999
 10
10.69421509652937
 20
9.78034794937888
 30
0.0
 10
10.701131901958
 20
9.780274277974664
 30
0.0
 10
10.72164931046417
 20
9.780055745545042
 30
0.0
 10
10.75541444949552
 20
9.777537577874403
 30
0.0
 10
10.79348775882306
 20
9.77205437660922
 30
0.0
 10
10.8282492733394
 20
9.764139868811109
 30
0.0
 10
10.8608075933322
 20
9.753759796356606
 30
0.0
 10
10.89004184061274
 20
9.740623777059756
 30
0.0
 10
10.90990534805789
 20
9.7278619604761
 30
0.0
 10
10.92588658669705
 20
9.714094885628546
 30
0.0
 10
10.93777358610931
 20
9.699380369819753
 30
0.0
 10
10.9429358131274
 20
9.685619162232545
 30
0.0
 10
10.94398447987385
 20
9.67750802840446
 30
0.0
 10
10.94413994194413
 20
9.675405653636046
 30
0.0
 10
10.94419056452675
 20
9.674205550549345
 30
0.0
 10
10.94420708543591
 20
9.673519994838909
 30
0.0
 10
10.94421222424005
 20
9.673147218881438
 30
0.0
 10
10.94421380147671
 20
9.672960180846655
 30
0.0
 10
10.9442148038635
 20
9.672802942359771
 30
0.0
 10
10.94421496554282
 20
9.672694155798736
 30
0.0
 10
10.94421509652937
 20
9.672606020984338
 30
0.0
  0
LINE
  5
15E
330
1F
100
AcDbEntity
  8
0
  6
Continuous
 62
     7
370
    25
100
AcDbLine
 10
10.9442150965
 20
9.672606021
 30
0.0
 11
10.9442150965
 21
9.5248167095
 31
0.0
  0
LINE
  5
15F
330
1F
100
AcDbEntity
  8
0
  6
Continuous
 62
     7
370
    25
100
AcDbLine
 10
10.9442150965
 20
9.5248167095
 30
0.0
 11
10.8152458261
 21
9.5248167095
 31
0.0
  0
SPLINE
  5
160
330
1F
100
AcDbEntity
  8
0
  6
Continuous
 62
     7
370
    25
100
AcDbSpline
210
0.0
220
0.0
230
1.0
 70
     8
 71
     3
 72
    26
 73
    22
 74
     0
 42
0.00000001
 43
0.00000001
 40
0.0
 40
0.0
 40
0.0
 40
0.0
 40
0.0513569096913443
 40
0.1508772498467034
 40
0.2533830323256659
 40
0.3491076651552933
 40
0.4472744296296635
 40
0.5703792108426405
 40
0.6982213158623451
 40
0.7216486942489168
 40
0.857081055482232
 40
0.9190997019154808
 40
0.9538985331147697
 40
0.9736761426833227
 40
0.9849602723810292
 40
0.9914059233437036
 40
0.9950889684788569
 40
0.9971936218734542
 40
0.9980292179328675
 40
0.9984033611944891
 40
1.0
 40
1.0
 40
1.0
 40
1.0
 10
10.69421509652937
 20
9.889460597083074
 30
0.0
 10
10.70113167210212
 20
9.889311123029525
 30
0.0
 10
10.72145131179707
 20
9.888871995475743
 30
0.0
 10
10.75523484268519
 20
9.883880445102056
 30
0.0
 10
10.79315720589454
 20
9.872858792253407
 30
0.0
 10
10.82813809579871
 20
9.856911577395794
 30
0.0
 10
10.86179639739586
 20
9.835275783712186
 30
0.0
 10
10.89326123357732
 20
9.80643167903408
 30
0.0
 10
10.91223195853148
 20
9.78023104082122
 30
0.0
 10
10.92806129159556
 20
9.751375490735482
 30
0.0
 10
10.9370651831625
 20
9.727890433749515
 30
0.0
 10
10.94209280522155
 20
9.70248156425663
 30
0.0
 10
10.94352905828448
 20
9.689604869542697
 30
0.0
 10
10.94399168086805
 20
9.682309298202897
 30
0.0
 10
10.94414219713615
 20
9.678149680204733
 30
0.0
 10
10.94419129654909
 20
9.675773913132854
 30
0.0
 10
10.94420732229351
 20
9.67441635626563
 30
0.0
 10
10.9442122870504
 20
9.673681293546087
 30
0.0
 10
10.94421381630722
 20
9.67331344348542
 30
0.0
 10
10.94421480390282
 20
9.67300197147441
 30
0.0
 10
10.94421496556111
 20
9.672783233020729
 30
0.0
 10
10.94421509652937
 20
9.672606020984338
 30
0.0
  0
LINE
  5
161
330
1F
100
AcDbEntity
  8
0
  6
Continuous
 62
     7
370
    25
100
AcDbLine
 10
10.6942150965
 20
9.7803479494
 30
0.0
 11
10.6942150965
 21
9.8894605971
 31
0.0
  0
LINE
  5
162
330
1F
100
AcDbEntity
  8
0
  6
Continuous
 62
     7
370
    25
100
AcDbLine
 10
10.5692150965
 20
9.8894605971
 30
0.0
 11
10.6942150965
 21
9.8894605971
 31
0.0
  0
LINE
  5
163
330
1F
100
AcDbEntity
  8
0
  6
Continuous
 62
     7
370
    25
100
AcDbLine
 10
10.5692150965
 20
9.7803479494
 30
0.0
 11
10.5692150965
 21
9.8894605971
 31
0.0
  0
LINE
  5
164
330
1F
100
AcDbEntity
  8
0
  6
Continuous
 62
     7
370
    25
100
AcDbLine
 10
10.9129650965
 20
9.5248167095
 30
0.0
 11
10.9129650965
 21
9.4625545409
 31
0.0
  0
LINE
  5
165
330
1F
100
AcDbEntity
  8
0
  6
Continuous
 62
     7
370
    25
100
AcDbLine
 10
10.9442150965
 20
9.8516781578
 30
0.0
 11
10.9442150965
 21
9.672606021
 31
0.0
  0
LINE
  5
166
330
1F
100
AcDbEntity
  8
0
  6
Continuous
 62
     7
370
    25
100
AcDbLine
 10
10.5692150965
 20
10.1016781578
 30
0.0
 11
10.5692150965
 21
9.8894605971
 31
0.0
  0
LINE
  5
167
330
1F
100
AcDbEntity
  8
0
  6
Continuous
 62
     7
370
    25
100
AcDbLine
 10
10.9442150965
 20
8.7728167095
 30
0.0
 11
10.9442150965
 21
8.7105545409
 31
0.0
  0
LINE
  5
168
330
1F
100
AcDbEntity
  8
0
  6
Continuous
 62
     7
370
    25
100
AcDbLine
 10
10.9442150965
 20
9.2058167095
 30
0.0
 11
10.9442150965
 21
9.1435545409
 31
0.0
  0
LINE
  5
169
330
1F
100
AcDbEntity
  8
0
  6
Continuous
 62
     7
370
    25
100
AcDbLine
 10
10.8595745535
 20
7.8082781578
 30
0.0
 11
10.5692150965
 21
7.8082781578
 31
0.0
  0
LINE
  5
16A
330
1F
100
AcDbEntity
  8
0
  6
Continuous
 62
     7
370
    25
100
AcDbLine
 10
10.5692150965
 20
7.8082781578
 30
0.0
 11
10.5692150965
 21
7.8707781578
 31
0.0
  0
LINE
  5
16B
330
1F
100
AcDbEntity
  8
0
  6
Continuous
 62
     7
370
    25
100
AcDbLine
 10
10.9442150965
 20
9.5248167095
 30
0.0
 11
10.9442150965
 21
9.4625545409
 31
0.0
  0
LINE
  5
16C
330
1F
100
AcDbEntity
  8
0
  6
Continuous
 62
     7
370
    25
100
AcDbLine
 10
10.5692150965
 20
8.7431978941
 30
0.0
 11
4.8817150965
 21
8.7431978941
 31
0.0
  0
LINE
  5
16D
330
1F
100
AcDbEntity
  8
0
  6
Continuous
 62
     7
370
    25
100
AcDbLine
 10
10.5692150965
 20
8.4691233867
 30
0.0
 11
4.8817150965
 21
8.4691233867
 31
0.0
  0
LINE
  5
16E
330
1F
100
AcDbEntity
  8
0
  6
Continuous
 62
     7
370
    25
100
AcDbLine
 10
10.5692150965
 20
8.7431978941
 30
0.0
 11
10.5692150965
 21
8.7105545409
 31
0.0
  0
LINE
  5
16F
330
1F
100
AcDbEntity
  8
0
  6
Continuous
 62
     7
370
    25
100
AcDbLine
 10
4.8817150965
 20
8.7431978941
 30
0.0
 11
4.8817150965
 21
8.7131825954
 31
0.0
  0
LINE
  5
170
330
1F
100
AcDbEntity
  8
0
  6
Continuous
 62
     7
370
    25
100
AcDbLine
 10
4.8817150965
 20
8.8028642443
 30
0.0
 11
10.5692150965
 21
8.8028642443
 31
0.0
  0
LINE
  5
171
330
1F
100
AcDbEntity
  8
0
  6
Continuous
 62
     7
370
    25
100
AcDbLine
 10
4.8817150965
 20
8.8054787667
 30
0.0
 11
10.5692150965
 21
8.8054787667
 31
0.0
  0
LINE
  5
172
330
1F
100
AcDbEntity
  8
0
  6
Continuous
 62
     7
370
    25
100
AcDbLine
 10
4.8817150965
 20
9.1763789313
 30
0.0
 11
10.5692150965
 21
9.1763789313
 31
0.0
  0
LINE
  5
173
330
1F
100
AcDbEntity
  8
0
  6
Continuous
 62
     7
370
    25
100
AcDbLine
 10
10.5692150965
 20
9.1763789313
 30
0.0
 11
10.5692150965
 21
8.8572384966
 31
0.0
  0
LINE
  5
174
330
1F
100
AcDbEntity
  8
0
  6
Continuous
 62
     7
370
    25
100
AcDbLine
 10
4.8817150965
 20
9.1763789313
 30
0.0
 11
4.8817150965
 21
8.8572384966
 31
0.0
  0
LINE
  5
175
330
1F
100
AcDbEntity
  8
0
  6
Continuous
 62
     7
370
    25
100
AcDbLine
 10
4.8817150965
 20
9.2386598039
 30
0.0
 11
10.5692150965
 21
9.2386598039
 31
0.0
  0
LINE
  5
176
330
1F
100
AcDbEntity
  8
0
  6
Continuous
 62
     7
370
    25
100
AcDbLine
 10
4.8817150965
 20
9.4951428132
 30
0.0
 11
10.5692150965
 21
9.4951428132
 31
0.0
  0
LINE
  5
177
330
1F
100
AcDbEntity
  8
0
  6
Continuous
 62
     7
370
    25
100
AcDbLine
 10
10.5692150965
 20
9.4951428132
 30
0.0
 11
10.5692150965
 21
9.2386598039
 31
0.0
  0
LINE
  5
178
330
1F
100
AcDbEntity
  8
0
  6
Continuous
 62
     7
370
    25
100
AcDbLine
 10
4.8817150965
 20
9.4951428132
 30
0.0
 11
4.8817150965
 21
9.2386598039
 31
0.0
  0
LINE
  5
179
330
1F
100
AcDbEntity
  8
0
  6
Continuous
 62
     7
370
    25
100
AcDbLine
 10
4.8817150965
 20
9.2360452815
 30
0.0
 11
10.5692150965
 21
9.2360452815
 31
0.0
  0
LINE
  5
17A
330
1F
100
AcDbEntity
  8
0
  6
Continuous
 62
     7
370
    25
100
AcDbLine
 10
10.5692150965
 20
9.2385475974
 30
0.0
 11
10.5692150965
 21
9.2386598039
 31
0.0
  0
LINE
  5
17B
330
1F
100
AcDbEntity
  8
0
  6
Continuous
 62
     7
370
    25
100
AcDbLine
 10
4.8817150965
 20
9.2385475974
 30
0.0
 11
4.8817150965
 21
9.2386598039
 31
0.0
  0
LINE
  5
17C
330
1F
100
AcDbEntity
  8
0
  6
Continuous
 62
     7
370
    25
100
AcDbLine
 10
10.5692150965
 20
7.8707781578
 30
0.0
 11
4.8817150965
 21
7.8707781578
 31
0.0
  0
LINE
  5
17D
330
1F
100
AcDbEntity
  8
0
  6
Continuous
 62
     7
370
    25
100
AcDbLine
 10
10.5692150965
 20
9.1763789313
 30
0.0
 11
10.5692150965
 21
9.2059243833
 31
0.0
  0
LINE
  5
17E
330
1F
100
AcDbEntity
  8
0
  6
Continuous
 62
     7
370
    25
100
AcDbLine
 10
4.8817150965
 20
9.1763789313
 30
0.0
 11
4.8817150965
 21
9.2059243833
 31
0.0
  0
LINE
  5
17F
330
1F
100
AcDbEntity
  8
0
  6
Continuous
 62
     7
370
    25
100
AcDbLine
 10
4.8817150965
 20
9.5548091635
 30
0.0
 11
10.5692150965
 21
9.5548091635
 31
0.0
  0
LINE
  5
180
330
1F
100
AcDbEntity
  8
0
  6
Continuous
 62
     7
370
    25
100
AcDbLine
 10
4.8817150965
 20
9.5574236858
 30
0.0
 11
10.5692150965
 21
9.5574236858
 31
0.0
  0
LINE
  5
181
330
1F
100
AcDbEntity
  8
0
  6
Continuous
 62
     7
370
    25
100
AcDbLine
 10
10.5692150965
 20
9.5572177055
 30
0.0
 11
10.5692150965
 21
9.5574236858
 31
0.0
  0
LINE
  5
182
330
1F
100
AcDbEntity
  8
0
  6
Continuous
 62
     7
370
    25
100
AcDbLine
 10
4.8817150965
 20
9.5572177055
 30
0.0
 11
4.8817150965
 21
9.5574236858
 31
0.0
  0
LINE
  5
183
330
1F
100
AcDbEntity
  8
0
  6
Continuous
 62
     7
370
    25
100
AcDbLine
 10
10.5692150965
 20
9.7267068485
 30
0.0
 11
4.8817150965
 21
9.7267068485
 31
0.0
  0
LINE
  5
184
330
1F
100
AcDbEntity
  8
0
  6
Continuous
 62
     7
370
    25
100
AcDbLine
 10
10.5692150965
 20
9.7267068485
 30
0.0
 11
10.5692150965
 21
9.5574236858
 31
0.0
  0
LINE
  5
185
330
1F
100
AcDbEntity
  8
0
  6
Continuous
 62
     7
370
    25
100
AcDbLine
 10
4.8817150965
 20
9.7267068485
 30
0.0
 11
4.8817150965
 21
9.5574236858
 31
0.0
  0
LINE
  5
186
330
1F
100
AcDbEntity
  8
0
  6
Continuous
 62
     7
370
    25
100
AcDbLine
 10
10.5692150965
 20
9.4951428132
 30
0.0
 11
10.5692150965
 21
9.5250221717
 31
0.0
  0
LINE
  5
187
330
1F
100
AcDbEntity
  8
0
  6
Continuous
 62
     7
370
    25
100
AcDbLine
 10
4.8817150965
 20
9.4951428132
 30
0.0
 11
4.8817150965
 21
9.5250221717
 31
0.0
  0
LINE
  5
188
330
1F
100
AcDbEntity
  8
0
  6
Continuous
 62
     7
370
    25
100
AcDbLine
 10
10.5692150965
 20
7.8082781578
 30
0.0
 11
4.8817150965
 21
7.8082781578
 31
0.0
  0
LINE
  5
189
330
1F
100
AcDbEntity
  8
0
  6
Continuous
 62
     7
370
    25
100
AcDbLine
 10
8.6004650965
 20
7.7820281578
 30
0.0
 11
8.6004650965
 21
7.8082781578
 31
0.0
  0
LINE
  5
18A
330
1F
100
AcDbEntity
  8
0
  6
Continuous
 62
     7
370
    25
100
AcDbLine
 10
6.8504650965
 20
7.7820281578
 30
0.0
 11
6.8504650965
 21
7.8082781578
 31
0.0
  0
LINE
  5
18B
330
1F
100
AcDbEntity
  8
0
  6
Continuous
 62
     7
370
    25
100
AcDbLine
 10
5.6287150965
 20
9.9667068485
 30
0.0
 11
5.7597150965
 21
9.9667068485
 31
0.0
  0
LINE
  5
18C
330
1F
100
AcDbEntity
  8
0
  6
Continuous
 62
     7
370
    25
100
AcDbLine
 10
9.6912150965
 20
9.9667068485
 30
0.0
 11
9.8222150965
 21
9.9667068485
 31
0.0
  0
LINE
  5
18D
330
1F
100
AcDbEntity
  8
0
  6
Continuous
 62
     7
370
    25
100
AcDbLine
 10
4.9442150965
 20
9.7891781578
 30
0.0
 11
4.9442150965
 21
9.7267068485
 31
0.0
  0
LINE
  5
18E
330
1F
100
AcDbEntity
  8
0
  6
Continuous
 62
     7
370
    25
100
AcDbLine
 10
10.5067150965
 20
9.7891781578
 30
0.0
 11
10.5067150965
 21
9.7267068485
 31
0.0
  0
SPLINE
  5
18F
330
1F
100
AcDbEntity
  8
0
  6
Continuous
 62
     7
370
    25
100
AcDbSpline
210
0.0
220
0.0
230
1.0
 70
     8
 71
     3
 72
    11
 73
     7
 74
     0
 42
0.00000001
 43
0.00000001
 40
0.0
 40
0.0
 40
0.0
 40
0.0
 40
0.415645897431722
 40
0.6411742584624152
 40
0.8737284373133892
 40
1.0
 40
1.0
 40
1.0
 40
1.0
 10
9.811648425026993
 20
9.888441004903639
 30
0.0
 10
9.796611002365053
 20
9.887006455690086
 30
0.0
 10
9.773414314068523
 20
9.884793523879832
 30
0.0
 10
9.74045550228981
 20
9.885136715333811
 30
0.0
 10
9.718869781290456
 20
9.886631878055043
 30
0.0
 10
9.706229803752874
 20
9.887970086446082
 30
0.0
 10
9.701781768031816
 20
9.888441004903639
 30
0.0
  0
LINE
  5
190
330
1F
100
AcDbEntity
  8
0
  6
Continuous
 62
     7
370
    25
100
AcDbLine
 10
10.5379650965
 20
9.8884410049
 30
0.0
 11
9.811648425
 21
9.8884410049
 31
0.0
  0
LINE
  5
191
330
1F
100
AcDbEntity
  8
0
  6
Continuous
 62
     7
370
    25
100
AcDbLine
 10
5.639281768
 20
9.8884410049
 30
0.0
 11
4.9129650965
 21
9.8884410049
 31
0.0
  0
SPLINE
  5
192
330
1F
100
AcDbEntity
  8
0
  6
Continuous
 62
     7
370
    25
100
AcDbSpline
210
0.0
220
0.0
230
1.0
 70
     8
 71
     3
 72
    11
 73
     7
 74
     0
 42
0.00000001
 43
0.00000001
 40
0.0
 40
0.0
 40
0.0
 40
0.0
 40
0.4156458974317213
 40
0.6411742584624118
 40
0.873728437313388
 40
1.0
 40
1.0
 40
1.0
 40
1.0
 10
5.749148425027013
 20
9.888441004903635
 30
0.0
 10
5.734111002365072
 20
9.887006455690083
 30
0.0
 10
5.710914314068543
 20
9.884793523879829
 30
0.0
 10
5.677955502289831
 20
9.885136715333811
 30
0.0
 10
5.656369781290477
 20
9.886631878055043
 30
0.0
 10
5.643729803752894
 20
9.887970086446082
 30
0.0
 10
5.639281768031837
 20
9.888441004903639
 30
0.0
  0
LINE
  5
193
330
1F
100
AcDbEntity
  8
0
  6
Continuous
 62
     7
370
    25
100
AcDbLine
 10
9.701781768
 20
9.8884410049
 30
0.0
 11
5.749148425
 21
9.8884410049
 31
0.0
  0
LINE
  5
194
330
1F
100
AcDbEntity
  8
0
  6
Continuous
 62
     7
370
    25
100
AcDbLine
 10
4.9129650965
 20
9.8884410049
 30
0.0
 11
4.9129650965
 21
9.7891781578
 31
0.0
  0
LINE
  5
195
330
1F
100
AcDbEntity
  8
0
  6
Continuous
 62
     7
370
    25
100
AcDbLine
 10
10.5379650965
 20
9.8884410049
 30
0.0
 11
10.5379650965
 21
9.7891781578
 31
0.0
  0
LINE
  5
196
330
1F
100
AcDbEntity
  8
0
  6
Continuous
 62
     7
370
    25
100
AcDbLine
 10
10.5379650965
 20
9.7891781578
 30
0.0
 11
4.9129650965
 21
9.7891781578
 31
0.0
  0
SPLINE
  5
197
330
1F
100
AcDbEntity
  8
0
  6
Continuous
 62
     7
370
    25
100
AcDbSpline
210
0.0
220
0.0
230
1.0
 70
     8
 71
     3
 72
    15
 73
    11
 74
     0
 42
0.00000001
 43
0.00000001
 40
0.0
 40
0.0
 40
0.0
 40
0.0
 40
0.1228594393958358
 40
0.2616508762859507
 40
0.4057166533683377
 40
0.5542332354368367
 40
0.7042785430719475
 40
0.8524737419316916
 40
0.9967750366761254
 40
1.0
 40
1.0
 40
1.0
 40
1.0
 10
9.701781768031816
 20
9.888441004903639
 30
0.0
 10
9.687981501445954
 20
9.890360804903976
 30
0.0
 10
9.65859139627433
 20
9.894449358090055
 30
0.0
 10
9.624437982052669
 20
9.90513525299437
 30
0.0
 10
9.602507032698398
 20
9.91838693540999
 30
0.0
 10
9.597964624633624
 20
9.932678946204206
 30
0.0
 10
9.612041873011428
 20
9.946231640235968
 30
0.0
 10
9.644267204073234
 20
9.95678149102472
 30
0.0
 10
9.673271690613891
 20
9.96275178764319
 30
0.0
 10
9.690960291305043
 20
9.963874227044734
 30
0.0
 10
9.691346968830974
 20
9.963898763869233
 30
0.0
  0
SPLINE
  5
198
330
1F
100
AcDbEntity
  8
0
  6
Continuous
 62
     7
370
    25
100
AcDbSpline
210
0.0
220
0.0
230
1.0
 70
     8
 71
     3
 72
    15
 73
    11
 74
     0
 42
0.00000001
 43
0.00000001
 40
0.0
 40
0.0
 40
0.0
 40
0.0
 40
0.0473576583714744
 40
0.1861948380769856
 40
0.3280300316054608
 40
0.473799489750023
 40
0.6231067935049267
 40
0.7737779825420623
 40
0.9222945997515354
 40
1.0
 40
1.0
 40
1.0
 40
1.0
 10
9.822820546305419
 20
9.96337618160997
 30
0.0
 10
9.828333908512153
 20
9.962903548140272
 30
0.0
 10
9.850010647156838
 20
9.961045307775645
 30
0.0
 10
9.879643562467406
 20
9.954086309876248
 30
0.0
 10
9.906215272033258
 20
9.943104250199822
 30
0.0
 10
9.915980136953157
 20
9.929630937351291
 30
0.0
 10
9.907618952053545
 20
9.915282918850494
 30
0.0
 10
9.8810642834886
 20
9.901910380798196
 30
0.0
 10
9.845995375533798
 20
9.892852166535121
 30
0.0
 10
9.820429941208017
 20
9.889568810623576
 30
0.0
 10
9.811648425026993
 20
9.888441004903639
 30
0.0
  0
SPLINE
  5
199
330
1F
100
AcDbEntity
  8
0
  6
Continuous
 62
     7
370
    25
100
AcDbSpline
210
0.0
220
0.0
230
1.0
 70
     8
 71
     3
 72
    15
 73
    11
 74
     0
 42
0.00000001
 43
0.00000001
 40
0.0
 40
0.0
 40
0.0
 40
0.0
 40
0.1220034382361623
 40
0.2598278706249114
 40
0.4028898951844306
 40
0.5503717145427433
 40
0.6993716083458302
 40
0.8465342836753899
 40
0.9898301849697843
 40
1.0
 40
1.0
 40
1.0
 40
1.0
 10
5.639281768031837
 20
9.888441004903639
 30
0.0
 10
5.625481515841646
 20
9.890360796604382
 30
0.0
 10
5.596091441328145
 20
9.894449332115014
 30
0.0
 10
5.56193777091965
 20
9.90513537471973
 30
0.0
 10
5.540007865452571
 20
9.918386455298979
 30
0.0
 10
5.535461399561652
 20
9.932680805567589
 30
0.0
 10
5.549553970233518
 20
9.946224665777171
 30
0.0
 10
5.581723188174021
 20
9.95680686768342
 30
0.0
 10
5.611556902943942
 20
9.962837478901278
 30
0.0
 10
5.630136174893622
 20
9.963984808912043
 30
0.0
 10
5.631367379905722
 20
9.964060839795472
 30
0.0
  0
SPLINE
  5
19A
330
1F
100
AcDbEntity
  8
0
  6
Continuous
 62
     7
370
    25
100
AcDbSpline
210
0.0
220
0.0
230
1.0
 70
     8
 71
     3
 72
    15
 73
    11
 74
     0
 42
0.00000001
 43
0.00000001
 40
0.0
 40
0.0
 40
0.0
 40
0.0
 40
0.0473576583715381
 40
0.1861948380770442
 40
0.3280300316055092
 40
0.4737994897500598
 40
0.6231067935049529
 40
0.7737779825420777
 40
0.9222945997515356
 40
1.0
 40
1.0
 40
1.0
 40
1.0
 10
5.760320546305415
 20
9.963376181609972
 30
0.0
 10
5.765833908512158
 20
9.962903548140273
 30
0.0
 10
5.787510647156853
 20
9.961045307775645
 30
0.0
 10
5.817143562467428
 20
9.954086309876246
 30
0.0
 10
5.843715272033279
 20
9.94310425019982
 30
0.0
 10
5.853480136953178
 20
9.92963093735129
 30
0.0
 10
5.845118952053566
 20
9.915282918850492
 30
0.0
 10
5.818564283488619
 20
9.901910380798194
 30
0.0
 10
5.783495375533821
 20
9.89285216653512
 30
0.0
 10
5.757929941208038
 20
9.889568810623572
 30
0.0
 10
5.749148425027013
 20
9.888441004903635
 30
0.0
  0
LINE
  5
19B
330
1F
100
AcDbEntity
  8
0
  6
Continuous
 62
     7
370
    25
100
AcDbLine
 10
4.9129650965
 20
10.1016781578
 30
0.0
 11
4.9129650965
 21
9.8884410049
 31
0.0
  0
LINE
  5
19C
330
1F
100
AcDbEntity
  8
0
  6
Continuous
 62
     7
370
    25
100
AcDbLine
 10
10.5379650965
 20
10.1016781578
 30
0.0
 11
10.5379650965
 21
9.8884410049
 31
0.0
  0
LINE
  5
19D
330
1F
100
AcDbEntity
  8
0
  6
Continuous
 62
     7
370
    25
100
AcDbLine
 10
4.4969650965
 20
8.4842781578
 30
0.0
 11
4.4969650965
 21
9.3822781578
 31
0.0
  0
LINE
  5
19E
330
1F
100
AcDbEntity
  8
0
  6
Continuous
 62
     7
370
    25
100
AcDbLine
 10
10.9539650965
 20
9.3822781578
 30
0.0
 11
10.9539650965
 21
8.4842781578
 31
0.0
  0
LINE
  5
19F
330
1F
100
AcDbEntity
  8
0
  6
Continuous
 62
     7
370
    25
100
AcDbLine
 10
4.7879650965
 20
8.7728167095
 30
0.0
 11
4.7879650965
 21
8.7131825954
 31
0.0
  0
LINE
  5
1A0
330
1F
100
AcDbEntity
  8
0
  6
Continuous
 62
     7
370
    25
100
AcDbLine
 10
4.7879650965
 20
9.2058167095
 30
0.0
 11
4.7879650965
 21
9.1462781578
 31
0.0
  0
LINE
  5
1A1
330
1F
100
AcDbEntity
  8
0
  6
Continuous
 62
     7
370
    25
100
AcDbLine
 10
4.7879650965
 20
9.5248167095
 30
0.0
 11
4.7879650965
 21
9.4652781578
 31
0.0
  0
LINE
  5
1A2
330
1F
100
AcDbEntity
  8
0
  6
Continuous
 62
     7
370
    25
100
AcDbLine
 10
4.7567150965
 20
10.1016781578
 30
0.0
 11
4.7567150965
 21
9.8894605971
 31
0.0
  0
LINE
  5
1A3
330
1F
100
AcDbEntity
  8
0
  6
Continuous
 62
     7
370
    25
100
AcDbLine
 10
10.6629650965
 20
8.7131825954
 30
0.0
 11
10.6629650965
 21
8.7728167095
 31
0.0
  0
LINE
  5
1A4
330
1F
100
AcDbEntity
  8
0
  6
Continuous
 62
     7
370
    25
100
AcDbLine
 10
10.6629650965
 20
9.1462781578
 30
0.0
 11
10.6629650965
 21
9.2058167095
 31
0.0
  0
LINE
  5
1A5
330
1F
100
AcDbEntity
  8
0
  6
Continuous
 62
     7
370
    25
100
AcDbLine
 10
10.6629650965
 20
9.4652781578
 30
0.0
 11
10.6629650965
 21
9.5248167095
 31
0.0
  0
LINE
  5
1A6
330
1F
100
AcDbEntity
  8
0
  6
Continuous
 62
     7
370
    25
100
AcDbLine
 10
10.6942150965
 20
9.8894605971
 30
0.0
 11
10.6942150965
 21
10.1016781578
 31
0.0
  0
LINE
  5
1A7
330
1F
100
AcDbEntity
  8
0
  6
Continuous
 62
     7
370
    25
100
AcDbLine
 10
7.7254650965
 20
7.7820281578
 30
0.0
 11
7.7254650965
 21
7.8082781578
 31
0.0
  0
DIMENSION
  5
1A8
330
1F
100
AcDbEntity
  8
SLD-0
100
AcDbDimension
  2
_D
 10
13.5621675017
 20
10.1016781578
 30
0.0
 11
13.5621675017
 21
8.9418531578
 31
0.0
 70
   160
  1
<>
 71
     2
 42
-1.0
  3
SLDDIMSTYLE0
100
AcDbAlignedDimension
 13
10.1954650965
 23
7.7820281578
 33
0.0
 14
10.5379650965
 24
10.1016781578
 34
0.0
 50
90.0
100
AcDbRotatedDimension
  0
DIMENSION
  5
1BD
330
1F
100
AcDbEntity
  8
SLD-0
100
AcDbDimension
  2
_D_1
 10
12.1448446671
 20
7.7820281578
 30
0.0
 11
12.1448446671
 21
6.232679243
 31
0.0
 70
   160
  1
<>
 71
     2
 42
-1.0
  3
SLDDIMSTYLE0
100
AcDbAlignedDimension
 13
10.2254650965
 23
7.6570281578
 33
0.0
 14
10.1954650965
 24
7.7820281578
 34
0.0
 50
90.0
100
AcDbRotatedDimension
  0
DIMENSION
  5
1D2
330
1F
100
AcDbEntity
  8
SLD-0
100
AcDbDimension
  2
_D_2
 10
3.306085526
 20
7.2820281578
 30
0.0
 11
3.306085526
 21
5.857679243
 31
0.0
 70
   160
  1
<>
 71
     2
 42
-1.0
  3
SLDDIMSTYLE0
100
AcDbAlignedDimension
 13
5.2254650965
 23
7.6570281578
 33
0.0
 14
5.4104650965
 24
7.2820281578
 34
0.0
 50
90.0
100
AcDbRotatedDimension
  0
LINE
  5
1E7
330
1F
100
AcDbEntity
  8
0
  6
Continuous
 62
     7
370
    25
100
AcDbLine
 10
29.6618840764
 20
20.2852748923
 30
0.0
 11
29.6618840764
 21
20.5072053535
 31
0.0
  0
SPLINE
  5
1E8
330
1F
100
AcDbEntity
  8
0
  6
Continuous
 62
     7
370
    25
100
AcDbSpline
210
0.0
220
0.0
230
1.0
 70
     8
 71
     3
 72
    23
 73
    19
 74
     0
 42
0.00000001
 43
0.00000001
 40
0.0
 40
0.0
 40
0.0
 40
0.0
 40
0.0187769592724838
 40
0.0867307226386311
 40
0.154717490321525
 40
0.2227384539974847
 40
0.2907935996325289
 40
0.3588820282822299
 40
0.4270017283456696
 40
0.4951493068384792
 40
0.5633196792255346
 40
0.6315057214274129
 40
0.6996964226608914
 40
0.7678761454288371
 40
0.8360282863736705
 40
0.9041327303262972
 40
0.9721657588802858
 40
1.0
 40
1.0
 40
1.0
 40
1.0
 10
30.33650844775364
 20
22.71146456318593
 30
0.0
 10
30.323995201167
 20
22.72283534057722
 30
0.0
 10
30.26619654999753
 20
22.77535692971196
 30
0.0
 10
30.16197891480348
 20
22.86551150501005
 30
0.0
 10
30.02341139519978
 20
22.97973686232266
 30
0.0
 10
29.88352306192022
 20
23.08846518636838
 30
0.0
 10
29.7425591531894
 20
23.19173996735051
 30
0.0
 10
29.60068154014033
 20
23.28934982119062
 30
0.0
 10
29.45807690870003
 20
23.38115835670396
 30
0.0
 10
29.31492801727966
 20
23.4670157186515
 30
0.0
 10
29.17142181999416
 20
23.54678288525584
 30
0.0
 10
29.02774920092005
 20
23.6203230976685
 30
0.0
 10
28.88410643546623
 20
23.68751057125167
 30
0.0
 10
28.7406979265571
 20
23.74820558402541
 30
0.0
 10
28.59772191990474
 20
23.80235369591345
 30
0.0
 10
28.45542211654164
 20
23.84962237126103
 30
0.0
 10
28.34170501533651
 20
23.88267740767527
 30
0.0
 10
28.27563079242272
 20
23.89891806460245
 30
0.0
 10
28.25644670739934
 20
23.90363340032019
 30
0.0
  0
SPLINE
  5
1E9
330
1F
100
AcDbEntity
  8
0
  6
Continuous
 62
     7
370
    25
100
AcDbSpline
210
0.0
220
0.0
230
1.0
 70
     8
 71
     3
 72
    12
 73
     8
 74
     0
 42
0.00000001
 43
0.00000001
 40
0.0
 40
0.0
 40
0.0
 40
0.0
 40
0.071566425186931
 40
0.3697525604538584
 40
0.6997204829235483
 40
0.9949364543320888
 40
1.0
 40
1.0
 40
1.0
 40
1.0
 10
30.37714832878365
 20
22.62696867938831
 30
0.0
 10
30.3771604473851
 20
22.62926347915543
 30
0.0
 10
30.37722305892264
 20
22.64111971044555
 30
0.0
 10
30.37078078351804
 20
22.66320125444897
 30
0.0
 10
30.35703566510283
 20
22.68931361778253
 30
0.0
 10
30.34438641859886
 20
22.70579218919531
 30
0.0
 10
30.33664747186025
 20
22.71149540940369
 30
0.0
 10
30.33651697174951
 20
22.71159158151779
 30
0.0
  0
LINE
  5
1EA
330
1F
100
AcDbEntity
  8
0
  6
Continuous
 62
     7
370
    25
100
AcDbLine
 10
30.3913833377
 20
22.4389542813
 30
0.0
 11
30.3777231676
 21
22.6271407497
 31
0.0
  0
LINE
  5
1EB
330
1F
100
AcDbEntity
  8
0
  6
Continuous
 62
     7
370
    25
100
AcDbLine
 10
30.4111178986
 20
22.1670852428
 30
0.0
 11
30.3952351138
 21
22.3858910966
 31
0.0
  0
LINE
  5
1EC
330
1F
100
AcDbEntity
  8
0
  6
Continuous
 62
     7
370
    25
100
AcDbLine
 10
30.4379049358
 20
21.7980592439
 30
0.0
 11
30.4149696747
 21
22.1140220581
 31
0.0
  0
SPLINE
  5
1ED
330
1F
100
AcDbEntity
  8
0
  6
Continuous
 62
     7
370
    25
100
AcDbSpline
210
0.0
220
0.0
230
1.0
 70
     8
 71
     3
 72
    12
 73
     8
 74
     0
 42
0.00000001
 43
0.00000001
 40
0.0
 40
0.0
 40
0.0
 40
0.0
 40
0.1952223142840229
 40
0.3874117682621684
 40
0.5835175521226791
 40
0.7854391774865638
 40
1.0
 40
1.0
 40
1.0
 40
1.0
 10
30.37498671454902
 20
21.51294434716092
 30
0.0
 10
30.3837107906057
 20
21.52651940354996
 30
0.0
 10
30.40102341054859
 20
21.55345862214913
 30
0.0
 10
30.41968519322589
 20
21.59793666795499
 30
0.0
 10
30.43291290970201
 20
21.64469206854928
 30
0.0
 10
30.44081067123884
 20
21.69466024057116
 30
0.0
 10
30.4410158352002
 20
21.729228657398
 30
0.0
 10
30.44112153028657
 20
21.74703739816284
 30
0.0
  0
LINE
  5
1EE
330
1F
100
AcDbEntity
  8
0
  6
Continuous
 62
     7
370
    25
100
AcDbLine
 10
30.1096709682
 20
21.1354476295
 30
0.0
 11
30.3749867145
 21
21.5129443472
 31
0.0
  0
LINE
  5
1EF
330
1F
100
AcDbEntity
  8
0
  6
Continuous
 62
     7
370
    25
100
AcDbLine
 10
29.9767674957
 20
21.0545460984
 30
0.0
 11
30.0976093123
 21
21.1243065942
 31
0.0
  0
SPLINE
  5
1F0
330
1F
100
AcDbEntity
  8
0
  6
Continuous
 62
     7
370
    25
100
AcDbSpline
210
0.0
220
0.0
230
1.0
 70
     8
 71
     3
 72
    12
 73
     8
 74
     0
 42
0.00000001
 43
0.00000001
 40
0.0
 40
0.0
 40
0.0
 40
0.0
 40
0.1088818239912343
 40
0.340569273742796
 40
0.5682710984190468
 40
0.7900357376210762
 40
1.0
 40
1.0
 40
1.0
 40
1.0
 10
28.25797334944147
 20
23.90265917549308
 30
0.0
 10
28.25221569119189
 20
23.90430766525341
 30
0.0
 10
28.23420642741726
 20
23.90946394331585
 30
0.0
 10
28.20292936052015
 20
23.91166295568105
 30
0.0
 10
28.16584101781643
 20
23.90890331218277
 30
0.0
 10
28.13070318346756
 20
23.90013015075989
 30
0.0
 10
28.10976125349292
 20
23.88934016545476
 30
0.0
 10
28.09957648971219
 20
23.88409263327108
 30
0.0
  0
LINE
  5
1F1
330
1F
100
AcDbEntity
  8
0
  6
Continuous
 62
     7
370
    25
100
AcDbLine
 10
28.0993112851
 20
23.8840987182
 30
0.0
 11
28.0109229375
 21
23.8330732113
 31
0.0
  0
LINE
  5
1F2
330
1F
100
AcDbEntity
  8
0
  6
Continuous
 62
     7
370
    25
100
AcDbLine
 10
25.8342568779
 20
18.6631256216
 30
0.0
 11
25.9550976777
 21
18.7328855304
 31
0.0
  0
SPLINE
  5
1F3
330
1F
100
AcDbEntity
  8
0
  6
Continuous
 62
     7
370
    25
100
AcDbSpline
210
0.0
220
0.0
230
1.0
 70
     8
 71
     3
 72
    13
 73
     9
 74
     0
 42
0.00000001
 43
0.00000001
 40
0.0
 40
0.0
 40
0.0
 40
0.0
 40
0.1455860603523741
 40
0.3284870879164148
 40
0.509400087605931
 40
0.6933156965075853
 40
0.8737787874492728
 40
1.0
 40
1.0
 40
1.0
 40
1.0
 10
23.90125821141539
 20
21.45972244931881
 30
0.0
 10
23.89281903399468
 20
21.45471575801636
 30
0.0
 10
23.87377764494528
 20
21.44341911710132
 30
0.0
 10
23.84950916157307
 20
21.41885207787435
 30
0.0
 10
23.82809960022607
 20
21.38888555978919
 30
0.0
 10
23.81287854329391
 20
21.35542369100267
 30
0.0
 10
23.80371720856737
 20
21.32363676460981
 30
0.0
 10
23.80212430193606
 20
21.30302290009697
 30
0.0
 10
23.80146871374914
 20
21.29453890875951
 30
0.0
  0
LINE
  5
1F4
330
1F
100
AcDbEntity
  8
0
  6
Continuous
 62
     7
370
    25
100
AcDbLine
 10
23.8008129432
 20
21.2947346994
 30
0.0
 11
23.786735054
 21
21.1170475969
 31
0.0
  0
LINE
  5
1F5
330
1F
100
AcDbEntity
  8
0
  6
Continuous
 62
     7
370
    25
100
AcDbLine
 10
23.9892531195
 20
21.5114126433
 30
0.0
 11
23.9008647718
 21
21.4603871363
 31
0.0
  0
LINE
  5
1F6
330
1F
100
AcDbEntity
  8
0
  6
Continuous
 62
     7
370
    25
100
AcDbLine
 10
23.782883278
 20
21.0684315782
 30
0.0
 11
23.7670004931
 21
20.8679635975
 31
0.0
  0
LINE
  5
1F7
330
1F
100
AcDbEntity
  8
0
  6
Continuous
 62
     7
370
    25
100
AcDbLine
 10
23.7631487171
 20
20.8193475787
 30
0.0
 11
23.7402134559
 21
20.5298652533
 31
0.0
  0
LINE
  5
1F8
330
1F
100
AcDbEntity
  8
0
  6
Continuous
 62
     7
370
    25
100
AcDbLine
 10
23.7745536435
 20
20.2765689856
 30
0.0
 11
24.0516820744
 21
19.5622992609
 31
0.0
  0
SPLINE
  5
1F9
330
1F
100
AcDbEntity
  8
0
  6
Continuous
 62
     7
370
    25
100
AcDbSpline
210
0.0
220
0.0
230
1.0
 70
     8
 71
     3
 72
    11
 73
     7
 74
     0
 42
0.00000001
 43
0.00000001
 40
0.0
 40
0.0
 40
0.0
 40
0.0
 40
0.1838706897262217
 40
0.4517251991907296
 40
0.723367965070224
 40
1.0
 40
1.0
 40
1.0
 40
1.0
 10
23.73696112629735
 20
20.48152913032982
 30
0.0
 10
23.73691942373079
 20
20.46892007686587
 30
0.0
 10
23.73681697075029
 20
20.43794272427047
 30
0.0
 10
23.74275631346294
 20
20.3880570885441
 30
0.0
 10
23.75482157103333
 20
20.33198284035533
 30
0.0
 10
23.76793650427498
 20
20.29515199007212
 30
0.0
 10
23.77455364346367
 20
20.27656898562435
 30
0.0
  0
LINE
  5
1FA
330
1F
100
AcDbEntity
  8
0
  6
Continuous
 62
     7
370
    25
100
AcDbLine
 10
25.9581346137
 20
18.7348180132
 30
0.0
 11
28.6610561181
 21
20.2951813844
 31
0.0
  0
LINE
  5
1FB
330
1F
100
AcDbEntity
  8
0
  6
Continuous
 62
     7
370
    25
100
AcDbLine
 10
28.7652114494
 20
20.3553089773
 30
0.0
 11
29.9766122032
 21
21.0546357469
 31
0.0
  0
LINE
  5
1FC
330
1F
100
AcDbEntity
  8
0
  6
Continuous
 62
     7
370
    25
100
AcDbLine
 10
28.6655041022
 20
20.2918450904
 30
0.0
 11
28.671127213
 21
20.2885989376
 31
0.0
  0
LINE
  5
1FD
330
1F
100
AcDbEntity
  8
0
  6
Continuous
 62
     7
370
    25
100
AcDbLine
 10
28.6414624717
 20
20.3057240283
 30
0.0
 11
28.6470855825
 21
20.3024778755
 31
0.0
  0
ARC
  5
1FE
330
1F
100
AcDbEntity
  8
0
  6
Continuous
 62
     7
370
    25
100
AcDbCircle
 10
27.5751742123
 20
23.4168063676
 30
0.0
 40
0.1317840283913941
100
AcDbArc
 50
17.3966755628
 51
172.3344429228
  0
ARC
  5
1FF
330
1F
100
AcDbEntity
  8
0
  6
Continuous
 62
     7
370
    25
100
AcDbCircle
 10
29.4755236867
 20
22.3197579673
 30
0.0
 40
0.1317840283913941
100
AcDbArc
 50
7.6655570772
 51
172.3344429228
  0
LINE
  5
200
330
1F
100
AcDbEntity
  8
0
  6
Continuous
 62
     7
370
    25
100
AcDbLine
 10
29.6065236867
 20
22.3192302778
 30
0.0
 11
29.6065236867
 21
22.33147839
 31
0.0
  0
ARC
  5
201
330
1F
100
AcDbEntity
  8
0
  6
Continuous
 62
     7
370
    25
100
AcDbCircle
 10
24.7025529137
 20
21.7584773904
 30
0.0
 40
0.1317840283913941
100
AcDbArc
 50
17.3966755628
 51
172.3344429228
  0
ARC
  5
202
330
1F
100
AcDbEntity
  8
0
  6
Continuous
 62
     7
370
    25
100
AcDbCircle
 10
26.6029023881
 20
20.6614289902
 30
0.0
 40
0.1317840283913946
100
AcDbArc
 50
7.6655570772
 51
172.3344429228
  0
LINE
  5
203
330
1F
100
AcDbEntity
  8
0
  6
Continuous
 62
     7
370
    25
100
AcDbLine
 10
26.7339023881
 20
20.6609013007
 30
0.0
 11
26.7339023881
 21
20.6731494129
 31
0.0
  0
LINE
  5
204
330
1F
100
AcDbEntity
  8
0
  6
Continuous
 62
     7
370
    25
100
AcDbLine
 10
27.9864651292
 20
23.8208670842
 30
0.0
 11
24.008989485
 21
21.5247192697
 31
0.0
  0
ARC
  5
205
330
1F
100
AcDbEntity
  8
0
  6
Continuous
 62
     7
370
    25
100
AcDbCircle
 10
26.4915330701
 20
18.8385188986
 30
0.0
 40
0.3842554769779334
100
AcDbArc
 50
242.6096722366
 51
297.3903277634
  0
LINE
  5
206
330
1F
100
AcDbEntity
  8
0
  6
Continuous
 62
     7
370
    25
100
AcDbLine
 10
26.6683097654
 20
18.4973411274
 30
0.0
 11
29.5886607717
 21
20.1832238783
 31
0.0
  0
LINE
  5
207
330
1F
100
AcDbEntity
  8
0
  6
Continuous
 62
     7
370
    25
100
AcDbLine
 10
25.9309174847
 20
18.7189266021
 30
0.0
 11
26.3147563748
 21
18.4973411274
 31
0.0
  0
ARC
  5
208
330
1F
100
AcDbEntity
  8
0
  6
Continuous
 62
     7
370
    25
100
AcDbCircle
 10
29.5367698108
 20
20.2977514865
 30
0.0
 40
0.1257348196234547
100
AcDbArc
 50
294.3746582936
 51
354.3052007488
  0
LINE
  5
209
330
1F
100
AcDbEntity
  8
0
  6
Continuous
 62
     7
370
    25
100
AcDbLine
 10
26.1747714987
 20
18.8598798249
 30
0.0
 11
26.381931519
 21
18.7402888907
 31
0.0
  0
LINE
  5
20A
330
1F
100
AcDbEntity
  8
0
  6
Continuous
 62
     7
370
    25
100
AcDbLine
 10
26.381931519
 20
18.7402888907
 30
0.0
 11
26.381931519
 21
18.691300423
 31
0.0
  0
LINE
  5
20B
330
1F
100
AcDbEntity
  8
0
  6
Continuous
 62
     7
370
    25
100
AcDbLine
 10
26.381931519
 20
18.691300423
 30
0.0
 11
26.1323416438
 21
18.835385591
 31
0.0
  0
LINE
  5
20C
330
1F
100
AcDbEntity
  8
0
  6
Continuous
 62
     7
370
    25
100
AcDbLine
 10
26.381931519
 20
18.7402888907
 30
0.0
 11
29.8750390181
 21
20.7568169269
 31
0.0
  0
LINE
  5
20D
330
1F
100
AcDbEntity
  8
0
  6
Continuous
 62
     7
370
    25
100
AcDbLine
 10
29.8750390181
 20
20.7568169269
 30
0.0
 11
29.9174654249
 21
20.7323207025
 31
0.0
  0
LINE
  5
20E
330
1F
100
AcDbEntity
  8
0
  6
Continuous
 62
     7
370
    25
100
AcDbLine
 10
29.9174654249
 20
20.7323207025
 30
0.0
 11
26.381931519
 21
18.691300423
 31
0.0
  0
LINE
  5
20F
330
1F
100
AcDbEntity
  8
0
  6
Continuous
 62
     7
370
    25
100
AcDbLine
 10
26.0651555808
 20
18.7965999025
 30
0.0
 11
26.381931519
 21
18.6137290459
 31
0.0
  0
LINE
  5
210
330
1F
100
AcDbEntity
  8
0
  6
Continuous
 62
     7
370
    25
100
AcDbLine
 10
26.381931519
 20
18.691300423
 30
0.0
 11
26.381931519
 21
18.6137290459
 31
0.0
  0
LINE
  5
211
330
1F
100
AcDbEntity
  8
0
  6
Continuous
 62
     7
370
    25
100
AcDbLine
 10
26.381931519
 20
18.6137290459
 30
0.0
 11
29.9174654249
 21
20.6547493254
 31
0.0
  0
LINE
  5
212
330
1F
100
AcDbEntity
  8
0
  6
Continuous
 62
     7
370
    25
100
AcDbLine
 10
29.9174654249
 20
20.7323207025
 30
0.0
 11
29.9174654249
 21
20.6547493254
 31
0.0
  0
LINE
  5
213
330
1F
100
AcDbEntity
  8
0
  6
Continuous
 62
     7
370
    25
100
AcDbLine
 10
29.8750390181
 20
20.7568169269
 30
0.0
 11
29.6678789977
 21
20.8764078611
 31
0.0
  0
ARC
  5
214
330
1F
100
AcDbEntity
  8
0
  6
Continuous
 62
     7
370
    25
100
AcDbCircle
 10
28.0345820163
 20
23.7920711225
 30
0.0
 40
0.0471718278411387
100
AcDbArc
 50
72.602467992
 51
133.6689599964
  0
LWPOLYLINE
  5
215
330
1F
100
AcDbEntity
  8
0
  6
Continuous
 62
     7
370
    25
100
AcDbPolyline
 90
       15
 70
   128
 43
0.0
 10
28.0486863781
 20
23.8370849906
 10
28.1956310141
 20
23.7980022096
 10
28.3440595799
 20
23.7511526254
 10
28.4937284931
 20
23.6966131217
 10
28.6443921356
 20
23.6344732019
 10
28.795803257
 20
23.5648348424
 10
28.9477133802
 20
23.4878123249
 10
29.0998732092
 20
23.4035320493
 10
29.2520330382
 20
23.3121323258
 10
29.4039431614
 20
23.2137631484
 10
29.5553542828
 20
23.1085859482
 10
29.7060179253
 20
22.996773329
 10
29.8556868384
 20
22.8785087838
 10
30.0041154043
 20
22.7539863937
 10
30.1510600402
 20
22.6234105092
  0
ARC
  5
216
330
1F
100
AcDbEntity
  8
0
  6
Continuous
 62
     7
370
    25
100
AcDbCircle
 10
30.0155529341
 20
22.4763424159
 30
0.0
 40
0.1999779985351916
100
AcDbArc
 50
6.148561933
 51
47.342833185
  0
LINE
  5
217
330
1F
100
AcDbEntity
  8
0
  6
Continuous
 62
     7
370
    25
100
AcDbLine
 10
30.2143805634
 20
22.4977614193
 30
0.0
 11
30.2176990072
 21
22.4520455744
 31
0.0
  0
LINE
  5
218
330
1F
100
AcDbEntity
  8
0
  6
Continuous
 62
     7
370
    25
100
AcDbLine
 10
30.2283120786
 20
22.3058368224
 30
0.0
 11
30.2300202105
 21
22.2823051016
 31
0.0
  0
LINE
  5
219
330
1F
100
AcDbEntity
  8
0
  6
Continuous
 62
     7
370
    25
100
AcDbLine
 10
30.2096678103
 20
22.291998116
 30
0.0
 11
30.2300202105
 21
22.2823051016
 31
0.0
  0
LINE
  5
21A
330
1F
100
AcDbEntity
  8
0
  6
Continuous
 62
     7
370
    25
100
AcDbLine
 10
30.2479680383
 20
22.0350506175
 30
0.0
 11
30.2497547714
 21
22.0104360631
 31
0.0
  0
LINE
  5
21B
330
1F
100
AcDbEntity
  8
0
  6
Continuous
 62
     7
370
    25
100
AcDbLine
 10
30.2286120188
 20
22.02050549
 30
0.0
 11
30.2497547714
 21
22.0104360631
 31
0.0
  0
LINE
  5
21C
330
1F
100
AcDbEntity
  8
0
  6
Continuous
 62
     7
370
    25
100
AcDbLine
 10
30.2714876472
 20
21.7110376596
 30
0.0
 11
30.2765418086
 21
21.6414100641
 31
0.0
  0
LINE
  5
21D
330
1F
100
AcDbEntity
  8
0
  6
Continuous
 62
     7
370
    25
100
AcDbLine
 10
30.2545288078
 20
21.6518939546
 30
0.0
 11
30.2765418086
 21
21.6414100641
 31
0.0
  0
LINE
  5
21E
330
1F
100
AcDbEntity
  8
0
  6
Continuous
 62
     7
370
    25
100
AcDbLine
 10
30.256520811
 20
21.6244515404
 30
0.0
 11
30.2545288078
 21
21.6518939546
 31
0.0
  0
LINE
  5
21F
330
1F
100
AcDbEntity
  8
0
  6
Continuous
 62
     7
370
    25
100
AcDbLine
 10
30.2796212238
 20
21.5887147233
 30
0.0
 11
30.2793578831
 21
21.5888401417
 31
0.0
  0
ARC
  5
220
330
1F
100
AcDbEntity
  8
0
  6
Continuous
 62
     7
370
    25
100
AcDbCircle
 10
29.9870423606
 20
21.5712607503
 30
0.0
 40
0.2930990145612163
100
AcDbArc
 50
327.834862465
 51
3.4139691208
  0
LINE
  5
221
330
1F
100
AcDbEntity
  8
0
  6
Continuous
 62
     7
370
    25
100
AcDbLine
 10
30.2351557312
 20
21.4152261782
 30
0.0
 11
29.9908191294
 21
21.0675790202
 31
0.0
  0
ARC
  5
222
330
1F
100
AcDbEntity
  8
0
  6
Continuous
 62
     7
370
    25
100
AcDbCircle
 10
29.9550700143
 20
21.0920600581
 30
0.0
 40
0.0433280561211128
100
AcDbArc
 50
295.2834623221
 51
325.5966089744
  0
LINE
  5
223
330
1F
100
AcDbEntity
  8
0
  6
Continuous
 62
     7
370
    25
100
AcDbLine
 10
28.1370747258
 20
23.8881104976
 30
0.0
 11
28.0486863781
 21
23.8370849906
 31
0.0
  0
LWPOLYLINE
  5
224
330
1F
100
AcDbEntity
  8
0
  6
Continuous
 62
     7
370
    25
100
AcDbPolyline
 90
       15
 70
   128
 43
0.0
 10
30.2394483879
 20
22.6744360162
 10
30.0925037519
 20
22.8050119007
 10
29.9440751861
 20
22.9295342908
 10
29.7944062729
 20
23.047798836
 10
29.6437426304
 20
23.1596114552
 10
29.492331509
 20
23.2647886553
 10
29.3404213858
 20
23.3631578328
 10
29.1882615568
 20
23.4545575563
 10
29.0361017279
 20
23.5388378319
 10
28.8841916047
 20
23.6158603494
 10
28.7327804833
 20
23.6854987089
 10
28.5821168408
 20
23.7476386287
 10
28.4324479276
 20
23.8021781324
 10
28.2840193618
 20
23.8490277166
 10
28.1370747258
 20
23.8881104976
  0
LINE
  5
225
330
1F
100
AcDbEntity
  8
0
  6
Continuous
 62
     7
370
    25
100
AcDbLine
 10
30.1510600402
 20
22.6234105092
 30
0.0
 11
30.2394483879
 21
22.6744360162
 31
0.0
  0
ARC
  5
226
330
1F
100
AcDbEntity
  8
0
  6
Continuous
 62
     7
370
    25
100
AcDbCircle
 10
30.1039412817
 20
22.5273679229
 30
0.0
 40
0.1999779985351403
100
AcDbArc
 50
6.148561933
 51
47.342833185
  0
LINE
  5
227
330
1F
100
AcDbEntity
  8
0
  6
Continuous
 62
     7
370
    25
100
AcDbLine
 10
30.3027689111
 20
22.5487869263
 30
0.0
 11
30.2143805634
 21
22.4977614193
 31
0.0
  0
LINE
  5
228
330
1F
100
AcDbEntity
  8
0
  6
Continuous
 62
     7
370
    25
100
AcDbLine
 10
30.3184085582
 20
22.3333306086
 30
0.0
 11
30.3027689111
 21
22.5487869263
 31
0.0
  0
LINE
  5
229
330
1F
100
AcDbEntity
  8
0
  6
Continuous
 62
     7
370
    25
100
AcDbLine
 10
30.2300202105
 20
22.2823051016
 30
0.0
 11
30.3184085582
 21
22.3333306086
 31
0.0
  0
ARC
  5
22A
330
1F
100
AcDbEntity
  8
0
  6
Continuous
 62
     7
370
    25
100
AcDbCircle
 10
30.2432085136
 20
22.476832545
 30
0.0
 40
0.1620118899217474
100
AcDbArc
 50
297.6561140992
 51
328.9296208033
  0
ELLIPSE
  5
22B
330
1F
100
AcDbEntity
  8
0
  6
Continuous
 62
     7
370
    25
100
AcDbEllipse
 10
30.141125098
 20
22.4334502273
 30
0.0
 11
0.2504774800151317
 21
-0.0008268278801821795
 31
0.0
210
0.0
220
0.0
230
1.0
 40
0.5772793224
 41
6.006959530390509
 42
6.3269772247761
  0
LINE
  5
22C
330
1F
100
AcDbEntity
  8
0
  6
Continuous
 62
     7
370
    25
100
AcDbLine
 10
30.2337163939
 20
22.2523438205
 30
0.0
 11
30.2781502465
 21
22.2779949376
 31
0.0
  0
LINE
  5
22D
330
1F
100
AcDbEntity
  8
0
  6
Continuous
 62
     7
370
    25
100
AcDbLine
 10
30.2352720028
 20
22.230050129
 30
0.0
 11
30.3222603342
 21
22.2802674239
 31
0.0
  0
LINE
  5
22E
330
1F
100
AcDbEntity
  8
0
  6
Continuous
 62
     7
370
    25
100
AcDbLine
 10
30.3381431191
 20
22.0614615701
 30
0.0
 11
30.3222603342
 21
22.2802674239
 31
0.0
  0
LINE
  5
22F
330
1F
100
AcDbEntity
  8
0
  6
Continuous
 62
     7
370
    25
100
AcDbLine
 10
30.2497547714
 20
22.0104360631
 30
0.0
 11
30.3381431191
 21
22.0614615701
 31
0.0
  0
LINE
  5
230
330
1F
100
AcDbEntity
  8
0
  6
Continuous
 62
     7
370
    25
100
AcDbLine
 10
30.385828983
 20
22.3401565491
 30
0.0
 11
30.2781502465
 21
22.2779949376
 31
0.0
  0
ARC
  5
231
330
1F
100
AcDbEntity
  8
0
  6
Continuous
 62
     7
370
    25
100
AcDbCircle
 10
30.2470602896
 20
22.4237693603
 30
0.0
 40
0.1620118899218157
100
AcDbArc
 50
297.6561140992
 51
328.9296208033
  0
ELLIPSE
  5
232
330
1F
100
AcDbEntity
  8
0
  6
Continuous
 62
     7
370
    25
100
AcDbEllipse
 10
30.1006982929
 20
22.3804357699
 30
0.0
 11
0.2504774800151317
 21
-0.0008268278801821795
 31
0.0
210
0.0
220
0.0
230
1.0
 40
0.5772793224
 41
5.501599020106352
 42
6.094429553115627
  0
ELLIPSE
  5
233
330
1F
100
AcDbEntity
  8
0
  6
Continuous
 62
     7
370
    25
100
AcDbEllipse
 10
30.144976874
 20
22.3803870426
 30
0.0
 11
0.2504774800151247
 21
-0.0008268278801786268
 31
0.0
210
0.0
220
0.0
230
1.0
 40
0.5772793224
 41
6.006959530390515
 42
6.511643484963654
  0
ELLIPSE
  5
234
330
1F
100
AcDbEntity
  8
0
  6
Continuous
 62
     7
370
    25
100
AcDbEllipse
 10
30.1608596589
 20
22.1615811888
 30
0.0
 11
0.2504774800151246
 21
-0.0008268278801821795
 31
0.0
210
0.0
220
0.0
230
1.0
 40
0.5772793224
 41
6.006959530390522
 42
6.326977224776072
  0
ARC
  5
235
330
1F
100
AcDbEntity
  8
0
  6
Continuous
 62
     7
370
    25
100
AcDbCircle
 10
30.2629430745
 20
22.2049635065
 30
0.0
 40
0.1620118899218204
100
AcDbArc
 50
297.6561140992
 51
328.9296208033
  0
LINE
  5
236
330
1F
100
AcDbEntity
  8
0
  6
Continuous
 62
     7
370
    25
100
AcDbLine
 10
30.2542720636
 20
21.9577570727
 30
0.0
 11
30.3419948951
 21
22.0083983854
 31
0.0
  0
LINE
  5
237
330
1F
100
AcDbEntity
  8
0
  6
Continuous
 62
     7
370
    25
100
AcDbLine
 10
30.3649301563
 20
21.6924355711
 30
0.0
 11
30.3419948951
 21
22.0083983854
 31
0.0
  0
LINE
  5
238
330
1F
100
AcDbEntity
  8
0
  6
Continuous
 62
     7
370
    25
100
AcDbLine
 10
30.2765418086
 20
21.6414100641
 30
0.0
 11
30.3649301563
 21
21.6924355711
 31
0.0
  0
LINE
  5
239
330
1F
100
AcDbEntity
  8
0
  6
Continuous
 62
     7
370
    25
100
AcDbLine
 10
30.2527164547
 20
21.9800507641
 30
0.0
 11
30.2978848074
 21
22.0061258991
 31
0.0
  0
LINE
  5
23A
330
1F
100
AcDbEntity
  8
0
  6
Continuous
 62
     7
370
    25
100
AcDbLine
 10
30.4055635439
 20
22.0682875106
 30
0.0
 11
30.2978848074
 21
22.0061258991
 31
0.0
  0
ARC
  5
23B
330
1F
100
AcDbEntity
  8
0
  6
Continuous
 62
     7
370
    25
100
AcDbCircle
 10
30.2667948505
 20
22.1519003218
 30
0.0
 40
0.1620118899217852
100
AcDbArc
 50
297.6561140992
 51
328.9296208033
  0
ELLIPSE
  5
23C
330
1F
100
AcDbEntity
  8
0
  6
Continuous
 62
     7
370
    25
100
AcDbEllipse
 10
30.1204328538
 20
22.1085667314
 30
0.0
 11
0.2504774800151246
 21
-0.0008268278801821795
 31
0.0
210
0.0
220
0.0
230
1.0
 40
0.5772793224
 41
5.501599020106336
 42
6.094429553123844
  0
ELLIPSE
  5
23D
330
1F
100
AcDbEntity
  8
0
  6
Continuous
 62
     7
370
    25
100
AcDbEllipse
 10
30.1647114349
 20
22.1085180041
 30
0.0
 11
0.2504774800151246
 21
-0.0008268278801821795
 31
0.0
210
0.0
220
0.0
230
1.0
 40
0.5772793224
 41
6.006959530390516
 42
6.511643484925689
  0
ELLIPSE
  5
23E
330
1F
100
AcDbEntity
  8
0
  6
Continuous
 62
     7
370
    25
100
AcDbEllipse
 10
30.1876466961
 20
21.7925551898
 30
0.0
 11
0.2504774800151246
 21
-0.0008268278801821795
 31
0.0
210
0.0
220
0.0
230
1.0
 40
0.5772793224
 41
6.006959530390546
 42
6.326977224776098
  0
ARC
  5
23F
330
1F
100
AcDbEntity
  8
0
  6
Continuous
 62
     7
370
    25
100
AcDbCircle
 10
30.2897301117
 20
21.8359375076
 30
0.0
 40
0.1620118899217325
100
AcDbArc
 50
297.6561140992
 51
328.9296208033
  0
LINE
  5
240
330
1F
100
AcDbEntity
  8
0
  6
Continuous
 62
     7
370
    25
100
AcDbLine
 10
30.2784941138
 20
21.6104420636
 30
0.0
 11
30.3246718446
 21
21.6370999001
 31
0.0
  0
LINE
  5
241
330
1F
100
AcDbEntity
  8
0
  6
Continuous
 62
     7
370
    25
100
AcDbLine
 10
30.4308358175
 20
21.6983870572
 30
0.0
 11
30.3246718446
 21
21.6370999001
 31
0.0
  0
SPLINE
  5
242
330
1F
100
AcDbEntity
  8
0
  6
Continuous
 62
     7
370
    25
100
AcDbSpline
210
0.0
220
0.0
230
1.0
 70
     8
 71
     3
 72
    10
 73
     6
 74
     0
 42
0.00000001
 43
0.00000001
 40
0.0
 40
0.0
 40
0.0
 40
0.0
 40
0.334743991516577
 40
0.6792001051787622
 40
1.0
 40
1.0
 40
1.0
 40
1.0
 10
30.36800957143446
 20
21.63974023026157
 30
0.0
 10
30.37729307870723
 20
21.64561078242133
 30
0.0
 10
30.39612944104946
 20
21.65752221248555
 30
0.0
 10
30.41733324298017
 20
21.67747481230332
 30
0.0
 10
30.42644293830671
 20
21.69158354235872
 30
0.0
 10
30.43083581753717
 20
21.69838705718627
 30
0.0
  0
LINE
  5
243
330
1F
100
AcDbEntity
  8
0
  6
Continuous
 62
     7
370
    25
100
AcDbLine
 10
30.2796212238
 20
21.5887147233
 30
0.0
 11
30.3680095714
 21
21.6397402303
 31
0.0
  0
ARC
  5
244
330
1F
100
AcDbEntity
  8
0
  6
Continuous
 62
     7
370
    25
100
AcDbCircle
 10
30.0754307083
 20
21.6222862573
 30
0.0
 40
0.2930990145611385
100
AcDbArc
 50
327.834862465
 51
3.4139691208
  0
LINE
  5
245
330
1F
100
AcDbEntity
  8
0
  6
Continuous
 62
     7
370
    25
100
AcDbLine
 10
30.3235440789
 20
21.4662516852
 30
0.0
 11
30.2351557312
 21
21.4152261782
 31
0.0
  0
ELLIPSE
  5
246
330
1F
100
AcDbEntity
  8
0
  6
Continuous
 62
     7
370
    25
100
AcDbEllipse
 10
30.147219891
 20
21.7395407324
 30
0.0
 11
0.2504774800151247
 21
-0.0008268278801786268
 31
0.0
210
0.0
220
0.0
230
1.0
 40
0.5772793224
 41
5.501599020106317
 42
6.094429553126045
  0
SPLINE
  5
247
330
1F
100
AcDbEntity
  8
0
  6
Continuous
 62
     7
370
    25
100
AcDbSpline
210
0.0
220
0.0
230
1.0
 70
     8
 71
     3
 72
     9
 73
     5
 74
     0
 42
0.00000001
 43
0.00000001
 40
0.0
 40
0.0
 40
0.0
 40
0.0
 40
0.66437880899091
 40
1.0
 40
1.0
 40
1.0
 40
1.0
 10
30.43083581753717
 20
21.69838705718627
 30
0.0
 10
30.43733261686964
 20
21.71450771267146
 30
0.0
 10
30.4471113744768
 20
21.73877196563532
 30
0.0
 10
30.43570258858555
 20
21.76245344713174
 30
0.0
 10
30.43187355827676
 20
21.77040145415643
 30
0.0
  0
LINE
  5
248
330
1F
100
AcDbEntity
  8
0
  6
Continuous
 62
     7
370
    25
100
AcDbLine
 10
30.079207477
 20
21.1186045272
 30
0.0
 11
30.3235440789
 21
21.4662516852
 31
0.0
  0
LINE
  5
249
330
1F
100
AcDbEntity
  8
0
  6
Continuous
 62
     7
370
    25
100
AcDbLine
 10
29.9908191294
 20
21.0675790202
 30
0.0
 11
30.079207477
 21
21.1186045272
 31
0.0
  0
SPLINE
  5
24A
330
1F
100
AcDbEntity
  8
0
  6
Continuous
 62
     7
370
    25
100
AcDbSpline
210
0.0
220
0.0
230
1.0
 70
     8
 71
     3
 72
    10
 73
     6
 74
     0
 42
0.00000001
 43
0.00000001
 40
0.0
 40
0.0
 40
0.0
 40
0.0
 40
0.3915569540829233
 40
0.9940704132936788
 40
1.0
 40
1.0
 40
1.0
 40
1.0
 10
30.10871715713818
 20
21.13615881834044
 30
0.0
 10
30.10602043682757
 20
21.13232921933255
 30
0.0
 10
30.09917410235245
 20
21.122606774031
 30
0.0
 10
30.08728690425903
 20
21.11954419232109
 30
0.0
 10
30.07928545521543
 20
21.11861359630573
 30
0.0
 10
30.07920747702799
 20
21.11860452717461
 30
0.0
  0
LWPOLYLINE
  5
24B
330
1F
100
AcDbEntity
  8
0
  6
Continuous
 62
     7
370
    25
100
AcDbPolyline
 90
       15
 70
   128
 43
0.0
 10
23.9386282125
 20
21.4643989156
 10
24.0855728485
 20
21.4253161346
 10
24.2340014143
 20
21.3784665504
 10
24.3836703275
 20
21.3239270467
 10
24.53433397
 20
21.2617871269
 10
24.6857450914
 20
21.1921487674
 10
24.8376552146
 20
21.1151262499
 10
24.9898150435
 20
21.0308459743
 10
25.1419748725
 20
20.9394462508
 10
25.2938849957
 20
20.8410770734
 10
25.4452961171
 20
20.7358998732
 10
25.5959597596
 20
20.624087254
 10
25.7456286728
 20
20.5058227088
 10
25.8940572386
 20
20.3813003187
 10
26.0410018746
 20
20.2507244343
  0
SPLINE
  5
24C
330
1F
100
AcDbEntity
  8
0
  6
Continuous
 62
     7
370
    25
100
AcDbSpline
210
0.0
220
0.0
230
1.0
 70
     8
 71
     3
 72
    24
 73
    20
 74
     0
 42
0.00000001
 43
0.00000001
 40
0.0
 40
0.0
 40
0.0
 40
0.0
 40
0.0514259295737108
 40
0.2529832816472645
 40
0.446531607405994
 40
0.5698018323259872
 40
0.69781574766499
 40
0.7212746107127485
 40
0.8568889830074657
 40
0.9189909779075135
 40
0.9538365761582228
 40
0.973640765369018
 40
0.9849400601011721
 40
0.9913943735412822
 40
0.995082368416277
 40
0.9971898503091406
 40
0.9980265693477506
 40
0.9984012154302098
 40
1.0
 40
1.0
 40
1.0
 40
1.0
 10
26.04100187460174
 20
20.25072443425728
 30
0.0
 10
26.03603476751739
 20
20.24782102408678
 30
0.0
 10
26.01159971965519
 20
20.23353806918466
 30
0.0
 10
25.96295068089085
 20
20.20236244157662
 30
0.0
 10
25.90520484511214
 20
20.16144542810036
 30
0.0
 10
25.8585944405231
 20
20.12573378282566
 30
0.0
 10
25.83216796714902
 20
20.10410028540331
 30
0.0
 10
25.80671378222474
 20
20.08231020513306
 30
0.0
 10
25.78878999994688
 20
20.06612980204963
 30
0.0
 10
25.77280744707963
 20
20.05050440167076
 30
0.0
 10
25.76551263925001
 20
20.04302868548048
 30
0.0
 10
25.76163393736334
 20
20.03893299224751
 30
0.0
 10
25.75950451334602
 20
20.03664290196242
 30
0.0
 10
25.75831500257052
 20
20.03534959598869
 30
0.0
 10
25.75764401048608
 20
20.03461536733912
 30
0.0
 10
25.75728338490605
 20
20.03421929007758
 30
0.0
 10
25.75710360787145
 20
20.03402146006571
 30
0.0
 10
25.75695160675566
 20
20.03385407255227
 30
0.0
 10
25.75684524581625
 20
20.03373673256194
 30
0.0
 10
25.75675907697695
 20
20.03364166899041
 30
0.0
  0
LWPOLYLINE
  5
24D
330
1F
100
AcDbEntity
  8
0
  6
Continuous
 62
     7
370
    25
100
AcDbPolyline
 90
       14
 70
   128
 43
0.0
 10
25.756759077
 20
20.033641669
 10
25.6142766768
 20
20.1572482159
 10
25.470445
 20
20.2748484208
 10
25.3255062577
 20
20.3862442464
 10
25.179704525
 20
20.4912481032
 10
25.0332853305
 20
20.589683166
 10
24.8864952425
 20
20.6813836712
 10
24.739581454
 20
20.7661951961
 10
24.592791366
 20
20.843974919
 10
24.4463721715
 20
20.9145918598
 10
24.3005704388
 20
20.9779271003
 10
24.1556316965
 20
21.0338739846
 10
24.0118000197
 20
21.0823382989
 10
23.8693176195
 20
21.1232384297
  0
SPLINE
  5
24E
330
1F
100
AcDbEntity
  8
0
  6
Continuous
 62
     7
370
    25
100
AcDbSpline
210
0.0
220
0.0
230
1.0
 70
     8
 71
     3
 72
    24
 73
    20
 74
     0
 42
0.00000001
 43
0.00000001
 40
0.0
 40
0.0
 40
0.0
 40
0.0
 40
0.051425929573727
 40
0.2529832816472795
 40
0.4465316074060101
 40
0.5698018323260001
 40
0.6978157476649987
 40
0.7212746107127483
 40
0.8568889830074634
 40
0.9189909779075123
 40
0.9538365761582235
 40
0.9736407653690181
 40
0.9849400601011711
 40
0.9913943735412802
 40
0.9950823684162751
 40
0.9971898503091334
 40
0.9980265693477541
 40
0.9984012154302049
 40
1.0
 40
1.0
 40
1.0
 40
1.0
 10
23.93862821249103
 20
21.46439891560608
 30
0.0
 10
23.93381688400931
 20
21.46140557636247
 30
0.0
 10
23.91014816905409
 20
21.44668022688979
 30
0.0
 10
23.87491856939666
 20
21.40775772198225
 30
0.0
 10
23.84950190537866
 20
21.34817747490662
 30
0.0
 10
23.83955405338746
 20
21.2913009885235
 30
0.0
 10
23.83913925465016
 20
21.25465127096257
 30
0.0
 10
23.84220816594131
 20
21.21639515773652
 30
0.0
 10
23.84739814115197
 20
21.18687146647485
 30
0.0
 10
23.85627062824254
 20
21.15689755694493
 30
0.0
 10
23.86153426122211
 20
21.14217200719256
 30
0.0
 10
23.8647587166625
 20
21.13397574851766
 30
0.0
 10
23.86667527845654
 20
21.12934996034039
 30
0.0
 10
23.86779535218471
 20
21.12672335961268
 30
0.0
 10
23.86844368044313
 20
21.12522750354087
 30
0.0
 10
23.86879728479671
 20
21.12441911011506
 30
0.0
 10
23.86897489913558
 20
21.12401496245488
 30
0.0
 10
23.86912550358028
 20
21.12367288446976
 30
0.0
 10
23.86923163590034
 20
21.12343287473183
 30
0.0
 10
23.86931761952255
 20
21.12323842965966
 30
0.0
  0
SPLINE
  5
24F
330
1F
100
AcDbEntity
  8
0
  6
Continuous
 62
     7
370
    25
100
AcDbSpline
210
0.0
220
0.0
230
1.0
 70
     8
 71
     3
 72
    22
 73
    18
 74
     0
 42
0.00000001
 43
0.00000001
 40
0.0
 40
0.0
 40
0.0
 40
0.0
 40
0.0514943377722658
 40
0.253288344722149
 40
0.446967011778687
 40
0.5580951575717435
 40
0.6726793262698058
 40
0.7218994327519888
 40
0.9530330392122306
 40
0.9731942474453603
 40
0.9846888534390132
 40
0.9912520817380276
 40
0.99500146218851
 40
0.9971437486385625
 40
0.9980239424840355
 40
0.998399071900551
 40
1.0
 40
1.0
 40
1.0
 40
1.0
 10
26.10432239778126
 20
20.12507534435953
 30
0.0
 10
26.09931098542854
 20
20.12226092635158
 30
0.0
 10
26.07466104536804
 20
20.10841747657768
 30
0.0
 10
26.0222183890857
 20
20.08490794111892
 30
0.0
 10
25.95675696389343
 20
20.06307535202363
 30
0.0
 10
25.9028010558097
 20
20.04926338735051
 30
0.0
 10
25.86848316970575
 20
20.04242178548095
 30
0.0
 10
25.82148680976657
 20
20.03506938428289
 30
0.0
 10
25.78868131081031
 20
20.03271133834355
 30
0.0
 10
25.76463708595199
 20
20.033284903568
 30
0.0
 10
25.76121762365079
 20
20.03341515979017
 30
0.0
 10
25.75929321422756
 20
20.03350485377583
 30
0.0
 10
25.75820277553566
 20
20.03356107662728
 30
0.0
 10
25.75761260205944
 20
20.03359319459442
 30
0.0
 10
25.75731720427286
 20
20.03360971223281
 30
0.0
 10
25.75706910246578
 20
20.03362372836062
 30
0.0
 10
25.75689783306098
 20
20.03363363941986
 30
0.0
 10
25.75675907697695
 20
20.03364166899041
 30
0.0
  0
ARC
  5
250
330
1F
100
AcDbEntity
  8
0
  6
Continuous
 62
     7
370
    25
100
AcDbCircle
 10
25.9054947684
 20
20.1036563409
 30
0.0
 40
0.1999779985351027
100
AcDbArc
 50
6.148561933
 51
47.342833185
  0
ELLIPSE
  5
251
330
1F
100
AcDbEntity
  8
0
  6
Continuous
 62
     7
370
    25
100
AcDbEllipse
 10
25.9426785847
 20
20.0097386453
 30
0.0
 11
0.2504774800151246
 21
-0.0008268278801821795
 31
0.0
210
0.0
220
0.0
230
1.0
 40
0.5772793224
 41
3.930802693311438
 42
4.996238509822219
  0
LINE
  5
252
330
1F
100
AcDbEntity
  8
0
  6
Continuous
 62
     7
370
    25
100
AcDbLine
 10
25.7659018894
 20
19.9076876313
 30
0.0
 11
25.756759077
 21
20.033641669
 31
0.0
  0
LINE
  5
253
330
1F
100
AcDbEntity
  8
0
  6
Continuous
 62
     7
370
    25
100
AcDbLine
 10
26.1043223978
 20
20.1250753444
 30
0.0
 11
26.1199620449
 21
19.9096190266
 31
0.0
  0
ARC
  5
254
330
1F
100
AcDbEntity
  8
0
  6
Continuous
 62
     7
370
    25
100
AcDbCircle
 10
25.9450412787
 20
20.2249935086
 30
0.0
 40
0.3606360191720493
100
AcDbArc
 50
280.7595136682
 51
299.0147064255
  0
LINE
  5
255
330
1F
100
AcDbEntity
  8
0
  6
Continuous
 62
     7
370
    25
100
AcDbLine
 10
26.0410018746
 20
20.2507244343
 30
0.0
 11
26.1293902223
 21
20.3017499412
 31
0.0
  0
LINE
  5
256
330
1F
100
AcDbEntity
  8
0
  6
Continuous
 62
     7
370
    25
100
AcDbLine
 10
24.0270165601
 20
21.5154244226
 30
0.0
 11
23.9386282125
 21
21.4643989156
 31
0.0
  0
LWPOLYLINE
  5
257
330
1F
100
AcDbEntity
  8
0
  6
Continuous
 62
     7
370
    25
100
AcDbPolyline
 90
       15
 70
   128
 43
0.0
 10
26.1293902223
 20
20.3017499412
 10
25.9824455863
 20
20.4323258257
 10
25.8340170204
 20
20.5568482158
 10
25.6843481073
 20
20.675112761
 10
25.5336844648
 20
20.7869253802
 10
25.3822733434
 20
20.8921025804
 10
25.2303632202
 20
20.9904717578
 10
25.0782033912
 20
21.0818714813
 10
24.9260435622
 20
21.1661517569
 10
24.774133439
 20
21.2431742744
 10
24.6227223176
 20
21.3128126339
 10
24.4720586751
 20
21.3749525537
 10
24.3223897619
 20
21.4294920574
 10
24.1739611961
 20
21.4763416416
 10
24.0270165601
 20
21.5154244226
  0
LWPOLYLINE
  5
258
330
1F
100
AcDbEntity
  8
0
  6
Continuous
 62
     7
370
    25
100
AcDbPolyline
 90
       17
 70
   128
 43
0.0
 10
24.6945979624
 20
20.0431228551
 10
24.6915848533
 20
20.0957297099
 10
24.6826016547
 20
20.1508354602
 10
24.6678157065
 20
20.2074135902
 10
24.6475024429
 20
20.2644101562
 10
24.6220402616
 20
20.3207634202
 10
24.5919034749
 20
20.3754236275
 10
24.5576534741
 20
20.4273725617
 10
24.5199282719
 20
20.4756425126
 10
24.4794306174
 20
20.5193343024
 10
24.4369149054
 20
20.5576340355
 10
24.393173123
 20
20.5898282605
 10
24.349020097
 20
20.6153172599
 10
24.3052783146
 20
20.6336262218
 10
24.2627626026
 20
20.6444140849
 10
24.2222649481
 20
20.6474798918
 10
24.1852529451
 20
20.6429344928
  0
ARC
  5
259
330
1F
100
AcDbEntity
  8
0
  6
Continuous
 62
     7
370
    25
100
AcDbCircle
 10
24.4569720105
 20
20.0219982798
 30
0.0
 40
0.2385630748334004
100
AcDbArc
 50
312.4184038409
 51
5.0801505235
  0
LWPOLYLINE
  5
25A
330
1F
100
AcDbEntity
  8
0
  6
Continuous
 62
     7
370
    25
100
AcDbPolyline
 90
       18
 70
   128
 43
0.0
 10
25.5784814389
 20
19.5328677852
 10
25.5754683298
 20
19.58547464
 10
25.5664851312
 20
19.6405803903
 10
25.551699183
 20
19.6971585203
 10
25.5313859194
 20
19.7541550863
 10
25.5059237381
 20
19.8105083503
 10
25.4757869514
 20
19.8651685576
 10
25.4415369506
 20
19.9171174918
 10
25.4038117484
 20
19.9653874428
 10
25.3633140939
 20
20.0090792325
 10
25.3207983819
 20
20.0473789656
 10
25.2770565995
 20
20.0795731906
 10
25.2329035735
 20
20.10506219
 10
25.1891617911
 20
20.1233711519
 10
25.1466460791
 20
20.134159015
 10
25.1061484246
 20
20.1372248219
 10
25.0684232224
 20
20.1325114623
 10
25.0662715775
 20
20.1319844886
  0
ARC
  5
25B
330
1F
100
AcDbEntity
  8
0
  6
Continuous
 62
     7
370
    25
100
AcDbCircle
 10
25.3410137642
 20
19.5117142473
 30
0.0
 40
0.2384079878392421
100
AcDbArc
 50
312.3083560491
 51
5.0904519253
  0
LINE
  5
25C
330
1F
100
AcDbEntity
  8
0
  6
Continuous
 62
     7
370
    25
100
AcDbLine
 10
25.5764066777
 20
18.8195923089
 30
0.0
 11
24.0496700188
 21
19.7009586217
 31
0.0
  0
LINE
  5
25D
330
1F
100
AcDbEntity
  8
0
  6
Continuous
 62
     7
370
    25
100
AcDbLine
 10
23.8308489351
 20
20.2649472196
 30
0.0
 11
24.0496700188
 21
19.7009586217
 31
0.0
  0
ARC
  5
25E
330
1F
100
AcDbEntity
  8
0
  6
Continuous
 62
     7
370
    25
100
AcDbCircle
 10
24.0918673874
 20
20.3711511843
 30
0.0
 40
0.2817976482411184
100
AcDbArc
 50
179.8504627103
 51
202.1405707836
  0
LINE
  5
25F
330
1F
100
AcDbEntity
  8
0
  6
Continuous
 62
     7
370
    25
100
AcDbLine
 10
23.8100706989
 20
20.3718866523
 30
0.0
 11
23.8646905524
 21
20.340355282
 31
0.0
  0
ARC
  5
260
330
1F
100
AcDbEntity
  8
0
  6
Continuous
 62
     7
370
    25
100
AcDbCircle
 10
24.8235022158
 20
20.5642726455
 30
0.0
 40
0.984610984912654
100
AcDbArc
 50
189.7271111912
 51
193.1450524882
  0
LINE
  5
261
330
1F
100
AcDbEntity
  8
0
  6
Continuous
 62
     7
370
    25
100
AcDbLine
 10
23.813653209
 20
20.4206581149
 30
0.0
 11
23.8530463597
 21
20.3979169331
 31
0.0
  0
LINE
  5
262
330
1F
100
AcDbEntity
  8
0
  6
Continuous
 62
     7
370
    25
100
AcDbLine
 10
23.8365884701
 20
20.7101404403
 30
0.0
 11
23.813653209
 21
20.4206581149
 31
0.0
  0
LINE
  5
263
330
1F
100
AcDbEntity
  8
0
  6
Continuous
 62
     7
370
    25
100
AcDbLine
 10
23.8365884701
 20
20.7101404403
 30
0.0
 11
23.8620367694
 21
20.6954494499
 31
0.0
  0
ARC
  5
264
330
1F
100
AcDbEntity
  8
0
  6
Continuous
 62
     7
370
    25
100
AcDbCircle
 10
24.2551571178
 20
20.5795895997
 30
0.0
 40
0.4098379109611404
100
AcDbArc
 50
157.3165623804
 51
163.5787779935
  0
LINE
  5
265
330
1F
100
AcDbEntity
  8
0
  6
Continuous
 62
     7
370
    25
100
AcDbLine
 10
23.8404402462
 20
20.7587564591
 30
0.0
 11
23.8770203316
 21
20.7376392253
 31
0.0
  0
LINE
  5
266
330
1F
100
AcDbEntity
  8
0
  6
Continuous
 62
     7
370
    25
100
AcDbLine
 10
23.856323031
 20
20.9592244398
 30
0.0
 11
23.8404402462
 21
20.7587564591
 31
0.0
  0
LINE
  5
267
330
1F
100
AcDbEntity
  8
0
  6
Continuous
 62
     7
370
    25
100
AcDbLine
 10
23.856323031
 20
20.9592244398
 30
0.0
 11
23.995353007
 21
20.8789641431
 31
0.0
  0
ARC
  5
268
330
1F
100
AcDbEntity
  8
0
  6
Continuous
 62
     7
370
    25
100
AcDbCircle
 10
24.1226598902
 20
20.6599292151
 30
0.0
 40
0.2533443154074154
100
AcDbArc
 50
107.8333108916
 51
120.1658939309
  0
LINE
  5
269
330
1F
100
AcDbEntity
  8
0
  6
Continuous
 62
     7
370
    25
100
AcDbLine
 10
23.8601748071
 20
21.0078404586
 30
0.0
 11
24.0450734959
 21
20.9011007175
 31
0.0
  0
LINE
  5
26A
330
1F
100
AcDbEntity
  8
0
  6
Continuous
 62
     7
370
    25
100
AcDbLine
 10
23.8693176195
 20
21.1232384297
 30
0.0
 11
23.8601748071
 21
21.0078404586
 31
0.0
  0
LINE
  5
26B
330
1F
100
AcDbEntity
  8
0
  6
Continuous
 62
     7
370
    25
100
AcDbLine
 10
25.5810032006
 20
20.0144273724
 30
0.0
 11
25.7659018894
 21
19.9076876313
 31
0.0
  0
ARC
  5
26C
330
1F
100
AcDbEntity
  8
0
  6
Continuous
 62
     7
370
    25
100
AcDbCircle
 10
24.5099960526
 20
19.2896515117
 30
0.0
 40
1.293196179743228
100
AcDbArc
 50
29.9301988622
 51
34.0871412476
  0
LINE
  5
26D
330
1F
100
AcDbEntity
  8
0
  6
Continuous
 62
     7
370
    25
100
AcDbLine
 10
25.6307236895
 20
19.9348847434
 30
0.0
 11
25.7697536655
 21
19.8546244466
 31
0.0
  0
LINE
  5
26E
330
1F
100
AcDbEntity
  8
0
  6
Continuous
 62
     7
370
    25
100
AcDbLine
 10
25.7856364503
 20
19.6358185928
 30
0.0
 11
25.7697536655
 21
19.8546244466
 31
0.0
  0
LINE
  5
26F
330
1F
100
AcDbEntity
  8
0
  6
Continuous
 62
     7
370
    25
100
AcDbLine
 10
25.7490563649
 20
19.6569358266
 30
0.0
 11
25.7856364503
 21
19.6358185928
 31
0.0
  0
ARC
  5
270
330
1F
100
AcDbEntity
  8
0
  6
Continuous
 62
     7
370
    25
100
AcDbCircle
 10
24.7350790601
 20
19.3699143815
 30
0.0
 40
1.053817481710961
100
AcDbArc
 50
12.4690476857
 51
15.8049589556
  0
LINE
  5
271
330
1F
100
AcDbEntity
  8
0
  6
Continuous
 62
     7
370
    25
100
AcDbLine
 10
25.7640399271
 20
19.5974463986
 30
0.0
 11
25.7894882264
 21
19.5827554081
 31
0.0
  0
LINE
  5
272
330
1F
100
AcDbEntity
  8
0
  6
Continuous
 62
     7
370
    25
100
AcDbLine
 10
25.8124234875
 20
19.2667925939
 30
0.0
 11
25.7894882264
 21
19.5827554081
 31
0.0
  0
LINE
  5
273
330
1F
100
AcDbEntity
  8
0
  6
Continuous
 62
     7
370
    25
100
AcDbLine
 10
25.7730303368
 20
19.2895337757
 30
0.0
 11
25.8124234875
 21
19.2667925939
 31
0.0
  0
ARC
  5
274
330
1F
100
AcDbEntity
  8
0
  6
Continuous
 62
     7
370
    25
100
AcDbCircle
 10
25.3210903249
 20
19.3852213988
 30
0.0
 40
0.4619587595477956
100
AcDbArc
 50
342.3840264762
 51
348.0455173984
  0
LINE
  5
275
330
1F
100
AcDbEntity
  8
0
  6
Continuous
 62
     7
370
    25
100
AcDbLine
 10
25.7613861441
 20
19.2454162233
 30
0.0
 11
25.8160059976
 21
19.2138848531
 31
0.0
  0
ARC
  5
276
330
1F
100
AcDbEntity
  8
0
  6
Continuous
 62
     7
370
    25
100
AcDbCircle
 10
25.6780296849
 20
19.2043698474
 30
0.0
 40
0.1383040063771431
100
AcDbArc
 50
327.9294188937
 51
3.9449373914
  0
LINE
  5
277
330
1F
100
AcDbEntity
  8
0
  6
Continuous
 62
     7
370
    25
100
AcDbLine
 10
25.5764066777
 20
18.8195923089
 30
0.0
 11
25.7952277614
 21
19.1309354614
 31
0.0
  0
LINE
  5
278
330
1F
100
AcDbEntity
  8
0
  6
Continuous
 62
     7
370
    25
100
AcDbLine
 10
26.1927107454
 20
20.1761008513
 30
0.0
 11
26.1043223978
 21
20.1250753444
 31
0.0
  0
ARC
  5
279
330
1F
100
AcDbEntity
  8
0
  6
Continuous
 62
     7
370
    25
100
AcDbCircle
 10
25.9938831161
 20
20.1546818479
 30
0.0
 40
0.199977998535172
100
AcDbArc
 50
6.148561933
 51
47.342833185
  0
LINE
  5
27A
330
1F
100
AcDbEntity
  8
0
  6
Continuous
 62
     7
370
    25
100
AcDbLine
 10
26.2083503925
 20
19.9606445336
 30
0.0
 11
26.1199620449
 21
19.9096190266
 31
0.0
  0
LINE
  5
27B
330
1F
100
AcDbEntity
  8
0
  6
Continuous
 62
     7
370
    25
100
AcDbLine
 10
26.2083503925
 20
19.9606445336
 30
0.0
 11
26.1927107454
 21
20.1761008513
 31
0.0
  0
ELLIPSE
  5
27C
330
1F
100
AcDbEntity
  8
0
  6
Continuous
 62
     7
370
    25
100
AcDbEllipse
 10
25.9624131456
 20
19.7378696068
 30
0.0
 11
0.2504774800151247
 21
-0.0008268278801786268
 31
0.0
210
0.0
220
0.0
230
1.0
 40
0.5772793224
 41
3.930802693311417
 42
4.996238509822135
  0
ELLIPSE
  5
27D
330
1F
100
AcDbEntity
  8
0
  6
Continuous
 62
     7
370
    25
100
AcDbEllipse
 10
25.9465303608
 20
19.9566754606
 30
0.0
 11
0.2504774800151282
 21
-0.0008268278801786268
 31
0.0
210
0.0
220
0.0
230
1.0
 40
0.5772793224
 41
3.930802693311411
 42
4.996238509822152
  0
ARC
  5
27E
330
1F
100
AcDbEntity
  8
0
  6
Continuous
 62
     7
370
    25
100
AcDbCircle
 10
25.9488930548
 20
20.1719303239
 30
0.0
 40
0.3606360191721651
100
AcDbArc
 50
280.7595136682
 51
299.0147064255
  0
LINE
  5
27F
330
1F
100
AcDbEntity
  8
0
  6
Continuous
 62
     7
370
    25
100
AcDbLine
 10
26.1238138209
 20
19.8565558419
 30
0.0
 11
26.1396966058
 21
19.6377499881
 31
0.0
  0
ARC
  5
280
330
1F
100
AcDbEntity
  8
0
  6
Continuous
 62
     7
370
    25
100
AcDbCircle
 10
25.9647758396
 20
19.9531244701
 30
0.0
 40
0.3606360191720691
100
AcDbArc
 50
280.7595136682
 51
299.0147064255
  0
ELLIPSE
  5
281
330
1F
100
AcDbEntity
  8
0
  6
Continuous
 62
     7
370
    25
100
AcDbEllipse
 10
25.9464459535
 20
19.9822369414
 30
0.0
 11
0.2504774800151282
 21
-0.0008268278801821793
 31
0.0
210
0.0
220
0.0
230
1.0
 40
0.5772793224
 41
3.930802693311445
 42
5.501599020106355
  0
LINE
  5
282
330
1F
100
AcDbEntity
  8
0
  6
Continuous
 62
     7
370
    25
100
AcDbLine
 10
25.6528207764
 20
19.9476411201
 30
0.0
 11
25.6307236895
 21
19.9348847434
 31
0.0
  0
LINE
  5
283
330
1F
100
AcDbEntity
  8
0
  6
Continuous
 62
     7
370
    25
100
AcDbLine
 10
25.6528207764
 20
19.9476411201
 30
0.0
 11
25.7696692582
 21
19.8801859274
 31
0.0
  0
LINE
  5
284
330
1F
100
AcDbEntity
  8
0
  6
Continuous
 62
     7
370
    25
100
AcDbLine
 10
26.0162191705
 20
19.8176344977
 30
0.0
 11
26.123897907
 21
19.8797961091
 31
0.0
  0
LINE
  5
285
330
1F
100
AcDbEntity
  8
0
  6
Continuous
 62
     7
370
    25
100
AcDbLine
 10
26.1901891678
 20
19.9180652394
 30
0.0
 11
26.123897907
 21
19.8797961091
 31
0.0
  0
LINE
  5
286
330
1F
100
AcDbEntity
  8
0
  6
Continuous
 62
     7
370
    25
100
AcDbLine
 10
26.2122021686
 20
19.9075813489
 30
0.0
 11
26.1238138209
 21
19.8565558419
 31
0.0
  0
LINE
  5
287
330
1F
100
AcDbEntity
  8
0
  6
Continuous
 62
     7
370
    25
100
AcDbLine
 10
26.2122021686
 20
19.9075813489
 30
0.0
 11
26.1901891678
 21
19.9180652394
 31
0.0
  0
LINE
  5
288
330
1F
100
AcDbEntity
  8
0
  6
Continuous
 62
     7
370
    25
100
AcDbLine
 10
26.2280849534
 20
19.6887754951
 30
0.0
 11
26.1396966058
 21
19.6377499881
 31
0.0
  0
LINE
  5
289
330
1F
100
AcDbEntity
  8
0
  6
Continuous
 62
     7
370
    25
100
AcDbLine
 10
26.2280849534
 20
19.6887754951
 30
0.0
 11
26.2122021686
 21
19.9075813489
 31
0.0
  0
LINE
  5
28A
330
1F
100
AcDbEntity
  8
0
  6
Continuous
 62
     7
370
    25
100
AcDbLine
 10
26.1901891678
 20
19.9180652394
 30
0.0
 11
26.187953137
 21
19.9488694486
 31
0.0
  0
ARC
  5
28B
330
1F
100
AcDbEntity
  8
0
  6
Continuous
 62
     7
370
    25
100
AcDbCircle
 10
24.5282544188
 20
19.3001018298
 30
0.0
 40
1.297673543372189
100
AcDbArc
 50
29.9338723489
 51
31.9270461474
  0
ELLIPSE
  5
28C
330
1F
100
AcDbEntity
  8
0
  6
Continuous
 62
     7
370
    25
100
AcDbEllipse
 10
25.9892001828
 20
19.3688436079
 30
0.0
 11
0.2504774800151247
 21
-0.0008268278801786268
 31
0.0
210
0.0
220
0.0
230
1.0
 40
0.5772793224
 41
3.930802693311417
 42
4.996238509822121
  0
ELLIPSE
  5
28D
330
1F
100
AcDbEntity
  8
0
  6
Continuous
 62
     7
370
    25
100
AcDbEllipse
 10
25.9662649216
 20
19.6848064221
 30
0.0
 11
0.2504774800151282
 21
-0.0008268278801821793
 31
0.0
210
0.0
220
0.0
230
1.0
 40
0.5772793224
 41
3.930802693311445
 42
4.996238509822147
  0
ARC
  5
28E
330
1F
100
AcDbEntity
  8
0
  6
Continuous
 62
     7
370
    25
100
AcDbCircle
 10
25.9686276157
 20
19.9000612854
 30
0.0
 40
0.3606360191723485
100
AcDbArc
 50
280.7595136682
 51
299.0147064255
  0
LINE
  5
28F
330
1F
100
AcDbEntity
  8
0
  6
Continuous
 62
     7
370
    25
100
AcDbLine
 10
26.1435483818
 20
19.5846868034
 30
0.0
 11
26.166483643
 21
19.2687239891
 31
0.0
  0
ARC
  5
290
330
1F
100
AcDbEntity
  8
0
  6
Continuous
 62
     7
370
    25
100
AcDbCircle
 10
25.9915628768
 20
19.5840984711
 30
0.0
 40
0.3606360191721665
100
AcDbArc
 50
280.7595136682
 51
299.0147064255
  0
ELLIPSE
  5
291
330
1F
100
AcDbEntity
  8
0
  6
Continuous
 62
     7
370
    25
100
AcDbEllipse
 10
25.9661805144
 20
19.7103679029
 30
0.0
 11
0.2504774800151246
 21
-0.0008268278801821795
 31
0.0
210
0.0
220
0.0
230
1.0
 40
0.5772793224
 41
3.930802693311421
 42
5.501599020106336
  0
LINE
  5
292
330
1F
100
AcDbEntity
  8
0
  6
Continuous
 62
     7
370
    25
100
AcDbLine
 10
25.7861370141
 20
19.6102027753
 30
0.0
 11
25.7640399271
 21
19.5974463986
 31
0.0
  0
LINE
  5
293
330
1F
100
AcDbEntity
  8
0
  6
Continuous
 62
     7
370
    25
100
AcDbLine
 10
25.7861370141
 20
19.6102027753
 30
0.0
 11
25.7894038191
 21
19.6083168889
 31
0.0
  0
LINE
  5
294
330
1F
100
AcDbEntity
  8
0
  6
Continuous
 62
     7
370
    25
100
AcDbLine
 10
26.0359537314
 20
19.5457654592
 30
0.0
 11
26.1436324679
 21
19.6079270706
 31
0.0
  0
LINE
  5
295
330
1F
100
AcDbEntity
  8
0
  6
Continuous
 62
     7
370
    25
100
AcDbLine
 10
26.2099237287
 20
19.6461962009
 30
0.0
 11
26.1436324679
 21
19.6079270706
 31
0.0
  0
LINE
  5
296
330
1F
100
AcDbEntity
  8
0
  6
Continuous
 62
     7
370
    25
100
AcDbLine
 10
26.2319367295
 20
19.6357123104
 30
0.0
 11
26.1435483818
 21
19.5846868034
 31
0.0
  0
LINE
  5
297
330
1F
100
AcDbEntity
  8
0
  6
Continuous
 62
     7
370
    25
100
AcDbLine
 10
26.2319367295
 20
19.6357123104
 30
0.0
 11
26.2099237287
 21
19.6461962009
 31
0.0
  0
LINE
  5
298
330
1F
100
AcDbEntity
  8
0
  6
Continuous
 62
     7
370
    25
100
AcDbLine
 10
26.2548719906
 20
19.3197494961
 30
0.0
 11
26.166483643
 21
19.2687239891
 31
0.0
  0
LINE
  5
299
330
1F
100
AcDbEntity
  8
0
  6
Continuous
 62
     7
370
    25
100
AcDbLine
 10
26.2548719906
 20
19.3197494961
 30
0.0
 11
26.2319367295
 21
19.6357123104
 31
0.0
  0
ARC
  5
29A
330
1F
100
AcDbEntity
  8
0
  6
Continuous
 62
     7
370
    25
100
AcDbCircle
 10
24.7778155905
 20
19.3875469671
 30
0.0
 40
1.032612077309649
100
AcDbArc
 50
12.4521307165
 51
14.1240852801
  0
LINE
  5
29B
330
1F
100
AcDbEntity
  8
0
  6
Continuous
 62
     7
370
    25
100
AcDbLine
 10
26.2099237287
 20
19.6461962009
 30
0.0
 11
26.2076876979
 21
19.6770004101
 31
0.0
  0
SPLINE
  5
29C
330
1F
100
AcDbEntity
  8
0
  6
Continuous
 62
     7
370
    25
100
AcDbSpline
210
0.0
220
0.0
230
1.0
 70
     8
 71
     3
 72
    11
 73
     7
 74
     0
 42
0.00000001
 43
0.00000001
 40
0.0
 40
0.0
 40
0.0
 40
0.0
 40
0.0590469231862285
 40
0.3727160891298298
 40
0.6863575559117134
 40
0.9999999999999999
 40
0.9999999999999999
 40
0.9999999999999999
 40
0.9999999999999999
 10
25.81600599755309
 20
19.21388485312661
 30
0.0
 10
25.81980483203402
 20
19.21177690579304
 30
0.0
 10
25.84378384151632
 20
19.19847111704297
 30
0.0
 10
25.89714883791833
 20
19.17982471894118
 30
0.0
 10
25.98103843814515
 20
19.16828228028682
 30
0.0
 10
26.0365164720219
 20
19.17450336660694
 30
0.0
 10
26.06425553217759
 20
19.17761391461321
 30
0.0
  0
SPLINE
  5
29D
330
1F
100
AcDbEntity
  8
0
  6
Continuous
 62
     7
370
    25
100
AcDbSpline
210
0.0
220
0.0
230
1.0
 70
     8
 71
     3
 72
    10
 73
     6
 74
     0
 42
0.00000001
 43
0.00000001
 40
0.0
 40
0.0
 40
0.0
 40
0.0
 40
0.3210776847983214
 40
0.6556894045021275
 40
1.0
 40
1.0
 40
1.0
 40
1.0
 10
26.06425553217759
 20
19.17761391461321
 30
0.0
 10
26.07676080595427
 20
19.1805616024092
 30
0.0
 10
26.10229847457462
 20
19.18658122864647
 30
0.0
 10
26.1381791372585
 20
19.19951263160825
 30
0.0
 10
26.15900259201813
 20
19.21047112616488
 30
0.0
 10
26.16956305813932
 20
19.21602864828791
 30
0.0
  0
ARC
  5
29E
330
1F
100
AcDbEntity
  8
0
  6
Continuous
 62
     7
370
    25
100
AcDbCircle
 10
25.876984195
 20
19.1985746753
 30
0.0
 40
0.2930990145612122
100
AcDbArc
 50
327.834862465
 51
3.4139691208
  0
ARC
  5
29F
330
1F
100
AcDbEntity
  8
0
  6
Continuous
 62
     7
370
    25
100
AcDbCircle
 10
26.0147945232
 20
19.2906104885
 30
0.0
 40
0.271487895128583
100
AcDbArc
 50
216.0256852828
 51
293.9720425464
  0
ELLIPSE
  5
2A0
330
1F
100
AcDbEntity
  8
0
  6
Continuous
 62
     7
370
    25
100
AcDbEllipse
 10
25.9929675516
 20
19.3413419039
 30
0.0
 11
0.2504774800151282
 21
-0.0008268278801821793
 31
0.0
210
0.0
220
0.0
230
1.0
 40
0.5772793224
 41
3.930802693311455
 42
5.501599020106348
  0
LINE
  5
2A1
330
1F
100
AcDbEntity
  8
0
  6
Continuous
 62
     7
370
    25
100
AcDbLine
 10
25.7834832311
 20
19.2581726001
 30
0.0
 11
25.7613861441
 21
19.2454162233
 31
0.0
  0
LINE
  5
2A2
330
1F
100
AcDbEntity
  8
0
  6
Continuous
 62
     7
370
    25
100
AcDbLine
 10
25.7834832311
 20
19.2581726001
 30
0.0
 11
25.8161908563
 21
19.23929089
 31
0.0
  0
LINE
  5
2A3
330
1F
100
AcDbEntity
  8
0
  6
Continuous
 62
     7
370
    25
100
AcDbLine
 10
26.0642555322
 20
19.1776139146
 30
0.0
 11
26.1704195051
 21
19.2389010717
 31
0.0
  0
LINE
  5
2A4
330
1F
100
AcDbEntity
  8
0
  6
Continuous
 62
     7
370
    25
100
AcDbLine
 10
26.2367107659
 20
19.2771702019
 30
0.0
 11
26.1704195051
 21
19.2389010717
 31
0.0
  0
LINE
  5
2A5
330
1F
100
AcDbEntity
  8
0
  6
Continuous
 62
     7
370
    25
100
AcDbLine
 10
26.2579514058
 20
19.2670541553
 30
0.0
 11
26.1695630581
 21
19.2160286483
 31
0.0
  0
LINE
  5
2A6
330
1F
100
AcDbEntity
  8
0
  6
Continuous
 62
     7
370
    25
100
AcDbLine
 10
26.2579514058
 20
19.2670541553
 30
0.0
 11
26.2367107659
 21
19.2771702019
 31
0.0
  0
SPLINE
  5
2A7
330
1F
100
AcDbEntity
  8
0
  6
Continuous
 62
     7
370
    25
100
AcDbSpline
210
0.0
220
0.0
230
1.0
 70
     8
 71
     3
 72
    12
 73
     8
 74
     0
 42
0.00000001
 43
0.00000001
 40
0.0
 40
0.0
 40
0.0
 40
0.0
 40
0.0029778950130141
 40
0.2985430295887692
 40
0.5938203536059168
 40
0.9776540621162852
 40
1.0
 40
1.0
 40
1.0
 40
1.0
 10
25.88076096373287
 20
18.69489294520095
 30
0.0
 10
25.88059744694471
 20
18.69476258083273
 30
0.0
 10
25.86420439174554
 20
18.6816931565351
 30
0.0
 10
25.82936320726909
 20
18.65830563129879
 30
0.0
 10
25.7666539086126
 20
18.6303273995041
 30
0.0
 10
25.71738336065992
 20
18.6206020342981
 30
0.0
 10
25.68885699164217
 20
18.62055093970901
 30
0.0
 10
25.68728761593421
 20
18.62054812874464
 30
0.0
  0
ELLIPSE
  5
2A8
330
1F
100
AcDbEntity
  8
0
  6
Continuous
 62
     7
370
    25
100
AcDbEllipse
 10
25.6511213003
 20
18.7764273003
 30
0.0
 11
0.2693916182981795
 21
-0.03282657532351507
 31
0.0
210
0.0
220
0.0
230
1.0
 40
0.5656819489
 41
4.784834569536526
 42
4.915548695586266
  0
ELLIPSE
  5
2A9
330
1F
100
AcDbEntity
  8
0
  6
Continuous
 62
     7
370
    25
100
AcDbEllipse
 10
25.7853101724
 20
18.9673539959
 30
0.0
 11
0.0512186238016703
 21
0.4203261478529185
 31
0.0
210
0.0
220
0.0
230
1.0
 40
0.4025305772
 41
2.02279328990567
 42
2.582095577301045
  0
ELLIPSE
  5
2AA
330
1F
100
AcDbEntity
  8
0
  6
Continuous
 62
     7
370
    25
100
AcDbEllipse
 10
25.753183373
 20
18.9216433229
 30
0.0
 11
0.269391618298176
 21
-0.03282657532351508
 31
0.0
210
0.0
220
0.0
230
1.0
 40
0.5656819489
 41
4.067486616604766
 42
4.225532282141163
  0
LINE
  5
2AB
330
1F
100
AcDbEntity
  8
0
  6
Continuous
 62
     7
370
    25
100
AcDbLine
 10
26.1250975656
 20
19.0425401033
 30
0.0
 11
25.8807609637
 21
18.6948929452
 31
0.0
  0
LINE
  5
2AC
330
1F
100
AcDbEntity
  8
0
  6
Continuous
 62
     7
370
    25
100
AcDbLine
 10
26.1250975656
 20
19.0425401033
 30
0.0
 11
26.2134859132
 21
19.0935656102
 31
0.0
  0
ARC
  5
2AD
330
1F
100
AcDbEntity
  8
0
  6
Continuous
 62
     7
370
    25
100
AcDbCircle
 10
25.9653725426
 20
19.2496001823
 30
0.0
 40
0.2930990145611377
100
AcDbArc
 50
327.834862465
 51
3.4139691208
  0
ARC
  5
2AE
330
1F
100
AcDbEntity
  8
0
  6
Continuous
 62
     7
370
    25
100
AcDbCircle
 10
25.3575955789
 20
19.3937876526
 30
0.0
 40
0.4469583142626786
100
AcDbArc
 50
342.3370072613
 51
345.2324344942
  0
LINE
  5
2AF
330
1F
100
AcDbEntity
  8
0
  6
Continuous
 62
     7
370
    25
100
AcDbLine
 10
26.2367107659
 20
19.2771702019
 30
0.0
 11
26.2344747351
 21
19.3079744111
 31
0.0
  0
LINE
  5
2B0
330
1F
100
AcDbEntity
  8
0
  6
Continuous
 62
     7
370
    25
100
AcDbLine
 10
25.8807609637
 20
18.6948929452
 30
0.0
 11
25.9691493114
 21
18.7459184522
 31
0.0
  0
LINE
  5
2B1
330
1F
100
AcDbEntity
  8
0
  6
Continuous
 62
     7
370
    25
100
AcDbLine
 10
25.9691493114
 20
18.7459184522
 30
0.0
 11
26.2134859132
 21
19.0935656102
 31
0.0
  0
LWPOLYLINE
  5
2B2
330
1F
100
AcDbEntity
  8
0
  6
Continuous
 62
     7
370
    25
100
AcDbPolyline
 90
        4
 70
   128
 43
0.0
 10
25.9691493114
 20
18.7459184522
 10
25.9627259478
 20
18.7385255629
 10
25.9551027569
 20
18.7328884631
 10
25.9550976777
 20
18.7328855304
  0
ELLIPSE
  5
2B3
330
1F
100
AcDbEntity
  8
0
  6
Continuous
 62
     7
370
    25
100
AcDbEllipse
 10
24.0369515024
 20
21.1098914725
 30
0.0
 11
0.2504774800151246
 21
-0.0008268278801821795
 31
0.0
210
0.0
220
0.0
230
1.0
 40
0.5772793224
 41
3.097800735993294
 42
3.930802693311434
  0
ARC
  5
2B4
330
1F
100
AcDbEntity
  8
0
  6
Continuous
 62
     7
370
    25
100
AcDbCircle
 10
24.1435843293
 20
20.6749847154
 30
0.0
 40
0.2507673309444537
100
AcDbArc
 50
114.2342844471
 51
120.1982197876
  0
LINE
  5
2B5
330
1F
100
AcDbEntity
  8
0
  6
Continuous
 62
     7
370
    25
100
AcDbLine
 10
23.995353007
 20
20.8789641431
 30
0.0
 11
24.0174500939
 21
20.8917205198
 31
0.0
  0
LINE
  5
2B6
330
1F
100
AcDbEntity
  8
0
  6
Continuous
 62
     7
370
    25
100
AcDbLine
 10
23.9006016121
 20
20.9591757125
 30
0.0
 11
24.0174500939
 21
20.8917205198
 31
0.0
  0
ELLIPSE
  5
2B7
330
1F
100
AcDbEntity
  8
0
  6
Continuous
 62
     7
370
    25
100
AcDbEllipse
 10
24.0773783074
 20
21.0612267265
 30
0.0
 11
0.2504774800151282
 21
-0.0008268278801821793
 31
0.0
210
0.0
220
0.0
230
1.0
 40
0.5772793224
 41
3.403930068149669
 42
3.930802693311455
  0
ELLIPSE
  5
2B8
330
1F
100
AcDbEntity
  8
0
  6
Continuous
 62
     7
370
    25
100
AcDbEllipse
 10
24.0330997263
 20
21.0612754538
 30
0.0
 11
0.2504774800151246
 21
-0.0008268278801821795
 31
0.0
210
0.0
220
0.0
230
1.0
 40
0.5772793224
 41
2.928681771795187
 42
3.930802693311468
  0
ARC
  5
2B9
330
1F
100
AcDbEntity
  8
0
  6
Continuous
 62
     7
370
    25
100
AcDbCircle
 10
24.0130093751
 20
21.4675338497
 30
0.0
 40
0.0498969759370512
100
AcDbArc
 50
73.6966919847
 51
118.4313938654
  0
ELLIPSE
  5
2BA
330
1F
100
AcDbEntity
  8
0
  6
Continuous
 62
     7
370
    25
100
AcDbEllipse
 10
24.0172169415
 20
20.8608074731
 30
0.0
 11
0.2504774800151246
 21
-0.0008268278801821795
 31
0.0
210
0.0
220
0.0
230
1.0
 40
0.5772793224
 41
3.097800735993321
 42
3.930802693311438
  0
ELLIPSE
  5
2BB
330
1F
100
AcDbEntity
  8
0
  6
Continuous
 62
     7
370
    25
100
AcDbEllipse
 10
24.0576437466
 20
20.812142727
 30
0.0
 11
0.2504774800151246
 21
-0.0008268278801821795
 31
0.0
210
0.0
220
0.0
230
1.0
 40
0.5772793224
 41
3.403930068149033
 42
3.862437050084603
  0
ELLIPSE
  5
2BC
330
1F
100
AcDbEntity
  8
0
  6
Continuous
 62
     7
370
    25
100
AcDbEllipse
 10
24.0133651654
 20
20.8121914543
 30
0.0
 11
0.2504774800151246
 21
-0.0008268278801821795
 31
0.0
210
0.0
220
0.0
230
1.0
 40
0.5772793224
 41
2.92868177184263
 42
3.93080269331145
  0
ELLIPSE
  5
2BD
330
1F
100
AcDbEntity
  8
0
  6
Continuous
 62
     7
370
    25
100
AcDbEllipse
 10
23.9904299043
 20
20.5227091289
 30
0.0
 11
0.2504774800151282
 21
-0.0008268278801821793
 31
0.0
210
0.0
220
0.0
230
1.0
 40
0.5772793224
 41
3.097800735993294
 42
3.930802693311473
  0
ELLIPSE
  5
2BE
330
1F
100
AcDbEntity
  8
0
  6
Continuous
 62
     7
370
    25
100
AcDbEllipse
 10
24.1943199147
 20
19.8858131217
 30
0.0
 11
0.05121862380166319
 21
0.4203261478529149
 31
0.0
210
0.0
220
0.0
230
1.0
 40
0.4025305772
 41
2.022793289905654
 42
2.582095577301001
  0
ELLIPSE
  5
2BF
330
1F
100
AcDbEntity
  8
0
  6
Continuous
 62
     7
370
    25
100
AcDbEllipse
 10
24.2264467141
 20
19.8030096357
 30
0.0
 11
0.2693916182981795
 21
-0.03282657532351152
 31
0.0
210
0.0
220
0.0
230
1.0
 40
0.5656819489
 41
3.909440951068372
 42
4.067486616604768
  0
LINE
  5
2C0
330
1F
100
AcDbEntity
  8
0
  6
Continuous
 62
     7
370
    25
100
AcDbLine
 10
23.8540800141
 20
20.3719933689
 30
0.0
 11
23.858341352
 21
20.3695333509
 31
0.0
  0
ELLIPSE
  5
2C1
330
1F
100
AcDbEntity
  8
0
  6
Continuous
 62
     7
370
    25
100
AcDbEllipse
 10
24.0308567093
 20
20.4740443829
 30
0.0
 11
0.2504774800151247
 21
-0.0008268278801786268
 31
0.0
210
0.0
220
0.0
230
1.0
 40
0.5772793224
 41
3.403930068149624
 42
3.930802693311434
  0
SPLINE
  5
2C2
330
1F
100
AcDbEntity
  8
0
  6
Continuous
 62
     7
370
    25
100
AcDbSpline
210
0.0
220
0.0
230
1.0
 70
     8
 71
     3
 72
    11
 73
     7
 74
     0
 42
0.00000001
 43
0.00000001
 40
0.0
 40
0.0
 40
0.0
 40
0.0
 40
0.2590068450749856
 40
0.5976148752252429
 40
0.9362528094525431
 40
1.0
 40
1.0
 40
1.0
 40
1.0
 10
23.74485742661497
 20
20.50388931135366
 30
0.0
 10
23.74092712118447
 20
20.49163837681089
 30
0.0
 10
23.73185860027812
 20
20.46337139909433
 30
0.0
 10
23.75131399314927
 20
20.41872681098605
 30
0.0
 10
23.78336157903123
 20
20.38792255495494
 30
0.0
 10
23.80641802072476
 20
20.3740796856701
 30
0.0
 10
23.81007069894642
 20
20.37188665225089
 30
0.0
  0
LINE
  5
2C3
330
1F
100
AcDbEntity
  8
0
  6
Continuous
 62
     7
370
    25
100
AcDbLine
 10
24.0611095173
 20
19.5405201137
 30
0.0
 11
24.1943486482
 21
19.6174374267
 31
0.0
  0
LINE
  5
2C4
330
1F
100
AcDbEntity
  8
0
  6
Continuous
 62
     7
370
    25
100
AcDbLine
 10
26.2271735959
 20
19.7138953931
 30
0.0
 11
26.2119467038
 21
19.9321145355
 31
0.0
  0
LINE
  5
2C5
330
1F
100
AcDbEntity
  8
0
  6
Continuous
 62
     7
370
    25
100
AcDbLine
 10
26.2271735959
 20
19.7138953931
 30
0.0
 11
26.2262285888
 21
19.714349313
 31
0.0
  0
LINE
  5
2C6
330
1F
100
AcDbEntity
  8
0
  6
Continuous
 62
     7
370
    25
100
AcDbLine
 10
26.2084363112
 20
19.6774325754
 30
0.0
 11
26.2088514752
 21
19.6714827898
 31
0.0
  0
LINE
  5
2C7
330
1F
100
AcDbEntity
  8
0
  6
Continuous
 62
     7
370
    25
100
AcDbLine
 10
26.2088514752
 20
19.6714827898
 30
0.0
 11
26.2308710889
 21
19.6609060016
 31
0.0
  0
LINE
  5
2C8
330
1F
100
AcDbEntity
  8
0
  6
Continuous
 62
     7
370
    25
100
AcDbLine
 10
26.2498178292
 20
19.3893770916
 30
0.0
 11
26.2308710889
 21
19.6609060016
 31
0.0
  0
LINE
  5
2C9
330
1F
100
AcDbEntity
  8
0
  6
Continuous
 62
     7
370
    25
100
AcDbLine
 10
26.234850993
 20
19.3027909724
 30
0.0
 11
26.2565881956
 21
19.2923498361
 31
0.0
  0
ARC
  5
2CA
330
1F
100
AcDbEntity
  8
0
  6
Continuous
 62
     7
370
    25
100
AcDbCircle
 10
25.9110529554
 20
19.2586314742
 30
0.0
 40
0.347176511448868
100
AcDbArc
 50
337.8731600132
 51
5.5734472459
  0
LINE
  5
2CB
330
1F
100
AcDbEntity
  8
0
  6
Continuous
 62
     7
370
    25
100
AcDbLine
 10
26.1981992023
 20
20.1291322846
 30
0.0
 11
26.1960291892
 21
20.1303850064
 31
0.0
  0
LINE
  5
2CC
330
1F
100
AcDbEntity
  8
0
  6
Continuous
 62
     7
370
    25
100
AcDbLine
 10
26.2082492109
 20
19.9851039271
 30
0.0
 11
26.1981992023
 21
20.1291322846
 31
0.0
  0
LINE
  5
2CD
330
1F
100
AcDbEntity
  8
0
  6
Continuous
 62
     7
370
    25
100
AcDbLine
 10
26.2082492109
 20
19.9851039271
 30
0.0
 11
26.2065144363
 21
19.9859371998
 31
0.0
  0
LINE
  5
2CE
330
1F
100
AcDbEntity
  8
0
  6
Continuous
 62
     7
370
    25
100
AcDbLine
 10
26.1894362503
 20
19.9497256317
 30
0.0
 11
26.1899270902
 21
19.9426913237
 31
0.0
  0
LINE
  5
2CF
330
1F
100
AcDbEntity
  8
0
  6
Continuous
 62
     7
370
    25
100
AcDbLine
 10
26.1899270902
 20
19.9426913237
 30
0.0
 11
26.2119467038
 21
19.9321145355
 31
0.0
  0
LINE
  5
2D0
330
1F
100
AcDbEntity
  8
0
  6
Continuous
 62
     7
370
    25
100
AcDbLine
 10
26.1981992023
 20
20.1291322846
 30
0.0
 11
30.2198690203
 21
22.4507928526
 31
0.0
  0
LINE
  5
2D1
330
1F
100
AcDbEntity
  8
0
  6
Continuous
 62
     7
370
    25
100
AcDbLine
 10
30.2299190289
 20
22.306764495
 30
0.0
 11
30.2198690203
 21
22.4507928526
 31
0.0
  0
LINE
  5
2D2
330
1F
100
AcDbEntity
  8
0
  6
Continuous
 62
     7
370
    25
100
AcDbLine
 10
30.2299190289
 20
22.306764495
 30
0.0
 11
26.2082492109
 21
19.9851039271
 31
0.0
  0
LINE
  5
2D3
330
1F
100
AcDbEntity
  8
0
  6
Continuous
 62
     7
370
    25
100
AcDbLine
 10
30.2198690203
 20
22.4507928526
 30
0.0
 11
30.1716738319
 21
22.4786153426
 31
0.0
  0
LINE
  5
2D4
330
1F
100
AcDbEntity
  8
0
  6
Continuous
 62
     7
370
    25
100
AcDbLine
 10
30.2094615113
 20
22.2949546216
 30
0.0
 11
30.2115969082
 21
22.2643518917
 31
0.0
  0
LINE
  5
2D5
330
1F
100
AcDbEntity
  8
0
  6
Continuous
 62
     7
370
    25
100
AcDbLine
 10
30.2115969082
 20
22.2643518917
 30
0.0
 11
26.1899270902
 21
19.9426913237
 31
0.0
  0
LINE
  5
2D6
330
1F
100
AcDbEntity
  8
0
  6
Continuous
 62
     7
370
    25
100
AcDbLine
 10
30.2488434139
 20
22.0355559611
 30
0.0
 11
26.2271735959
 21
19.7138953931
 31
0.0
  0
LINE
  5
2D7
330
1F
100
AcDbEntity
  8
0
  6
Continuous
 62
     7
370
    25
100
AcDbLine
 10
30.2336165218
 20
22.2537751035
 30
0.0
 11
26.2119467038
 21
19.9321145355
 31
0.0
  0
LINE
  5
2D8
330
1F
100
AcDbEntity
  8
0
  6
Continuous
 62
     7
370
    25
100
AcDbLine
 10
30.2488434139
 20
22.0355559611
 30
0.0
 11
30.2336165218
 21
22.2537751035
 31
0.0
  0
LINE
  5
2D9
330
1F
100
AcDbEntity
  8
0
  6
Continuous
 62
     7
370
    25
100
AcDbLine
 10
30.2115969082
 20
22.2643518917
 30
0.0
 11
30.2336165218
 21
22.2537751035
 31
0.0
  0
LINE
  5
2DA
330
1F
100
AcDbEntity
  8
0
  6
Continuous
 62
     7
370
    25
100
AcDbLine
 10
30.2745605206
 20
21.6669997956
 30
0.0
 11
26.253009493
 21
19.3454078039
 31
0.0
  0
LINE
  5
2DB
330
1F
100
AcDbEntity
  8
0
  6
Continuous
 62
     7
370
    25
100
AcDbLine
 10
30.2525409069
 20
21.9825665696
 30
0.0
 11
26.2308710889
 21
19.6609060016
 31
0.0
  0
LINE
  5
2DC
330
1F
100
AcDbEntity
  8
0
  6
Continuous
 62
     7
370
    25
100
AcDbLine
 10
30.2745605206
 20
21.6669997956
 30
0.0
 11
30.2525409069
 21
21.9825665696
 31
0.0
  0
LINE
  5
2DD
330
1F
100
AcDbEntity
  8
0
  6
Continuous
 62
     7
370
    25
100
AcDbLine
 10
30.2283858964
 20
22.0237460876
 30
0.0
 11
30.2305212932
 21
21.9931433578
 31
0.0
  0
LINE
  5
2DE
330
1F
100
AcDbEntity
  8
0
  6
Continuous
 62
     7
370
    25
100
AcDbLine
 10
30.2305212932
 20
21.9931433578
 30
0.0
 11
26.2088514752
 21
19.6714827898
 31
0.0
  0
LINE
  5
2DF
330
1F
100
AcDbEntity
  8
0
  6
Continuous
 62
     7
370
    25
100
AcDbLine
 10
30.2305212932
 20
21.9931433578
 30
0.0
 11
30.2525409069
 21
21.9825665696
 31
0.0
  0
LINE
  5
2E0
330
1F
100
AcDbEntity
  8
0
  6
Continuous
 62
     7
370
    25
100
AcDbLine
 10
30.254103003
 20
21.6551899221
 30
0.0
 11
30.2562383999
 21
21.6245871923
 31
0.0
  0
LINE
  5
2E1
330
1F
100
AcDbEntity
  8
0
  6
Continuous
 62
     7
370
    25
100
AcDbLine
 10
30.2562383999
 20
21.6245871923
 30
0.0
 11
26.234830184
 21
19.303077644
 31
0.0
  0
LINE
  5
2E2
330
1F
100
AcDbEntity
  8
0
  6
Continuous
 62
     7
370
    25
100
AcDbLine
 10
26.2565881956
 20
19.2923498361
 30
0.0
 11
30.2782580136
 21
21.6140104041
 31
0.0
  0
ARC
  5
2E3
330
1F
100
AcDbEntity
  8
0
  6
Continuous
 62
     7
370
    25
100
AcDbCircle
 10
29.9714180725
 20
21.5767668568
 30
0.0
 40
0.309091946226165
100
AcDbArc
 50
328.4911223264
 51
6.9205803906
  0
LINE
  5
2E4
330
1F
100
AcDbEntity
  8
0
  6
Continuous
 62
     7
370
    25
100
AcDbLine
 10
30.2562383999
 20
21.6245871923
 30
0.0
 11
30.2782580136
 21
21.6140104041
 31
0.0
  0
LINE
  5
2E5
330
1F
100
AcDbEntity
  8
0
  6
Continuous
 62
     7
370
    25
100
AcDbLine
 10
29.9906638368
 20
21.0676686687
 30
0.0
 11
30.2349372536
 21
21.4152259257
 31
0.0
  0
LINE
  5
2E6
330
1F
100
AcDbEntity
  8
0
  6
Continuous
 62
     7
370
    25
100
AcDbLine
 10
28.7105756136
 20
20.3951929727
 30
0.0
 11
28.7201921802
 21
20.4007444984
 31
0.0
  0
ELLIPSE
  5
2E7
330
1F
100
AcDbEntity
  8
0
  6
Continuous
 62
     7
370
    25
100
AcDbEllipse
 10
28.6877621639
 20
20.3586679639
 30
0.0
 11
0.05457321100757897
 21
0.04678181230595514
 31
0.0
210
0.0
220
0.0
230
1.0
 40
0.2184430916
 41
0.0137959641390971
 42
0.761918753871636
  0
ELLIPSE
  5
2E8
330
1F
100
AcDbEntity
  8
0
  6
Continuous
 62
     7
370
    25
100
AcDbEllipse
 10
28.6877621639
 20
20.3586679639
 30
0.0
 11
0.05457321100757897
 21
0.04678181230595514
 31
0.0
210
0.0
220
0.0
230
1.0
 40
0.2184430916
 41
0.962251806817925
 42
3.303740178784055
  0
ARC
  5
2E9
330
1F
100
AcDbEntity
  8
0
  6
Continuous
 62
     7
370
    25
100
AcDbCircle
 10
29.9546999277
 20
21.0923522318
 30
0.0
 40
0.0436197323198311
100
AcDbArc
 50
300.1554494321
 51
325.5365313738
  0
LWPOLYLINE
  5
2EA
330
1F
100
AcDbEntity
  8
0
  6
Continuous
 62
     7
370
    25
100
AcDbPolyline
 90
        7
 70
   128
 43
0.0
 10
28.6678974884
 20
20.3623034474
 10
28.6633707112
 20
20.3521344264
 10
28.6575752767
 20
20.3304017021
 10
28.6575752767
 20
20.3108345684
 10
28.6633707112
 20
20.2957931104
 10
28.6742625653
 20
20.2870915499
 10
28.6878860593
 20
20.2856303095
  0
LWPOLYLINE
  5
2EB
330
1F
100
AcDbEntity
  8
0
  6
Continuous
 62
     7
370
    25
100
AcDbPolyline
 90
        3
 70
   128
 43
0.0
 10
28.7510731587
 20
20.3950854357
 10
28.7478781074
 20
20.4009195078
 10
28.7433513302
 20
20.4058620231
  0
LINE
  5
2EC
330
1F
100
AcDbEntity
  8
0
  6
Continuous
 62
     7
370
    25
100
AcDbLine
 10
28.6936373375
 20
20.3050506098
 30
0.0
 11
28.6936373375
 21
20.3418221543
 31
0.0
  0
LINE
  5
2ED
330
1F
100
AcDbEntity
  8
0
  6
Continuous
 62
     7
370
    25
100
AcDbLine
 10
28.7212145019
 20
20.3025847957
 30
0.0
 11
28.6936373375
 21
20.3050506098
 31
0.0
  0
LINE
  5
2EE
330
1F
100
AcDbEntity
  8
0
  6
Continuous
 62
     7
370
    25
100
AcDbLine
 10
28.7487916664
 20
20.3368905261
 30
0.0
 11
28.7212145019
 21
20.3025847957
 31
0.0
  0
LINE
  5
2EF
330
1F
100
AcDbEntity
  8
0
  6
Continuous
 62
     7
370
    25
100
AcDbLine
 10
28.7487916664
 20
20.3736620706
 30
0.0
 11
28.7487916664
 21
20.3368905261
 31
0.0
  0
LINE
  5
2F0
330
1F
100
AcDbEntity
  8
0
  6
Continuous
 62
     7
370
    25
100
AcDbLine
 10
28.7212145019
 20
20.3761278847
 30
0.0
 11
28.7487916664
 21
20.3736620706
 31
0.0
  0
LINE
  5
2F1
330
1F
100
AcDbEntity
  8
0
  6
Continuous
 62
     7
370
    25
100
AcDbLine
 10
28.6936373375
 20
20.3418221543
 30
0.0
 11
28.7212145019
 21
20.3761278847
 31
0.0
  0
LWPOLYLINE
  5
2F2
330
1F
100
AcDbEntity
  8
0
  6
Continuous
 62
     7
370
    25
100
AcDbPolyline
 90
       18
 70
   128
 43
0.0
 10
28.6764635466
 20
20.3135221636
 10
28.6794854788
 20
20.3339344837
 10
28.6881431469
 20
20.3550790557
 10
28.7012672847
 20
20.3741001877
 10
28.7170854047
 20
20.3884289707
 10
28.7334611822
 20
20.396130223
 10
28.7481829776
 20
20.3961638478
 10
28.759262531
 20
20.3885253039
 10
28.7652034872
 20
20.374246219
 10
28.7652034872
 20
20.3552550627
 10
28.759262531
 20
20.3341166958
 10
28.7481829776
 20
20.3136859719
 10
28.7334611822
 20
20.2967221735
 10
28.7170854047
 20
20.2855163555
 10
28.7012672847
 20
20.2815819258
 10
28.6881431469
 20
20.2854502509
 10
28.6794854788
 20
20.2965988921
 10
28.6764635466
 20
20.3135221636
  0
ARC
  5
2F3
330
1F
100
AcDbEntity
  8
0
  6
Continuous
 62
     7
370
    25
100
AcDbCircle
 10
28.6990004363
 20
20.3273300449
 30
0.0
 40
0.048797401559391
100
AcDbArc
 50
152.1095365824
 51
226.6512885055
  0
ARC
  5
2F4
330
1F
100
AcDbEntity
  8
0
  6
Continuous
 62
     7
370
    25
100
AcDbCircle
 10
28.6600683751
 20
20.3254769796
 30
0.0
 40
0.0262688751591092
100
AcDbArc
 50
186.7359824102
 51
264.4907256431
  0
LWPOLYLINE
  5
2F5
330
1F
100
AcDbEntity
  8
0
  6
Continuous
 62
     7
370
    25
100
AcDbPolyline
 90
        3
 70
   128
 43
0.0
 10
28.6316583895
 20
20.3163005455
 10
28.6337059699
 20
20.3129182011
 10
28.6414624717
 20
20.3057240283
  0
LINE
  5
2F6
330
1F
100
AcDbEntity
  8
0
  6
Continuous
 62
     7
370
    25
100
AcDbLine
 10
28.6936373375
 20
20.3185047539
 30
0.0
 11
28.7212145019
 21
20.3025847957
 31
0.0
  0
LINE
  5
2F7
330
1F
100
AcDbEntity
  8
0
  6
Continuous
 62
     7
370
    25
100
AcDbLine
 10
28.708411735
 20
20.3602013643
 30
0.0
 11
28.7487916664
 21
20.3368905261
 31
0.0
  0
LWPOLYLINE
  5
2F8
330
1F
100
AcDbEntity
  8
0
  6
Continuous
 62
     7
370
    25
100
AcDbPolyline
 90
       18
 70
   128
 43
0.0
 10
27.5288587181
 20
23.4834435058
 10
27.5487173864
 20
23.47559037
 10
27.5721491957
 20
23.472408873
 10
27.5959895502
 20
23.4743286938
 10
27.617018678
 20
23.4810905498
 10
27.6323964788
 20
23.491781215
 10
27.6400460955
 20
23.5049568557
 10
27.6389344048
 20
23.5188380287
 10
27.6292115468
 20
23.5315500046
 10
27.6121906474
 20
23.5413759607
 10
27.5901704733
 20
23.5469888471
 10
27.566124971
 20
23.5476306125
 10
27.5433016189
 20
23.5432145828
 10
27.5247828372
 20
23.5343371674
 10
27.5130696898
 20
23.5221973103
 10
27.5097441024
 20
23.5084345666
 10
27.5152552139
 20
23.494907671
 10
27.5288587181
 20
23.4834435058
  0
LINE
  5
2F9
330
1F
100
AcDbEntity
  8
0
  6
Continuous
 62
     7
370
    25
100
AcDbLine
 10
27.4445678632
 20
23.434385097
 30
0.0
 11
27.4441742123
 21
23.4285267903
 31
0.0
  0
LINE
  5
2FA
330
1F
100
AcDbEntity
  8
0
  6
Continuous
 62
     7
370
    25
100
AcDbLine
 10
27.6070175789
 20
23.4917980872
 30
0.0
 11
27.5635187311
 21
23.4850695211
 31
0.0
  0
LINE
  5
2FB
330
1F
100
AcDbEntity
  8
0
  6
Continuous
 62
     7
370
    25
100
AcDbLine
 10
27.6186730601
 20
23.5169094375
 30
0.0
 11
27.6070175789
 21
23.4917980872
 31
0.0
  0
LINE
  5
2FC
330
1F
100
AcDbEntity
  8
0
  6
Continuous
 62
     7
370
    25
100
AcDbLine
 10
27.5868296934
 20
23.5352922218
 30
0.0
 11
27.6186730601
 21
23.5169094375
 31
0.0
  0
LINE
  5
2FD
330
1F
100
AcDbEntity
  8
0
  6
Continuous
 62
     7
370
    25
100
AcDbLine
 10
27.5433308456
 20
23.5285636557
 30
0.0
 11
27.5868296934
 21
23.5352922218
 31
0.0
  0
LINE
  5
2FE
330
1F
100
AcDbEntity
  8
0
  6
Continuous
 62
     7
370
    25
100
AcDbLine
 10
27.5316753645
 20
23.5034523054
 30
0.0
 11
27.5433308456
 21
23.5285636557
 31
0.0
  0
LINE
  5
2FF
330
1F
100
AcDbEntity
  8
0
  6
Continuous
 62
     7
370
    25
100
AcDbLine
 10
27.5635187311
 20
23.4850695211
 30
0.0
 11
27.5316753645
 21
23.5034523054
 31
0.0
  0
LINE
  5
300
330
1F
100
AcDbEntity
  8
0
  6
Continuous
 62
     7
370
    25
100
AcDbLine
 10
27.5433308456
 20
23.4967237394
 30
0.0
 11
27.5433308456
 21
23.5285636557
 31
0.0
  0
LINE
  5
301
330
1F
100
AcDbEntity
  8
0
  6
Continuous
 62
     7
370
    25
100
AcDbLine
 10
27.5868296934
 20
23.4886753488
 30
0.0
 11
27.5868296934
 21
23.5352922218
 31
0.0
  0
LWPOLYLINE
  5
302
330
1F
100
AcDbEntity
  8
0
  6
Continuous
 62
     7
370
    25
100
AcDbPolyline
 90
       18
 70
   128
 43
0.0
 10
29.4292081925
 20
22.3863951055
 10
29.4490668609
 20
22.3785419697
 10
29.4724986702
 20
22.3753604728
 10
29.4963390247
 20
22.3772802935
 10
29.5173681525
 20
22.3840421495
 10
29.5327459533
 20
22.3947328147
 10
29.5403955699
 20
22.4079084554
 10
29.5392838793
 20
22.4217896284
 10
29.5295610213
 20
22.4345016043
 10
29.5125401218
 20
22.4443275604
 10
29.4905199477
 20
22.4499404469
 10
29.4664744454
 20
22.4505822122
 10
29.4436510934
 20
22.4461661825
 10
29.4251323116
 20
22.4372887671
 10
29.4134191643
 20
22.42514891
 10
29.4100935768
 20
22.4113861663
 10
29.4156046883
 20
22.3978592707
 10
29.4292081925
 20
22.3863951055
  0
LWPOLYLINE
  5
303
330
1F
100
AcDbEntity
  8
0
  6
Continuous
 62
     7
370
    25
100
AcDbPolyline
 90
        6
 70
   128
 43
0.0
 10
29.5414090246
 20
22.2661144238
 10
29.5621555411
 20
22.2747514727
 10
29.5838712419
 20
22.2889710086
 10
29.5987790674
 20
22.3058614397
 10
29.6059423041
 20
22.324361478
 10
29.6061300357
 20
22.3373366967
  0
LINE
  5
304
330
1F
100
AcDbEntity
  8
0
  6
Continuous
 62
     7
370
    25
100
AcDbLine
 10
29.5073670534
 20
22.3947496869
 30
0.0
 11
29.4638682056
 21
22.3880211209
 31
0.0
  0
LINE
  5
305
330
1F
100
AcDbEntity
  8
0
  6
Continuous
 62
     7
370
    25
100
AcDbLine
 10
29.5190225345
 20
22.4198610372
 30
0.0
 11
29.5073670534
 21
22.3947496869
 31
0.0
  0
LINE
  5
306
330
1F
100
AcDbEntity
  8
0
  6
Continuous
 62
     7
370
    25
100
AcDbLine
 10
29.4871791678
 20
22.4382438215
 30
0.0
 11
29.5190225345
 21
22.4198610372
 31
0.0
  0
LINE
  5
307
330
1F
100
AcDbEntity
  8
0
  6
Continuous
 62
     7
370
    25
100
AcDbLine
 10
29.44368032
 20
22.4315152555
 30
0.0
 11
29.4871791678
 21
22.4382438215
 31
0.0
  0
LINE
  5
308
330
1F
100
AcDbEntity
  8
0
  6
Continuous
 62
     7
370
    25
100
AcDbLine
 10
29.4320248389
 20
22.4064039051
 30
0.0
 11
29.44368032
 21
22.4315152555
 31
0.0
  0
LINE
  5
309
330
1F
100
AcDbEntity
  8
0
  6
Continuous
 62
     7
370
    25
100
AcDbLine
 10
29.4638682056
 20
22.3880211209
 30
0.0
 11
29.4320248389
 21
22.4064039051
 31
0.0
  0
LINE
  5
30A
330
1F
100
AcDbEntity
  8
0
  6
Continuous
 62
     7
370
    25
100
AcDbLine
 10
29.44368032
 20
22.3996753391
 30
0.0
 11
29.44368032
 21
22.4315152555
 31
0.0
  0
LINE
  5
30B
330
1F
100
AcDbEntity
  8
0
  6
Continuous
 62
     7
370
    25
100
AcDbLine
 10
29.4871791678
 20
22.3916269485
 30
0.0
 11
29.4871791678
 21
22.4382438215
 31
0.0
  0
LWPOLYLINE
  5
30C
330
1F
100
AcDbEntity
  8
0
  6
Continuous
 62
     7
370
    25
100
AcDbPolyline
 90
       18
 70
   128
 43
0.0
 10
24.7488684079
 20
21.8251145286
 10
24.7624719121
 20
21.8365786939
 10
24.7679830235
 20
21.8501055894
 10
24.7646574361
 20
21.8638683331
 10
24.7529442888
 20
21.8760081902
 10
24.734425507
 20
21.8848856057
 10
24.7116021549
 20
21.8893016354
 10
24.6875566527
 20
21.88865987
 10
24.6655364785
 20
21.8830469836
 10
24.6485155791
 20
21.8732210275
 10
24.6387927211
 20
21.8605090515
 10
24.6376810305
 20
21.8466278785
 10
24.6453306471
 20
21.8334522378
 10
24.6607084479
 20
21.8227615727
 10
24.6817375757
 20
21.8159997167
 10
24.7055779302
 20
21.8140798959
 10
24.7290097395
 20
21.8172613928
 10
24.7488684079
 20
21.8251145286
  0
LINE
  5
30D
330
1F
100
AcDbEntity
  8
0
  6
Continuous
 62
     7
370
    25
100
AcDbLine
 10
24.5719465646
 20
21.7760561199
 30
0.0
 11
24.5715529137
 21
21.7701978131
 31
0.0
  0
LINE
  5
30E
330
1F
100
AcDbEntity
  8
0
  6
Continuous
 62
     7
370
    25
100
AcDbLine
 10
24.7343962803
 20
21.8702346786
 30
0.0
 11
24.7460517615
 21
21.8451233283
 31
0.0
  0
LINE
  5
30F
330
1F
100
AcDbEntity
  8
0
  6
Continuous
 62
     7
370
    25
100
AcDbLine
 10
24.6908974326
 20
21.8769632446
 30
0.0
 11
24.7343962803
 21
21.8702346786
 31
0.0
  0
LINE
  5
310
330
1F
100
AcDbEntity
  8
0
  6
Continuous
 62
     7
370
    25
100
AcDbLine
 10
24.6590540659
 20
21.8585804603
 30
0.0
 11
24.6908974326
 21
21.8769632446
 31
0.0
  0
LINE
  5
311
330
1F
100
AcDbEntity
  8
0
  6
Continuous
 62
     7
370
    25
100
AcDbLine
 10
24.670709547
 20
21.83346911
 30
0.0
 11
24.6590540659
 21
21.8585804603
 31
0.0
  0
LINE
  5
312
330
1F
100
AcDbEntity
  8
0
  6
Continuous
 62
     7
370
    25
100
AcDbLine
 10
24.7142083948
 20
21.826740544
 30
0.0
 11
24.670709547
 21
21.83346911
 31
0.0
  0
LINE
  5
313
330
1F
100
AcDbEntity
  8
0
  6
Continuous
 62
     7
370
    25
100
AcDbLine
 10
24.7460517615
 20
21.8451233283
 30
0.0
 11
24.7142083948
 21
21.826740544
 31
0.0
  0
LINE
  5
314
330
1F
100
AcDbEntity
  8
0
  6
Continuous
 62
     7
370
    25
100
AcDbLine
 10
24.7343962803
 20
21.8383947622
 30
0.0
 11
24.7343962803
 21
21.8702346786
 31
0.0
  0
LINE
  5
315
330
1F
100
AcDbEntity
  8
0
  6
Continuous
 62
     7
370
    25
100
AcDbLine
 10
24.6908974326
 20
21.8303463717
 30
0.0
 11
24.6908974326
 21
21.8769632446
 31
0.0
  0
LWPOLYLINE
  5
316
330
1F
100
AcDbEntity
  8
0
  6
Continuous
 62
     7
370
    25
100
AcDbPolyline
 90
       18
 70
   128
 43
0.0
 10
26.556586894
 20
20.7280661284
 10
26.5764455623
 20
20.7202129926
 10
26.5998773716
 20
20.7170314956
 10
26.6237177261
 20
20.7189513164
 10
26.6447468539
 20
20.7257131724
 10
26.6601246547
 20
20.7364038376
 10
26.6677742714
 20
20.7495794783
 10
26.6666625807
 20
20.7634606513
 10
26.6569397227
 20
20.7761726272
 10
26.6399188233
 20
20.7859985833
 10
26.6178986491
 20
20.7916114697
 10
26.5938531469
 20
20.7922532351
 10
26.5710297948
 20
20.7878372054
 10
26.552511013
 20
20.77895979
 10
26.5407978657
 20
20.7668199329
 10
26.5374722783
 20
20.7530571892
 10
26.5429833897
 20
20.7395302936
 10
26.556586894
 20
20.7280661284
  0
LWPOLYLINE
  5
317
330
1F
100
AcDbEntity
  8
0
  6
Continuous
 62
     7
370
    25
100
AcDbPolyline
 90
        6
 70
   128
 43
0.0
 10
26.668787726
 20
20.6077854467
 10
26.6895342425
 20
20.6164224955
 10
26.7112499434
 20
20.6306420315
 10
26.7261577689
 20
20.6475324626
 10
26.7333210055
 20
20.6660325008
 10
26.7335087372
 20
20.6790077196
  0
LINE
  5
318
330
1F
100
AcDbEntity
  8
0
  6
Continuous
 62
     7
370
    25
100
AcDbLine
 10
26.6347457548
 20
20.7364207098
 30
0.0
 11
26.591246907
 21
20.7296921437
 31
0.0
  0
LINE
  5
319
330
1F
100
AcDbEntity
  8
0
  6
Continuous
 62
     7
370
    25
100
AcDbLine
 10
26.6464012359
 20
20.7615320601
 30
0.0
 11
26.6347457548
 21
20.7364207098
 31
0.0
  0
LINE
  5
31A
330
1F
100
AcDbEntity
  8
0
  6
Continuous
 62
     7
370
    25
100
AcDbLine
 10
26.6145578693
 20
20.7799148444
 30
0.0
 11
26.6464012359
 21
20.7615320601
 31
0.0
  0
LINE
  5
31B
330
1F
100
AcDbEntity
  8
0
  6
Continuous
 62
     7
370
    25
100
AcDbLine
 10
26.5710590215
 20
20.7731862783
 30
0.0
 11
26.6145578693
 21
20.7799148444
 31
0.0
  0
LINE
  5
31C
330
1F
100
AcDbEntity
  8
0
  6
Continuous
 62
     7
370
    25
100
AcDbLine
 10
26.5594035403
 20
20.748074928
 30
0.0
 11
26.5710590215
 21
20.7731862783
 31
0.0
  0
LINE
  5
31D
330
1F
100
AcDbEntity
  8
0
  6
Continuous
 62
     7
370
    25
100
AcDbLine
 10
26.591246907
 20
20.7296921437
 30
0.0
 11
26.5594035403
 21
20.748074928
 31
0.0
  0
LINE
  5
31E
330
1F
100
AcDbEntity
  8
0
  6
Continuous
 62
     7
370
    25
100
AcDbLine
 10
26.5710590215
 20
20.741346362
 30
0.0
 11
26.5710590215
 21
20.7731862783
 31
0.0
  0
LINE
  5
31F
330
1F
100
AcDbEntity
  8
0
  6
Continuous
 62
     7
370
    25
100
AcDbLine
 10
26.6145578693
 20
20.7332979714
 30
0.0
 11
26.6145578693
 21
20.7799148444
 31
0.0
  0
LINE
  5
320
330
1F
100
AcDbEntity
  8
0
  6
Continuous
 62
     7
370
    25
100
AcDbLine
 10
26.2070993674
 20
20.2005174558
 30
0.0
 11
26.2070993674
 21
20.1750198356
 31
0.0
  0
LINE
  5
321
330
1F
100
AcDbEntity
  8
0
  6
Continuous
 62
     7
370
    25
100
AcDbLine
 10
26.1919376218
 20
20.183772525
 30
0.0
 11
26.2070993674
 21
20.1750198356
 31
0.0
  0
LINE
  5
322
330
1F
100
AcDbEntity
  8
0
  6
Continuous
 62
     7
370
    25
100
AcDbLine
 10
30.1403808377
 20
22.4605502816
 30
0.0
 11
30.1403808377
 21
22.4456548966
 31
0.0
  0
LINE
  5
323
330
1F
100
AcDbEntity
  8
0
  6
Continuous
 62
     7
370
    25
100
AcDbLine
 10
26.2070993674
 20
20.1750198356
 30
0.0
 11
30.1403808377
 21
22.4456548966
 31
0.0
  0
LWPOLYLINE
  5
324
330
1F
100
AcDbEntity
  8
0
  6
Continuous
 62
     7
370
    25
100
AcDbPolyline
 90
       15
 70
   128
 43
0.0
 10
26.1539072991
 20
20.3122767489
 10
26.0066404213
 20
20.4432573208
 10
25.8578788359
 20
20.5681582278
 10
25.7078678759
 20
20.6867734871
 10
25.5568549347
 20
20.7989074821
 10
25.4050890582
 20
20.904375285
 10
25.2528205338
 20
21.0030029615
 10
25.1003004781
 20
21.094627858
 10
24.9477804224
 20
21.1790988695
 10
24.795511898
 20
21.2562766891
 10
24.6437460215
 20
21.3260340376
 10
24.4927330803
 20
21.3882558732
 10
24.3427221203
 20
21.4428395816
 10
24.1939605349
 20
21.4896951452
 10
24.0466936571
 20
21.5287452912
  0
ARC
  5
325
330
1F
100
AcDbEntity
  8
0
  6
Continuous
 62
     7
370
    25
100
AcDbCircle
 10
26.0157641197
 20
20.1635198423
 30
0.0
 40
0.2030077714713504
100
AcDbArc
 50
8.9825934525
 51
47.1186629206
  0
LINE
  5
326
330
1F
100
AcDbEntity
  8
0
  6
Continuous
 62
     7
370
    25
100
AcDbLine
 10
26.1853653097
 20
20.2130642602
 30
0.0
 11
26.2162821673
 21
20.1952163382
 31
0.0
  0
ARC
  5
327
330
1F
100
AcDbEntity
  8
0
  6
Continuous
 62
     7
370
    25
100
AcDbCircle
 10
24.0327034226
 20
21.4838630044
 30
0.0
 40
0.0470121933438549
100
AcDbArc
 50
72.6872482148
 51
138.4099914901
  0
LWPOLYLINE
  5
328
330
1F
100
AcDbEntity
  8
0
  6
Continuous
 62
     7
370
    25
100
AcDbPolyline
 90
       15
 70
   128
 43
0.0
 10
30.1313829433
 20
22.6084245634
 10
29.9841160655
 20
22.7394051353
 10
29.8353544801
 20
22.8643060423
 10
29.6853435201
 20
22.9829213016
 10
29.5343305789
 20
23.0950552966
 10
29.3825647024
 20
23.2005230995
 10
29.230296178
 20
23.299150776
 10
29.0777761223
 20
23.3907756725
 10
28.9252560666
 20
23.4752466841
 10
28.7729875422
 20
23.5524245036
 10
28.6212216656
 20
23.6221818521
 10
28.4702087244
 20
23.6844036877
 10
28.3201977645
 20
23.7389873961
 10
28.1714361791
 20
23.7858429597
 10
28.0241693013
 20
23.8248931057
  0
LINE
  5
329
330
1F
100
AcDbEntity
  8
0
  6
Continuous
 62
     7
370
    25
100
AcDbLine
 10
29.6177994996
 20
22.3119391522
 30
0.0
 11
30.1313829433
 21
22.6084245634
 31
0.0
  0
SPLINE
  5
32A
330
1F
100
AcDbEntity
  8
0
  6
Continuous
 62
     7
370
    25
100
AcDbSpline
210
0.0
220
0.0
230
1.0
 70
     8
 71
     3
 72
    25
 73
    21
 74
     0
 42
0.00000001
 43
0.00000001
 40
0.0
 40
0.0
 40
0.0
 40
0.0
 40
0.0346061442727012
 40
0.092832019254592
 40
0.1531681224056423
 40
0.2156083139591543
 40
0.279131587974693
 40
0.3422743106017057
 40
0.4039424688612885
 40
0.463855471192228
 40
0.50007203598711
 40
0.5583995817571278
 40
0.6167064729882649
 40
0.6756091181101017
 40
0.7359492760034065
 40
0.79796908831164
 40
0.8612734678022366
 40
0.924716961204108
 40
0.9867760677474594
 40
1.0
 40
1.0
 40
1.0
 40
1.0
 10
29.54011204140897
 20
22.26709113721854
 30
0.0
 10
29.53065710458083
 20
22.26596582078882
 30
0.0
 10
29.50529395314841
 20
22.26294712573722
 30
0.0
 10
29.46006862703883
 20
22.26858684672442
 30
0.0
 10
29.40928649101962
 20
22.28661613670759
 30
0.0
 10
29.36463558289607
 20
22.31573852046281
 30
0.0
 10
29.33229165249082
 20
22.3527126550428
 30
0.0
 10
29.31700230885354
 20
22.39302648178174
 30
0.0
 10
29.32067555860487
 20
22.4315007028287
 30
0.0
 10
29.33954855525378
 20
22.45973930875353
 30
0.0
 10
29.36836698709939
 20
22.48106245941534
 30
0.0
 10
29.40566357305576
 20
22.49504151362462
 30
0.0
 10
29.45574008979297
 20
22.4989220104669
 30
0.0
 10
29.50804953033026
 20
22.49022521642443
 30
0.0
 10
29.55735646436202
 20
22.46934798155268
 30
0.0
 10
29.59825770059538
 20
22.43782750295264
 30
0.0
 10
29.62550305065523
 20
22.39875072548944
 30
0.0
 10
29.63491372162281
 20
22.35708258272749
 30
0.0
 10
29.62794051681283
 20
22.32798034114167
 30
0.0
 10
29.61931468109075
 20
22.31433588540994
 30
0.0
 10
29.61779949959655
 20
22.31193915221339
 30
0.0
  0
LINE
  5
32B
330
1F
100
AcDbEntity
  8
0
  6
Continuous
 62
     7
370
    25
100
AcDbLine
 10
26.745178201
 20
20.6536101751
 30
0.0
 11
29.5401120414
 21
22.2670911372
 31
0.0
  0
SPLINE
  5
32C
330
1F
100
AcDbEntity
  8
0
  6
Continuous
 62
     7
370
    25
100
AcDbSpline
210
0.0
220
0.0
230
1.0
 70
     8
 71
     3
 72
    25
 73
    21
 74
     0
 42
0.00000001
 43
0.00000001
 40
0.0
 40
0.0
 40
0.0
 40
0.0
 40
0.0346061442727009
 40
0.0928320192545935
 40
0.1531681224056413
 40
0.2156083139591533
 40
0.2791315879746916
 40
0.3422743106017043
 40
0.4039424688612852
 40
0.4638554711922246
 40
0.5000720359871067
 40
0.5583995817571245
 40
0.6167064729882634
 40
0.6756091181100997
 40
0.7359492760034047
 40
0.7979690883116379
 40
0.8612734678022338
 40
0.9247169612041053
 40
0.9867760677474571
 40
1.0
 40
1.0
 40
1.0
 40
1.0
 10
26.66749074283863
 20
20.60876216007867
 30
0.0
 10
26.65803580601049
 20
20.60763684364896
 30
0.0
 10
26.63267265457806
 20
20.60461814859735
 30
0.0
 10
26.58744732846849
 20
20.61025786958454
 30
0.0
 10
26.53666519244928
 20
20.62828715956773
 30
0.0
 10
26.49201428432573
 20
20.65740954332294
 30
0.0
 10
26.45967035392048
 20
20.69438367790293
 30
0.0
 10
26.4443810102832
 20
20.73469750464187
 30
0.0
 10
26.44805426003452
 20
20.77317172568883
 30
0.0
 10
26.46692725668343
 20
20.80141033161366
 30
0.0
 10
26.49574568852904
 20
20.82273348227547
 30
0.0
 10
26.53304227448542
 20
20.83671253648475
 30
0.0
 10
26.58311879122262
 20
20.84059303332703
 30
0.0
 10
26.63542823175992
 20
20.83189623928456
 30
0.0
 10
26.68473516579168
 20
20.81101900441282
 30
0.0
 10
26.72563640202504
 20
20.77949852581278
 30
0.0
 10
26.75288175208489
 20
20.74042174834957
 30
0.0
 10
26.76229242305246
 20
20.69875360558762
 30
0.0
 10
26.75531921824248
 20
20.6696513640018
 30
0.0
 10
26.7466933825204
 20
20.65600690827007
 30
0.0
 10
26.7451782010262
 20
20.65361017507352
 30
0.0
  0
LINE
  5
32D
330
1F
100
AcDbEntity
  8
0
  6
Continuous
 62
     7
370
    25
100
AcDbLine
 10
26.1539072991
 20
20.3122767489
 30
0.0
 11
26.6674907428
 21
20.6087621601
 31
0.0
  0
LINE
  5
32E
330
1F
100
AcDbEntity
  8
0
  6
Continuous
 62
     7
370
    25
100
AcDbLine
 10
24.0466936571
 20
21.5287452912
 30
0.0
 11
24.5602771008
 21
21.8252307024
 31
0.0
  0
LWPOLYLINE
  5
32F
330
1F
100
AcDbEntity
  8
0
  6
Continuous
 62
     7
370
    25
100
AcDbPolyline
 90
       18
 70
   128
 43
0.0
 10
24.712763453
 20
21.8872638457
 10
24.7324114856
 20
21.8902453211
 10
24.7812757867
 20
21.8902922143
 10
24.8222965358
 20
21.8818549526
 10
24.8494717497
 20
21.8654829746
 10
24.8588026106
 20
21.843421763
 10
24.8495650126
 20
21.8189427441
 10
24.8238474834
 20
21.7952836877
 10
24.7852996336
 20
21.775033051
 10
24.7382390246
 20
21.7600468618
 10
24.6873161019
 20
21.751572842
 10
24.6374840467
 20
21.7503641353
 10
24.5940293866
 20
21.7566928369
 10
24.5623692148
 20
21.7702024336
 10
24.5471966877
 20
21.7896146939
 10
24.5508681699
 20
21.8125596536
 10
24.5602771008
 20
21.8252307024
 10
24.5602771008
 20
21.8252307024
  0
LWPOLYLINE
  5
330
330
1F
100
AcDbEntity
  8
0
  6
Continuous
 62
     7
370
    25
100
AcDbPolyline
 90
       18
 70
   128
 43
0.0
 10
27.5853847516
 20
23.5455928228
 10
27.6050327842
 20
23.5485742982
 10
27.6538970852
 20
23.5486211914
 10
27.6949178344
 20
23.5401839298
 10
27.7220930483
 20
23.5238119518
 10
27.7314239091
 20
23.5017507401
 10
27.7221863111
 20
23.4772717212
 10
27.6964687819
 20
23.4536126648
 10
27.6579209321
 20
23.4333620281
 10
27.6108603232
 20
23.4183758389
 10
27.5599374005
 20
23.4099018191
 10
27.5101053453
 20
23.4086931124
 10
27.4666506852
 20
23.415021814
 10
27.4349905134
 20
23.4285314108
 10
27.4198179863
 20
23.4479436711
 10
27.4234894684
 20
23.4708886307
 10
27.4328983994
 20
23.4835596795
 10
27.4328983994
 20
23.4835596795
  0
ARC
  5
331
330
1F
100
AcDbEntity
  8
0
  6
Continuous
 62
     7
370
    25
100
AcDbCircle
 10
29.9932397639
 20
22.4596676568
 30
0.0
 40
0.2030077714713766
100
AcDbArc
 50
8.9825934525
 51
47.1186629206
  0
LINE
  5
332
330
1F
100
AcDbEntity
  8
0
  6
Continuous
 62
     7
370
    25
100
AcDbLine
 10
26.2162821673
 20
20.1952163382
 30
0.0
 11
30.1937578115
 21
22.4913641527
 31
0.0
  0
SPLINE
  5
333
330
1F
100
AcDbEntity
  8
0
  6
Continuous
 62
     7
370
    25
100
AcDbSpline
210
0.0
220
0.0
230
1.0
 70
     8
 71
     3
 72
    11
 73
     7
 74
     0
 42
0.00000001
 43
0.00000001
 40
0.0
 40
0.0
 40
0.0
 40
0.0
 40
0.4156458974317266
 40
0.6411742584624573
 40
0.8737284373134697
 40
1.0
 40
1.0
 40
1.0
 40
1.0
 10
26.7451782010262
 20
20.65361017507352
 30
0.0
 10
26.73756112988133
 20
20.6445593748259
 30
0.0
 10
26.72581105614513
 20
20.63059763438021
 30
0.0
 10
26.70172798216412
 20
20.61787288559498
 30
0.0
 10
26.68374581797271
 20
20.61185187167827
 30
0.0
 10
26.67172196350486
 20
20.60956641668562
 30
0.0
 10
26.66749074283863
 20
20.60876216007867
 30
0.0
  0
SPLINE
  5
334
330
1F
100
AcDbEntity
  8
0
  6
Continuous
 62
     7
370
    25
100
AcDbSpline
210
0.0
220
0.0
230
1.0
 70
     8
 71
     3
 72
    11
 73
     7
 74
     0
 42
0.00000001
 43
0.00000001
 40
0.0
 40
0.0
 40
0.0
 40
0.0
 40
0.4156458974317395
 40
0.641174258462469
 40
0.8737284373134748
 40
0.9999999999999999
 40
0.9999999999999999
 40
0.9999999999999999
 40
0.9999999999999999
 10
29.61779949959655
 20
22.31193915221339
 30
0.0
 10
29.61018242845167
 20
22.30288835196577
 30
0.0
 10
29.59843235471548
 20
22.28892661152007
 30
0.0
 10
29.57434928073446
 20
22.27620186273485
 30
0.0
 10
29.55636711654306
 20
22.27018084881814
 30
0.0
 10
29.54434326207521
 20
22.26789539382549
 30
0.0
 10
29.54011204140897
 20
22.26709113721854
 30
0.0
  0
SPLINE
  5
335
330
1F
100
AcDbEntity
  8
0
  6
Continuous
 62
     7
370
    25
100
AcDbSpline
210
0.0
220
0.0
230
1.0
 70
     8
 71
     3
 72
    11
 73
     7
 74
     0
 42
0.00000001
 43
0.00000001
 40
0.0
 40
0.0
 40
0.0
 40
0.0
 40
0.415645897431722
 40
0.6411742584624152
 40
0.8737284373133892
 40
1.0
 40
1.0
 40
1.0
 40
1.0
 10
24.56027710079129
 20
21.82523070237162
 30
0.0
 10
24.56789417193616
 20
21.83193876666019
 30
0.0
 10
24.57964424567236
 20
21.84228660883191
 30
0.0
 10
24.60372731965338
 20
21.85557181727406
 30
0.0
 10
24.62170948384479
 20
21.86403455395537
 30
0.0
 10
24.63373333831264
 20
21.8685054124802
 30
0.0
 10
24.63796455897888
 20
21.87007871736648
 30
0.0
  0
ARC
  5
336
330
1F
100
AcDbEntity
  8
0
  6
Continuous
 62
     7
370
    25
100
AcDbCircle
 10
28.010251812
 20
23.7766670069
 30
0.0
 40
0.0501941541158852
100
AcDbArc
 50
73.9024773994
 51
118.2873296525
  0
SPLINE
  5
337
330
1F
100
AcDbEntity
  8
0
  6
Continuous
 62
     7
370
    25
100
AcDbSpline
210
0.0
220
0.0
230
1.0
 70
     8
 71
     3
 72
    11
 73
     7
 74
     0
 42
0.00000001
 43
0.00000001
 40
0.0
 40
0.0
 40
0.0
 40
0.0
 40
0.4156458974317213
 40
0.6411742584624118
 40
0.873728437313388
 40
1.0
 40
1.0
 40
1.0
 40
1.0
 10
27.43289839936163
 20
23.48355967951149
 30
0.0
 10
27.4405154705065
 20
23.49026774380006
 30
0.0
 10
27.4522655442427
 20
23.50061558597177
 30
0.0
 10
27.47634861822372
 20
23.51390079441393
 30
0.0
 10
27.49433078241513
 20
23.52236353109523
 30
0.0
 10
27.50635463688298
 20
23.52683438962007
 30
0.0
 10
27.51058585754922
 20
23.52840769450634
 30
0.0
  0
ARC
  5
338
330
1F
100
AcDbEntity
  8
0
  6
Continuous
 62
     7
370
    25
100
AcDbCircle
 10
24.4665568592
 20
20.0197628958
 30
0.0
 40
0.2304143179731113
100
AcDbArc
 50
305.620923876
 51
5.6912565173
  0
LWPOLYLINE
  5
339
330
1F
100
AcDbEntity
  8
0
  6
Continuous
 62
     7
370
    25
100
AcDbPolyline
 90
       19
 70
   128
 43
0.0
 10
24.1417920376
 20
20.6274946895
 10
24.1497425649
 20
20.6317769257
 10
24.1841048608
 20
20.644222322
 10
24.2219537521
 20
20.6489511352
 10
24.2625841858
 20
20.6458752765
 10
24.3052392936
 20
20.6350520434
 10
24.3491244917
 20
20.6166830521
 10
24.3934222817
 20
20.5911104822
 10
24.4373074798
 20
20.5588107023
 10
24.4799625876
 20
20.5203853963
 10
24.5205930213
 20
20.4765503548
 10
24.5584419127
 20
20.4281221418
 10
24.5928042085
 20
20.3760028831
 10
24.6230398044
 20
20.3211634621
 10
24.6485854682
 20
20.2646254333
 10
24.6689653327
 20
20.2074419932
 10
24.6837997594
 20
20.1506783612
 10
24.6928124112
 20
20.0953919363
 10
24.6958353993
 20
20.0426126
  0
LWPOLYLINE
  5
33A
330
1F
100
AcDbEntity
  8
0
  6
Continuous
 62
     7
370
    25
100
AcDbPolyline
 90
       16
 70
   128
 43
0.0
 10
24.6816932636
 20
20.0426126
 10
24.6787361359
 20
20.0942420597
 10
24.6699198382
 20
20.1483239873
 10
24.6554086015
 20
20.2038509389
 10
24.6354727429
 20
20.2597885524
 10
24.6104836294
 20
20.3150948158
 10
24.5809067612
 20
20.3687394783
 10
24.5472930992
 20
20.4197232411
 10
24.5102688024
 20
20.4670963732
 10
24.4705235633
 20
20.5099764029
 10
24.4287977607
 20
20.5475645563
 10
24.3858686672
 20
20.5791606373
 10
24.3425359706
 20
20.6041760705
 10
24.2996068771
 20
20.6221448659
 10
24.2578810744
 20
20.6327322988
 10
24.2364613083
 20
20.6352819807
  0
LWPOLYLINE
  5
33B
330
1F
100
AcDbEntity
  8
0
  6
Continuous
 62
     7
370
    25
100
AcDbPolyline
 90
       16
 70
   128
 43
0.0
 10
24.0511850602
 20
20.4679269632
 10
24.0496685019
 20
20.4573950748
 10
24.0467113741
 20
20.4091798422
 10
24.0496685019
 20
20.3575503825
 10
24.0584847996
 20
20.3034684549
 10
24.0729960362
 20
20.2479415033
 10
24.0929318949
 20
20.1920038898
 10
24.1179210084
 20
20.1366976264
 10
24.1474978766
 20
20.083052964
 10
24.1811115386
 20
20.0320692011
 10
24.2181358354
 20
19.984696069
 10
24.2578810744
 20
19.9418160393
 10
24.2996068771
 20
19.9042278859
 10
24.3425359706
 20
19.872631805
 10
24.3858686672
 20
19.8476163717
 10
24.4150936767
 20
19.8346310764
  0
ARC
  5
33C
330
1F
100
AcDbEntity
  8
0
  6
Continuous
 62
     7
370
    25
100
AcDbCircle
 10
25.1598733907
 20
19.9299385576
 30
0.0
 40
0.2304143179730992
100
AcDbArc
 50
125.620923876
 51
185.6912565173
  0
ARC
  5
33D
330
1F
100
AcDbEntity
  8
0
  6
Continuous
 62
     7
370
    25
100
AcDbCircle
 10
25.390165302
 20
19.541816011
 30
0.0
 40
0.2390676728376757
100
AcDbArc
 50
234.5622942694
 51
293.2767173318
  0
LWPOLYLINE
  5
33E
330
1F
100
AcDbEntity
  8
0
  6
Continuous
 62
     7
370
    25
100
AcDbPolyline
 90
       15
 70
   128
 43
0.0
 10
24.9305948506
 20
19.8989247723
 10
24.9335519784
 20
19.8472953126
 10
24.9423682761
 20
19.793213385
 10
24.9568795127
 20
19.7376864334
 10
24.9768153714
 20
19.6817488199
 10
25.0018044848
 20
19.6264425565
 10
25.0313813531
 20
19.5727978941
 10
25.0649950151
 20
19.5218141313
 10
25.1020193119
 20
19.4744409991
 10
25.1417645509
 20
19.4315609694
 10
25.1834903536
 20
19.393972816
 10
25.2264194471
 20
19.3623767351
 10
25.2697521437
 20
19.3373613018
 10
25.3126812372
 20
19.3193925064
 10
25.3485570638
 20
19.3098552321
  0
LWPOLYLINE
  5
33F
330
1F
100
AcDbEntity
  8
0
  6
Continuous
 62
     7
370
    25
100
AcDbPolyline
 90
       19
 70
   128
 43
0.0
 10
25.5443071628
 20
19.4127027997
 10
25.5538033147
 20
19.4402394505
 10
25.5626196123
 20
19.4841422975
 10
25.5655767401
 20
19.5323575301
 10
25.5626196123
 20
19.5839869898
 10
25.5538033147
 20
19.6380689174
 10
25.539292078
 20
19.693595869
 10
25.5193562193
 20
19.7495334825
 10
25.4943671059
 20
19.804839746
 10
25.4647902377
 20
19.8584844084
 10
25.4311765757
 20
19.9094681712
 10
25.3941522789
 20
19.9568413033
 10
25.3544070398
 20
19.999721333
 10
25.3126812372
 20
20.0373094864
 10
25.2697521437
 20
20.0689055674
 10
25.2264194471
 20
20.0939210006
 10
25.1834903536
 20
20.111889796
 10
25.1417645509
 20
20.1224772289
 10
25.1356541401
 20
20.1234151973
  0
LINE
  5
340
330
1F
100
AcDbEntity
  8
0
  6
Continuous
 62
     7
370
    25
100
AcDbLine
 10
26.3147563748
 20
18.6525084312
 30
0.0
 11
26.3147563748
 21
18.4973411274
 31
0.0
  0
LINE
  5
341
330
1F
100
AcDbEntity
  8
0
  6
Continuous
 62
     7
370
    25
100
AcDbLine
 10
26.6683097654
 20
18.7790516885
 30
0.0
 11
26.6683097654
 21
18.4973411274
 31
0.0
  0
LINE
  5
342
330
1F
100
AcDbEntity
  8
0
  6
Continuous
 62
     7
370
    25
100
AcDbLine
 10
29.5886607717
 20
20.4649344394
 30
0.0
 11
29.5886607717
 21
20.1832238783
 31
0.0
  0
SPLINE
  5
343
330
1F
100
AcDbEntity
  8
0
  6
Continuous
 62
     7
370
    25
100
AcDbSpline
210
0.0
220
0.0
230
1.0
 70
     8
 71
     3
 72
    10
 73
     6
 74
     0
 42
0.00000001
 43
0.00000001
 40
0.0
 40
0.0
 40
0.0
 40
0.0
 40
0.1376841503646073
 40
0.6773195638618066
 40
1.0
 40
1.0
 40
1.0
 40
1.0
 10
28.13707472578617
 20
23.88811049757974
 30
0.0
 10
28.1420398795729
 20
23.89073986470543
 30
0.0
 10
28.16646531843736
 20
23.90367469990682
 30
0.0
 10
28.20735355376751
 20
23.91384551953727
 30
0.0
 10
28.24267809087277
 20
23.90459264363836
 30
0.0
 10
28.25589660824587
 20
23.90113019767746
 30
0.0
  0
SPLINE
  5
344
330
1F
100
AcDbEntity
  8
0
  6
Continuous
 62
     7
370
    25
100
AcDbSpline
210
0.0
220
0.0
230
1.0
 70
     8
 71
     3
 72
    11
 73
     7
 74
     0
 42
0.00000001
 43
0.00000001
 40
0.0
 40
0.0
 40
0.0
 40
0.0
 40
0.0921862673061726
 40
0.4534985486746281
 40
0.8004538267406572
 40
1.0
 40
1.0
 40
1.0
 40
1.0
 10
30.23944838789687
 20
22.67443601623094
 30
0.0
 10
30.2442618208228
 20
22.67717914721923
 30
0.0
 10
30.26794088832211
 20
22.69067362918892
 30
0.0
 10
30.30291908730108
 20
22.70773249851286
 30
0.0
 10
30.32866358903981
 20
22.71534268255499
 30
0.0
 10
30.33429535568784
 20
22.71236721931458
 30
0.0
 10
30.33635170426766
 20
22.71128077699707
 30
0.0
  0
SPLINE
  5
345
330
1F
100
AcDbEntity
  8
0
  6
Continuous
 62
     7
370
    25
100
AcDbSpline
210
0.0
220
0.0
230
1.0
 70
     8
 71
     3
 72
    11
 73
     7
 74
     0
 42
0.00000001
 43
0.00000001
 40
0.0
 40
0.0
 40
0.0
 40
0.0
 40
0.0999160032923503
 40
0.4914629487437674
 40
0.867263457546402
 40
1.0
 40
1.0
 40
1.0
 40
1.0
 10
30.3027689110764
 20
22.54878692633319
 30
0.0
 10
30.30754007627668
 20
22.5516186794707
 30
0.0
 10
30.331008297993
 20
22.56554739660527
 30
0.0
 10
30.36192009024713
 20
22.59029953002515
 30
0.0
 10
30.3780254886801
 20
22.61373603379392
 30
0.0
 10
30.37704189110704
 20
22.62422571262599
 30
0.0
 10
30.37678515594745
 20
22.62696369149337
 30
0.0
  0
LINE
  5
346
330
1F
100
AcDbEntity
  8
0
  6
Continuous
 62
     7
370
    25
100
AcDbLine
 10
30.2781502465
 20
22.2779949376
 30
0.0
 11
30.2759142157
 21
22.3087991468
 31
0.0
  0
LINE
  5
347
330
1F
100
AcDbEntity
  8
0
  6
Continuous
 62
     7
370
    25
100
AcDbLine
 10
30.2978848074
 20
22.0061258991
 30
0.0
 11
30.2956487766
 21
22.0369301083
 31
0.0
  0
LINE
  5
348
330
1F
100
AcDbEntity
  8
0
  6
Continuous
 62
     7
370
    25
100
AcDbLine
 10
30.3246718446
 20
21.6370999001
 30
0.0
 11
30.3224358138
 21
21.6679041094
 31
0.0
  0
LWPOLYLINE
  5
349
330
1F
100
AcDbEntity
  8
0
  6
Continuous
 62
     7
370
    25
100
AcDbPolyline
 90
        3
 70
   128
 43
0.0
 10
30.3235440789
 20
21.4662516852
 10
30.3550898601
 20
21.489820224
 10
30.3750266327
 20
21.5130011705
  0
ARC
  5
34A
330
1F
100
AcDbEntity
  8
0
  6
Continuous
 62
     7
370
    25
100
AcDbCircle
 10
28.1230665983
 20
23.8402033723
 30
0.0
 40
0.0499131273673373
100
AcDbArc
 50
73.70098754
 51
118.3356698017
  0
LINE
  5
34B
330
1F
100
AcDbEntity
  8
0
  6
Continuous
 62
     7
370
    25
100
AcDbLine
 10
25.7696692582
 20
19.8801859274
 30
0.0
 11
25.7677495829
 21
19.9066319317
 31
0.0
  0
LINE
  5
34C
330
1F
100
AcDbEntity
  8
0
  6
Continuous
 62
     7
370
    25
100
AcDbLine
 10
26.1216618762
 20
19.9106003183
 30
0.0
 11
26.123897907
 21
19.8797961091
 31
0.0
  0
LINE
  5
34D
330
1F
100
AcDbEntity
  8
0
  6
Continuous
 62
     7
370
    25
100
AcDbLine
 10
25.7894038191
 20
19.6083168889
 30
0.0
 11
25.7874841438
 21
19.6347628932
 31
0.0
  0
LINE
  5
34E
330
1F
100
AcDbEntity
  8
0
  6
Continuous
 62
     7
370
    25
100
AcDbLine
 10
26.1413964371
 20
19.6387312798
 30
0.0
 11
26.1436324679
 21
19.6079270706
 31
0.0
  0
LINE
  5
34F
330
1F
100
AcDbEntity
  8
0
  6
Continuous
 62
     7
370
    25
100
AcDbLine
 10
25.8161908563
 20
19.23929089
 30
0.0
 11
25.814271181
 21
19.2657368942
 31
0.0
  0
LINE
  5
350
330
1F
100
AcDbEntity
  8
0
  6
Continuous
 62
     7
370
    25
100
AcDbLine
 10
26.1681834743
 20
19.2697052809
 30
0.0
 11
26.1704195051
 21
19.2389010717
 31
0.0
  0
SPLINE
  5
351
330
1F
100
AcDbEntity
  8
0
  6
Continuous
 62
     7
370
    25
100
AcDbSpline
210
0.0
220
0.0
230
1.0
 70
     8
 71
     3
 72
    19
 73
    15
 74
     0
 42
0.00000001
 43
0.00000001
 40
0.0
 40
0.0
 40
0.0
 40
0.0
 40
0.1835758020662004
 40
0.3929108389919573
 40
0.4842004993988451
 40
0.9128893005907522
 40
0.9502827559190516
 40
0.9716020652962413
 40
0.983775035356901
 40
0.99072909727436
 40
0.9947024450888378
 40
0.9963349608022068
 40
0.9970307219349971
 40
1.0
 40
1.0
 40
1.0
 40
1.0
 10
23.80122505117177
 20
21.2945774359376
 30
0.0
 10
23.80082541545001
 20
21.28405697841999
 30
0.0
 10
23.79997006738691
 20
21.26153983975955
 30
0.0
 10
23.80636423501855
 20
21.23272255364775
 30
0.0
 10
23.82111226138205
 20
21.18984619554356
 30
0.0
 10
23.84035971749984
 20
21.15745393842266
 30
0.0
 10
23.8617657919252
 20
21.13178910668128
 30
0.0
 10
23.86496535304353
 20
21.12809829601915
 30
0.0
 10
23.86681817625429
 20
21.12600743847215
 30
0.0
 10
23.86788525030575
 20
21.12481815589977
 30
0.0
 10
23.86846815647484
 20
21.12417306938372
 30
0.0
 10
23.86876132370743
 20
21.12384981567021
 30
0.0
 10
23.86900800792597
 20
21.12357819790517
 30
0.0
 10
23.86917904868157
 20
21.12339049751512
 30
0.0
 10
23.86931761952255
 20
21.12323842965966
 30
0.0
  0
ARC
  5
352
330
1F
100
AcDbEntity
  8
0
  6
Continuous
 62
     7
370
    25
100
AcDbCircle
 10
23.9246208532
 20
21.4165052829
 30
0.0
 40
0.0498999616201426
100
AcDbArc
 50
73.6974861908
 51
118.4136761843
  0
LINE
  5
353
330
1F
100
AcDbEntity
  8
0
  6
Continuous
 62
     7
370
    25
100
AcDbLine
 10
23.9025204578
 20
20.9833948348
 30
0.0
 11
23.9006016121
 21
20.9591757125
 31
0.0
  0
LWPOLYLINE
  5
354
330
1F
100
AcDbEntity
  8
0
  6
Continuous
 62
     7
370
    25
100
AcDbPolyline
 90
        5
 70
   128
 43
0.0
 10
23.7745536435
 20
20.2765689856
 10
23.7755872059
 20
20.2745408096
 10
23.7857190634
 20
20.2674769017
 10
23.8043786659
 20
20.2642375428
 10
23.8308489351
 20
20.2649472196
  0
LINE
  5
355
330
1F
100
AcDbEntity
  8
0
  6
Continuous
 62
     7
370
    25
100
AcDbLine
 10
23.8551814155
 20
20.3858949439
 30
0.0
 11
23.8540800141
 21
20.3719933689
 31
0.0
  0
LINE
  5
356
330
1F
100
AcDbEntity
  8
0
  6
Continuous
 62
     7
370
    25
100
AcDbLine
 10
26.2136344171
 20
19.0937772116
 30
0.0
 11
30.2349372536
 21
21.4152259257
 31
0.0
  0
LINE
  5
357
330
1F
100
AcDbEntity
  8
0
  6
Continuous
 62
     7
370
    25
100
AcDbLine
 10
25.9693613634
 20
18.7462201642
 30
0.0
 11
28.6581795273
 21
20.2984418502
 31
0.0
  0
LINE
  5
358
330
1F
100
AcDbEntity
  8
0
  6
Continuous
 62
     7
370
    25
100
AcDbLine
 10
28.7657935527
 20
20.3605661048
 30
0.0
 11
29.9906638368
 21
21.0676686687
 31
0.0
  0
LINE
  5
359
330
1F
100
AcDbEntity
  8
0
  6
Continuous
 62
     7
370
    25
100
AcDbLine
 10
24.6616539167
 20
21.8837542925
 30
0.0
 11
27.4328983994
 21
23.4835596795
 31
0.0
  0
LINE
  5
35A
330
1F
100
AcDbEntity
  8
0
  6
Continuous
 62
     7
370
    25
100
AcDbLine
 10
27.5342752152
 20
23.5420832696
 30
0.0
 11
28.0241693013
 21
23.8248931057
 31
0.0
  0
ARC
  5
35B
330
1F
100
AcDbEntity
  8
0
  6
Continuous
 62
     7
370
    25
100
AcDbCircle
 10
24.2263116964
 20
20.4602826683
 30
0.0
 40
0.1752933939700747
100
AcDbArc
 50
86.6806772912
 51
177.5006201788
  0
LWPOLYLINE
  5
35C
330
1F
100
AcDbEntity
  8
0
  6
Continuous
 62
     7
370
    25
100
AcDbPolyline
 90
       12
 70
   128
 43
0.0
 10
24.4150936767
 20
19.8346310764
 10
24.4287977607
 20
19.8296475763
 10
24.4705235633
 20
19.8190601434
 10
24.5102688024
 20
19.8160512969
 10
24.5472930992
 20
19.8206770858
 10
24.5809067612
 20
19.8328513406
 10
24.6104836294
 20
19.8523472778
 10
24.6354727429
 20
19.878801725
 10
24.6554086015
 20
19.911721886
 10
24.6699198382
 20
19.9504945204
 10
24.6787361359
 20
19.9943973674
 10
24.6816932636
 20
20.0426126
  0
LWPOLYLINE
  5
35D
330
1F
100
AcDbEntity
  8
0
  6
Continuous
 62
     7
370
    25
100
AcDbPolyline
 90
       25
 70
   128
 43
0.0
 10
25.025675514
 20
20.1172396196
 10
25.0336260413
 20
20.1215218558
 10
25.0679883372
 20
20.1339672521
 10
25.1058372286
 20
20.1386960653
 10
25.1464676623
 20
20.1356202066
 10
25.1891227701
 20
20.1247969735
 10
25.2330079682
 20
20.1064279822
 10
25.2773057582
 20
20.0808554123
 10
25.3211909563
 20
20.0485556325
 10
25.3638460641
 20
20.0101303264
 10
25.4044764977
 20
19.9662952849
 10
25.4423253891
 20
19.9178670719
 10
25.476687685
 20
19.8657478132
 10
25.5069232809
 20
19.8109083922
 10
25.5324689447
 20
19.7543703634
 10
25.5528488092
 20
19.6971869233
 10
25.5676832359
 20
19.6404232913
 10
25.5766958877
 20
19.5851368664
 10
25.5797188758
 20
19.5323575301
 10
25.5766958877
 20
19.4830684616
 10
25.5676832359
 20
19.4381878229
 10
25.5528488092
 20
19.3985516554
 10
25.5324689447
 20
19.364898306
 10
25.5069232809
 20
19.3378546729
 10
25.4846382123
 20
19.3222067639
  0
ARC
  5
35E
330
1F
100
AcDbEntity
  8
0
  6
Continuous
 62
     7
370
    25
100
AcDbCircle
 10
25.3882323907
 20
19.472050731
 30
0.0
 40
0.1669775776700113
100
AcDbArc
 50
256.2545526117
 51
339.1805333657
  0
LWPOLYLINE
  5
35F
330
1F
100
AcDbEntity
  8
0
  6
Continuous
 62
     7
370
    25
100
AcDbPolyline
 90
       10
 70
   128
 43
0.0
 10
25.1356541401
 20
20.1234151973
 10
25.1020193119
 20
20.1254860755
 10
25.0649950151
 20
20.1208602865
 10
25.0313813531
 20
20.1086860317
 10
25.0018044848
 20
20.0891900945
 10
24.9768153714
 20
20.0627356473
 10
24.9568795127
 20
20.0298154863
 10
24.9423682761
 20
19.9910428519
 10
24.9335519784
 20
19.947140005
 10
24.9305948506
 20
19.8989247723
  0
LWPOLYLINE
  5
360
330
1F
100
AcDbEntity
  8
0
  6
Continuous
 62
     7
370
    25
100
AcDbPolyline
 90
        3
 70
   128
 43
0.0
 10
4.7567150965
 20
19.8331151911
 10
4.7176064803
 20
19.8300372762
 10
4.7120084697
 20
19.8290853468
  0
LWPOLYLINE
  5
361
330
1F
100
AcDbEntity
  8
0
  6
Continuous
 62
     7
370
    25
100
AcDbPolyline
 90
        3
 70
   128
 43
0.0
 10
4.6394433407
 20
19.8039031783
 10
4.6097687835
 20
19.7853694397
 10
4.5867269404
 20
19.7664292025
  0
ARC
  5
362
330
1F
100
AcDbEntity
  8
0
  6
Continuous
 62
     7
370
    25
100
AcDbCircle
 10
4.7567150965
 20
16.7461151911
 30
0.0
 40
0.2500000000000012
100
AcDbArc
 50
230.9515576865
 51
245.8125623942
  0
LINE
  5
363
330
1F
100
AcDbEntity
  8
0
  6
Continuous
 62
     7
370
    25
100
AcDbLine
 10
4.7382648116
 20
16.4967969467
 30
0.0
 11
4.7567150965
 21
16.4961151911
 31
0.0
  0
LINE
  5
364
330
1F
100
AcDbEntity
  8
0
  6
Continuous
 62
     7
370
    25
100
AcDbLine
 10
4.8817150965
 20
19.8331151911
 30
0.0
 11
4.7567150965
 21
19.8331151911
 31
0.0
  0
LINE
  5
365
330
1F
100
AcDbEntity
  8
0
  6
Continuous
 62
     7
370
    25
100
AcDbLine
 10
4.7567150965
 20
16.4961151911
 30
0.0
 11
4.8817150965
 21
16.4961151911
 31
0.0
  0
ARC
  5
366
330
1F
100
AcDbEntity
  8
0
  6
Continuous
 62
     7
370
    25
100
AcDbCircle
 10
10.6942150965
 20
16.7461151911
 30
0.0
 40
0.25
100
AcDbArc
 50
270.0
 51
0.0
  0
ARC
  5
367
330
1F
100
AcDbEntity
  8
0
  6
Continuous
 62
     7
370
    25
100
AcDbCircle
 10
10.6942150965
 20
19.5831151911
 30
0.0
 40
0.25
100
AcDbArc
 50
0.0
 51
90.0
  0
LINE
  5
368
330
1F
100
AcDbEntity
  8
0
  6
Continuous
 62
     7
370
    25
100
AcDbLine
 10
10.6942150965
 20
19.8331151911
 30
0.0
 11
10.5692150965
 21
19.8331151911
 31
0.0
  0
LINE
  5
369
330
1F
100
AcDbEntity
  8
0
  6
Continuous
 62
     7
370
    25
100
AcDbLine
 10
10.5692150965
 20
16.4961151911
 30
0.0
 11
10.6942150965
 21
16.4961151911
 31
0.0
  0
LINE
  5
36A
330
1F
100
AcDbEntity
  8
0
  6
Continuous
 62
     7
370
    25
100
AcDbLine
 10
10.5692150965
 20
19.832749312
 30
0.0
 11
4.8817150965
 21
19.832749312
 31
0.0
  0
LINE
  5
36B
330
1F
100
AcDbEntity
  8
0
  6
Continuous
 62
     7
370
    25
100
AcDbLine
 10
4.8817150965
 20
16.4964810702
 30
0.0
 11
10.5692150965
 21
16.4964810702
 31
0.0
  0
ARC
  5
36C
330
1F
100
AcDbEntity
  8
0
  6
Continuous
 62
     7
370
    25
100
AcDbCircle
 10
4.5069650965
 20
17.9886151911
 30
0.0
 40
0.0099999999999989
100
AcDbArc
 50
91.4325437373
 51
179.9999999956
  0
ARC
  5
36D
330
1F
100
AcDbEntity
  8
0
  6
Continuous
 62
     7
370
    25
100
AcDbCircle
 10
4.5069650965
 20
17.0906151911
 30
0.0
 40
0.0099999999999989
100
AcDbArc
 50
180.0000000044
 51
268.5674562627
  0
ARC
  5
36E
330
1F
100
AcDbEntity
  8
0
  6
Continuous
 62
     7
370
    25
100
AcDbCircle
 10
4.5069650965
 20
19.2386151911
 30
0.0
 40
0.0100000000000013
100
AcDbArc
 50
91.4325437374
 51
179.9999999956
  0
ARC
  5
36F
330
1F
100
AcDbEntity
  8
0
  6
Continuous
 62
     7
370
    25
100
AcDbCircle
 10
4.5069650965
 20
18.3406151911
 30
0.0
 40
0.0100000000000013
100
AcDbArc
 50
180.0000000044
 51
268.5674562626
  0
ARC
  5
370
330
1F
100
AcDbEntity
  8
0
  6
Continuous
 62
     7
370
    25
100
AcDbCircle
 10
10.9439650965
 20
17.0906151911
 30
0.0
 40
0.0099999999999998
100
AcDbArc
 50
271.4325437374
 51
359.9999999956
  0
ARC
  5
371
330
1F
100
AcDbEntity
  8
0
  6
Continuous
 62
     7
370
    25
100
AcDbCircle
 10
10.9439650965
 20
17.9886151911
 30
0.0
 40
0.0100000000000013
100
AcDbArc
 50
0.0000000044
 51
88.5674562626
  0
ARC
  5
372
330
1F
100
AcDbEntity
  8
0
  6
Continuous
 62
     7
370
    25
100
AcDbCircle
 10
10.9439650965
 20
18.3406151911
 30
0.0
 40
0.0100000000000011
100
AcDbArc
 50
271.4325437373
 51
359.9999999956
  0
ARC
  5
373
330
1F
100
AcDbEntity
  8
0
  6
Continuous
 62
     7
370
    25
100
AcDbCircle
 10
10.9439650965
 20
19.2386151911
 30
0.0
 40
0.010000000000001
100
AcDbArc
 50
0.0000000044
 51
88.5674562627
  0
LINE
  5
374
330
1F
100
AcDbEntity
  8
0
  6
Continuous
 62
     7
370
    25
100
AcDbLine
 10
4.7567150965
 20
16.678012518
 30
0.0
 11
4.8817150965
 21
16.678012518
 31
0.0
  0
LINE
  5
375
330
1F
100
AcDbEntity
  8
0
  6
Continuous
 62
     7
370
    25
100
AcDbLine
 10
4.7567150965
 20
19.6512178642
 30
0.0
 11
4.7567150965
 21
16.678012518
 31
0.0
  0
LINE
  5
376
330
1F
100
AcDbEntity
  8
0
  6
Continuous
 62
     7
370
    25
100
AcDbLine
 10
4.8817150965
 20
19.6512178642
 30
0.0
 11
4.7567150965
 21
19.6512178642
 31
0.0
  0
LINE
  5
377
330
1F
100
AcDbEntity
  8
0
  6
Continuous
 62
     7
370
    25
100
AcDbLine
 10
4.8817150965
 20
16.678012518
 30
0.0
 11
4.8817150965
 21
19.6512178642
 31
0.0
  0
SPLINE
  5
378
330
1F
100
AcDbEntity
  8
0
  6
Continuous
 62
     7
370
    25
100
AcDbSpline
210
0.0
220
0.0
230
1.0
 70
     8
 71
     3
 72
    26
 73
    22
 74
     0
 42
0.00000001
 43
0.00000001
 40
0.0
 40
0.0
 40
0.0
 40
0.0
 40
0.0513569096913281
 40
0.1508772498466867
 40
0.253383032325651
 40
0.3491076651552778
 40
0.4472744296296473
 40
0.5703792108426272
 40
0.6982213158623365
 40
0.7216486942489169
 40
0.8570810554822343
 40
0.9190997019154821
 40
0.9538985331147689
 40
0.9736761426833225
 40
0.9849602723810302
 40
0.9914059233437056
 40
0.9950889684788587
 40
0.9971936218734615
 40
0.998029217932864
 40
0.998403361194494
 40
1.0
 40
1.0
 40
1.0
 40
1.0
 10
4.756715096529372
 20
16.67801251802018
 30
0.0
 10
4.74979852095662
 20
16.67811934739079
 30
0.0
 10
4.729478881261678
 20
16.67843319263067
 30
0.0
 10
4.695695350373562
 20
16.6820001001414
 30
0.0
 10
4.657772987164202
 20
16.68986414643141
 30
0.0
 10
4.62279209726004
 20
16.7012144863229
 30
0.0
 10
4.589133795662887
 20
16.71656436733144
 30
0.0
 10
4.557668959481425
 20
16.73693816214979
 30
0.0
 10
4.538698234527262
 20
16.75533106880403
 30
0.0
 10
4.522868901463187
 20
16.77549995131728
 30
0.0
 10
4.513865009896242
 20
16.79184384219997
 30
0.0
 10
4.508837387837189
 20
16.8094190101494
 30
0.0
 10
4.507401134774262
 20
16.81829916874444
 30
0.0
 10
4.506938512190692
 20
16.82332185946504
 30
0.0
 10
4.506787995922598
 20
16.82618280346809
 30
0.0
 10
4.506738896509654
 20
16.82781592633243
 30
0.0
 10
4.506722870765236
 20
16.82874882669341
 30
0.0
 10
4.506717906008338
 20
16.8292538635228
 30
0.0
 10
4.506716376751525
 20
16.82950657738652
 30
0.0
 10
4.506715389155925
 20
16.82972055183037
 30
0.0
 10
4.506715227497633
 20
16.82987080725509
 30
0.0
 10
4.506715096529371
 20
16.82999253742802
 30
0.0
  0
LINE
  5
379
330
1F
100
AcDbEntity
  8
0
  6
Continuous
 62
     7
370
    25
100
AcDbLine
 10
4.5067150965
 20
16.8299925374
 30
0.0
 11
4.5067150965
 21
19.4992378447
 31
0.0
  0
SPLINE
  5
37A
330
1F
100
AcDbEntity
  8
0
  6
Continuous
 62
     7
370
    25
100
AcDbSpline
210
0.0
220
0.0
230
1.0
 70
     8
 71
     3
 72
    26
 73
    22
 74
     0
 42
0.00000001
 43
0.00000001
 40
0.0
 40
0.0
 40
0.0
 40
0.0
 40
0.0513569096913443
 40
0.1508772498467034
 40
0.2533830323256658
 40
0.3491076651552944
 40
0.4472744296296636
 40
0.5703792108426402
 40
0.6982213158623448
 40
0.7216486942489168
 40
0.857081055482232
 40
0.9190997019154808
 40
0.9538985331147697
 40
0.9736761426833227
 40
0.9849602723810292
 40
0.9914059233437036
 40
0.9950889684788569
 40
0.9971936218734542
 40
0.9980292179328675
 40
0.9984033611944891
 40
1.0
 40
1.0
 40
1.0
 40
1.0
 10
4.756715096529373
 20
19.65121786415313
 30
0.0
 10
4.749798520956618
 20
19.65111103478252
 30
0.0
 10
4.729478881261674
 20
19.65079718954264
 30
0.0
 10
4.695695350373557
 20
19.64723028203191
 30
0.0
 10
4.657772987164195
 20
19.6393662357419
 30
0.0
 10
4.622792097260033
 20
19.62801589585041
 30
0.0
 10
4.589133795662883
 20
19.61266601484187
 30
0.0
 10
4.557668959481419
 20
19.59229222002352
 30
0.0
 10
4.538698234527261
 20
19.57389931336928
 30
0.0
 10
4.522868901463185
 20
19.55373043085603
 30
0.0
 10
4.513865009896241
 20
19.53738653997334
 30
0.0
 10
4.50883738783719
 20
19.51981137202392
 30
0.0
 10
4.507401134774261
 20
19.51093121342887
 30
0.0
 10
4.506938512190692
 20
19.50590852270827
 30
0.0
 10
4.506787995922598
 20
19.50304757870522
 30
0.0
 10
4.506738896509655
 20
19.50141445584088
 30
0.0
 10
4.506722870765234
 20
19.50048155547989
 30
0.0
 10
4.506717906008339
 20
19.49997651865051
 30
0.0
 10
4.506716376751523
 20
19.49972380478679
 30
0.0
 10
4.506715389155928
 20
19.49950983034294
 30
0.0
 10
4.506715227497634
 20
19.49935957491822
 30
0.0
 10
4.506715096529372
 20
19.49923784474528
 30
0.0
  0
SPLINE
  5
37B
330
1F
100
AcDbEntity
  8
0
  6
Continuous
 62
     7
370
    25
100
AcDbSpline
210
0.0
220
0.0
230
1.0
 70
     8
 71
     3
 72
    16
 73
    12
 74
     0
 42
0.00000001
 43
0.00000001
 40
0.0
 40
0.0
 40
0.0
 40
0.0
 40
0.0124922213045534
 40
0.4363933983059652
 40
0.6780742020322932
 40
0.8160699098643913
 40
0.8949028234282954
 40
0.9399456471097549
 40
0.9584522367333875
 40
0.966339551786576
 40
1.0
 40
1.0
 40
1.0
 40
1.0
 10
4.507389898005383
 20
19.51670162940676
 30
0.0
 10
4.507377704150321
 20
19.51662967204925
 30
0.0
 10
4.50695173364285
 20
19.51411597052165
 30
0.0
 10
4.5070037390892
 20
19.51014226600208
 30
0.0
 10
4.506783840006094
 20
19.50546870674409
 30
0.0
 10
4.506740338446093
 20
19.5027970487791
 30
0.0
 10
4.506723028030299
 20
19.50127154016826
 30
0.0
 10
4.506717974978216
 20
19.50044203855069
 30
0.0
 10
4.506716391221952
 20
19.50002586092219
 30
0.0
 10
4.5067153895061
 20
19.49967599429746
 30
0.0
 10
4.506715227655054
 20
19.49943394447988
 30
0.0
 10
4.506715096529372
 20
19.49923784474528
 30
0.0
  0
LINE
  5
37C
330
1F
100
AcDbEntity
  8
0
  6
Continuous
 62
     7
370
    25
100
AcDbLine
 10
4.7567150965
 20
19.7407666068
 30
0.0
 11
4.7567150965
 21
19.6512178642
 31
0.0
  0
SPLINE
  5
37D
330
1F
100
AcDbEntity
  8
0
  6
Continuous
 62
     7
370
    25
100
AcDbSpline
210
0.0
220
0.0
230
1.0
 70
     8
 71
     3
 72
    25
 73
    21
 74
     0
 42
0.00000001
 43
0.00000001
 40
0.0
 40
0.0
 40
0.0
 40
0.0
 40
0.0513829149485504
 40
0.1509430104509155
 40
0.2534768788520935
 40
0.3491881264753666
 40
0.4473389028817016
 40
0.5582265909402933
 40
0.672562823803431
 40
0.7216764284159894
 40
0.8357377736141858
 40
0.9531346657525201
 40
0.9732522494077248
 40
0.9847219835122979
 40
0.9912710103774964
 40
0.9950122779640205
 40
0.9971499289606269
 40
0.9980282182533292
 40
0.9984025359693617
 40
1.0
 40
1.0
 40
1.0
 40
1.0
 10
4.756715096529373
 20
16.58846377536313
 30
0.0
 10
4.749798561388249
 20
16.58863133945783
 30
0.0
 10
4.729480472444949
 20
16.58912357756699
 30
0.0
 10
4.695699951088242
 20
16.59471798723254
 30
0.0
 10
4.657779617939293
 20
16.60706518369156
 30
0.0
 10
4.62279780463218
 20
16.62491666987328
 30
0.0
 10
4.590428251976025
 20
16.64818435685562
 30
0.0
 10
4.560989503220734
 20
16.67774183669225
 30
0.0
 10
4.541125915484195
 20
16.70639334555525
 30
0.0
 10
4.525141390729018
 20
16.73723703528443
 30
0.0
 10
4.513164962321644
 20
16.7701121285122
 30
0.0
 10
4.508008086495013
 20
16.80081612003567
 30
0.0
 10
4.506945626660798
 20
16.8190822811863
 30
0.0
 10
4.506790260674394
 20
16.82376232011924
 30
0.0
 10
4.506739627473422
 20
16.82643326200647
 30
0.0
 10
4.506723107741514
 20
16.82795885000874
 30
0.0
 10
4.506717968809511
 20
16.82878834300323
 30
0.0
 10
4.506716391582568
 20
16.82920452128733
 30
0.0
 10
4.506715389194776
 20
16.82955438784459
 30
0.0
 10
4.506715227515717
 20
16.82979643767944
 30
0.0
 10
4.506715096529372
 20
16.82999253742802
 30
0.0
  0
LINE
  5
37E
330
1F
100
AcDbEntity
  8
0
  6
Continuous
 62
     7
370
    25
100
AcDbLine
 10
4.7567150965
 20
16.678012518
 30
0.0
 11
4.7567150965
 21
16.5884637754
 31
0.0
  0
LINE
  5
37F
330
1F
100
AcDbEntity
  8
0
  6
Continuous
 62
     7
370
    25
100
AcDbLine
 10
4.7567150965
 20
19.7407666068
 30
0.0
 11
4.8817150965
 21
19.7407666068
 31
0.0
  0
LINE
  5
380
330
1F
100
AcDbEntity
  8
0
  6
Continuous
 62
     7
370
    25
100
AcDbLine
 10
4.8817150965
 20
19.7407666068
 30
0.0
 11
4.8817150965
 21
19.6512178642
 31
0.0
  0
LINE
  5
381
330
1F
100
AcDbEntity
  8
0
  6
Continuous
 62
     7
370
    25
100
AcDbLine
 10
4.8817150965
 20
16.5884637754
 30
0.0
 11
4.7567150965
 21
16.5884637754
 31
0.0
  0
LINE
  5
382
330
1F
100
AcDbEntity
  8
0
  6
Continuous
 62
     7
370
    25
100
AcDbLine
 10
4.8817150965
 20
16.678012518
 30
0.0
 11
4.8817150965
 21
16.5884637754
 31
0.0
  0
ARC
  5
383
330
1F
100
AcDbEntity
  8
0
  6
Continuous
 62
     7
370
    25
100
AcDbCircle
 10
4.7566918583
 20
19.5121389364
 30
0.0
 40
0.2507454725275914
100
AcDbArc
 50
89.99469002
 51
118.8547570468
  0
LINE
  5
384
330
1F
100
AcDbEntity
  8
0
  6
Continuous
 62
     7
370
    25
100
AcDbLine
 10
4.7567150965
 20
19.7628844079
 30
0.0
 11
4.7567150965
 21
19.7407666068
 31
0.0
  0
ELLIPSE
  5
385
330
1F
100
AcDbEntity
  8
0
  6
Continuous
 62
     7
370
    25
100
AcDbEllipse
 10
4.7567150965
 20
19.5121677341
 30
0.0
 11
0.0
 21
0.2509549593858331
 31
8.881784197001252E-16
210
0.0
220
-3.539194530659132E-15
230
1.0
 40
0.9961946981
 41
0.5053605102841516
 42
1.570796326794897
  0
LINE
  5
386
330
1F
100
AcDbEntity
  8
0
  6
Continuous
 62
     7
370
    25
100
AcDbLine
 10
4.5067150965
 20
19.4992378447
 30
0.0
 11
4.5067150965
 21
19.5121677341
 31
0.0
  0
ELLIPSE
  5
387
330
1F
100
AcDbEntity
  8
0
  6
Continuous
 62
     7
370
    25
100
AcDbEllipse
 10
4.7567150965
 20
16.8170626481
 30
0.0
 11
0.0
 21
0.2509549593858331
 31
4.440892098500626E-16
210
0.0
220
-1.769597265329566E-15
230
1.0
 40
0.9961946981
 41
1.570796326794897
 42
2.636232143305661
  0
LINE
  5
388
330
1F
100
AcDbEntity
  8
0
  6
Continuous
 62
     7
370
    25
100
AcDbLine
 10
4.7567150965
 20
16.5884637754
 30
0.0
 11
4.7567150965
 21
16.5663459743
 31
0.0
  0
ARC
  5
389
330
1F
100
AcDbEntity
  8
0
  6
Continuous
 62
     7
370
    25
100
AcDbCircle
 10
4.7566918583
 20
16.8170914458
 30
0.0
 40
0.2507454725274951
100
AcDbArc
 50
241.1452429532
 51
270.00530998
  0
LINE
  5
38A
330
1F
100
AcDbEntity
  8
0
  6
Continuous
 62
     7
370
    25
100
AcDbLine
 10
4.5067150965
 20
16.8170626481
 30
0.0
 11
4.5067150965
 21
16.8299925374
 31
0.0
  0
LINE
  5
38B
330
1F
100
AcDbEntity
  8
0
  6
Continuous
 62
     7
370
    25
100
AcDbLine
 10
4.8817150965
 20
19.7628844079
 30
0.0
 11
4.7567150965
 21
19.7628844079
 31
0.0
  0
LINE
  5
38C
330
1F
100
AcDbEntity
  8
0
  6
Continuous
 62
     7
370
    25
100
AcDbLine
 10
4.8817150965
 20
19.7407666068
 30
0.0
 11
4.8817150965
 21
19.745459595
 31
0.0
  0
LINE
  5
38D
330
1F
100
AcDbEntity
  8
0
  6
Continuous
 62
     7
370
    25
100
AcDbLine
 10
4.8817150965
 20
19.7627413154
 30
0.0
 11
4.8817150965
 21
19.7628844079
 31
0.0
  0
LINE
  5
38E
330
1F
100
AcDbEntity
  8
0
  6
Continuous
 62
     7
370
    25
100
AcDbLine
 10
4.8817150965
 20
16.5663459743
 30
0.0
 11
4.7567150965
 21
16.5663459743
 31
0.0
  0
LINE
  5
38F
330
1F
100
AcDbEntity
  8
0
  6
Continuous
 62
     7
370
    25
100
AcDbLine
 10
4.8817150965
 20
16.5663459743
 30
0.0
 11
4.8817150965
 21
16.5664890668
 31
0.0
  0
LINE
  5
390
330
1F
100
AcDbEntity
  8
0
  6
Continuous
 62
     7
370
    25
100
AcDbLine
 10
4.8817150965
 20
16.5837707871
 30
0.0
 11
4.8817150965
 21
16.5884637754
 31
0.0
  0
LINE
  5
391
330
1F
100
AcDbEntity
  8
0
  6
Continuous
 62
     7
370
    25
100
AcDbLine
 10
4.8817150965
 20
19.7683316418
 30
0.0
 11
4.7567150965
 21
19.7683316418
 31
0.0
  0
LINE
  5
392
330
1F
100
AcDbEntity
  8
0
  6
Continuous
 62
     7
370
    25
100
AcDbLine
 10
4.7567150965
 20
19.7907932915
 30
0.0
 11
4.7567150965
 21
19.7683316418
 31
0.0
  0
LINE
  5
393
330
1F
100
AcDbEntity
  8
0
  6
Continuous
 62
     7
370
    25
100
AcDbLine
 10
4.8817150965
 20
19.7907932915
 30
0.0
 11
4.7567150965
 21
19.7907932915
 31
0.0
  0
LINE
  5
394
330
1F
100
AcDbEntity
  8
0
  6
Continuous
 62
     7
370
    25
100
AcDbLine
 10
4.8817150965
 20
19.7895044374
 30
0.0
 11
4.8817150965
 21
19.7907932915
 31
0.0
  0
ELLIPSE
  5
395
330
1F
100
AcDbEntity
  8
0
  6
Continuous
 62
     7
370
    25
100
AcDbEllipse
 10
4.7567150965
 20
19.517614968
 30
0.0
 11
5.329070518200751E-15
 21
0.2509549593858367
 31
4.440892098500626E-16
210
5.329070518200701E-15
220
-1.769597265329654E-15
230
1.0
 40
0.9961946981
 41
0.5053605102842091
 42
1.570796326794918
  0
ELLIPSE
  5
396
330
1F
100
AcDbEntity
  8
0
  6
Continuous
 62
     7
370
    25
100
AcDbEllipse
 10
4.7567150965
 20
19.5400766178
 30
0.0
 11
0.0
 21
0.2509549593858367
 31
8.881784197001252E-16
210
0.0
220
-3.539194530659082E-15
230
1.0
 40
0.9961946981
 41
0.5053605102841862
 42
1.570796326794897
  0
ARC
  5
397
330
1F
100
AcDbEntity
  8
0
  6
Continuous
 62
     7
370
    25
100
AcDbCircle
 10
4.7566918583
 20
19.5400478201
 30
0.0
 40
0.2507454725275211
100
AcDbArc
 50
89.99469002
 51
118.8547570468
  0
ARC
  5
398
330
1F
100
AcDbEntity
  8
0
  6
Continuous
 62
     7
370
    25
100
AcDbCircle
 10
4.7566918583
 20
19.5175861703
 30
0.0
 40
0.2507454725275631
100
AcDbArc
 50
89.99469002
 51
118.8547570468
  0
LINE
  5
399
330
1F
100
AcDbEntity
  8
0
  6
Continuous
 62
     7
370
    25
100
AcDbLine
 10
4.5067150965
 20
19.517614968
 30
0.0
 11
4.5067150965
 21
19.5400766178
 31
0.0
  0
LINE
  5
39A
330
1F
100
AcDbEntity
  8
0
  6
Continuous
 62
     7
370
    25
100
AcDbLine
 10
4.635684367
 20
19.7372005575
 30
0.0
 11
4.6461426321
 21
19.7372005575
 31
0.0
  0
ELLIPSE
  5
39B
330
1F
100
AcDbEntity
  8
0
  6
Continuous
 62
     7
370
    25
100
AcDbEllipse
 10
4.7567150965
 20
16.7891537644
 30
0.0
 11
0.0
 21
0.2509549593858402
 31
8.881784197001252E-16
210
0.0
220
-3.539194530659032E-15
230
1.0
 40
0.9961946981
 41
1.570796326794897
 42
2.6362321433056
  0
ELLIPSE
  5
39C
330
1F
100
AcDbEntity
  8
0
  6
Continuous
 62
     7
370
    25
100
AcDbEllipse
 10
4.7567150965
 20
16.8116154142
 30
0.0
 11
-7.105427357601002E-15
 21
0.2509549593858402
 31
8.881784197001252E-16
210
7.105427357601103E-15
220
-3.539194530658831E-15
230
1.0
 40
0.9961946981
 41
1.570796326794868
 42
2.636232143305594
  0
ARC
  5
39D
330
1F
100
AcDbEntity
  8
0
  6
Continuous
 62
     7
370
    25
100
AcDbCircle
 10
4.7566918583
 20
16.8116442118
 30
0.0
 40
0.2507454725276487
100
AcDbArc
 50
241.1452429532
 51
270.00530998
  0
LINE
  5
39E
330
1F
100
AcDbEntity
  8
0
  6
Continuous
 62
     7
370
    25
100
AcDbLine
 10
4.7567150965
 20
16.5608987404
 30
0.0
 11
4.7567150965
 21
16.5384370906
 31
0.0
  0
ARC
  5
39F
330
1F
100
AcDbEntity
  8
0
  6
Continuous
 62
     7
370
    25
100
AcDbCircle
 10
4.7566918583
 20
16.7891825621
 30
0.0
 40
0.2507454725273995
100
AcDbArc
 50
241.1452429532
 51
270.00530998
  0
LINE
  5
3A0
330
1F
100
AcDbEntity
  8
0
  6
Continuous
 62
     7
370
    25
100
AcDbLine
 10
4.5067150965
 20
16.7891537644
 30
0.0
 11
4.5067150965
 21
16.8116154142
 31
0.0
  0
LINE
  5
3A1
330
1F
100
AcDbEntity
  8
0
  6
Continuous
 62
     7
370
    25
100
AcDbLine
 10
4.8817150965
 20
16.5608987404
 30
0.0
 11
4.7567150965
 21
16.5608987404
 31
0.0
  0
LINE
  5
3A2
330
1F
100
AcDbEntity
  8
0
  6
Continuous
 62
     7
370
    25
100
AcDbLine
 10
4.635684367
 20
16.5920298247
 30
0.0
 11
4.6461426321
 21
16.5920298247
 31
0.0
  0
LINE
  5
3A3
330
1F
100
AcDbEntity
  8
0
  6
Continuous
 62
     7
370
    25
100
AcDbLine
 10
4.8817150965
 20
16.5384370906
 30
0.0
 11
4.7567150965
 21
16.5384370906
 31
0.0
  0
LINE
  5
3A4
330
1F
100
AcDbEntity
  8
0
  6
Continuous
 62
     7
370
    25
100
AcDbLine
 10
4.8817150965
 20
16.5384370906
 30
0.0
 11
4.8817150965
 21
16.5397259448
 31
0.0
  0
LINE
  5
3A5
330
1F
100
AcDbEntity
  8
0
  6
Continuous
 62
     7
370
    25
100
AcDbLine
 10
4.5067150965
 20
19.517614968
 30
0.0
 11
4.5067150965
 21
19.5121677341
 31
0.0
  0
LINE
  5
3A6
330
1F
100
AcDbEntity
  8
0
  6
Continuous
 62
     7
370
    25
100
AcDbLine
 10
4.5067150965
 20
16.8170626481
 30
0.0
 11
4.5067150965
 21
16.8116154142
 31
0.0
  0
ELLIPSE
  5
3A7
330
1F
100
AcDbEntity
  8
0
  6
Continuous
 62
     7
370
    25
100
AcDbEllipse
 10
4.7567150965
 20
19.5455238517
 30
0.0
 11
0.0
 21
0.2509549593858402
 31
8.881784197001252E-16
210
0.0
220
-3.539194530659032E-15
230
1.0
 40
0.9961946981
 41
0.5053605102841837
 42
1.570796326794897
  0
ELLIPSE
  5
3A8
330
1F
100
AcDbEntity
  8
0
  6
Continuous
 62
     7
370
    25
100
AcDbEllipse
 10
4.7567150965
 20
19.5779592091
 30
0.0
 11
0.0
 21
0.2509549593858367
 31
8.881784197001252E-16
210
0.0
220
-3.539194530659082E-15
230
1.0
 40
0.9961946981
 41
0.5053605102841862
 42
1.570796326794897
  0
ARC
  5
3A9
330
1F
100
AcDbEntity
  8
0
  6
Continuous
 62
     7
370
    25
100
AcDbCircle
 10
4.7566918583
 20
19.5779304114
 30
0.0
 40
0.2507454725275103
100
AcDbArc
 50
89.99469002
 51
118.8547570468
  0
LINE
  5
3AA
330
1F
100
AcDbEntity
  8
0
  6
Continuous
 62
     7
370
    25
100
AcDbLine
 10
4.7567150965
 20
19.8286758828
 30
0.0
 11
4.7567150965
 21
19.7962405255
 31
0.0
  0
ARC
  5
3AB
330
1F
100
AcDbEntity
  8
0
  6
Continuous
 62
     7
370
    25
100
AcDbCircle
 10
4.7566918583
 20
19.545495054
 30
0.0
 40
0.2507454725276163
100
AcDbArc
 50
89.99469002
 51
118.8547570468
  0
LINE
  5
3AC
330
1F
100
AcDbEntity
  8
0
  6
Continuous
 62
     7
370
    25
100
AcDbLine
 10
4.5067150965
 20
19.5455238517
 30
0.0
 11
4.5067150965
 21
19.5779592091
 31
0.0
  0
LINE
  5
3AD
330
1F
100
AcDbEntity
  8
0
  6
Continuous
 62
     7
370
    25
100
AcDbLine
 10
4.8817150965
 20
19.7962405255
 30
0.0
 11
4.7567150965
 21
19.7962405255
 31
0.0
  0
LINE
  5
3AE
330
1F
100
AcDbEntity
  8
0
  6
Continuous
 62
     7
370
    25
100
AcDbLine
 10
4.8817150965
 20
19.8286758828
 30
0.0
 11
4.7567150965
 21
19.8286758828
 31
0.0
  0
LINE
  5
3AF
330
1F
100
AcDbEntity
  8
0
  6
Continuous
 62
     7
370
    25
100
AcDbLine
 10
4.8817150965
 20
19.8215282191
 30
0.0
 11
4.8817150965
 21
19.8286758828
 31
0.0
  0
LINE
  5
3B0
330
1F
100
AcDbEntity
  8
0
  6
Continuous
 62
     7
370
    25
100
AcDbLine
 10
4.635684367
 20
19.7651094411
 30
0.0
 11
4.6461426321
 21
19.7651094411
 31
0.0
  0
ELLIPSE
  5
3B1
330
1F
100
AcDbEntity
  8
0
  6
Continuous
 62
     7
370
    25
100
AcDbEllipse
 10
4.7567150965
 20
16.7512711731
 30
0.0
 11
0.0
 21
0.2509549593858402
 31
7.771561172376096E-16
210
0.0
220
-3.096795214326653E-15
230
1.0
 40
0.9961946981
 41
1.570796326794897
 42
2.636232143305575
  0
ELLIPSE
  5
3B2
330
1F
100
AcDbEntity
  8
0
  6
Continuous
 62
     7
370
    25
100
AcDbEllipse
 10
4.7567150965
 20
16.7837065305
 30
0.0
 11
0.0
 21
0.2509549593858367
 31
4.440892098500626E-16
210
0.0
220
-1.769597265329541E-15
230
1.0
 40
0.9961946981
 41
1.570796326794897
 42
2.636232143305608
  0
ARC
  5
3B3
330
1F
100
AcDbEntity
  8
0
  6
Continuous
 62
     7
370
    25
100
AcDbCircle
 10
4.7566918583
 20
16.7837353282
 30
0.0
 40
0.2507454725275242
100
AcDbArc
 50
241.1452429532
 51
270.00530998
  0
LINE
  5
3B4
330
1F
100
AcDbEntity
  8
0
  6
Continuous
 62
     7
370
    25
100
AcDbLine
 10
4.7567150965
 20
16.5329898567
 30
0.0
 11
4.7567150965
 21
16.5005544993
 31
0.0
  0
ARC
  5
3B5
330
1F
100
AcDbEntity
  8
0
  6
Continuous
 62
     7
370
    25
100
AcDbCircle
 10
4.7566918583
 20
16.7512999708
 30
0.0
 40
0.2507454725275777
100
AcDbArc
 50
241.1452429532
 51
270.00530998
  0
LINE
  5
3B6
330
1F
100
AcDbEntity
  8
0
  6
Continuous
 62
     7
370
    25
100
AcDbLine
 10
4.5067150965
 20
16.7512711731
 30
0.0
 11
4.5067150965
 21
16.7837065305
 31
0.0
  0
LINE
  5
3B7
330
1F
100
AcDbEntity
  8
0
  6
Continuous
 62
     7
370
    25
100
AcDbLine
 10
4.8817150965
 20
16.5329898567
 30
0.0
 11
4.7567150965
 21
16.5329898567
 31
0.0
  0
LINE
  5
3B8
330
1F
100
AcDbEntity
  8
0
  6
Continuous
 62
     7
370
    25
100
AcDbLine
 10
4.635684367
 20
16.564120941
 30
0.0
 11
4.6461426321
 21
16.564120941
 31
0.0
  0
LINE
  5
3B9
330
1F
100
AcDbEntity
  8
0
  6
Continuous
 62
     7
370
    25
100
AcDbLine
 10
4.8817150965
 20
16.5005544993
 30
0.0
 11
4.7567150965
 21
16.5005544993
 31
0.0
  0
LINE
  5
3BA
330
1F
100
AcDbEntity
  8
0
  6
Continuous
 62
     7
370
    25
100
AcDbLine
 10
4.8817150965
 20
16.5005544993
 30
0.0
 11
4.8817150965
 21
16.507702163
 31
0.0
  0
SPLINE
  5
3BB
330
1F
100
AcDbEntity
  8
0
  6
Continuous
 62
     7
370
    25
100
AcDbSpline
210
0.0
220
0.0
230
1.0
 70
     8
 71
     3
 72
    10
 73
     6
 74
     0
 42
0.00000001
 43
0.00000001
 40
0.0
 40
0.0
 40
0.0
 40
0.0
 40
0.334743991516577
 40
0.6792001051787622
 40
1.0
 40
1.0
 40
1.0
 40
1.0
 10
4.756715096529373
 20
19.83303083350672
 30
0.0
 10
4.742899901693488
 20
19.83234450056237
 30
0.0
 10
4.714868683737683
 20
19.83095192169673
 30
0.0
 10
4.674530012250282
 20
19.82059995447361
 30
0.0
 10
4.649767533810311
 20
19.80872053071352
 30
0.0
 10
4.637826566156122
 20
19.80299203244492
 30
0.0
  0
SPLINE
  5
3BC
330
1F
100
AcDbEntity
  8
0
  6
Continuous
 62
     7
370
    25
100
AcDbSpline
210
0.0
220
0.0
230
1.0
 70
     8
 71
     3
 72
    14
 73
    10
 74
     0
 42
0.00000001
 43
0.00000001
 40
0.0
 40
0.0
 40
0.0
 40
0.0
 40
0.1546122500483524
 40
0.3137085912298456
 40
0.468320744656773
 40
0.6274159301558685
 40
0.7820423236706835
 40
0.9411505317717874
 40
1.0
 40
1.0
 40
1.0
 40
1.0
 10
4.637826566156122
 20
19.80299203244492
 30
0.0
 10
4.625956132912748
 20
19.79581515397294
 30
0.0
 10
4.601870998074451
 20
19.78125325196214
 30
0.0
 10
4.571164605677526
 20
19.75226014590412
 30
0.0
 10
4.545231613035152
 20
19.71862920420695
 30
0.0
 10
4.525551492703746
 20
19.68135045205588
 30
0.0
 10
4.512341801255923
 20
19.64096855990867
 30
0.0
 10
4.50719700858927
 20
19.60780349168844
 30
0.0
 10
4.506817551502142
 20
19.58829343801447
 30
0.0
 10
4.506715096529372
 20
19.5830256433529
 30
0.0
  0
LINE
  5
3BD
330
1F
100
AcDbEntity
  8
0
  6
Continuous
 62
     7
370
    25
100
AcDbLine
 10
4.5067150965
 20
19.5830256434
 30
0.0
 11
4.5067150965
 21
19.5831151911
 31
0.0
  0
LINE
  5
3BE
330
1F
100
AcDbEntity
  8
0
  6
Continuous
 62
     7
370
    25
100
AcDbLine
 10
4.6378265662
 20
19.8029920324
 30
0.0
 11
4.6461426321
 21
19.8029920324
 31
0.0
  0
LINE
  5
3BF
330
1F
100
AcDbEntity
  8
0
  6
Continuous
 62
     7
370
    25
100
AcDbLine
 10
4.8817150965
 20
19.8330308335
 30
0.0
 11
4.7567150965
 21
19.8330308335
 31
0.0
  0
LINE
  5
3C0
330
1F
100
AcDbEntity
  8
0
  6
Continuous
 62
     7
370
    25
100
AcDbLine
 10
4.8817150965
 20
19.8330308335
 30
0.0
 11
4.8817150965
 21
19.8326584135
 31
0.0
  0
SPLINE
  5
3C1
330
1F
100
AcDbEntity
  8
0
  6
Continuous
 62
     7
370
    25
100
AcDbSpline
210
0.0
220
0.0
230
1.0
 70
     8
 71
     3
 72
    14
 73
    10
 74
     0
 42
0.00000001
 43
0.00000001
 40
0.0
 40
0.0
 40
0.0
 40
0.0
 40
0.0588494686556863
 40
0.2134762068023789
 40
0.3725840679202399
 40
0.5271963573192765
 40
0.6862914072957779
 40
0.8409037175808196
 40
1.0
 40
1.0
 40
1.0
 40
1.0
 10
4.506715096529372
 20
16.7462047388204
 30
0.0
 10
4.506817439784338
 20
16.74093687050257
 30
0.0
 10
4.507188689523053
 20
16.72182769972984
 30
0.0
 10
4.512248026069313
 20
16.68866341471041
 30
0.0
 10
4.525239722493933
 20
16.64861744785145
 30
0.0
 10
4.545009210728538
 20
16.61094929478323
 30
0.0
 10
4.570627103059691
 20
16.5775654167847
 30
0.0
 10
4.601547560625804
 20
16.54823385379756
 30
0.0
 10
4.62561887707882
 20
16.53363971784335
 30
0.0
 10
4.637826566156119
 20
16.52623834972838
 30
0.0
  0
SPLINE
  5
3C2
330
1F
100
AcDbEntity
  8
0
  6
Continuous
 62
     7
370
    25
100
AcDbSpline
210
0.0
220
0.0
230
1.0
 70
     8
 71
     3
 72
    10
 73
     6
 74
     0
 42
0.00000001
 43
0.00000001
 40
0.0
 40
0.0
 40
0.0
 40
0.0
 40
0.3210776847983214
 40
0.6556894045021275
 40
1.0
 40
1.0
 40
1.0
 40
1.0
 10
4.637826566156119
 20
16.52623834972838
 30
0.0
 10
4.649777969326828
 20
16.52050462512292
 30
0.0
 10
4.67418455003607
 20
16.50879548851786
 30
0.0
 10
4.714481328091737
 20
16.49834934677906
 30
0.0
 10
4.742503733887665
 20
16.49692294043846
 30
0.0
 10
4.756715096529373
 20
16.49619954866659
 30
0.0
  0
LINE
  5
3C3
330
1F
100
AcDbEntity
  8
0
  6
Continuous
 62
     7
370
    25
100
AcDbLine
 10
4.5067150965
 20
16.7461151911
 30
0.0
 11
4.5067150965
 21
16.7462047388
 31
0.0
  0
LINE
  5
3C4
330
1F
100
AcDbEntity
  8
0
  6
Continuous
 62
     7
370
    25
100
AcDbLine
 10
4.8817150965
 20
16.4961995487
 30
0.0
 11
4.7567150965
 21
16.4961995487
 31
0.0
  0
LINE
  5
3C5
330
1F
100
AcDbEntity
  8
0
  6
Continuous
 62
     7
370
    25
100
AcDbLine
 10
4.6378265662
 20
16.5262383497
 30
0.0
 11
4.6461426321
 21
16.5262383497
 31
0.0
  0
LINE
  5
3C6
330
1F
100
AcDbEntity
  8
0
  6
Continuous
 62
     7
370
    25
100
AcDbLine
 10
4.8817150965
 20
16.4961995487
 30
0.0
 11
4.8817150965
 21
16.4965719687
 31
0.0
  0
LINE
  5
3C7
330
1F
100
AcDbEntity
  8
0
  6
Continuous
 62
     7
370
    25
100
AcDbLine
 10
4.8817150965
 20
19.8330308335
 30
0.0
 11
4.8817150965
 21
19.8331151911
 31
0.0
  0
LINE
  5
3C8
330
1F
100
AcDbEntity
  8
0
  6
Continuous
 62
     7
370
    25
100
AcDbLine
 10
4.8817150965
 20
16.4961151911
 30
0.0
 11
4.8817150965
 21
16.4961995487
 31
0.0
  0
LINE
  5
3C9
330
1F
100
AcDbEntity
  8
0
  6
Continuous
 62
     7
370
    25
100
AcDbLine
 10
10.6942150965
 20
19.6512178642
 30
0.0
 11
10.5692150965
 21
19.6512178642
 31
0.0
  0
LINE
  5
3CA
330
1F
100
AcDbEntity
  8
0
  6
Continuous
 62
     7
370
    25
100
AcDbLine
 10
10.6942150965
 20
16.678012518
 30
0.0
 11
10.6942150965
 21
19.6512178642
 31
0.0
  0
LINE
  5
3CB
330
1F
100
AcDbEntity
  8
0
  6
Continuous
 62
     7
370
    25
100
AcDbLine
 10
10.5692150965
 20
16.678012518
 30
0.0
 11
10.6942150965
 21
16.678012518
 31
0.0
  0
LINE
  5
3CC
330
1F
100
AcDbEntity
  8
0
  6
Continuous
 62
     7
370
    25
100
AcDbLine
 10
10.5692150965
 20
19.6512178642
 30
0.0
 11
10.5692150965
 21
16.678012518
 31
0.0
  0
SPLINE
  5
3CD
330
1F
100
AcDbEntity
  8
0
  6
Continuous
 62
     7
370
    25
100
AcDbSpline
210
0.0
220
0.0
230
1.0
 70
     8
 71
     3
 72
    26
 73
    22
 74
     0
 42
0.00000001
 43
0.00000001
 40
0.0
 40
0.0
 40
0.0
 40
0.0
 40
0.0513569096913281
 40
0.150877249846688
 40
0.2533830323256511
 40
0.3491076651552779
 40
0.4472744296296474
 40
0.570379210842627
 40
0.6982213158623364
 40
0.721648694248917
 40
0.8570810554822343
 40
0.9190997019154821
 40
0.9538985331147689
 40
0.9736761426833225
 40
0.9849602723810302
 40
0.9914059233437056
 40
0.9950889684788587
 40
0.9971936218734615
 40
0.998029217932864
 40
0.998403361194494
 40
1.0
 40
1.0
 40
1.0
 40
1.0
 10
10.69421509652937
 20
19.65121786415313
 30
0.0
 10
10.70113167210212
 20
19.65111103478252
 30
0.0
 10
10.72145131179706
 20
19.65079718954264
 30
0.0
 10
10.75523484268518
 20
19.64723028203191
 30
0.0
 10
10.79315720589454
 20
19.6393662357419
 30
0.0
 10
10.8281380957987
 20
19.62801589585041
 30
0.0
 10
10.86179639739585
 20
19.61266601484187
 30
0.0
 10
10.89326123357732
 20
19.59229222002352
 30
0.0
 10
10.91223195853148
 20
19.57389931336927
 30
0.0
 10
10.92806129159556
 20
19.55373043085602
 30
0.0
 10
10.9370651831625
 20
19.53738653997334
 30
0.0
 10
10.94209280522155
 20
19.51981137202391
 30
0.0
 10
10.94352905828448
 20
19.51093121342886
 30
0.0
 10
10.94399168086805
 20
19.50590852270827
 30
0.0
 10
10.94414219713615
 20
19.50304757870522
 30
0.0
 10
10.94419129654909
 20
19.50141445584088
 30
0.0
 10
10.94420732229351
 20
19.50048155547989
 30
0.0
 10
10.9442122870504
 20
19.49997651865051
 30
0.0
 10
10.94421381630722
 20
19.49972380478678
 30
0.0
 10
10.94421480390282
 20
19.49950983034294
 30
0.0
 10
10.94421496556111
 20
19.49935957491822
 30
0.0
 10
10.94421509652937
 20
19.49923784474528
 30
0.0
  0
LINE
  5
3CE
330
1F
100
AcDbEntity
  8
0
  6
Continuous
 62
     7
370
    25
100
AcDbLine
 10
10.9442150965
 20
19.4992378447
 30
0.0
 11
10.9442150965
 21
16.8299925374
 31
0.0
  0
SPLINE
  5
3CF
330
1F
100
AcDbEntity
  8
0
  6
Continuous
 62
     7
370
    25
100
AcDbSpline
210
0.0
220
0.0
230
1.0
 70
     8
 71
     3
 72
    26
 73
    22
 74
     0
 42
0.00000001
 43
0.00000001
 40
0.0
 40
0.0
 40
0.0
 40
0.0
 40
0.0513569096913443
 40
0.1508772498467034
 40
0.2533830323256658
 40
0.3491076651552932
 40
0.4472744296296635
 40
0.5703792108426405
 40
0.6982213158623451
 40
0.7216486942489168
 40
0.857081055482232
 40
0.9190997019154808
 40
0.9538985331147697
 40
0.9736761426833227
 40
0.9849602723810292
 40
0.9914059233437036
 40
0.9950889684788569
 40
0.9971936218734542
 40
0.9980292179328675
 40
0.9984033611944891
 40
1.0
 40
1.0
 40
1.0
 40
1.0
 10
10.69421509652937
 20
16.67801251802017
 30
0.0
 10
10.70113167210212
 20
16.67811934739079
 30
0.0
 10
10.72145131179707
 20
16.67843319263066
 30
0.0
 10
10.75523484268518
 20
16.6820001001414
 30
0.0
 10
10.79315720589455
 20
16.6898641464314
 30
0.0
 10
10.82813809579871
 20
16.7012144863229
 30
0.0
 10
10.86179639739586
 20
16.71656436733144
 30
0.0
 10
10.89326123357732
 20
16.73693816214979
 30
0.0
 10
10.91223195853148
 20
16.75533106880403
 30
0.0
 10
10.92806129159556
 20
16.77549995131728
 30
0.0
 10
10.9370651831625
 20
16.79184384219997
 30
0.0
 10
10.94209280522155
 20
16.80941901014939
 30
0.0
 10
10.94352905828448
 20
16.81829916874444
 30
0.0
 10
10.94399168086805
 20
16.82332185946503
 30
0.0
 10
10.94414219713615
 20
16.82618280346809
 30
0.0
 10
10.94419129654909
 20
16.82781592633243
 30
0.0
 10
10.94420732229351
 20
16.82874882669341
 30
0.0
 10
10.9442122870504
 20
16.8292538635228
 30
0.0
 10
10.94421381630722
 20
16.82950657738652
 30
0.0
 10
10.94421480390282
 20
16.82972055183037
 30
0.0
 10
10.94421496556111
 20
16.82987080725509
 30
0.0
 10
10.94421509652937
 20
16.82999253742802
 30
0.0
  0
SPLINE
  5
3D0
330
1F
100
AcDbEntity
  8
0
  6
Continuous
 62
     7
370
    25
100
AcDbSpline
210
0.0
220
0.0
230
1.0
 70
     8
 71
     3
 72
    25
 73
    21
 74
     0
 42
0.00000001
 43
0.00000001
 40
0.0
 40
0.0
 40
0.0
 40
0.0
 40
0.0513829149485503
 40
0.1509430104509155
 40
0.2534768788520935
 40
0.3491881264753665
 40
0.4473389028817016
 40
0.5582265909402931
 40
0.6725628238034309
 40
0.7216764284159894
 40
0.8357377736141859
 40
0.9531346657525203
 40
0.9732522494077248
 40
0.984721983512298
 40
0.9912710103774964
 40
0.9950122779640206
 40
0.997149928960627
 40
0.9980282182533293
 40
0.9984025359693617
 40
1.0
 40
1.0
 40
1.0
 40
1.0
 10
10.69421509652937
 20
19.74076660681018
 30
0.0
 10
10.70113163167049
 20
19.74059904271548
 30
0.0
 10
10.72144972061379
 20
19.74010680460632
 30
0.0
 10
10.7552302419705
 20
19.73451239494077
 30
0.0
 10
10.79315057511945
 20
19.72216519848175
 30
0.0
 10
10.82813238842656
 20
19.70431371230002
 30
0.0
 10
10.86050194108272
 20
19.68104602531769
 30
0.0
 10
10.88994068983801
 20
19.65148854548105
 30
0.0
 10
10.90980427757455
 20
19.62283703661806
 30
0.0
 10
10.92578880232973
 20
19.59199334688887
 30
0.0
 10
10.9377652307371
 20
19.5591182536611
 30
0.0
 10
10.94292210656372
 20
19.52841426213764
 30
0.0
 10
10.94398456639795
 20
19.51014810098701
 30
0.0
 10
10.94413993238434
 20
19.50546806205407
 30
0.0
 10
10.94419056558532
 20
19.50279712016684
 30
0.0
 10
10.94420708531723
 20
19.50127153216457
 30
0.0
 10
10.94421222424923
 20
19.50044203917008
 30
0.0
 10
10.94421380147617
 20
19.50002586088598
 30
0.0
 10
10.94421480386396
 20
19.49967599432872
 30
0.0
 10
10.94421496554302
 20
19.49943394449387
 30
0.0
 10
10.94421509652937
 20
19.49923784474528
 30
0.0
  0
LINE
  5
3D1
330
1F
100
AcDbEntity
  8
0
  6
Continuous
 62
     7
370
    25
100
AcDbLine
 10
10.6942150965
 20
19.6512178642
 30
0.0
 11
10.6942150965
 21
19.7407666068
 31
0.0
  0
SPLINE
  5
3D2
330
1F
100
AcDbEntity
  8
0
  6
Continuous
 62
     7
370
    25
100
AcDbSpline
210
0.0
220
0.0
230
1.0
 70
     8
 71
     3
 72
    16
 73
    12
 74
     0
 42
0.00000001
 43
0.00000001
 40
0.0
 40
0.0
 40
0.0
 40
0.0
 40
0.0124922213043061
 40
0.4363933983058241
 40
0.6780742020322126
 40
0.8160699098643452
 40
0.894902823428269
 40
0.9399456471097398
 40
0.9584522367333771
 40
0.9663395517865676
 40
1.0
 40
1.0
 40
1.0
 40
1.0
 10
10.94354029505336
 20
16.81252875276655
 30
0.0
 10
10.94355248890842
 20
16.81260071012406
 30
0.0
 10
10.94397845941589
 20
16.81511441165166
 30
0.0
 10
10.94392645396954
 20
16.81908811617123
 30
0.0
 10
10.94414635305265
 20
16.82376167542921
 30
0.0
 10
10.94418985461265
 20
16.82643333339421
 30
0.0
 10
10.94420716502844
 20
16.82795884200505
 30
0.0
 10
10.94421221808053
 20
16.82878834362262
 30
0.0
 10
10.94421380183679
 20
16.82920452125112
 30
0.0
 10
10.94421480355264
 20
16.82955438787585
 30
0.0
 10
10.94421496540369
 20
16.82979643769343
 30
0.0
 10
10.94421509652937
 20
16.82999253742802
 30
0.0
  0
LINE
  5
3D3
330
1F
100
AcDbEntity
  8
0
  6
Continuous
 62
     7
370
    25
100
AcDbLine
 10
10.6942150965
 20
16.5884637754
 30
0.0
 11
10.6942150965
 21
16.678012518
 31
0.0
  0
LINE
  5
3D4
330
1F
100
AcDbEntity
  8
0
  6
Continuous
 62
     7
370
    25
100
AcDbLine
 10
10.5692150965
 20
19.7407666068
 30
0.0
 11
10.6942150965
 21
19.7407666068
 31
0.0
  0
LINE
  5
3D5
330
1F
100
AcDbEntity
  8
0
  6
Continuous
 62
     7
370
    25
100
AcDbLine
 10
10.5692150965
 20
19.6512178642
 30
0.0
 11
10.5692150965
 21
19.7407666068
 31
0.0
  0
LINE
  5
3D6
330
1F
100
AcDbEntity
  8
0
  6
Continuous
 62
     7
370
    25
100
AcDbLine
 10
10.6942150965
 20
16.5884637754
 30
0.0
 11
10.5692150965
 21
16.5884637754
 31
0.0
  0
LINE
  5
3D7
330
1F
100
AcDbEntity
  8
0
  6
Continuous
 62
     7
370
    25
100
AcDbLine
 10
10.5692150965
 20
16.5884637754
 30
0.0
 11
10.5692150965
 21
16.678012518
 31
0.0
  0
ELLIPSE
  5
3D8
330
1F
100
AcDbEntity
  8
0
  6
Continuous
 62
     7
370
    25
100
AcDbEllipse
 10
10.6942150965
 20
19.5121677341
 30
0.0
 11
0.0
 21
-0.2509549593858402
 31
0.0
210
0.0
220
0.0
230
1.0
 40
0.9961946981
 41
1.570796326794897
 42
2.636232143305654
  0
LINE
  5
3D9
330
1F
100
AcDbEntity
  8
0
  6
Continuous
 62
     7
370
    25
100
AcDbLine
 10
10.6942150965
 20
19.7407666068
 30
0.0
 11
10.6942150965
 21
19.7628844079
 31
0.0
  0
ARC
  5
3DA
330
1F
100
AcDbEntity
  8
0
  6
Continuous
 62
     7
370
    25
100
AcDbCircle
 10
10.6942383348
 20
19.5121389364
 30
0.0
 40
0.2507454725275417
100
AcDbArc
 50
61.1452429532
 51
90.00530998
  0
LINE
  5
3DB
330
1F
100
AcDbEntity
  8
0
  6
Continuous
 62
     7
370
    25
100
AcDbLine
 10
10.9442150965
 20
19.5121677341
 30
0.0
 11
10.9442150965
 21
19.4992378447
 31
0.0
  0
ARC
  5
3DC
330
1F
100
AcDbEntity
  8
0
  6
Continuous
 62
     7
370
    25
100
AcDbCircle
 10
10.6942383348
 20
16.8170914458
 30
0.0
 40
0.2507454725275152
100
AcDbArc
 50
269.99469002
 51
298.8547570468
  0
LINE
  5
3DD
330
1F
100
AcDbEntity
  8
0
  6
Continuous
 62
     7
370
    25
100
AcDbLine
 10
10.6942150965
 20
16.5663459743
 30
0.0
 11
10.6942150965
 21
16.5884637754
 31
0.0
  0
ELLIPSE
  5
3DE
330
1F
100
AcDbEntity
  8
0
  6
Continuous
 62
     7
370
    25
100
AcDbEllipse
 10
10.6942150965
 20
16.8170626481
 30
0.0
 11
0.0
 21
-0.2509549593858367
 31
0.0
210
0.0
220
0.0
230
1.0
 40
0.9961946981
 41
0.505360510284153
 42
1.570796326794897
  0
LINE
  5
3DF
330
1F
100
AcDbEntity
  8
0
  6
Continuous
 62
     7
370
    25
100
AcDbLine
 10
10.9442150965
 20
16.8299925374
 30
0.0
 11
10.9442150965
 21
16.8170626481
 31
0.0
  0
LINE
  5
3E0
330
1F
100
AcDbEntity
  8
0
  6
Continuous
 62
     7
370
    25
100
AcDbLine
 10
10.5692150965
 20
19.7628844079
 30
0.0
 11
10.6942150965
 21
19.7628844079
 31
0.0
  0
LINE
  5
3E1
330
1F
100
AcDbEntity
  8
0
  6
Continuous
 62
     7
370
    25
100
AcDbLine
 10
10.5692150965
 20
19.7628844079
 30
0.0
 11
10.5692150965
 21
19.7627413154
 31
0.0
  0
LINE
  5
3E2
330
1F
100
AcDbEntity
  8
0
  6
Continuous
 62
     7
370
    25
100
AcDbLine
 10
10.5692150965
 20
19.745459595
 30
0.0
 11
10.5692150965
 21
19.7407666068
 31
0.0
  0
LINE
  5
3E3
330
1F
100
AcDbEntity
  8
0
  6
Continuous
 62
     7
370
    25
100
AcDbLine
 10
10.5692150965
 20
16.5663459743
 30
0.0
 11
10.6942150965
 21
16.5663459743
 31
0.0
  0
LINE
  5
3E4
330
1F
100
AcDbEntity
  8
0
  6
Continuous
 62
     7
370
    25
100
AcDbLine
 10
10.5692150965
 20
16.5884637754
 30
0.0
 11
10.5692150965
 21
16.5837707871
 31
0.0
  0
LINE
  5
3E5
330
1F
100
AcDbEntity
  8
0
  6
Continuous
 62
     7
370
    25
100
AcDbLine
 10
10.5692150965
 20
16.5664890668
 30
0.0
 11
10.5692150965
 21
16.5663459743
 31
0.0
  0
ELLIPSE
  5
3E6
330
1F
100
AcDbEntity
  8
0
  6
Continuous
 62
     7
370
    25
100
AcDbEllipse
 10
10.6942150965
 20
19.5400766178
 30
0.0
 11
0.0
 21
-0.2509549593858331
 31
0.0
210
0.0
220
0.0
230
1.0
 40
0.9961946981
 41
1.570796326794897
 42
2.636232143305628
  0
ELLIPSE
  5
3E7
330
1F
100
AcDbEntity
  8
0
  6
Continuous
 62
     7
370
    25
100
AcDbEllipse
 10
10.6942150965
 20
19.517614968
 30
0.0
 11
5.329070518200751E-15
 21
-0.2509549593858402
 31
0.0
210
-5.329070518200751E-15
220
-1.131637033890744E-28
230
1.0
 40
0.9961946981
 41
1.570796326794875
 42
2.636232143305594
  0
ARC
  5
3E8
330
1F
100
AcDbEntity
  8
0
  6
Continuous
 62
     7
370
    25
100
AcDbCircle
 10
10.6942383348
 20
19.5175861703
 30
0.0
 40
0.2507454725275488
100
AcDbArc
 50
61.1452429532
 51
90.00530998
  0
LINE
  5
3E9
330
1F
100
AcDbEntity
  8
0
  6
Continuous
 62
     7
370
    25
100
AcDbLine
 10
10.6942150965
 20
19.7683316418
 30
0.0
 11
10.6942150965
 21
19.7907932915
 31
0.0
  0
ARC
  5
3EA
330
1F
100
AcDbEntity
  8
0
  6
Continuous
 62
     7
370
    25
100
AcDbCircle
 10
10.6942383348
 20
19.5400478201
 30
0.0
 40
0.2507454725275832
100
AcDbArc
 50
61.1452429532
 51
90.00530998
  0
LINE
  5
3EB
330
1F
100
AcDbEntity
  8
0
  6
Continuous
 62
     7
370
    25
100
AcDbLine
 10
10.9442150965
 20
19.5400766178
 30
0.0
 11
10.9442150965
 21
19.517614968
 31
0.0
  0
LINE
  5
3EC
330
1F
100
AcDbEntity
  8
0
  6
Continuous
 62
     7
370
    25
100
AcDbLine
 10
10.5692150965
 20
19.7907932915
 30
0.0
 11
10.6942150965
 21
19.7907932915
 31
0.0
  0
LINE
  5
3ED
330
1F
100
AcDbEntity
  8
0
  6
Continuous
 62
     7
370
    25
100
AcDbLine
 10
10.5692150965
 20
19.7683316418
 30
0.0
 11
10.6942150965
 21
19.7683316418
 31
0.0
  0
LINE
  5
3EE
330
1F
100
AcDbEntity
  8
0
  6
Continuous
 62
     7
370
    25
100
AcDbLine
 10
10.5692150965
 20
19.7907932915
 30
0.0
 11
10.5692150965
 21
19.7895044374
 31
0.0
  0
LINE
  5
3EF
330
1F
100
AcDbEntity
  8
0
  6
Continuous
 62
     7
370
    25
100
AcDbLine
 10
10.8152458261
 20
19.7372005575
 30
0.0
 11
10.8047875609
 21
19.7372005575
 31
0.0
  0
ELLIPSE
  5
3F0
330
1F
100
AcDbEntity
  8
0
  6
Continuous
 62
     7
370
    25
100
AcDbEllipse
 10
10.6942150965
 20
16.8116154142
 30
0.0
 11
-5.329070518200751E-15
 21
-0.2509549593858367
 31
0.0
210
-7.105427357601002E-15
220
1.508849378521013E-28
230
1.0
 40
0.9961946981
 41
0.5053605102842059
 42
1.570796326794918
  0
ELLIPSE
  5
3F1
330
1F
100
AcDbEntity
  8
0
  6
Continuous
 62
     7
370
    25
100
AcDbEllipse
 10
10.6942150965
 20
16.7891537644
 30
0.0
 11
0.0
 21
-0.2509549593858367
 31
0.0
210
0.0
220
0.0
230
1.0
 40
0.9961946981
 41
0.5053605102841847
 42
1.570796326794897
  0
ARC
  5
3F2
330
1F
100
AcDbEntity
  8
0
  6
Continuous
 62
     7
370
    25
100
AcDbCircle
 10
10.6942383348
 20
16.7891825621
 30
0.0
 40
0.2507454725274575
100
AcDbArc
 50
269.99469002
 51
298.8547570468
  0
LINE
  5
3F3
330
1F
100
AcDbEntity
  8
0
  6
Continuous
 62
     7
370
    25
100
AcDbLine
 10
10.6942150965
 20
16.5384370906
 30
0.0
 11
10.6942150965
 21
16.5608987404
 31
0.0
  0
ARC
  5
3F4
330
1F
100
AcDbEntity
  8
0
  6
Continuous
 62
     7
370
    25
100
AcDbCircle
 10
10.6942383348
 20
16.8116442118
 30
0.0
 40
0.2507454725275265
100
AcDbArc
 50
269.99469002
 51
298.8547570468
  0
LINE
  5
3F5
330
1F
100
AcDbEntity
  8
0
  6
Continuous
 62
     7
370
    25
100
AcDbLine
 10
10.9442150965
 20
16.8116154142
 30
0.0
 11
10.9442150965
 21
16.7891537644
 31
0.0
  0
LINE
  5
3F6
330
1F
100
AcDbEntity
  8
0
  6
Continuous
 62
     7
370
    25
100
AcDbLine
 10
10.8152458261
 20
16.5920298247
 30
0.0
 11
10.8047875609
 21
16.5920298247
 31
0.0
  0
LINE
  5
3F7
330
1F
100
AcDbEntity
  8
0
  6
Continuous
 62
     7
370
    25
100
AcDbLine
 10
10.5692150965
 20
16.5608987404
 30
0.0
 11
10.6942150965
 21
16.5608987404
 31
0.0
  0
LINE
  5
3F8
330
1F
100
AcDbEntity
  8
0
  6
Continuous
 62
     7
370
    25
100
AcDbLine
 10
10.5692150965
 20
16.5384370906
 30
0.0
 11
10.6942150965
 21
16.5384370906
 31
0.0
  0
LINE
  5
3F9
330
1F
100
AcDbEntity
  8
0
  6
Continuous
 62
     7
370
    25
100
AcDbLine
 10
10.5692150965
 20
16.5397259448
 30
0.0
 11
10.5692150965
 21
16.5384370906
 31
0.0
  0
LINE
  5
3FA
330
1F
100
AcDbEntity
  8
0
  6
Continuous
 62
     7
370
    25
100
AcDbLine
 10
10.9442150965
 20
19.5121677341
 30
0.0
 11
10.9442150965
 21
19.517614968
 31
0.0
  0
LINE
  5
3FB
330
1F
100
AcDbEntity
  8
0
  6
Continuous
 62
     7
370
    25
100
AcDbLine
 10
10.9442150965
 20
16.8116154142
 30
0.0
 11
10.9442150965
 21
16.8170626481
 31
0.0
  0
LINE
  5
3FC
330
1F
100
AcDbEntity
  8
0
  6
Continuous
 62
     7
370
    25
100
AcDbLine
 10
10.5692150965
 20
19.8286758828
 30
0.0
 11
10.6942150965
 21
19.8286758828
 31
0.0
  0
LINE
  5
3FD
330
1F
100
AcDbEntity
  8
0
  6
Continuous
 62
     7
370
    25
100
AcDbLine
 10
10.6942150965
 20
19.7962405255
 30
0.0
 11
10.6942150965
 21
19.8286758828
 31
0.0
  0
LINE
  5
3FE
330
1F
100
AcDbEntity
  8
0
  6
Continuous
 62
     7
370
    25
100
AcDbLine
 10
10.5692150965
 20
19.7962405255
 30
0.0
 11
10.6942150965
 21
19.7962405255
 31
0.0
  0
LINE
  5
3FF
330
1F
100
AcDbEntity
  8
0
  6
Continuous
 62
     7
370
    25
100
AcDbLine
 10
10.5692150965
 20
19.8286758828
 30
0.0
 11
10.5692150965
 21
19.8215282191
 31
0.0
  0
ELLIPSE
  5
400
330
1F
100
AcDbEntity
  8
0
  6
Continuous
 62
     7
370
    25
100
AcDbEllipse
 10
10.6942150965
 20
19.5779592091
 30
0.0
 11
0.0
 21
-0.2509549593858331
 31
0.0
210
0.0
220
0.0
230
1.0
 40
0.9961946981
 41
1.570796326794897
 42
2.636232143305602
  0
ELLIPSE
  5
401
330
1F
100
AcDbEntity
  8
0
  6
Continuous
 62
     7
370
    25
100
AcDbEllipse
 10
10.6942150965
 20
19.5455238517
 30
0.0
 11
0.0
 21
-0.2509549593858367
 31
0.0
210
0.0
220
0.0
230
1.0
 40
0.9961946981
 41
1.570796326794897
 42
2.636232143305616
  0
ARC
  5
402
330
1F
100
AcDbEntity
  8
0
  6
Continuous
 62
     7
370
    25
100
AcDbCircle
 10
10.6942383348
 20
19.545495054
 30
0.0
 40
0.2507454725275914
100
AcDbArc
 50
61.1452429532
 51
90.00530998
  0
ARC
  5
403
330
1F
100
AcDbEntity
  8
0
  6
Continuous
 62
     7
370
    25
100
AcDbCircle
 10
10.6942383348
 20
19.5779304114
 30
0.0
 40
0.2507454725275784
100
AcDbArc
 50
61.1452429532
 51
90.00530998
  0
LINE
  5
404
330
1F
100
AcDbEntity
  8
0
  6
Continuous
 62
     7
370
    25
100
AcDbLine
 10
10.9442150965
 20
19.5779592091
 30
0.0
 11
10.9442150965
 21
19.5455238517
 31
0.0
  0
LINE
  5
405
330
1F
100
AcDbEntity
  8
0
  6
Continuous
 62
     7
370
    25
100
AcDbLine
 10
10.8152458261
 20
19.7651094411
 30
0.0
 11
10.8047875609
 21
19.7651094411
 31
0.0
  0
ELLIPSE
  5
406
330
1F
100
AcDbEntity
  8
0
  6
Continuous
 62
     7
370
    25
100
AcDbEllipse
 10
10.6942150965
 20
16.7837065305
 30
0.0
 11
0.0
 21
-0.2509549593858367
 31
0.0
210
0.0
220
0.0
230
1.0
 40
0.9961946981
 41
0.5053605102841847
 42
1.570796326794897
  0
ELLIPSE
  5
407
330
1F
100
AcDbEntity
  8
0
  6
Continuous
 62
     7
370
    25
100
AcDbEllipse
 10
10.6942150965
 20
16.7512711731
 30
0.0
 11
0.0
 21
-0.2509549593858331
 31
0.0
210
0.0
220
0.0
230
1.0
 40
0.9961946981
 41
0.5053605102841856
 42
1.570796326794897
  0
ARC
  5
408
330
1F
100
AcDbEntity
  8
0
  6
Continuous
 62
     7
370
    25
100
AcDbCircle
 10
10.6942383348
 20
16.7512999708
 30
0.0
 40
0.2507454725274357
100
AcDbArc
 50
269.99469002
 51
298.8547570468
  0
LINE
  5
409
330
1F
100
AcDbEntity
  8
0
  6
Continuous
 62
     7
370
    25
100
AcDbLine
 10
10.6942150965
 20
16.5005544993
 30
0.0
 11
10.6942150965
 21
16.5329898567
 31
0.0
  0
ARC
  5
40A
330
1F
100
AcDbEntity
  8
0
  6
Continuous
 62
     7
370
    25
100
AcDbCircle
 10
10.6942383348
 20
16.7837353282
 30
0.0
 40
0.2507454725275031
100
AcDbArc
 50
269.99469002
 51
298.8547570468
  0
LINE
  5
40B
330
1F
100
AcDbEntity
  8
0
  6
Continuous
 62
     7
370
    25
100
AcDbLine
 10
10.9442150965
 20
16.7837065305
 30
0.0
 11
10.9442150965
 21
16.7512711731
 31
0.0
  0
LINE
  5
40C
330
1F
100
AcDbEntity
  8
0
  6
Continuous
 62
     7
370
    25
100
AcDbLine
 10
10.8152458261
 20
16.564120941
 30
0.0
 11
10.8047875609
 21
16.564120941
 31
0.0
  0
LINE
  5
40D
330
1F
100
AcDbEntity
  8
0
  6
Continuous
 62
     7
370
    25
100
AcDbLine
 10
10.5692150965
 20
16.5329898567
 30
0.0
 11
10.6942150965
 21
16.5329898567
 31
0.0
  0
LINE
  5
40E
330
1F
100
AcDbEntity
  8
0
  6
Continuous
 62
     7
370
    25
100
AcDbLine
 10
10.5692150965
 20
16.5005544993
 30
0.0
 11
10.6942150965
 21
16.5005544993
 31
0.0
  0
LINE
  5
40F
330
1F
100
AcDbEntity
  8
0
  6
Continuous
 62
     7
370
    25
100
AcDbLine
 10
10.5692150965
 20
16.507702163
 30
0.0
 11
10.5692150965
 21
16.5005544993
 31
0.0
  0
SPLINE
  5
410
330
1F
100
AcDbEntity
  8
0
  6
Continuous
 62
     7
370
    25
100
AcDbSpline
210
0.0
220
0.0
230
1.0
 70
     8
 71
     3
 72
    10
 73
     6
 74
     0
 42
0.00000001
 43
0.00000001
 40
0.0
 40
0.0
 40
0.0
 40
0.0
 40
0.334743991516577
 40
0.6792001051787622
 40
1.0
 40
1.0
 40
1.0
 40
1.0
 10
10.69421509652937
 20
16.49619954866659
 30
0.0
 10
10.70803029136525
 20
16.49688588161094
 30
0.0
 10
10.73606150932106
 20
16.49827846047658
 30
0.0
 10
10.77640018080846
 20
16.5086304276997
 30
0.0
 10
10.80116265924843
 20
16.52050985145979
 30
0.0
 10
10.81310362690262
 20
16.52623834972839
 30
0.0
  0
SPLINE
  5
411
330
1F
100
AcDbEntity
  8
0
  6
Continuous
 62
     7
370
    25
100
AcDbSpline
210
0.0
220
0.0
230
1.0
 70
     8
 71
     3
 72
    14
 73
    10
 74
     0
 42
0.00000001
 43
0.00000001
 40
0.0
 40
0.0
 40
0.0
 40
0.0
 40
0.1546122500483508
 40
0.3137085912298456
 40
0.4683207446567729
 40
0.6274159301558685
 40
0.7820423236706829
 40
0.9411505317717872
 40
0.9999999999999999
 40
0.9999999999999999
 40
0.9999999999999999
 40
0.9999999999999999
 10
10.81310362690262
 20
16.52623834972839
 30
0.0
 10
10.82497406014599
 20
16.53341522820037
 30
0.0
 10
10.84905919498429
 20
16.54797713021117
 30
0.0
 10
10.87976558738121
 20
16.57697023626919
 30
0.0
 10
10.90569858002359
 20
16.61060117796636
 30
0.0
 10
10.925378700355
 20
16.64787993011743
 30
0.0
 10
10.93858839180282
 20
16.68826182226464
 30
0.0
 10
10.94373318446947
 20
16.72142689048487
 30
0.0
 10
10.9441126415566
 20
16.74093694415883
 30
0.0
 10
10.94421509652937
 20
16.74620473882041
 30
0.0
  0
LINE
  5
412
330
1F
100
AcDbEntity
  8
0
  6
Continuous
 62
     7
370
    25
100
AcDbLine
 10
10.9442150965
 20
16.7462047388
 30
0.0
 11
10.9442150965
 21
16.7461151911
 31
0.0
  0
LINE
  5
413
330
1F
100
AcDbEntity
  8
0
  6
Continuous
 62
     7
370
    25
100
AcDbLine
 10
10.8131036269
 20
16.5262383497
 30
0.0
 11
10.8047875609
 21
16.5262383497
 31
0.0
  0
LINE
  5
414
330
1F
100
AcDbEntity
  8
0
  6
Continuous
 62
     7
370
    25
100
AcDbLine
 10
10.5692150965
 20
16.4961995487
 30
0.0
 11
10.6942150965
 21
16.4961995487
 31
0.0
  0
LINE
  5
415
330
1F
100
AcDbEntity
  8
0
  6
Continuous
 62
     7
370
    25
100
AcDbLine
 10
10.5692150965
 20
16.4961995487
 30
0.0
 11
10.5692150965
 21
16.4965719687
 31
0.0
  0
LINE
  5
416
330
1F
100
AcDbEntity
  8
0
  6
Continuous
 62
     7
370
    25
100
AcDbLine
 10
10.5692150965
 20
19.8330308335
 30
0.0
 11
10.6942150965
 21
19.8330308335
 31
0.0
  0
SPLINE
  5
417
330
1F
100
AcDbEntity
  8
0
  6
Continuous
 62
     7
370
    25
100
AcDbSpline
210
0.0
220
0.0
230
1.0
 70
     8
 71
     3
 72
    10
 73
     6
 74
     0
 42
0.00000001
 43
0.00000001
 40
0.0
 40
0.0
 40
0.0
 40
0.0
 40
0.3210776847983214
 40
0.6556894045021275
 40
1.0
 40
1.0
 40
1.0
 40
1.0
 10
10.81310362690262
 20
19.80299203244492
 30
0.0
 10
10.80115222373191
 20
19.80872575705039
 30
0.0
 10
10.77674564302267
 20
19.82043489365544
 30
0.0
 10
10.73644886496701
 20
19.83088103539425
 30
0.0
 10
10.70842645917108
 20
19.83230744173486
 30
0.0
 10
10.69421509652937
 20
19.83303083350672
 30
0.0
  0
LINE
  5
418
330
1F
100
AcDbEntity
  8
0
  6
Continuous
 62
     7
370
    25
100
AcDbLine
 10
10.8131036269
 20
19.8029920324
 30
0.0
 11
10.8047875609
 21
19.8029920324
 31
0.0
  0
LINE
  5
419
330
1F
100
AcDbEntity
  8
0
  6
Continuous
 62
     7
370
    25
100
AcDbLine
 10
10.5692150965
 20
19.8330308335
 30
0.0
 11
10.5692150965
 21
19.8326584135
 31
0.0
  0
SPLINE
  5
41A
330
1F
100
AcDbEntity
  8
0
  6
Continuous
 62
     7
370
    25
100
AcDbSpline
210
0.0
220
0.0
230
1.0
 70
     8
 71
     3
 72
    14
 73
    10
 74
     0
 42
0.00000001
 43
0.00000001
 40
0.0
 40
0.0
 40
0.0
 40
0.0
 40
0.0588494686556862
 40
0.2134762068023788
 40
0.3725840679202398
 40
0.5271963573192754
 40
0.6862914072957779
 40
0.8409037175808179
 40
1.0
 40
1.0
 40
1.0
 40
1.0
 10
10.94421509652937
 20
19.5830256433529
 30
0.0
 10
10.9441127532744
 20
19.58829351167074
 30
0.0
 10
10.94374150353569
 20
19.60740268244347
 30
0.0
 10
10.93868216698943
 20
19.6405669674629
 30
0.0
 10
10.92569047056481
 20
19.68061293432185
 30
0.0
 10
10.9059209823302
 20
19.71828108739009
 30
0.0
 10
10.88030308999905
 20
19.75166496538861
 30
0.0
 10
10.84938263243294
 20
19.78099652837575
 30
0.0
 10
10.82531131597992
 20
19.79559066432995
 30
0.0
 10
10.81310362690262
 20
19.80299203244492
 30
0.0
  0
LINE
  5
41B
330
1F
100
AcDbEntity
  8
0
  6
Continuous
 62
     7
370
    25
100
AcDbLine
 10
10.9442150965
 20
19.5831151911
 30
0.0
 11
10.9442150965
 21
19.5830256434
 31
0.0
  0
LINE
  5
41C
330
1F
100
AcDbEntity
  8
0
  6
Continuous
 62
     7
370
    25
100
AcDbLine
 10
10.5692150965
 20
19.8331151911
 30
0.0
 11
10.5692150965
 21
19.8330308335
 31
0.0
  0
LINE
  5
41D
330
1F
100
AcDbEntity
  8
0
  6
Continuous
 62
     7
370
    25
100
AcDbLine
 10
10.5692150965
 20
16.4961995487
 30
0.0
 11
10.5692150965
 21
16.4961151911
 31
0.0
  0
LINE
  5
41E
330
1F
100
AcDbEntity
  8
0
  6
Continuous
 62
     7
370
    25
100
AcDbLine
 10
10.5692150965
 20
19.7485284569
 30
0.0
 11
4.8817150965
 21
19.7485284569
 31
0.0
  0
LINE
  5
41F
330
1F
100
AcDbEntity
  8
0
  6
Continuous
 62
     7
370
    25
100
AcDbLine
 10
10.5692150965
 20
19.7485284569
 30
0.0
 11
10.5692150965
 21
19.745459595
 31
0.0
  0
LINE
  5
420
330
1F
100
AcDbEntity
  8
0
  6
Continuous
 62
     7
370
    25
100
AcDbLine
 10
10.5692150965
 20
19.2896151911
 30
0.0
 11
10.5379650965
 21
19.2896151911
 31
0.0
  0
LINE
  5
421
330
1F
100
AcDbEntity
  8
0
  6
Continuous
 62
     7
370
    25
100
AcDbLine
 10
4.9129650965
 20
19.2896151911
 30
0.0
 11
4.8817150965
 21
19.2896151911
 31
0.0
  0
LINE
  5
422
330
1F
100
AcDbEntity
  8
0
  6
Continuous
 62
     7
370
    25
100
AcDbLine
 10
4.8817150965
 20
19.7485284569
 30
0.0
 11
4.8817150965
 21
19.745459595
 31
0.0
  0
LINE
  5
423
330
1F
100
AcDbEntity
  8
0
  6
Continuous
 62
     7
370
    25
100
AcDbLine
 10
4.8817150965
 20
19.7627413154
 30
0.0
 11
10.5692150965
 21
19.7627413154
 31
0.0
  0
LINE
  5
424
330
1F
100
AcDbEntity
  8
0
  6
Continuous
 62
     7
370
    25
100
AcDbLine
 10
10.5692150965
 20
19.7627413154
 30
0.0
 11
10.5692150965
 21
19.7485284569
 31
0.0
  0
LINE
  5
425
330
1F
100
AcDbEntity
  8
0
  6
Continuous
 62
     7
370
    25
100
AcDbLine
 10
4.8817150965
 20
19.7627413154
 30
0.0
 11
4.8817150965
 21
19.7485284569
 31
0.0
  0
LINE
  5
426
330
1F
100
AcDbEntity
  8
0
  6
Continuous
 62
     7
370
    25
100
AcDbLine
 10
10.5692150965
 20
17.0396151911
 30
0.0
 11
10.5379650965
 21
17.0396151911
 31
0.0
  0
LINE
  5
427
330
1F
100
AcDbEntity
  8
0
  6
Continuous
 62
     7
370
    25
100
AcDbLine
 10
4.9129650965
 20
17.0396151911
 30
0.0
 11
4.8817150965
 21
17.0396151911
 31
0.0
  0
LINE
  5
428
330
1F
100
AcDbEntity
  8
0
  6
Continuous
 62
     7
370
    25
100
AcDbLine
 10
10.5692150965
 20
16.5807019253
 30
0.0
 11
4.8817150965
 21
16.5807019253
 31
0.0
  0
LINE
  5
429
330
1F
100
AcDbEntity
  8
0
  6
Continuous
 62
     7
370
    25
100
AcDbLine
 10
10.5692150965
 20
16.5837707871
 30
0.0
 11
10.5692150965
 21
16.5807019253
 31
0.0
  0
LINE
  5
42A
330
1F
100
AcDbEntity
  8
0
  6
Continuous
 62
     7
370
    25
100
AcDbLine
 10
4.8817150965
 20
16.5837707871
 30
0.0
 11
4.8817150965
 21
16.5807019253
 31
0.0
  0
LINE
  5
42B
330
1F
100
AcDbEntity
  8
0
  6
Continuous
 62
     7
370
    25
100
AcDbLine
 10
4.8817150965
 20
16.5664890668
 30
0.0
 11
10.5692150965
 21
16.5664890668
 31
0.0
  0
LINE
  5
42C
330
1F
100
AcDbEntity
  8
0
  6
Continuous
 62
     7
370
    25
100
AcDbLine
 10
10.5692150965
 20
16.5807019253
 30
0.0
 11
10.5692150965
 21
16.5664890668
 31
0.0
  0
LINE
  5
42D
330
1F
100
AcDbEntity
  8
0
  6
Continuous
 62
     7
370
    25
100
AcDbLine
 10
4.8817150965
 20
16.5807019253
 30
0.0
 11
4.8817150965
 21
16.5664890668
 31
0.0
  0
LINE
  5
42E
330
1F
100
AcDbEntity
  8
0
  6
Continuous
 62
     7
370
    25
100
AcDbLine
 10
4.8817150965
 20
19.7895044374
 30
0.0
 11
10.5692150965
 21
19.7895044374
 31
0.0
  0
LINE
  5
42F
330
1F
100
AcDbEntity
  8
0
  6
Continuous
 62
     7
370
    25
100
AcDbLine
 10
4.8817150965
 20
19.7679703601
 30
0.0
 11
10.5692150965
 21
19.7679703601
 31
0.0
  0
LINE
  5
430
330
1F
100
AcDbEntity
  8
0
  6
Continuous
 62
     7
370
    25
100
AcDbLine
 10
10.5692150965
 20
19.7895044374
 30
0.0
 11
10.5692150965
 21
19.7679703601
 31
0.0
  0
LINE
  5
431
330
1F
100
AcDbEntity
  8
0
  6
Continuous
 62
     7
370
    25
100
AcDbLine
 10
4.8817150965
 20
19.7895044374
 30
0.0
 11
4.8817150965
 21
19.7679703601
 31
0.0
  0
LINE
  5
432
330
1F
100
AcDbEntity
  8
0
  6
Continuous
 62
     7
370
    25
100
AcDbLine
 10
10.5692150965
 20
19.7628844079
 30
0.0
 11
10.5692150965
 21
19.7679703601
 31
0.0
  0
LINE
  5
433
330
1F
100
AcDbEntity
  8
0
  6
Continuous
 62
     7
370
    25
100
AcDbLine
 10
4.8817150965
 20
19.7628844079
 30
0.0
 11
4.8817150965
 21
19.7679703601
 31
0.0
  0
LINE
  5
434
330
1F
100
AcDbEntity
  8
0
  6
Continuous
 62
     7
370
    25
100
AcDbLine
 10
4.8817150965
 20
16.5612600221
 30
0.0
 11
10.5692150965
 21
16.5612600221
 31
0.0
  0
LINE
  5
435
330
1F
100
AcDbEntity
  8
0
  6
Continuous
 62
     7
370
    25
100
AcDbLine
 10
10.5692150965
 20
16.5612600221
 30
0.0
 11
10.5692150965
 21
16.5663459743
 31
0.0
  0
LINE
  5
436
330
1F
100
AcDbEntity
  8
0
  6
Continuous
 62
     7
370
    25
100
AcDbLine
 10
4.8817150965
 20
16.5612600221
 30
0.0
 11
4.8817150965
 21
16.5663459743
 31
0.0
  0
LINE
  5
437
330
1F
100
AcDbEntity
  8
0
  6
Continuous
 62
     7
370
    25
100
AcDbLine
 10
4.8817150965
 20
16.5397259448
 30
0.0
 11
10.5692150965
 21
16.5397259448
 31
0.0
  0
LINE
  5
438
330
1F
100
AcDbEntity
  8
0
  6
Continuous
 62
     7
370
    25
100
AcDbLine
 10
10.5692150965
 20
16.5612600221
 30
0.0
 11
10.5692150965
 21
16.5397259448
 31
0.0
  0
LINE
  5
439
330
1F
100
AcDbEntity
  8
0
  6
Continuous
 62
     7
370
    25
100
AcDbLine
 10
4.8817150965
 20
16.5612600221
 30
0.0
 11
4.8817150965
 21
16.5397259448
 31
0.0
  0
LINE
  5
43A
330
1F
100
AcDbEntity
  8
0
  6
Continuous
 62
     7
370
    25
100
AcDbLine
 10
4.8817150965
 20
19.8258739184
 30
0.0
 11
10.5692150965
 21
19.8258739184
 31
0.0
  0
LINE
  5
43B
330
1F
100
AcDbEntity
  8
0
  6
Continuous
 62
     7
370
    25
100
AcDbLine
 10
4.8817150965
 20
19.7947334821
 30
0.0
 11
10.5692150965
 21
19.7947334821
 31
0.0
  0
LINE
  5
43C
330
1F
100
AcDbEntity
  8
0
  6
Continuous
 62
     7
370
    25
100
AcDbLine
 10
10.5692150965
 20
19.8215282191
 30
0.0
 11
10.5692150965
 21
19.7947334821
 31
0.0
  0
LINE
  5
43D
330
1F
100
AcDbEntity
  8
0
  6
Continuous
 62
     7
370
    25
100
AcDbLine
 10
4.8817150965
 20
19.8215282191
 30
0.0
 11
4.8817150965
 21
19.7947334821
 31
0.0
  0
LINE
  5
43E
330
1F
100
AcDbEntity
  8
0
  6
Continuous
 62
     7
370
    25
100
AcDbLine
 10
10.5692150965
 20
19.7907932915
 30
0.0
 11
10.5692150965
 21
19.7947334821
 31
0.0
  0
LINE
  5
43F
330
1F
100
AcDbEntity
  8
0
  6
Continuous
 62
     7
370
    25
100
AcDbLine
 10
4.8817150965
 20
19.7907932915
 30
0.0
 11
4.8817150965
 21
19.7947334821
 31
0.0
  0
LINE
  5
440
330
1F
100
AcDbEntity
  8
0
  6
Continuous
 62
     7
370
    25
100
AcDbLine
 10
4.8817150965
 20
16.5344969001
 30
0.0
 11
10.5692150965
 21
16.5344969001
 31
0.0
  0
LINE
  5
441
330
1F
100
AcDbEntity
  8
0
  6
Continuous
 62
     7
370
    25
100
AcDbLine
 10
10.5692150965
 20
16.5344969001
 30
0.0
 11
10.5692150965
 21
16.5384370906
 31
0.0
  0
LINE
  5
442
330
1F
100
AcDbEntity
  8
0
  6
Continuous
 62
     7
370
    25
100
AcDbLine
 10
4.8817150965
 20
16.5344969001
 30
0.0
 11
4.8817150965
 21
16.5384370906
 31
0.0
  0
LINE
  5
443
330
1F
100
AcDbEntity
  8
0
  6
Continuous
 62
     7
370
    25
100
AcDbLine
 10
4.8817150965
 20
16.5033564638
 30
0.0
 11
10.5692150965
 21
16.5033564638
 31
0.0
  0
LINE
  5
444
330
1F
100
AcDbEntity
  8
0
  6
Continuous
 62
     7
370
    25
100
AcDbLine
 10
10.5692150965
 20
16.5344969001
 30
0.0
 11
10.5692150965
 21
16.507702163
 31
0.0
  0
LINE
  5
445
330
1F
100
AcDbEntity
  8
0
  6
Continuous
 62
     7
370
    25
100
AcDbLine
 10
4.8817150965
 20
16.5344969001
 30
0.0
 11
4.8817150965
 21
16.507702163
 31
0.0
  0
LINE
  5
446
330
1F
100
AcDbEntity
  8
0
  6
Continuous
 62
     7
370
    25
100
AcDbLine
 10
10.5692150965
 20
19.8311029631
 30
0.0
 11
4.8817150965
 21
19.8311029631
 31
0.0
  0
LINE
  5
447
330
1F
100
AcDbEntity
  8
0
  6
Continuous
 62
     7
370
    25
100
AcDbLine
 10
10.5692150965
 20
19.8326584135
 30
0.0
 11
10.5692150965
 21
19.8311029631
 31
0.0
  0
LINE
  5
448
330
1F
100
AcDbEntity
  8
0
  6
Continuous
 62
     7
370
    25
100
AcDbLine
 10
4.8817150965
 20
19.8326584135
 30
0.0
 11
4.8817150965
 21
19.8311029631
 31
0.0
  0
LINE
  5
449
330
1F
100
AcDbEntity
  8
0
  6
Continuous
 62
     7
370
    25
100
AcDbLine
 10
10.5692150965
 20
19.8286758828
 30
0.0
 11
10.5692150965
 21
19.8311029631
 31
0.0
  0
LINE
  5
44A
330
1F
100
AcDbEntity
  8
0
  6
Continuous
 62
     7
370
    25
100
AcDbLine
 10
4.8817150965
 20
19.8286758828
 30
0.0
 11
4.8817150965
 21
19.8311029631
 31
0.0
  0
LINE
  5
44B
330
1F
100
AcDbEntity
  8
0
  6
Continuous
 62
     7
370
    25
100
AcDbLine
 10
10.5692150965
 20
16.4981274191
 30
0.0
 11
4.8817150965
 21
16.4981274191
 31
0.0
  0
LINE
  5
44C
330
1F
100
AcDbEntity
  8
0
  6
Continuous
 62
     7
370
    25
100
AcDbLine
 10
10.5692150965
 20
16.4981274191
 30
0.0
 11
10.5692150965
 21
16.4965719687
 31
0.0
  0
LINE
  5
44D
330
1F
100
AcDbEntity
  8
0
  6
Continuous
 62
     7
370
    25
100
AcDbLine
 10
4.8817150965
 20
16.4981274191
 30
0.0
 11
4.8817150965
 21
16.4965719687
 31
0.0
  0
LINE
  5
44E
330
1F
100
AcDbEntity
  8
0
  6
Continuous
 62
     7
370
    25
100
AcDbLine
 10
10.5692150965
 20
16.4981274191
 30
0.0
 11
10.5692150965
 21
16.5005544993
 31
0.0
  0
LINE
  5
44F
330
1F
100
AcDbEntity
  8
0
  6
Continuous
 62
     7
370
    25
100
AcDbLine
 10
4.8817150965
 20
16.4981274191
 30
0.0
 11
4.8817150965
 21
16.5005544993
 31
0.0
  0
CIRCLE
  5
450
330
1F
100
AcDbEntity
  8
0
  6
Continuous
 62
     7
370
    25
100
AcDbCircle
 10
5.6942150965
 20
16.8208651911
 30
0.0
 40
0.0655000000000037
  0
CIRCLE
  5
451
330
1F
100
AcDbEntity
  8
0
  6
Continuous
 62
     7
370
    25
100
AcDbCircle
 10
5.6942150965
 20
16.8208651911
 30
0.0
 40
0.1310000000000064
  0
LINE
  5
452
330
1F
100
AcDbEntity
  8
0
  6
Continuous
 62
     7
370
    25
100
AcDbLine
 10
5.6552150965
 20
16.8433818516
 30
0.0
 11
5.6942150965
 21
16.8658985121
 31
0.0
  0
LINE
  5
453
330
1F
100
AcDbEntity
  8
0
  6
Continuous
 62
     7
370
    25
100
AcDbLine
 10
5.6552150965
 20
16.7983485306
 30
0.0
 11
5.6552150965
 21
16.8433818516
 31
0.0
  0
LINE
  5
454
330
1F
100
AcDbEntity
  8
0
  6
Continuous
 62
     7
370
    25
100
AcDbLine
 10
5.6942150965
 20
16.7758318701
 30
0.0
 11
5.6552150965
 21
16.7983485306
 31
0.0
  0
LINE
  5
455
330
1F
100
AcDbEntity
  8
0
  6
Continuous
 62
     7
370
    25
100
AcDbLine
 10
5.7332150965
 20
16.7983485306
 30
0.0
 11
5.6942150965
 21
16.7758318701
 31
0.0
  0
LINE
  5
456
330
1F
100
AcDbEntity
  8
0
  6
Continuous
 62
     7
370
    25
100
AcDbLine
 10
5.7332150965
 20
16.8433818516
 30
0.0
 11
5.7332150965
 21
16.7983485306
 31
0.0
  0
LINE
  5
457
330
1F
100
AcDbEntity
  8
0
  6
Continuous
 62
     7
370
    25
100
AcDbLine
 10
5.6942150965
 20
16.8658985121
 30
0.0
 11
5.7332150965
 21
16.8433818516
 31
0.0
  0
ARC
  5
458
330
1F
100
AcDbEntity
  8
0
  6
Continuous
 62
     7
370
    25
100
AcDbCircle
 10
5.6942150965
 20
16.8208651911
 30
0.0
 40
0.0389999999999992
100
AcDbArc
 50
60.0
 51
120.0
  0
ARC
  5
459
330
1F
100
AcDbEntity
  8
0
  6
Continuous
 62
     7
370
    25
100
AcDbCircle
 10
5.6942150965
 20
16.8208651911
 30
0.0
 40
0.0389999999999997
100
AcDbArc
 50
120.0
 51
180.0
  0
ARC
  5
45A
330
1F
100
AcDbEntity
  8
0
  6
Continuous
 62
     7
370
    25
100
AcDbCircle
 10
5.6942150965
 20
16.8208651911
 30
0.0
 40
0.0389999999999997
100
AcDbArc
 50
0.0
 51
60.0
  0
ARC
  5
45B
330
1F
100
AcDbEntity
  8
0
  6
Continuous
 62
     7
370
    25
100
AcDbCircle
 10
5.6942150965
 20
16.8208651911
 30
0.0
 40
0.0390000000000022
100
AcDbArc
 50
300.0
 51
0.0
  0
ARC
  5
45C
330
1F
100
AcDbEntity
  8
0
  6
Continuous
 62
     7
370
    25
100
AcDbCircle
 10
5.6942150965
 20
16.8208651911
 30
0.0
 40
0.0390000000000022
100
AcDbArc
 50
240.0
 51
300.0
  0
ARC
  5
45D
330
1F
100
AcDbEntity
  8
0
  6
Continuous
 62
     7
370
    25
100
AcDbCircle
 10
5.6942150965
 20
16.8208651911
 30
0.0
 40
0.0390000000000018
100
AcDbArc
 50
180.0
 51
240.0
  0
CIRCLE
  5
45E
330
1F
100
AcDbEntity
  8
0
  6
Continuous
 62
     7
370
    25
100
AcDbCircle
 10
5.6942150965
 20
19.5083651911
 30
0.0
 40
0.0655000000000037
  0
CIRCLE
  5
45F
330
1F
100
AcDbEntity
  8
0
  6
Continuous
 62
     7
370
    25
100
AcDbCircle
 10
5.6942150965
 20
19.5083651911
 30
0.0
 40
0.1310000000000073
  0
LINE
  5
460
330
1F
100
AcDbEntity
  8
0
  6
Continuous
 62
     7
370
    25
100
AcDbLine
 10
5.6942150965
 20
19.5533985121
 30
0.0
 11
5.7332150965
 21
19.5308818516
 31
0.0
  0
LINE
  5
461
330
1F
100
AcDbEntity
  8
0
  6
Continuous
 62
     7
370
    25
100
AcDbLine
 10
5.6552150965
 20
19.5308818516
 30
0.0
 11
5.6942150965
 21
19.5533985121
 31
0.0
  0
LINE
  5
462
330
1F
100
AcDbEntity
  8
0
  6
Continuous
 62
     7
370
    25
100
AcDbLine
 10
5.6552150965
 20
19.4858485306
 30
0.0
 11
5.6552150965
 21
19.5308818516
 31
0.0
  0
LINE
  5
463
330
1F
100
AcDbEntity
  8
0
  6
Continuous
 62
     7
370
    25
100
AcDbLine
 10
5.6942150965
 20
19.4633318701
 30
0.0
 11
5.6552150965
 21
19.4858485306
 31
0.0
  0
LINE
  5
464
330
1F
100
AcDbEntity
  8
0
  6
Continuous
 62
     7
370
    25
100
AcDbLine
 10
5.7332150965
 20
19.4858485306
 30
0.0
 11
5.6942150965
 21
19.4633318701
 31
0.0
  0
LINE
  5
465
330
1F
100
AcDbEntity
  8
0
  6
Continuous
 62
     7
370
    25
100
AcDbLine
 10
5.7332150965
 20
19.5308818516
 30
0.0
 11
5.7332150965
 21
19.4858485306
 31
0.0
  0
ARC
  5
466
330
1F
100
AcDbEntity
  8
0
  6
Continuous
 62
     7
370
    25
100
AcDbCircle
 10
5.6942150965
 20
19.5083651911
 30
0.0
 40
0.0390000000000018
100
AcDbArc
 50
120.0
 51
180.0
  0
ARC
  5
467
330
1F
100
AcDbEntity
  8
0
  6
Continuous
 62
     7
370
    25
100
AcDbCircle
 10
5.6942150965
 20
19.5083651911
 30
0.0
 40
0.0390000000000022
100
AcDbArc
 50
0.0
 51
60.0
  0
ARC
  5
468
330
1F
100
AcDbEntity
  8
0
  6
Continuous
 62
     7
370
    25
100
AcDbCircle
 10
5.6942150965
 20
19.5083651911
 30
0.0
 40
0.0390000000000022
100
AcDbArc
 50
60.0
 51
120.0
  0
ARC
  5
469
330
1F
100
AcDbEntity
  8
0
  6
Continuous
 62
     7
370
    25
100
AcDbCircle
 10
5.6942150965
 20
19.5083651911
 30
0.0
 40
0.0389999999999997
100
AcDbArc
 50
300.0
 51
0.0
  0
ARC
  5
46A
330
1F
100
AcDbEntity
  8
0
  6
Continuous
 62
     7
370
    25
100
AcDbCircle
 10
5.6942150965
 20
19.5083651911
 30
0.0
 40
0.0389999999999992
100
AcDbArc
 50
240.0
 51
300.0
  0
ARC
  5
46B
330
1F
100
AcDbEntity
  8
0
  6
Continuous
 62
     7
370
    25
100
AcDbCircle
 10
5.6942150965
 20
19.5083651911
 30
0.0
 40
0.0389999999999997
100
AcDbArc
 50
180.0
 51
240.0
  0
CIRCLE
  5
46C
330
1F
100
AcDbEntity
  8
0
  6
Continuous
 62
     7
370
    25
100
AcDbCircle
 10
9.7567150965
 20
16.8208651911
 30
0.0
 40
0.0655000000000037
  0
CIRCLE
  5
46D
330
1F
100
AcDbEntity
  8
0
  6
Continuous
 62
     7
370
    25
100
AcDbCircle
 10
9.7567150965
 20
16.8208651911
 30
0.0
 40
0.1310000000000073
  0
LINE
  5
46E
330
1F
100
AcDbEntity
  8
0
  6
Continuous
 62
     7
370
    25
100
AcDbLine
 10
9.7116817755
 20
16.8208651911
 30
0.0
 11
9.734198436
 21
16.8598651911
 31
0.0
  0
LINE
  5
46F
330
1F
100
AcDbEntity
  8
0
  6
Continuous
 62
     7
370
    25
100
AcDbLine
 10
9.734198436
 20
16.7818651911
 30
0.0
 11
9.7116817755
 21
16.8208651911
 31
0.0
  0
LINE
  5
470
330
1F
100
AcDbEntity
  8
0
  6
Continuous
 62
     7
370
    25
100
AcDbLine
 10
9.779231757
 20
16.7818651911
 30
0.0
 11
9.734198436
 21
16.7818651911
 31
0.0
  0
LINE
  5
471
330
1F
100
AcDbEntity
  8
0
  6
Continuous
 62
     7
370
    25
100
AcDbLine
 10
9.8017484175
 20
16.8208651911
 30
0.0
 11
9.779231757
 21
16.7818651911
 31
0.0
  0
LINE
  5
472
330
1F
100
AcDbEntity
  8
0
  6
Continuous
 62
     7
370
    25
100
AcDbLine
 10
9.734198436
 20
16.8598651911
 30
0.0
 11
9.779231757
 21
16.8598651911
 31
0.0
  0
LINE
  5
473
330
1F
100
AcDbEntity
  8
0
  6
Continuous
 62
     7
370
    25
100
AcDbLine
 10
9.779231757
 20
16.8598651911
 30
0.0
 11
9.8017484175
 21
16.8208651911
 31
0.0
  0
ARC
  5
474
330
1F
100
AcDbEntity
  8
0
  6
Continuous
 62
     7
370
    25
100
AcDbCircle
 10
9.7567150965
 20
16.8208651911
 30
0.0
 40
0.0389999999999989
100
AcDbArc
 50
30.0
 51
90.0
  0
ARC
  5
475
330
1F
100
AcDbEntity
  8
0
  6
Continuous
 62
     7
370
    25
100
AcDbCircle
 10
9.7567150965
 20
16.8208651911
 30
0.0
 40
0.0390000000000007
100
AcDbArc
 50
330.0
 51
30.0
  0
ARC
  5
476
330
1F
100
AcDbEntity
  8
0
  6
Continuous
 62
     7
370
    25
100
AcDbCircle
 10
9.7567150965
 20
16.8208651911
 30
0.0
 40
0.0390000000000015
100
AcDbArc
 50
270.0
 51
330.0
  0
ARC
  5
477
330
1F
100
AcDbEntity
  8
0
  6
Continuous
 62
     7
370
    25
100
AcDbCircle
 10
9.7567150965
 20
16.8208651911
 30
0.0
 40
0.0390000000000015
100
AcDbArc
 50
210.0
 51
270.0
  0
ARC
  5
478
330
1F
100
AcDbEntity
  8
0
  6
Continuous
 62
     7
370
    25
100
AcDbCircle
 10
9.7567150965
 20
16.8208651911
 30
0.0
 40
0.0390000000000007
100
AcDbArc
 50
150.0
 51
210.0
  0
ARC
  5
479
330
1F
100
AcDbEntity
  8
0
  6
Continuous
 62
     7
370
    25
100
AcDbCircle
 10
9.7567150965
 20
16.8208651911
 30
0.0
 40
0.0389999999999989
100
AcDbArc
 50
90.0
 51
150.0
  0
CIRCLE
  5
47A
330
1F
100
AcDbEntity
  8
0
  6
Continuous
 62
     7
370
    25
100
AcDbCircle
 10
9.7567150965
 20
19.5083651911
 30
0.0
 40
0.0655000000000037
  0
CIRCLE
  5
47B
330
1F
100
AcDbEntity
  8
0
  6
Continuous
 62
     7
370
    25
100
AcDbCircle
 10
9.7567150965
 20
19.5083651911
 30
0.0
 40
0.1310000000000073
  0
LINE
  5
47C
330
1F
100
AcDbEntity
  8
0
  6
Continuous
 62
     7
370
    25
100
AcDbLine
 10
9.7567150965
 20
19.5533985121
 30
0.0
 11
9.7957150965
 21
19.5308818516
 31
0.0
  0
LINE
  5
47D
330
1F
100
AcDbEntity
  8
0
  6
Continuous
 62
     7
370
    25
100
AcDbLine
 10
9.7177150965
 20
19.5308818516
 30
0.0
 11
9.7567150965
 21
19.5533985121
 31
0.0
  0
LINE
  5
47E
330
1F
100
AcDbEntity
  8
0
  6
Continuous
 62
     7
370
    25
100
AcDbLine
 10
9.7177150965
 20
19.4858485306
 30
0.0
 11
9.7177150965
 21
19.5308818516
 31
0.0
  0
LINE
  5
47F
330
1F
100
AcDbEntity
  8
0
  6
Continuous
 62
     7
370
    25
100
AcDbLine
 10
9.7567150965
 20
19.4633318701
 30
0.0
 11
9.7177150965
 21
19.4858485306
 31
0.0
  0
LINE
  5
480
330
1F
100
AcDbEntity
  8
0
  6
Continuous
 62
     7
370
    25
100
AcDbLine
 10
9.7957150965
 20
19.4858485306
 30
0.0
 11
9.7567150965
 21
19.4633318701
 31
0.0
  0
LINE
  5
481
330
1F
100
AcDbEntity
  8
0
  6
Continuous
 62
     7
370
    25
100
AcDbLine
 10
9.7957150965
 20
19.5308818516
 30
0.0
 11
9.7957150965
 21
19.4858485306
 31
0.0
  0
ARC
  5
482
330
1F
100
AcDbEntity
  8
0
  6
Continuous
 62
     7
370
    25
100
AcDbCircle
 10
9.7567150965
 20
19.5083651911
 30
0.0
 40
0.0389999999999997
100
AcDbArc
 50
300.0
 51
0.0
  0
ARC
  5
483
330
1F
100
AcDbEntity
  8
0
  6
Continuous
 62
     7
370
    25
100
AcDbCircle
 10
9.7567150965
 20
19.5083651911
 30
0.0
 40
0.0389999999999992
100
AcDbArc
 50
240.0
 51
300.0
  0
ARC
  5
484
330
1F
100
AcDbEntity
  8
0
  6
Continuous
 62
     7
370
    25
100
AcDbCircle
 10
9.7567150965
 20
19.5083651911
 30
0.0
 40
0.0389999999999997
100
AcDbArc
 50
180.0
 51
240.0
  0
ARC
  5
485
330
1F
100
AcDbEntity
  8
0
  6
Continuous
 62
     7
370
    25
100
AcDbCircle
 10
9.7567150965
 20
19.5083651911
 30
0.0
 40
0.0390000000000014
100
AcDbArc
 50
120.0
 51
180.0
  0
ARC
  5
486
330
1F
100
AcDbEntity
  8
0
  6
Continuous
 62
     7
370
    25
100
AcDbCircle
 10
9.7567150965
 20
19.5083651911
 30
0.0
 40
0.0390000000000022
100
AcDbArc
 50
60.0
 51
120.0
  0
ARC
  5
487
330
1F
100
AcDbEntity
  8
0
  6
Continuous
 62
     7
370
    25
100
AcDbCircle
 10
9.7567150965
 20
19.5083651911
 30
0.0
 40
0.0390000000000022
100
AcDbArc
 50
0.0
 51
60.0
  0
LINE
  5
488
330
1F
100
AcDbEntity
  8
0
  6
Continuous
 62
     7
370
    25
100
AcDbLine
 10
5.639281768
 20
19.6546402468
 30
0.0
 11
4.9129650965
 21
19.6546402468
 31
0.0
  0
SPLINE
  5
489
330
1F
100
AcDbEntity
  8
0
  6
Continuous
 62
     7
370
    25
100
AcDbSpline
210
0.0
220
0.0
230
1.0
 70
     8
 71
     3
 72
    25
 73
    21
 74
     0
 42
0.00000001
 43
0.00000001
 40
0.0
 40
0.0
 40
0.0
 40
0.0
 40
0.0346061442727012
 40
0.092832019254592
 40
0.1531681224056423
 40
0.2156083139591543
 40
0.279131587974693
 40
0.3422743106017057
 40
0.4039424688612885
 40
0.463855471192228
 40
0.50007203598711
 40
0.5583995817571278
 40
0.6167064729882649
 40
0.6756091181101017
 40
0.7359492760034065
 40
0.79796908831164
 40
0.8612734678022366
 40
0.924716961204108
 40
0.9867760677474594
 40
1.0
 40
1.0
 40
1.0
 40
1.0
 10
5.749148425026995
 20
19.65464024678712
 30
0.0
 10
5.758410944020964
 20
19.65053146588735
 30
0.0
 10
5.783257928845923
 20
19.63950953797205
 30
0.0
 10
5.817005393941828
 20
19.60929873352105
 30
0.0
 10
5.843463551911898
 20
19.56394010600648
 30
0.0
 10
5.853572741704848
 20
19.51090337595884
 30
0.0
 10
5.845055614318562
 20
19.45664502353299
 30
0.0
 10
5.818337149861253
 20
19.40830416194405
 30
0.0
 10
5.777119199215906
 20
19.37228097091501
 30
0.0
 10
5.733162314511457
 20
19.35501453403408
 30
0.0
 10
5.68773601638543
 20
19.35034365307043
 30
0.0
 10
5.642519580992491
 20
19.35787255536721
 30
0.0
 10
5.596583370151334
 20
19.38275523365222
 30
0.0
 10
5.561066360555481
 20
19.42121494430436
 30
0.0
 10
5.539766709330395
 20
19.46964582790602
 30
0.0
 10
5.535569113615105
 20
19.52329131518978
 30
0.0
 10
5.549879828568012
 20
19.57613277370892
 30
0.0
 10
5.581602666811113
 20
19.6211643104654
 30
0.0
 10
5.615282446474118
 20
19.64498248931292
 30
0.0
 10
5.635696000734336
 20
19.65319726970817
 30
0.0
 10
5.639281768031834
 20
19.65464024678712
 30
0.0
  0
LINE
  5
48A
330
1F
100
AcDbEntity
  8
0
  6
Continuous
 62
     7
370
    25
100
AcDbLine
 10
9.701781768
 20
19.6546402468
 30
0.0
 11
5.749148425
 21
19.6546402468
 31
0.0
  0
SPLINE
  5
48B
330
1F
100
AcDbEntity
  8
0
  6
Continuous
 62
     7
370
    25
100
AcDbSpline
210
0.0
220
0.0
230
1.0
 70
     8
 71
     3
 72
    25
 73
    21
 74
     0
 42
0.00000001
 43
0.00000001
 40
0.0
 40
0.0
 40
0.0
 40
0.0
 40
0.0346061442727009
 40
0.0928320192545935
 40
0.1531681224056413
 40
0.2156083139591533
 40
0.2791315879746916
 40
0.3422743106017043
 40
0.4039424688612852
 40
0.4638554711922246
 40
0.5000720359871067
 40
0.5583995817571245
 40
0.6167064729882634
 40
0.6756091181100997
 40
0.7359492760034047
 40
0.7979690883116379
 40
0.8612734678022338
 40
0.9247169612041053
 40
0.9867760677474571
 40
1.0
 40
1.0
 40
1.0
 40
1.0
 10
9.811648425026982
 20
19.65464024678712
 30
0.0
 10
9.820910944020952
 20
19.65053146588735
 30
0.0
 10
9.84575792884591
 20
19.63950953797205
 30
0.0
 10
9.879505393941816
 20
19.60929873352105
 30
0.0
 10
9.905963551911883
 20
19.56394010600648
 30
0.0
 10
9.916072741704832
 20
19.51090337595884
 30
0.0
 10
9.907555614318548
 20
19.45664502353299
 30
0.0
 10
9.88083714986124
 20
19.40830416194405
 30
0.0
 10
9.839619199215896
 20
19.37228097091501
 30
0.0
 10
9.795662314511445
 20
19.35501453403408
 30
0.0
 10
9.75023601638542
 20
19.35034365307043
 30
0.0
 10
9.705019580992479
 20
19.35787255536721
 30
0.0
 10
9.659083370151322
 20
19.38275523365222
 30
0.0
 10
9.623566360555468
 20
19.42121494430436
 30
0.0
 10
9.602266709330381
 20
19.46964582790602
 30
0.0
 10
9.598069113615095
 20
19.52329131518978
 30
0.0
 10
9.612379828567997
 20
19.57613277370892
 30
0.0
 10
9.644102666811099
 20
19.6211643104654
 30
0.0
 10
9.677782446474104
 20
19.64498248931293
 30
0.0
 10
9.698196000734322
 20
19.65319726970817
 30
0.0
 10
9.701781768031823
 20
19.65464024678712
 30
0.0
  0
LINE
  5
48C
330
1F
100
AcDbEntity
  8
0
  6
Continuous
 62
     7
370
    25
100
AcDbLine
 10
10.5379650965
 20
19.6546402468
 30
0.0
 11
9.811648425
 21
19.6546402468
 31
0.0
  0
LINE
  5
48D
330
1F
100
AcDbEntity
  8
0
  6
Continuous
 62
     7
370
    25
100
AcDbLine
 10
10.5379650965
 20
16.6745901354
 30
0.0
 11
9.811648425
 21
16.6745901354
 31
0.0
  0
SPLINE
  5
48E
330
1F
100
AcDbEntity
  8
0
  6
Continuous
 62
     7
370
    25
100
AcDbSpline
210
0.0
220
0.0
230
1.0
 70
     8
 71
     3
 72
    24
 73
    20
 74
     0
 42
0.00000001
 43
0.00000001
 40
0.0
 40
0.0
 40
0.0
 40
0.0
 40
0.0520497718895187
 40
0.1108491825483457
 40
0.1718830833304019
 40
0.2348025810628518
 40
0.2983697279903096
 40
0.3611530707574832
 40
0.4222867493070905
 40
0.48173335053451
 40
0.540056518715646
 40
0.598080935006828
 40
0.6566562334321917
 40
0.7164963915639824
 40
0.7779964128855934
 40
0.8409890485259925
 40
0.9045571063090351
 40
0.967216151909232
 40
1.0
 40
1.0
 40
1.0
 40
1.0
 10
9.701781768031816
 20
16.67459013538618
 30
0.0
 10
9.687981653120824
 20
16.68117649696391
 30
0.0
 10
9.658591870967628
 20
16.69520331726217
 30
0.0
 10
9.624435757524429
 20
16.73272164802365
 30
0.0
 10
9.602515806716484
 20
16.78081622801954
 30
0.0
 10
9.597930644809013
 20
16.83498760071106
 30
0.0
 10
9.612169331091495
 20
16.88820701364011
 30
0.0
 10
9.64380344619752
 20
16.93339575516107
 30
0.0
 10
9.688379240005425
 20
16.96476360575522
 30
0.0
 10
9.739946539878655
 20
16.97916536585846
 30
0.0
 10
9.792518883728013
 20
16.97589144564071
 30
0.0
 10
9.840741523995336
 20
16.95594418034279
 30
0.0
 10
9.879952693427033
 20
16.92150915960521
 30
0.0
 10
9.906129180125896
 20
16.87580251329253
 30
0.0
 10
9.916004097689408
 20
16.82322467097379
 30
0.0
 10
9.907612390093309
 20
16.76936763214807
 30
0.0
 10
9.881066049286224
 20
16.72125274367318
 30
0.0
 10
9.845995169982496
 20
16.68971388262691
 30
0.0
 10
9.820429888654527
 20
16.67845683764511
 30
0.0
 10
9.811648425026993
 20
16.67459013538618
 30
0.0
  0
LINE
  5
48F
330
1F
100
AcDbEntity
  8
0
  6
Continuous
 62
     7
370
    25
100
AcDbLine
 10
9.701781768
 20
16.6745901354
 30
0.0
 11
5.749148425
 21
16.6745901354
 31
0.0
  0
SPLINE
  5
490
330
1F
100
AcDbEntity
  8
0
  6
Continuous
 62
     7
370
    25
100
AcDbSpline
210
0.0
220
0.0
230
1.0
 70
     8
 71
     3
 72
    24
 73
    20
 74
     0
 42
0.00000001
 43
0.00000001
 40
0.0
 40
0.0
 40
0.0
 40
0.0
 40
0.0520497718895184
 40
0.1108491825483437
 40
0.1718830833304
 40
0.2348025810628501
 40
0.2983697279903079
 40
0.3611530707574828
 40
0.4222867493070881
 40
0.4817333505345077
 40
0.5400565187156436
 40
0.5980809350068259
 40
0.6566562334321915
 40
0.7164963915639823
 40
0.7779964128855927
 40
0.8409890485259919
 40
0.9045571063090345
 40
0.9672161519092297
 40
1.0
 40
1.0
 40
1.0
 40
1.0
 10
5.639281768031837
 20
16.67459013538618
 30
0.0
 10
5.625481653120846
 20
16.68117649696391
 30
0.0
 10
5.596091870967648
 20
16.69520331726217
 30
0.0
 10
5.56193575752445
 20
16.73272164802365
 30
0.0
 10
5.540015806716509
 20
16.78081622801954
 30
0.0
 10
5.535430644809034
 20
16.83498760071106
 30
0.0
 10
5.549669331091515
 20
16.88820701364011
 30
0.0
 10
5.581303446197541
 20
16.93339575516107
 30
0.0
 10
5.625879240005445
 20
16.96476360575522
 30
0.0
 10
5.677446539878678
 20
16.97916536585846
 30
0.0
 10
5.730018883728033
 20
16.97589144564071
 30
0.0
 10
5.778241523995356
 20
16.95594418034279
 30
0.0
 10
5.817452693427054
 20
16.92150915960521
 30
0.0
 10
5.84362918012592
 20
16.87580251329253
 30
0.0
 10
5.853504097689428
 20
16.82322467097379
 30
0.0
 10
5.84511239009333
 20
16.76936763214806
 30
0.0
 10
5.818566049286245
 20
16.72125274367318
 30
0.0
 10
5.783495169982517
 20
16.68971388262691
 30
0.0
 10
5.757929888654548
 20
16.67845683764511
 30
0.0
 10
5.749148425027013
 20
16.67459013538618
 30
0.0
  0
LINE
  5
491
330
1F
100
AcDbEntity
  8
0
  6
Continuous
 62
     7
370
    25
100
AcDbLine
 10
5.639281768
 20
16.6745901354
 30
0.0
 11
4.9129650965
 21
16.6745901354
 31
0.0
  0
LINE
  5
492
330
1F
100
AcDbEntity
  8
0
  6
Continuous
 62
     7
370
    25
100
AcDbLine
 10
10.5379650965
 20
19.6546402468
 30
0.0
 11
10.5379650965
 21
16.6745901354
 31
0.0
  0
LINE
  5
493
330
1F
100
AcDbEntity
  8
0
  6
Continuous
 62
     7
370
    25
100
AcDbLine
 10
4.9129650965
 20
19.6546402468
 30
0.0
 11
4.9129650965
 21
16.6745901354
 31
0.0
  0
LINE
  5
494
330
1F
100
AcDbEntity
  8
0
  6
Continuous
 62
     7
370
    25
100
AcDbLine
 10
10.5379650965
 20
19.7428516313
 30
0.0
 11
4.9129650965
 21
19.7428516313
 31
0.0
  0
SPLINE
  5
495
330
1F
100
AcDbEntity
  8
0
  6
Continuous
 62
     7
370
    25
100
AcDbSpline
210
0.0
220
0.0
230
1.0
 70
     8
 71
     3
 72
    11
 73
     7
 74
     0
 42
0.00000001
 43
0.00000001
 40
0.0
 40
0.0
 40
0.0
 40
0.0
 40
0.4156458974317266
 40
0.6411742584624573
 40
0.8737284373134697
 40
1.0
 40
1.0
 40
1.0
 40
1.0
 10
9.701781768031823
 20
19.65464024678712
 30
0.0
 10
9.71681919069376
 20
19.65890550413042
 30
0.0
 10
9.74001587899029
 20
19.66548507879034
 30
0.0
 10
9.772974690768999
 20
19.66438528072145
 30
0.0
 10
9.794560411768348
 20
19.6605403812405
 30
0.0
 10
9.807200389305928
 20
19.65617606071765
 30
0.0
 10
9.811648425026982
 20
19.65464024678712
 30
0.0
  0
SPLINE
  5
496
330
1F
100
AcDbEntity
  8
0
  6
Continuous
 62
     7
370
    25
100
AcDbSpline
210
0.0
220
0.0
230
1.0
 70
     8
 71
     3
 72
    11
 73
     7
 74
     0
 42
0.00000001
 43
0.00000001
 40
0.0
 40
0.0
 40
0.0
 40
0.0
 40
0.4156458974317395
 40
0.641174258462469
 40
0.8737284373134748
 40
0.9999999999999999
 40
0.9999999999999999
 40
0.9999999999999999
 40
0.9999999999999999
 10
5.639281768031834
 20
19.65464024678712
 30
0.0
 10
5.654319190693773
 20
19.65890550413042
 30
0.0
 10
5.677515878990302
 20
19.66548507879034
 30
0.0
 10
5.710474690769011
 20
19.66438528072145
 30
0.0
 10
5.732060411768362
 20
19.6605403812405
 30
0.0
 10
5.744700389305941
 20
19.65617606071765
 30
0.0
 10
5.749148425026995
 20
19.65464024678712
 30
0.0
  0
LINE
  5
497
330
1F
100
AcDbEntity
  8
0
  6
Continuous
 62
     7
370
    25
100
AcDbLine
 10
10.5379650965
 20
19.7428516313
 30
0.0
 11
10.5379650965
 21
19.6546402468
 31
0.0
  0
LINE
  5
498
330
1F
100
AcDbEntity
  8
0
  6
Continuous
 62
     7
370
    25
100
AcDbLine
 10
4.9129650965
 20
19.7428516313
 30
0.0
 11
4.9129650965
 21
19.6546402468
 31
0.0
  0
LINE
  5
499
330
1F
100
AcDbEntity
  8
0
  6
Continuous
 62
     7
370
    25
100
AcDbLine
 10
10.5379650965
 20
16.5863787508
 30
0.0
 11
4.9129650965
 21
16.5863787508
 31
0.0
  0
SPLINE
  5
49A
330
1F
100
AcDbEntity
  8
0
  6
Continuous
 62
     7
370
    25
100
AcDbSpline
210
0.0
220
0.0
230
1.0
 70
     8
 71
     3
 72
    11
 73
     7
 74
     0
 42
0.00000001
 43
0.00000001
 40
0.0
 40
0.0
 40
0.0
 40
0.0
 40
0.415645897431722
 40
0.6411742584624152
 40
0.8737284373133892
 40
1.0
 40
1.0
 40
1.0
 40
1.0
 10
9.811648425026993
 20
16.67459013538618
 30
0.0
 10
9.796611002365053
 20
16.67032487804287
 30
0.0
 10
9.773414314068523
 20
16.66374530338295
 30
0.0
 10
9.74045550228981
 20
16.66484510145184
 30
0.0
 10
9.718869781290456
 20
16.66869000093279
 30
0.0
 10
9.706229803752874
 20
16.67305432145564
 30
0.0
 10
9.701781768031816
 20
16.67459013538618
 30
0.0
  0
SPLINE
  5
49B
330
1F
100
AcDbEntity
  8
0
  6
Continuous
 62
     7
370
    25
100
AcDbSpline
210
0.0
220
0.0
230
1.0
 70
     8
 71
     3
 72
    11
 73
     7
 74
     0
 42
0.00000001
 43
0.00000001
 40
0.0
 40
0.0
 40
0.0
 40
0.0
 40
0.4156458974317213
 40
0.6411742584624118
 40
0.873728437313388
 40
1.0
 40
1.0
 40
1.0
 40
1.0
 10
5.749148425027013
 20
16.67459013538618
 30
0.0
 10
5.734111002365072
 20
16.67032487804287
 30
0.0
 10
5.710914314068543
 20
16.66374530338295
 30
0.0
 10
5.677955502289831
 20
16.66484510145184
 30
0.0
 10
5.656369781290477
 20
16.66869000093279
 30
0.0
 10
5.643729803752894
 20
16.67305432145564
 30
0.0
 10
5.639281768031837
 20
16.67459013538618
 30
0.0
  0
LINE
  5
49C
330
1F
100
AcDbEntity
  8
0
  6
Continuous
 62
     7
370
    25
100
AcDbLine
 10
10.5379650965
 20
16.6745901354
 30
0.0
 11
10.5379650965
 21
16.5863787508
 31
0.0
  0
LINE
  5
49D
330
1F
100
AcDbEntity
  8
0
  6
Continuous
 62
     7
370
    25
100
AcDbLine
 10
4.9129650965
 20
16.6745901354
 30
0.0
 11
4.9129650965
 21
16.5863787508
 31
0.0
  0
LINE
  5
49E
330
1F
100
AcDbEntity
  8
0
  6
Continuous
 62
     7
370
    25
100
AcDbLine
 10
4.4969650965
 20
17.0906151918
 30
0.0
 11
4.4969650965
 21
17.9886151911
 31
0.0
  0
LINE
  5
49F
330
1F
100
AcDbEntity
  8
0
  6
Continuous
 62
     7
370
    25
100
AcDbLine
 10
4.4969650965
 20
18.3406151911
 30
0.0
 11
4.4969650965
 21
19.2386151903
 31
0.0
  0
LINE
  5
4A0
330
1F
100
AcDbEntity
  8
0
  6
Continuous
 62
     7
370
    25
100
AcDbLine
 10
10.9539650965
 20
17.9886151911
 30
0.0
 11
10.9539650965
 21
17.0906151918
 31
0.0
  0
LINE
  5
4A1
330
1F
100
AcDbEntity
  8
0
  6
Continuous
 62
     7
370
    25
100
AcDbLine
 10
10.9539650965
 20
19.2386151903
 30
0.0
 11
10.9539650965
 21
18.3406151911
 31
0.0
  0
SPLINE
  5
4A2
330
1F
100
AcDbEntity
  8
0
  6
Continuous
 62
     7
370
    25
100
AcDbSpline
210
0.0
220
0.0
230
1.0
 70
     8
 71
     3
 72
    17
 73
    13
 74
     0
 42
0.00000001
 43
0.00000001
 40
0.0
 40
0.0
 40
0.0
 40
0.0
 40
0.0539453242377656
 40
0.1600187060058247
 40
0.266105401654916
 40
0.3678564578372233
 40
0.4696270128367537
 40
0.5878316634627505
 40
0.7060697005202831
 40
0.7576325464187809
 40
0.8791192085973545
 40
1.0
 40
1.0
 40
1.0
 40
1.0
 10
4.756715096529373
 20
19.74076660681018
 30
0.0
 10
4.749798290385812
 20
19.74060023595484
 30
0.0
 10
4.729280879758949
 20
19.74010672795642
 30
0.0
 10
4.695515768584293
 20
19.73441949686702
 30
0.0
 10
4.657442344023249
 20
19.72204454343681
 30
0.0
 10
4.622681240753205
 20
19.70419832154753
 30
0.0
 10
4.590121317920609
 20
19.68082127409105
 30
0.0
 10
4.560894005050219
 20
19.65128531548255
 30
0.0
 10
4.541008856918113
 20
19.62264973805502
 30
0.0
 10
4.525080020288951
 20
19.59180769457168
 30
0.0
 10
4.512815030231889
 20
19.55899151046868
 30
0.0
 10
4.509195259176592
 20
19.53077474431284
 30
0.0
 10
4.507389898005383
 20
19.51670162940676
 30
0.0
  0
LINE
  5
4A3
330
1F
100
AcDbEntity
  8
0
  6
Continuous
 62
     7
370
    25
100
AcDbLine
 10
4.7567150965
 20
19.8331151911
 30
0.0
 11
4.7567150965
 21
19.8330308335
 31
0.0
  0
LINE
  5
4A4
330
1F
100
AcDbEntity
  8
0
  6
Continuous
 62
     7
370
    25
100
AcDbLine
 10
4.7567150965
 20
16.4961995487
 30
0.0
 11
4.7567150965
 21
16.4961151911
 31
0.0
  0
SPLINE
  5
4A5
330
1F
100
AcDbEntity
  8
0
  6
Continuous
 62
     7
370
    25
100
AcDbSpline
210
0.0
220
0.0
230
1.0
 70
     8
 71
     3
 72
    17
 73
    13
 74
     0
 42
0.00000001
 43
0.00000001
 40
0.0
 40
0.0
 40
0.0
 40
0.0
 40
0.053945324237765
 40
0.1600187060058227
 40
0.2661054016549128
 40
0.3678564578372176
 40
0.4696270128367477
 40
0.5878316634627431
 40
0.7060697005202742
 40
0.7576325464187713
 40
0.8791192085973435
 40
1.0
 40
1.0
 40
1.0
 40
1.0
 10
10.69421509652937
 20
16.58846377536313
 30
0.0
 10
10.70113190267293
 20
16.58863014621847
 30
0.0
 10
10.72164931329979
 20
16.58912365421689
 30
0.0
 10
10.75541442447445
 20
16.59481088530629
 30
0.0
 10
10.79348784903549
 20
16.60718583873651
 30
0.0
 10
10.82824895230554
 20
16.62503206062578
 30
0.0
 10
10.86080887513813
 20
16.64840910808226
 30
0.0
 10
10.89003618800852
 20
16.67794506669076
 30
0.0
 10
10.90992133614063
 20
16.70658064411829
 30
0.0
 10
10.92585017276979
 20
16.73742268760163
 30
0.0
 10
10.93811516282685
 20
16.77023887170463
 30
0.0
 10
10.94173493388215
 20
16.79845563786047
 30
0.0
 10
10.94354029505336
 20
16.81252875276655
 30
0.0
  0
LINE
  5
4A6
330
1F
100
AcDbEntity
  8
0
  6
Continuous
 62
     7
370
    25
100
AcDbLine
 10
10.6942150965
 20
16.4961151911
 30
0.0
 11
10.6942150965
 21
16.4961995487
 31
0.0
  0
LINE
  5
4A7
330
1F
100
AcDbEntity
  8
0
  6
Continuous
 62
     7
370
    25
100
AcDbLine
 10
10.6942150965
 20
19.8330308335
 30
0.0
 11
10.6942150965
 21
19.8331151911
 31
0.0
  0
DIMENSION
  5
4A8
330
1F
100
AcDbEntity
  8
SLD-0
100
AcDbDimension
  2
_D_3
 10
3.306085526
 20
16.4964810702
 30
0.0
 11
3.306085526
 21
18.1646151911
 31
0.0
 70
   160
  1
<>
 71
     2
 42
-1.0
  3
SLDDIMSTYLE1
100
AcDbAlignedDimension
 13
4.8817150965
 23
19.832749312
 33
0.0
 14
4.8817150965
 24
16.4964810702
 34
0.0
 50
90.0
100
AcDbRotatedDimension
  0
DIMENSION
  5
4BD
330
1F
100
AcDbEntity
  8
SLD-0
100
AcDbDimension
  2
_D_4
 10
10.9442150965
 20
21.028201022
 30
0.0
 11
7.7254650965
 21
21.028201022
 31
0.0
 70
   160
  1
<>
 71
     2
 42
-1.0
  3
SLDDIMSTYLE1
100
AcDbAlignedDimension
 13
4.5067150965
 23
19.5400766178
 33
0.0
 14
10.9442150965
 24
19.5400766178
 34
0.0
100
AcDbRotatedDimension
  0
LINE
  5
4D1
330
1F
100
AcDbEntity
  8
0
  6
Continuous
 62
     7
370
    25
100
AcDbLine
 10
18.490392562
 20
10.3865702479
 30
0.0
 11
18.490392562
 21
7.4465702479
 31
0.0
  0
LINE
  5
4D2
330
1F
100
AcDbEntity
  8
0
  6
Continuous
 62
     7
370
    25
100
AcDbLine
 10
18.460392562
 20
7.4165702479
 30
0.0
 11
18.490392562
 21
7.4465702479
 31
0.0
  0
LINE
  5
4D3
330
1F
100
AcDbEntity
  8
0
  6
Continuous
 62
     7
370
    25
100
AcDbLine
 10
18.460392562
 20
7.4165702479
 30
0.0
 11
18.460392562
 21
10.4165702479
 31
0.0
  0
LINE
  5
4D4
330
1F
100
AcDbEntity
  8
0
  6
Continuous
 62
     7
370
    25
100
AcDbLine
 10
18.490392562
 20
10.3865702479
 30
0.0
 11
18.460392562
 21
10.4165702479
 31
0.0
  0
LINE
  5
4D5
330
1F
100
AcDbEntity
  8
0
  6
Continuous
 62
     7
370
    25
100
AcDbLine
 10
23.460392562
 20
7.4165702479
 30
0.0
 11
18.460392562
 21
7.4165702479
 31
0.0
  0
LINE
  5
4D6
330
1F
100
AcDbEntity
  8
0
  6
Continuous
 62
     7
370
    25
100
AcDbLine
 10
18.490392562
 20
7.4465702479
 30
0.0
 11
23.430392562
 21
7.4465702479
 31
0.0
  0
LINE
  5
4D7
330
1F
100
AcDbEntity
  8
0
  6
Continuous
 62
     7
370
    25
100
AcDbLine
 10
23.460392562
 20
7.4165702479
 30
0.0
 11
23.430392562
 21
7.4465702479
 31
0.0
  0
LINE
  5
4D8
330
1F
100
AcDbEntity
  8
0
  6
Continuous
 62
     7
370
    25
100
AcDbLine
 10
23.430392562
 20
10.3865702479
 30
0.0
 11
18.490392562
 21
10.3865702479
 31
0.0
  0
LINE
  5
4D9
330
1F
100
AcDbEntity
  8
0
  6
Continuous
 62
     7
370
    25
100
AcDbLine
 10
18.460392562
 20
10.4165702479
 30
0.0
 11
23.460392562
 21
10.4165702479
 31
0.0
  0
LINE
  5
4DA
330
1F
100
AcDbEntity
  8
0
  6
Continuous
 62
     7
370
    25
100
AcDbLine
 10
23.430392562
 20
10.3865702479
 30
0.0
 11
23.460392562
 21
10.4165702479
 31
0.0
  0
LINE
  5
4DB
330
1F
100
AcDbEntity
  8
0
  6
Continuous
 62
     7
370
    25
100
AcDbLine
 10
23.430392562
 20
7.4465702479
 30
0.0
 11
23.430392562
 21
10.3865702479
 31
0.0
  0
LINE
  5
4DC
330
1F
100
AcDbEntity
  8
0
  6
Continuous
 62
     7
370
    25
100
AcDbLine
 10
23.460392562
 20
10.4165702479
 30
0.0
 11
23.460392562
 21
7.4165702479
 31
0.0
  0
LINE
  5
4DD
330
1F
100
AcDbEntity
  8
0
  6
Continuous
 62
     7
370
    25
100
AcDbLine
 10
22.6235342225
 20
8.8775702479
 30
0.0
 11
22.5785009015
 21
8.8775702479
 31
0.0
  0
LINE
  5
4DE
330
1F
100
AcDbEntity
  8
0
  6
Continuous
 62
     7
370
    25
100
AcDbLine
 10
22.646050883
 20
8.9165702479
 30
0.0
 11
22.6235342225
 21
8.8775702479
 31
0.0
  0
LINE
  5
4DF
330
1F
100
AcDbEntity
  8
0
  6
Continuous
 62
     7
370
    25
100
AcDbLine
 10
22.6235342225
 20
8.9555702479
 30
0.0
 11
22.646050883
 21
8.9165702479
 31
0.0
  0
LINE
  5
4E0
330
1F
100
AcDbEntity
  8
0
  6
Continuous
 62
     7
370
    25
100
AcDbLine
 10
22.5785009015
 20
8.9555702479
 30
0.0
 11
22.6235342225
 21
8.9555702479
 31
0.0
  0
LINE
  5
4E1
330
1F
100
AcDbEntity
  8
0
  6
Continuous
 62
     7
370
    25
100
AcDbLine
 10
22.555984241
 20
8.9165702479
 30
0.0
 11
22.5785009015
 21
8.9555702479
 31
0.0
  0
LINE
  5
4E2
330
1F
100
AcDbEntity
  8
0
  6
Continuous
 62
     7
370
    25
100
AcDbLine
 10
22.5785009015
 20
8.8775702479
 30
0.0
 11
22.555984241
 21
8.9165702479
 31
0.0
  0
CIRCLE
  5
4E3
330
1F
100
AcDbEntity
  8
0
  6
Continuous
 62
     7
370
    25
100
AcDbCircle
 10
22.601017562
 20
8.9165702479
 30
0.0
 40
0.1534999999999993
  0
ARC
  5
4E4
330
1F
100
AcDbEntity
  8
0
  6
Continuous
 62
     7
370
    25
100
AcDbCircle
 10
22.601017562
 20
8.9165702479
 30
0.0
 40
0.0389999999999992
100
AcDbArc
 50
150.0
 51
210.0
  0
ARC
  5
4E5
330
1F
100
AcDbEntity
  8
0
  6
Continuous
 62
     7
370
    25
100
AcDbCircle
 10
22.601017562
 20
8.9165702479
 30
0.0
 40
0.0389999999999992
100
AcDbArc
 50
210.0
 51
270.0
  0
ARC
  5
4E6
330
1F
100
AcDbEntity
  8
0
  6
Continuous
 62
     7
370
    25
100
AcDbCircle
 10
22.601017562
 20
8.9165702479
 30
0.0
 40
0.0390000000000033
100
AcDbArc
 50
90.0
 51
150.0
  0
ARC
  5
4E7
330
1F
100
AcDbEntity
  8
0
  6
Continuous
 62
     7
370
    25
100
AcDbCircle
 10
22.601017562
 20
8.9165702479
 30
0.0
 40
0.0390000000000036
100
AcDbArc
 50
30.0
 51
90.0
  0
ARC
  5
4E8
330
1F
100
AcDbEntity
  8
0
  6
Continuous
 62
     7
370
    25
100
AcDbCircle
 10
22.601017562
 20
8.9165702479
 30
0.0
 40
0.0390000000000036
100
AcDbArc
 50
330.0
 51
30.0
  0
ARC
  5
4E9
330
1F
100
AcDbEntity
  8
0
  6
Continuous
 62
     7
370
    25
100
AcDbCircle
 10
22.601017562
 20
8.9165702479
 30
0.0
 40
0.0389999999999979
100
AcDbArc
 50
270.0
 51
330.0
  0
LINE
  5
4EA
330
1F
100
AcDbEntity
  8
0
  6
Continuous
 62
     7
370
    25
100
AcDbLine
 10
19.280767562
 20
8.8940535874
 30
0.0
 11
19.280767562
 21
8.9390869084
 31
0.0
  0
LINE
  5
4EB
330
1F
100
AcDbEntity
  8
0
  6
Continuous
 62
     7
370
    25
100
AcDbLine
 10
19.319767562
 20
8.8715369269
 30
0.0
 11
19.280767562
 21
8.8940535874
 31
0.0
  0
LINE
  5
4EC
330
1F
100
AcDbEntity
  8
0
  6
Continuous
 62
     7
370
    25
100
AcDbLine
 10
19.358767562
 20
8.8940535874
 30
0.0
 11
19.319767562
 21
8.8715369269
 31
0.0
  0
LINE
  5
4ED
330
1F
100
AcDbEntity
  8
0
  6
Continuous
 62
     7
370
    25
100
AcDbLine
 10
19.358767562
 20
8.9390869084
 30
0.0
 11
19.358767562
 21
8.8940535874
 31
0.0
  0
LINE
  5
4EE
330
1F
100
AcDbEntity
  8
0
  6
Continuous
 62
     7
370
    25
100
AcDbLine
 10
19.319767562
 20
8.9616035689
 30
0.0
 11
19.358767562
 21
8.9390869084
 31
0.0
  0
LINE
  5
4EF
330
1F
100
AcDbEntity
  8
0
  6
Continuous
 62
     7
370
    25
100
AcDbLine
 10
19.280767562
 20
8.9390869084
 30
0.0
 11
19.319767562
 21
8.9616035689
 31
0.0
  0
CIRCLE
  5
4F0
330
1F
100
AcDbEntity
  8
0
  6
Continuous
 62
     7
370
    25
100
AcDbCircle
 10
19.319767562
 20
8.9165702479
 30
0.0
 40
0.1534999999999975
  0
ARC
  5
4F1
330
1F
100
AcDbEntity
  8
0
  6
Continuous
 62
     7
370
    25
100
AcDbCircle
 10
19.319767562
 20
8.9165702479
 30
0.0
 40
0.0389999999999944
100
AcDbArc
 50
180.0
 51
240.0
  0
ARC
  5
4F2
330
1F
100
AcDbEntity
  8
0
  6
Continuous
 62
     7
370
    25
100
AcDbCircle
 10
19.319767562
 20
8.9165702479
 30
0.0
 40
0.0389999999999992
100
AcDbArc
 50
120.0
 51
180.0
  0
ARC
  5
4F3
330
1F
100
AcDbEntity
  8
0
  6
Continuous
 62
     7
370
    25
100
AcDbCircle
 10
19.319767562
 20
8.9165702479
 30
0.0
 40
0.0389999999999992
100
AcDbArc
 50
60.0
 51
120.0
  0
ARC
  5
4F4
330
1F
100
AcDbEntity
  8
0
  6
Continuous
 62
     7
370
    25
100
AcDbCircle
 10
19.319767562
 20
8.9165702479
 30
0.0
 40
0.039000000000005
100
AcDbArc
 50
0.0
 51
60.0
  0
ARC
  5
4F5
330
1F
100
AcDbEntity
  8
0
  6
Continuous
 62
     7
370
    25
100
AcDbCircle
 10
19.319767562
 20
8.9165702479
 30
0.0
 40
0.039000000000005
100
AcDbArc
 50
300.0
 51
0.0
  0
ARC
  5
4F6
330
1F
100
AcDbEntity
  8
0
  6
Continuous
 62
     7
370
    25
100
AcDbCircle
 10
19.319767562
 20
8.9165702479
 30
0.0
 40
0.0390000000000045
100
AcDbArc
 50
240.0
 51
300.0
  0
LINE
  5
4F7
330
1F
100
AcDbEntity
  8
0
  6
Continuous
 62
     7
370
    25
100
AcDbLine
 10
20.4475877746
 20
9.0290702479
 30
0.0
 11
20.085392562
 21
9.0290702479
 31
0.0
  0
LINE
  5
4F8
330
1F
100
AcDbEntity
  8
0
  6
Continuous
 62
     7
370
    25
100
AcDbLine
 10
20.085392562
 20
9.0290702479
 30
0.0
 11
20.085392562
 21
9.0790702479
 31
0.0
  0
LINE
  5
4F9
330
1F
100
AcDbEntity
  8
0
  6
Continuous
 62
     7
370
    25
100
AcDbLine
 10
20.085392562
 20
9.0790702479
 30
0.0
 11
20.4611744233
 21
9.0790702479
 31
0.0
  0
SPLINE
  5
4FA
330
1F
100
AcDbEntity
  8
0
  6
Continuous
 62
     7
370
    25
100
AcDbSpline
210
0.0
220
0.0
230
1.0
 70
     8
 71
     3
 72
    10
 73
     6
 74
     0
 42
0.00000001
 43
0.00000001
 40
0.0
 40
0.0
 40
0.0
 40
0.0
 40
0.3751453552724368
 40
0.7507984399393407
 40
1.0
 40
1.0
 40
1.0
 40
1.0
 10
20.46117442329057
 20
9.079070247933888
 30
0.0
 10
20.45896113825951
 20
9.071966938094212
 30
0.0
 10
20.45453157269217
 20
9.057750704650081
 30
0.0
 10
20.45011627746301
 20
9.040316389395443
 30
0.0
 10
20.44830867427708
 20
9.032276627548299
 30
0.0
 10
20.44758777456431
 20
9.02907024793389
 30
0.0
  0
LINE
  5
4FB
330
1F
100
AcDbEntity
  8
0
  6
Continuous
 62
     7
370
    25
100
AcDbLine
 10
21.4731973494
 20
8.8040702479
 30
0.0
 11
21.835392562
 21
8.8040702479
 31
0.0
  0
LINE
  5
4FC
330
1F
100
AcDbEntity
  8
0
  6
Continuous
 62
     7
370
    25
100
AcDbLine
 10
21.835392562
 20
8.8040702479
 30
0.0
 11
21.835392562
 21
8.7540702479
 31
0.0
  0
LINE
  5
4FD
330
1F
100
AcDbEntity
  8
0
  6
Continuous
 62
     7
370
    25
100
AcDbLine
 10
21.835392562
 20
8.7540702479
 30
0.0
 11
21.4596107007
 21
8.7540702479
 31
0.0
  0
SPLINE
  5
4FE
330
1F
100
AcDbEntity
  8
0
  6
Continuous
 62
     7
370
    25
100
AcDbSpline
210
0.0
220
0.0
230
1.0
 70
     8
 71
     3
 72
    10
 73
     6
 74
     0
 42
0.00000001
 43
0.00000001
 40
0.0
 40
0.0
 40
0.0
 40
0.0
 40
0.3751453552724293
 40
0.7507984399393374
 40
0.9999999999999999
 40
0.9999999999999999
 40
0.9999999999999999
 40
0.9999999999999999
 10
21.45961070067636
 20
8.754070247933887
 30
0.0
 10
21.46182398570743
 20
8.761173557773562
 30
0.0
 10
21.46625355127477
 20
8.775389791217696
 30
0.0
 10
21.47066884650393
 20
8.792824106472334
 30
0.0
 10
21.47247644968985
 20
8.800863868319476
 30
0.0
 10
21.47319734940262
 20
8.804070247933888
 30
0.0
  0
LINE
  5
4FF
330
1F
100
AcDbEntity
  8
0
  6
Continuous
 62
     7
370
    25
100
AcDbLine
 10
20.0926548424
 20
8.8040702479
 30
0.0
 11
20.4475877746
 21
8.8040702479
 31
0.0
  0
LINE
  5
500
330
1F
100
AcDbEntity
  8
0
  6
Continuous
 62
     7
370
    25
100
AcDbLine
 10
20.4611744233
 20
8.7540702479
 30
0.0
 11
20.1006142475
 21
8.7540702479
 31
0.0
  0
SPLINE
  5
501
330
1F
100
AcDbEntity
  8
0
  6
Continuous
 62
     7
370
    25
100
AcDbSpline
210
0.0
220
0.0
230
1.0
 70
     8
 71
     3
 72
    10
 73
     6
 74
     0
 42
0.00000001
 43
0.00000001
 40
0.0
 40
0.0
 40
0.0
 40
0.0
 40
0.3675585585878903
 40
0.7352884740031883
 40
1.0
 40
1.0
 40
1.0
 40
1.0
 10
20.10061424753259
 20
8.754070247933889
 30
0.0
 10
20.09933670969257
 20
8.761111275899083
 30
0.0
 10
20.09678103842084
 20
8.775196614376389
 30
0.0
 10
20.0941775534073
 20
8.792612415900802
 30
0.0
 10
20.09310412938297
 20
8.800689531030221
 30
0.0
 10
20.09265484239303
 20
8.804070247933888
 30
0.0
  0
SPLINE
  5
502
330
1F
100
AcDbEntity
  8
0
  6
Continuous
 62
     7
370
    25
100
AcDbSpline
210
0.0
220
0.0
230
1.0
 70
     8
 71
     3
 72
    10
 73
     6
 74
     0
 42
0.00000001
 43
0.00000001
 40
0.0
 40
0.0
 40
0.0
 40
0.0
 40
0.3578233964370776
 40
0.7153315410149074
 40
0.9999999999999999
 40
0.9999999999999999
 40
0.9999999999999999
 40
0.9999999999999999
 10
20.44758777456431
 20
8.804070247933888
 30
0.0
 10
20.44867047861988
 20
8.799293802076516
 30
0.0
 10
20.45083493284015
 20
8.78974511853668
 30
0.0
 10
20.45566498455543
 20
8.771560303010844
 30
0.0
 10
20.45948227052634
 20
8.759442091867149
 30
0.0
 10
20.46117442329057
 20
8.754070247933889
 30
0.0
  0
LINE
  5
503
330
1F
100
AcDbEntity
  8
0
  6
Continuous
 62
     7
370
    25
100
AcDbLine
 10
21.8281302816
 20
9.0290702479
 30
0.0
 11
21.4731973494
 21
9.0290702479
 31
0.0
  0
LINE
  5
504
330
1F
100
AcDbEntity
  8
0
  6
Continuous
 62
     7
370
    25
100
AcDbLine
 10
21.4596107007
 20
9.0790702479
 30
0.0
 11
21.8201708764
 21
9.0790702479
 31
0.0
  0
SPLINE
  5
505
330
1F
100
AcDbEntity
  8
0
  6
Continuous
 62
     7
370
    25
100
AcDbSpline
210
0.0
220
0.0
230
1.0
 70
     8
 71
     3
 72
    10
 73
     6
 74
     0
 42
0.00000001
 43
0.00000001
 40
0.0
 40
0.0
 40
0.0
 40
0.0
 40
0.3675585585878904
 40
0.7352884740031883
 40
1.0
 40
1.0
 40
1.0
 40
1.0
 10
21.82017087643435
 20
9.079070247933888
 30
0.0
 10
21.82144841427436
 20
9.072029219968694
 30
0.0
 10
21.82400408554609
 20
9.057943881491388
 30
0.0
 10
21.82660757055963
 20
9.040528079966975
 30
0.0
 10
21.82768099458396
 20
9.032450964837553
 30
0.0
 10
21.8281302815739
 20
9.02907024793389
 30
0.0
  0
SPLINE
  5
506
330
1F
100
AcDbEntity
  8
0
  6
Continuous
 62
     7
370
    25
100
AcDbSpline
210
0.0
220
0.0
230
1.0
 70
     8
 71
     3
 72
    10
 73
     6
 74
     0
 42
0.00000001
 43
0.00000001
 40
0.0
 40
0.0
 40
0.0
 40
0.0
 40
0.3578233964370801
 40
0.7153315410149038
 40
0.9999999999999999
 40
0.9999999999999999
 40
0.9999999999999999
 40
0.9999999999999999
 10
21.47319734940262
 20
9.02907024793389
 30
0.0
 10
21.47211464534706
 20
9.03384669379126
 30
0.0
 10
21.46995019112678
 20
9.043395377331096
 30
0.0
 10
21.4651201394115
 20
9.061580192856932
 30
0.0
 10
21.4613028534406
 20
9.073698404000627
 30
0.0
 10
21.45961070067637
 20
9.079070247933888
 30
0.0
  0
LINE
  5
507
330
1F
100
AcDbEntity
  8
0
  6
Continuous
 62
     7
370
    25
100
AcDbLine
 10
20.085392562
 20
9.0290702479
 30
0.0
 11
20.085392562
 21
8.9165702479
 31
0.0
  0
ARC
  5
508
330
1F
100
AcDbEntity
  8
0
  6
Continuous
 62
     7
370
    25
100
AcDbCircle
 10
20.960392562
 20
8.9165702479
 30
0.0
 40
0.8750000000000067
100
AcDbArc
 50
180.0
 51
187.3870484363
  0
ARC
  5
509
330
1F
100
AcDbEntity
  8
0
  6
Continuous
 62
     7
370
    25
100
AcDbCircle
 10
20.960392562
 20
8.9165702479
 30
0.0
 40
0.5250000000000066
100
AcDbArc
 50
167.6263748838
 51
192.3736251162
  0
LINE
  5
50A
330
1F
100
AcDbEntity
  8
0
  6
Continuous
 62
     7
370
    25
100
AcDbLine
 10
21.835392562
 20
8.8040702479
 30
0.0
 11
21.835392562
 21
8.9165702479
 31
0.0
  0
ARC
  5
50B
330
1F
100
AcDbEntity
  8
0
  6
Continuous
 62
     7
370
    25
100
AcDbCircle
 10
20.960392562
 20
8.9165702479
 30
0.0
 40
0.8750000000000037
100
AcDbArc
 50
0.0
 51
7.3870484363
  0
ARC
  5
50C
330
1F
100
AcDbEntity
  8
0
  6
Continuous
 62
     7
370
    25
100
AcDbCircle
 10
20.960392562
 20
8.9165702479
 30
0.0
 40
0.5250000000000031
100
AcDbArc
 50
347.6263748838
 51
12.3736251162
  0
LINE
  5
50D
330
1F
100
AcDbEntity
  8
0
  6
Continuous
 62
     7
370
    25
100
AcDbLine
 10
20.5778941423
 20
10.0415702479
 30
0.0
 11
20.135392562
 21
10.0415702479
 31
0.0
  0
ARC
  5
50E
330
1F
100
AcDbEntity
  8
0
  6
Continuous
 62
     7
370
    25
100
AcDbCircle
 10
20.5778941423
 20
9.7915702479
 30
0.0
 40
0.2500000000000035
100
AcDbArc
 50
25.3115492231
 51
90.0
  0
ARC
  5
50F
330
1F
100
AcDbEntity
  8
0
  6
Continuous
 62
     7
370
    25
100
AcDbCircle
 10
20.973392562
 20
9.9786190384
 30
0.0
 40
0.1875000000000021
100
AcDbArc
 50
205.3115492231
 51
266.0243030018
  0
ARC
  5
510
330
1F
100
AcDbEntity
  8
0
  6
Continuous
 62
     7
370
    25
100
AcDbCircle
 10
20.554142562
 20
9.6202158885
 30
0.0
 40
0.1450000000000014
100
AcDbArc
 50
300.0
 51
120.0
  0
ARC
  5
511
330
1F
100
AcDbEntity
  8
0
  6
Continuous
 62
     7
370
    25
100
AcDbCircle
 10
20.960392562
 20
8.9165702479
 30
0.0
 40
0.9575000000000045
100
AcDbArc
 50
120.0
 51
150.0
  0
ARC
  5
512
330
1F
100
AcDbEntity
  8
0
  6
Continuous
 62
     7
370
    25
100
AcDbCircle
 10
20.2567469214
 20
9.3228202479
 30
0.0
 40
0.1450000000000033
100
AcDbArc
 50
150.0
 51
330.0
  0
ARC
  5
513
330
1F
100
AcDbEntity
  8
0
  6
Continuous
 62
     7
370
    25
100
AcDbCircle
 10
20.960392562
 20
8.9165702479
 30
0.0
 40
0.6675000000000052
100
AcDbArc
 50
120.0
 51
150.0
  0
ARC
  5
514
330
1F
100
AcDbEntity
  8
0
  6
Continuous
 62
     7
370
    25
100
AcDbCircle
 10
20.135392562
 20
9.9915702479
 30
0.0
 40
0.0500000000000007
100
AcDbArc
 50
90.0
 51
180.0
  0
LINE
  5
515
330
1F
100
AcDbEntity
  8
0
  6
Continuous
 62
     7
370
    25
100
AcDbLine
 10
20.085392562
 20
9.9915702479
 30
0.0
 11
20.085392562
 21
9.0790702479
 31
0.0
  0
ARC
  5
516
330
1F
100
AcDbEntity
  8
0
  6
Continuous
 62
     7
370
    25
100
AcDbCircle
 10
20.960392562
 20
8.9165702479
 30
0.0
 40
0.8750000000000036
100
AcDbArc
 50
10.7027796515
 51
90.0
  0
ARC
  5
517
330
1F
100
AcDbEntity
  8
0
  6
Continuous
 62
     7
370
    25
100
AcDbCircle
 10
20.960392562
 20
8.9165702479
 30
0.0
 40
0.5250000000000036
100
AcDbArc
 50
18.0305353933
 51
161.9694646067
  0
ARC
  5
518
330
1F
100
AcDbEntity
  8
0
  6
Continuous
 62
     7
370
    25
100
AcDbCircle
 10
21.785392562
 20
7.8415702479
 30
0.0
 40
0.0500000000000007
100
AcDbArc
 50
270.0
 51
0.0
  0
LINE
  5
519
330
1F
100
AcDbEntity
  8
0
  6
Continuous
 62
     7
370
    25
100
AcDbLine
 10
21.3428909817
 20
7.7915702479
 30
0.0
 11
21.785392562
 21
7.7915702479
 31
0.0
  0
ARC
  5
51A
330
1F
100
AcDbEntity
  8
0
  6
Continuous
 62
     7
370
    25
100
AcDbCircle
 10
21.3428909817
 20
8.0415702479
 30
0.0
 40
0.2500000000000035
100
AcDbArc
 50
205.3115492231
 51
270.0
  0
ARC
  5
51B
330
1F
100
AcDbEntity
  8
0
  6
Continuous
 62
     7
370
    25
100
AcDbCircle
 10
20.947392562
 20
7.8545214575
 30
0.0
 40
0.1875000000000023
100
AcDbArc
 50
25.3115492231
 51
86.0243030018
  0
ARC
  5
51C
330
1F
100
AcDbEntity
  8
0
  6
Continuous
 62
     7
370
    25
100
AcDbCircle
 10
21.366642562
 20
8.2129246074
 30
0.0
 40
0.1450000000000009
100
AcDbArc
 50
120.0
 51
300.0
  0
ARC
  5
51D
330
1F
100
AcDbEntity
  8
0
  6
Continuous
 62
     7
370
    25
100
AcDbCircle
 10
20.960392562
 20
8.9165702479
 30
0.0
 40
0.9575000000000027
100
AcDbArc
 50
300.0
 51
330.0
  0
ARC
  5
51E
330
1F
100
AcDbEntity
  8
0
  6
Continuous
 62
     7
370
    25
100
AcDbCircle
 10
21.6640382026
 20
8.5103202479
 30
0.0
 40
0.1450000000000033
100
AcDbArc
 50
330.0
 51
150.0
  0
ARC
  5
51F
330
1F
100
AcDbEntity
  8
0
  6
Continuous
 62
     7
370
    25
100
AcDbCircle
 10
20.960392562
 20
8.9165702479
 30
0.0
 40
0.6675000000000006
100
AcDbArc
 50
300.0
 51
330.0
  0
LINE
  5
520
330
1F
100
AcDbEntity
  8
0
  6
Continuous
 62
     7
370
    25
100
AcDbLine
 10
21.835392562
 20
7.8415702479
 30
0.0
 11
21.835392562
 21
8.7540702479
 31
0.0
  0
ARC
  5
521
330
1F
100
AcDbEntity
  8
0
  6
Continuous
 62
     7
370
    25
100
AcDbCircle
 10
20.960392562
 20
8.9165702479
 30
0.0
 40
0.875
100
AcDbArc
 50
190.7027796515
 51
270.0
  0
ARC
  5
522
330
1F
100
AcDbEntity
  8
0
  6
Continuous
 62
     7
370
    25
100
AcDbCircle
 10
20.960392562
 20
8.9165702479
 30
0.0
 40
0.5250000000000025
100
AcDbArc
 50
198.0305353933
 51
341.9694646067
  0
ARC
  5
523
330
1F
100
AcDbEntity
  8
0
  6
Continuous
 62
     7
370
    25
100
AcDbCircle
 10
20.554142562
 20
9.6202158885
 30
0.0
 40
0.0934999999999995
100
AcDbArc
 50
300.0
 51
120.0
  0
ARC
  5
524
330
1F
100
AcDbEntity
  8
0
  6
Continuous
 62
     7
370
    25
100
AcDbCircle
 10
20.960392562
 20
8.9165702479
 30
0.0
 40
0.9060000000000032
100
AcDbArc
 50
141.5064992239
 51
150.0
  0
ARC
  5
525
330
1F
100
AcDbEntity
  8
0
  6
Continuous
 62
     7
370
    25
100
AcDbCircle
 10
20.960392562
 20
8.9165702479
 30
0.0
 40
0.9060000000000025
100
AcDbArc
 50
120.0
 51
128.4935007761
  0
ARC
  5
526
330
1F
100
AcDbEntity
  8
0
  6
Continuous
 62
     7
370
    25
100
AcDbCircle
 10
20.2567469214
 20
9.3228202479
 30
0.0
 40
0.093500000000003
100
AcDbArc
 50
150.0
 51
330.0
  0
ARC
  5
527
330
1F
100
AcDbEntity
  8
0
  6
Continuous
 62
     7
370
    25
100
AcDbCircle
 10
20.960392562
 20
8.9165702479
 30
0.0
 40
0.7190000000000043
100
AcDbArc
 50
120.0
 51
127.6952084801
  0
ARC
  5
528
330
1F
100
AcDbEntity
  8
0
  6
Continuous
 62
     7
370
    25
100
AcDbCircle
 10
20.960392562
 20
8.9165702479
 30
0.0
 40
0.7190000000000033
100
AcDbArc
 50
142.3047915199
 51
150.0
  0
ARC
  5
529
330
1F
100
AcDbEntity
  8
0
  6
Continuous
 62
     7
370
    25
100
AcDbCircle
 10
21.366642562
 20
8.2129246074
 30
0.0
 40
0.0935000000000008
100
AcDbArc
 50
120.0
 51
300.0
  0
ARC
  5
52A
330
1F
100
AcDbEntity
  8
0
  6
Continuous
 62
     7
370
    25
100
AcDbCircle
 10
20.960392562
 20
8.9165702479
 30
0.0
 40
0.9060000000000015
100
AcDbArc
 50
321.5064992239
 51
330.0
  0
ARC
  5
52B
330
1F
100
AcDbEntity
  8
0
  6
Continuous
 62
     7
370
    25
100
AcDbCircle
 10
20.960392562
 20
8.9165702479
 30
0.0
 40
0.9060000000000019
100
AcDbArc
 50
300.0
 51
308.4935007761
  0
ARC
  5
52C
330
1F
100
AcDbEntity
  8
0
  6
Continuous
 62
     7
370
    25
100
AcDbCircle
 10
21.6640382026
 20
8.5103202479
 30
0.0
 40
0.0935000000000021
100
AcDbArc
 50
330.0
 51
150.0
  0
ARC
  5
52D
330
1F
100
AcDbEntity
  8
0
  6
Continuous
 62
     7
370
    25
100
AcDbCircle
 10
20.960392562
 20
8.9165702479
 30
0.0
 40
0.7190000000000009
100
AcDbArc
 50
300.0
 51
307.6952084801
  0
ARC
  5
52E
330
1F
100
AcDbEntity
  8
0
  6
Continuous
 62
     7
370
    25
100
AcDbCircle
 10
20.960392562
 20
8.9165702479
 30
0.0
 40
0.7190000000000013
100
AcDbArc
 50
322.3047915199
 51
330.0
  0
CIRCLE
  5
52F
330
1F
100
AcDbEntity
  8
0
  6
Continuous
 62
     7
370
    25
100
AcDbCircle
 10
20.3858683023
 20
9.4910945076
 30
0.0
 40
0.1190000000000033
  0
LINE
  5
530
330
1F
100
AcDbEntity
  8
0
  6
Continuous
 62
     7
370
    25
100
AcDbLine
 10
20.3077934473
 20
9.4701744133
 30
0.0
 11
20.3649482079
 21
9.4130196526
 31
0.0
  0
LINE
  5
531
330
1F
100
AcDbEntity
  8
0
  6
Continuous
 62
     7
370
    25
100
AcDbLine
 10
20.3649482079
 20
9.4130196526
 30
0.0
 11
20.4430230629
 21
9.433939747
 31
0.0
  0
LINE
  5
532
330
1F
100
AcDbEntity
  8
0
  6
Continuous
 62
     7
370
    25
100
AcDbLine
 10
20.4639431573
 20
9.512014602
 30
0.0
 11
20.4430230629
 21
9.433939747
 31
0.0
  0
LINE
  5
533
330
1F
100
AcDbEntity
  8
0
  6
Continuous
 62
     7
370
    25
100
AcDbLine
 10
20.4067883966
 20
9.5691693627
 30
0.0
 11
20.4639431573
 21
9.512014602
 31
0.0
  0
LINE
  5
534
330
1F
100
AcDbEntity
  8
0
  6
Continuous
 62
     7
370
    25
100
AcDbLine
 10
20.4067883966
 20
9.5691693627
 30
0.0
 11
20.3287135416
 21
9.5482492683
 31
0.0
  0
LINE
  5
535
330
1F
100
AcDbEntity
  8
0
  6
Continuous
 62
     7
370
    25
100
AcDbLine
 10
20.3077934473
 20
9.4701744133
 30
0.0
 11
20.3287135416
 21
9.5482492683
 31
0.0
  0
CIRCLE
  5
536
330
1F
100
AcDbEntity
  8
0
  6
Continuous
 62
     7
370
    25
100
AcDbCircle
 10
20.3858683023
 20
9.4910945076
 30
0.0
 40
0.1350000000000033
  0
ARC
  5
537
330
1F
100
AcDbEntity
  8
0
  6
Continuous
 62
     7
370
    25
100
AcDbCircle
 10
20.3858683023
 20
9.4910945076
 30
0.0
 40
0.0699999999999956
100
AcDbArc
 50
165.0
 51
225.0
  0
ARC
  5
538
330
1F
100
AcDbEntity
  8
0
  6
Continuous
 62
     7
370
    25
100
AcDbCircle
 10
20.3858683023
 20
9.4910945076
 30
0.0
 40
0.0700000000000037
100
AcDbArc
 50
45.0
 51
105.0
  0
ARC
  5
539
330
1F
100
AcDbEntity
  8
0
  6
Continuous
 62
     7
370
    25
100
AcDbCircle
 10
20.3858683023
 20
9.4910945076
 30
0.0
 40
0.0700000000000029
100
AcDbArc
 50
345.0
 51
45.0
  0
ARC
  5
53A
330
1F
100
AcDbEntity
  8
0
  6
Continuous
 62
     7
370
    25
100
AcDbCircle
 10
20.3858683023
 20
9.4910945076
 30
0.0
 40
0.0700000000000029
100
AcDbArc
 50
285.0
 51
345.0
  0
ARC
  5
53B
330
1F
100
AcDbEntity
  8
0
  6
Continuous
 62
     7
370
    25
100
AcDbCircle
 10
20.3858683023
 20
9.4910945076
 30
0.0
 40
0.0699999999999994
100
AcDbArc
 50
225.0
 51
285.0
  0
ARC
  5
53C
330
1F
100
AcDbEntity
  8
0
  6
Continuous
 62
     7
370
    25
100
AcDbCircle
 10
20.3858683023
 20
9.4910945076
 30
0.0
 40
0.0700000000000037
100
AcDbArc
 50
105.0
 51
165.0
  0
CIRCLE
  5
53D
330
1F
100
AcDbEntity
  8
0
  6
Continuous
 62
     7
370
    25
100
AcDbCircle
 10
21.5349168217
 20
8.3420459882
 30
0.0
 40
0.1190000000000027
  0
LINE
  5
53E
330
1F
100
AcDbEntity
  8
0
  6
Continuous
 62
     7
370
    25
100
AcDbLine
 10
21.477762061
 20
8.3992007489
 30
0.0
 11
21.4568419667
 21
8.3211258939
 31
0.0
  0
LINE
  5
53F
330
1F
100
AcDbEntity
  8
0
  6
Continuous
 62
     7
370
    25
100
AcDbLine
 10
21.4568419667
 20
8.3211258939
 30
0.0
 11
21.5139967273
 21
8.2639711332
 31
0.0
  0
LINE
  5
540
330
1F
100
AcDbEntity
  8
0
  6
Continuous
 62
     7
370
    25
100
AcDbLine
 10
21.5920715824
 20
8.2848912276
 30
0.0
 11
21.5139967273
 21
8.2639711332
 31
0.0
  0
LINE
  5
541
330
1F
100
AcDbEntity
  8
0
  6
Continuous
 62
     7
370
    25
100
AcDbLine
 10
21.6129916767
 20
8.3629660826
 30
0.0
 11
21.5920715824
 21
8.2848912276
 31
0.0
  0
LINE
  5
542
330
1F
100
AcDbEntity
  8
0
  6
Continuous
 62
     7
370
    25
100
AcDbLine
 10
21.6129916767
 20
8.3629660826
 30
0.0
 11
21.555836916
 21
8.4201208432
 31
0.0
  0
LINE
  5
543
330
1F
100
AcDbEntity
  8
0
  6
Continuous
 62
     7
370
    25
100
AcDbLine
 10
21.477762061
 20
8.3992007489
 30
0.0
 11
21.555836916
 21
8.4201208432
 31
0.0
  0
CIRCLE
  5
544
330
1F
100
AcDbEntity
  8
0
  6
Continuous
 62
     7
370
    25
100
AcDbCircle
 10
21.5349168217
 20
8.3420459882
 30
0.0
 40
0.1350000000000033
  0
ARC
  5
545
330
1F
100
AcDbEntity
  8
0
  6
Continuous
 62
     7
370
    25
100
AcDbCircle
 10
21.5349168217
 20
8.3420459882
 30
0.0
 40
0.0700000000000031
100
AcDbArc
 50
345.0
 51
45.0
  0
ARC
  5
546
330
1F
100
AcDbEntity
  8
0
  6
Continuous
 62
     7
370
    25
100
AcDbCircle
 10
21.5349168217
 20
8.3420459882
 30
0.0
 40
0.0700000000000045
100
AcDbArc
 50
285.0
 51
345.0
  0
ARC
  5
547
330
1F
100
AcDbEntity
  8
0
  6
Continuous
 62
     7
370
    25
100
AcDbCircle
 10
21.5349168217
 20
8.3420459882
 30
0.0
 40
0.0700000000000045
100
AcDbArc
 50
225.0
 51
285.0
  0
ARC
  5
548
330
1F
100
AcDbEntity
  8
0
  6
Continuous
 62
     7
370
    25
100
AcDbCircle
 10
21.5349168217
 20
8.3420459882
 30
0.0
 40
0.0699999999999994
100
AcDbArc
 50
165.0
 51
225.0
  0
ARC
  5
549
330
1F
100
AcDbEntity
  8
0
  6
Continuous
 62
     7
370
    25
100
AcDbCircle
 10
21.5349168217
 20
8.3420459882
 30
0.0
 40
0.0699999999999938
100
AcDbArc
 50
105.0
 51
165.0
  0
ARC
  5
54A
330
1F
100
AcDbEntity
  8
0
  6
Continuous
 62
     7
370
    25
100
AcDbCircle
 10
21.5349168217
 20
8.3420459882
 30
0.0
 40
0.0700000000000031
100
AcDbArc
 50
45.0
 51
105.0
  0
CIRCLE
  5
54B
330
1F
100
AcDbEntity
  8
0
  6
Continuous
 62
     7
370
    25
100
AcDbCircle
 10
20.960392562
 20
8.9165702479
 30
0.0
 40
0.4990000000000165
  0
CIRCLE
  5
54C
330
1F
100
AcDbEntity
  8
0
  6
Continuous
 62
     7
370
    25
100
AcDbCircle
 10
20.960392562
 20
8.9165702479
 30
0.0
 40
0.4680812309189086
  0
DIMENSION
  5
54D
330
1F
100
AcDbEntity
  8
SLD-0
100
AcDbDimension
  2
_D_5
 10
24.6414949242
 20
7.4165702479
 30
0.0
 11
24.6414949242
 21
8.9165702479
 31
0.0
 70
   160
  1
<>
 71
     2
 42
-1.0
  3
SLDDIMSTYLE2
100
AcDbAlignedDimension
 13
23.460392562
 23
10.4165702479
 33
0.0
 14
23.460392562
 24
7.4165702479
 34
0.0
 50
90.0
100
AcDbRotatedDimension
  0
DIMENSION
  5
562
330
1F
100
AcDbEntity
  8
SLD-0
100
AcDbDimension
  2
_D_6
 10
18.460392562
 20
13.0149954448
 30
0.0
 11
20.960392562
 21
13.0149954448
 31
0.0
 70
   160
  1
<>
 71
     2
 42
-1.0
  3
SLDDIMSTYLE2
100
AcDbAlignedDimension
 13
23.460392562
 23
10.4165702479
 33
0.0
 14
18.460392562
 24
10.4165702479
 34
0.0
 50
0.0
100
AcDbRotatedDimension
  0
DIMENSION
  5
576
330
1F
100
AcDbEntity
  8
SLD-0
100
AcDbDimension
  2
_D_7
 10
22.601017562
 20
11.5976726101
 30
0.0
 11
20.960392562
 21
11.5976726101
 31
0.0
 70
   160
  1
<>
 71
     2
 42
-1.0
  3
SLDDIMSTYLE0
100
AcDbAlignedDimension
 13
19.319767562
 23
8.9165702479
 33
0.0
 14
22.601017562
 24
8.9165702479
 34
0.0
 50
0.0
100
AcDbRotatedDimension
  0
MTEXT
  5
58A
330
1F
100
AcDbEntity
  8
SLD-0
100
AcDbMText
 10
20.9075280541
 20
6.9275748225
 30
0.0
 40
0.375
 41
0.0
 71
     2
 72
     1
  1
CANOPY MOUNTING DETAIL
  7
SLDTEXTSTYLE0
 73
     1
 44
1.0
  0
ENDSEC
  0
SECTION
  2
OBJECTS
  0
DICTIONARY
  5
C
330
0
100
AcDbDictionary
281
     1
  3
ACAD_GROUP
350
D
  3
ACAD_LAYOUT
350
1A
  3
ACAD_MLINESTYLE
350
17
  3
ACAD_PLOTSETTINGS
350
19
  3
ACAD_PLOTSTYLENAME
350
E
  3
ACAD_SCALELIST
350
47
  3
DWGPROPS
350
58B
  0
DICTIONARY
  5
D
102
{ACAD_REACTORS
330
C
102
}
330
C
100
AcDbDictionary
281
     1
  0
DICTIONARY
  5
1A
102
{ACAD_REACTORS
330
C
102
}
330
C
100
AcDbDictionary
281
     1
  3
Layout1
350
1E
  3
Layout2
350
26
  3
Model
350
22
  0
DICTIONARY
  5
17
102
{ACAD_REACTORS
330
C
102
}
330
C
100
AcDbDictionary
281
     1
  3
Standard
350
18
  0
DICTIONARY
  5
19
102
{ACAD_REACTORS
330
C
102
}
330
C
100
AcDbDictionary
281
     1
  0
ACDBDICTIONARYWDFLT
  5
E
102
{ACAD_REACTORS
330
C
102
}
330
C
100
AcDbDictionary
281
     1
  3
Normal
350
F
100
AcDbDictionaryWithDefault
340
F
  0
DICTIONARY
  5
47
102
{ACAD_REACTORS
330
C
102
}
330
C
100
AcDbDictionary
281
     1
  3
A0
350
48
  3
A1
350
49
  3
A2
350
4A
  3
A3
350
4B
  3
A4
350
4C
  3
A5
350
4D
  3
A6
350
4E
  3
A7
350
4F
  3
A8
350
50
  3
A9
350
51
  3
B1
350
52
  3
B2
350
53
  3
B3
350
54
  3
B4
350
55
  3
B5
350
56
  3
B6
350
57
  3
B7
350
58
  0
XRECORD
  5
58B
102
{ACAD_REACTORS
330
C
102
}
330
C
100
AcDbXrecord
280
     1
  1
DWGPROPS COOKIE
  2

  3

  4

  6

  7

  8
shawnd
  9

300
=
301
=
302
=
303
=
304
=
305
=
306
=
307
=
308
=
309
=
 40
0.0
 41
2460903.622595973
 42
2460903.622596852
  1

 90
        0
  0
LAYOUT
  5
1E
102
{ACAD_REACTORS
330
1A
102
}
330
1A
100
AcDbPlotSettings
  1

  2
none_device
  4

  6

 40
0.0
 41
0.0
 42
0.0
 43
0.0
 44
0.0
 45
0.0
 46
0.0
 47
0.0
 48
0.0
 49
0.0
140
0.0
141
0.0
142
1.0
143
1.0
 70
   688
 72
     0
 73
     0
 74
     5
  7

 75
    16
147
1.0
148
0.0
149
0.0
100
AcDbLayout
  1
Layout1
 70
     1
 71
     1
 10
0.0
 20
0.0
 11
12.0
 21
9.0
 12
0.0
 22
0.0
 32
0.0
 14
1.0000000000E+20
 24
1.0000000000E+20
 34
1.0000000000E+20
 15
-1.0000000000E+20
 25
-1.0000000000E+20
 35
-1.0000000000E+20
146
0.0
 13
0.0
 23
0.0
 33
0.0
 16
1.0
 26
0.0
 36
0.0
 17
0.0
 27
1.0
 37
0.0
 76
     0
330
1B
  0
LAYOUT
  5
26
102
{ACAD_REACTORS
330
1A
102
}
330
1A
100
AcDbPlotSettings
  1

  2
none_device
  4

  6

 40
0.0
 41
0.0
 42
0.0
 43
0.0
 44
0.0
 45
0.0
 46
0.0
 47
0.0
 48
0.0
 49
0.0
140
0.0
141
0.0
142
1.0
143
1.0
 70
   688
 72
     0
 73
     0
 74
     5
  7

 75
    16
147
1.0
148
0.0
149
0.0
100
AcDbLayout
  1
Layout2
 70
     1
 71
     2
 10
0.0
 20
0.0
 11
0.0
 21
0.0
 12
0.0
 22
0.0
 32
0.0
 14
0.0
 24
0.0
 34
0.0
 15
0.0
 25
0.0
 35
0.0
146
0.0
 13
0.0
 23
0.0
 33
0.0
 16
1.0
 26
0.0
 36
0.0
 17
0.0
 27
1.0
 37
0.0
 76
     0
330
23
  0
LAYOUT
  5
22
102
{ACAD_REACTORS
330
1A
102
}
330
1A
100
AcDbPlotSettings
  1

  2
none_device
  4
Letter_(8.50_x_11.00_Inches)
  6

 40
6.35
 41
6.35
 42
6.35000508
 43
6.35000508
 44
215.9
 45
279.4
 46
0.0
 47
0.0
 48
0.0
 49
0.0
140
0.0
141
0.0
142
1.0
143
1.0
 70
  1712
 72
     0
 73
     0
 74
     0
  7

 75
     0
147
1.0
148
0.0
149
0.0
100
AcDbLayout
  1
Model
 70
     1
 71
     0
 10
0.0
 20
0.0
 11
33.0
 21
25.5
 12
0.0
 22
0.0
 32
0.0
 14
0.0
 24
0.0
 34
0.0
 15
33.0
 25
25.5
 35
0.0
146
0.0
 13
0.0
 23
0.0
 33
0.0
 16
1.0
 26
0.0
 36
0.0
 17
0.0
 27
1.0
 37
0.0
 76
     0
330
1F
331
29
  0
MLINESTYLE
  5
18
102
{ACAD_REACTORS
330
17
102
}
330
17
100
AcDbMlineStyle
  2
Standard
 70
     0
  3

 62
   256
 51
90.0
 52
90.0
 71
     2
 49
0.5
 62
   256
  6
BYLAYER
 49
-0.5
 62
   256
  6
BYLAYER
  0
ACDBPLACEHOLDER
  5
F
102
{ACAD_REACTORS
330
E
102
}
330
E
  0
SCALE
  5
48
102
{ACAD_REACTORS
330
47
102
}
330
47
100
AcDbScale
 70
     0
300
1:1
140
1.0
141
1.0
290
     1
  0
SCALE
  5
49
102
{ACAD_REACTORS
330
47
102
}
330
47
100
AcDbScale
 70
     0
300
1/128" = 1'-0"
140
0.0078125
141
12.0
290
     0
  0
SCALE
  5
4A
102
{ACAD_REACTORS
330
47
102
}
330
47
100
AcDbScale
 70
     0
300
1/64" = 1'-0"
140
0.015625
141
12.0
290
     0
  0
SCALE
  5
4B
102
{ACAD_REACTORS
330
47
102
}
330
47
100
AcDbScale
 70
     0
300
1/32" = 1'-0"
140
0.03125
141
12.0
290
     0
  0
SCALE
  5
4C
102
{ACAD_REACTORS
330
47
102
}
330
47
100
AcDbScale
 70
     0
300
1/16" = 1'-0"
140
0.0625
141
12.0
290
     0
  0
SCALE
  5
4D
102
{ACAD_REACTORS
330
47
102
}
330
47
100
AcDbScale
 70
     0
300
3/32" = 1'-0"
140
0.09375
141
12.0
290
     0
  0
SCALE
  5
4E
102
{ACAD_REACTORS
330
47
102
}
330
47
100
AcDbScale
 70
     0
300
1/8" = 1'-0"
140
0.125
141
12.0
290
     0
  0
SCALE
  5
4F
102
{ACAD_REACTORS
330
47
102
}
330
47
100
AcDbScale
 70
     0
300
3/16" = 1'-0"
140
0.1875
141
12.0
290
     0
  0
SCALE
  5
50
102
{ACAD_REACTORS
330
47
102
}
330
47
100
AcDbScale
 70
     0
300
1/4" = 1'-0"
140
0.25
141
12.0
290
     0
  0
SCALE
  5
51
102
{ACAD_REACTORS
330
47
102
}
330
47
100
AcDbScale
 70
     0
300
3/8" = 1'-0"
140
0.375
141
12.0
290
     0
  0
SCALE
  5
52
102
{ACAD_REACTORS
330
47
102
}
330
47
100
AcDbScale
 70
     0
300
1/2" = 1'-0"
140
0.5
141
12.0
290
     0
  0
SCALE
  5
53
102
{ACAD_REACTORS
330
47
102
}
330
47
100
AcDbScale
 70
     0
300
3/4" = 1'-0"
140
0.75
141
12.0
290
     0
  0
SCALE
  5
54
102
{ACAD_REACTORS
330
47
102
}
330
47
100
AcDbScale
 70
     0
300
1" = 1'-0"
140
1.0
141
12.0
290
     0
  0
SCALE
  5
55
102
{ACAD_REACTORS
330
47
102
}
330
47
100
AcDbScale
 70
     0
300
1-1/2" = 1'-0"
140
1.5
141
12.0
290
     0
  0
SCALE
  5
56
102
{ACAD_REACTORS
330
47
102
}
330
47
100
AcDbScale
 70
     0
300
3" = 1'-0"
140
3.0
141
12.0
290
     0
  0
SCALE
  5
57
102
{ACAD_REACTORS
330
47
102
}
330
47
100
AcDbScale
 70
     0
300
6" = 1'-0"
140
6.0
141
12.0
290
     0
  0
SCALE
  5
58
102
{ACAD_REACTORS
330
47
102
}
330
47
100
AcDbScale
 70
     0
300
1'-0" = 1'-0"
140
12.0
141
12.0
290
     0
  0
ENDSEC
  0
EOF
