  0
SECTION
  2
HEADER
  9
$ACADVER
  1
AC1015
  9
$ACADMAINTVER
 70
     6
  9
$DWGCODEPAGE
  3
ANSI_1252
  9
$INSBASE
 10
0.0
 20
0.0
 30
0.0
  9
$EXTMIN
 10
0.0
 20
0.0
 30
0.0
  9
$EXTMAX
 10
38.5
 20
29.75
 30
0.0
  9
$LIMMIN
 10
0.0
 20
0.0
  9
$LIMMAX
 10
38.5
 20
29.75
  9
$ORTHOMODE
 70
     0
  9
$REGENMODE
 70
     1
  9
$FILLMODE
 70
     1
  9
$QTEXTMODE
 70
     0
  9
$MIRRTEXT
 70
     1
  9
$LTSCALE
 40
3.5
  9
$ATTMODE
 70
     1
  9
$TEXTSIZE
 40
0.4822834646
  9
$TRACEWID
 40
0.05
  9
$TEXTSTYLE
  7
Standard
  9
$CLAYER
  8
0
  9
$CELTYPE
  6
ByLayer
  9
$CECOLOR
 62
   256
  9
$CELTSCALE
 40
1.0
  9
$DISPSILH
 70
     0
  9
$DIMSCALE
 40
1.0
  9
$DIMASZ
 40
0.455
  9
$DIMEXO
 40
0.1377952756
  9
$DIMDLI
 40
0.38
  9
$DIMRND
 40
0.0
  9
$DIMDLE
 40
0.0
  9
$DIMEXE
 40
0.1377952756
  9
$DIMTP
 40
0.0
  9
$DIMTM
 40
0.0
  9
$DIMTXT
 40
0.4861111111
  9
$DIMCEN
 40
0.09
  9
$DIMTSZ
 40
0.0
  9
$DIMTOL
 70
     0
  9
$DIMLIM
 70
     0
  9
$DIMTIH
 70
     1
  9
$DIMTOH
 70
     1
  9
$DIMSE1
 70
     0
  9
$DIMSE2
 70
     0
  9
$DIMTAD
 70
     1
  9
$DIMZIN
 70
     1
  9
$DIMBLK
  1

  9
$DIMASO
 70
     1
  9
$DIMSHO
 70
     1
  9
$DIMPOST
  1

  9
$DIMAPOST
  1

  9
$DIMALT
 70
     0
  9
$DIMALTD
 70
     2
  9
$DIMALTF
 40
25.4
  9
$DIMLFAC
 40
1.0
  9
$DIMTOFL
 70
     0
  9
$DIMTVP
 40
0.0
  9
$DIMTIX
 70
     0
  9
$DIMSOXD
 70
     0
  9
$DIMSAH
 70
     0
  9
$DIMBLK1
  1

  9
$DIMBLK2
  1

  9
$DIMSTYLE
  2
Standard
  9
$DIMCLRD
 70
     0
  9
$DIMCLRE
 70
     0
  9
$DIMCLRT
 70
     0
  9
$DIMTFAC
 40
1.0
  9
$DIMGAP
 40
0.21
  9
$DIMJUST
 70
     0
  9
$DIMSD1
 70
     0
  9
$DIMSD2
 70
     0
  9
$DIMTOLJ
 70
     1
  9
$DIMTZIN
 70
     1
  9
$DIMALTZ
 70
     0
  9
$DIMALTTZ
 70
     0
  9
$DIMUPT
 70
     0
  9
$DIMDEC
 70
     0
  9
$DIMTDEC
 70
     0
  9
$DIMALTU
 70
     2
  9
$DIMALTTD
 70
     2
  9
$DIMTXSTY
  7
Standard
  9
$DIMAUNIT
 70
     0
  9
$DIMADEC
 70
     2
  9
$DIMALTRND
 40
0.0
  9
$DIMAZIN
 70
     0
  9
$DIMDSEP
 70
    46
  9
$DIMATFIT
 70
     3
  9
$DIMFRAC
 70
     0
  9
$DIMLDRBLK
  1

  9
$DIMLUNIT
 70
     2
  9
$DIMLWD
 70
    -2
  9
$DIMLWE
 70
    -2
  9
$DIMTMOVE
 70
     0
  9
$LUNITS
 70
     2
  9
$LUPREC
 70
     6
  9
$SKETCHINC
 40
0.1
  9
$FILLETRAD
 40
0.0
  9
$AUNITS
 70
     0
  9
$AUPREC
 70
     2
  9
$MENU
  1
.
  9
$ELEVATION
 40
0.0
  9
$PELEVATION
 40
0.0
  9
$THICKNESS
 40
0.0
  9
$LIMCHECK
 70
     0
  9
$CHAMFERA
 40
0.0
  9
$CHAMFERB
 40
0.0
  9
$CHAMFERC
 40
0.0
  9
$CHAMFERD
 40
0.0
  9
$SKPOLY
 70
     0
  9
$TDCREATE
 40
2460858.436771783
  9
$TDUCREATE
 40
2460858.728438449
  9
$TDUPDATE
 40
2460858.436772408
  9
$TDUUPDATE
 40
2460858.728439074
  9
$TDINDWG
 40
0.0000000116
  9
$TDUSRTIMER
 40
0.0000000116
  9
$USRTIMER
 70
     1
  9
$ANGBASE
 50
0.0
  9
$ANGDIR
 70
     0
  9
$PDMODE
 70
     0
  9
$PDSIZE
 40
-1.0
  9
$PLINEWID
 40
0.0
  9
$SPLFRAME
 70
     0
  9
$SPLINETYPE
 70
     6
  9
$SPLINESEGS
 70
     8
  9
$HANDSEED
  5
2BC
  9
$SURFTAB1
 70
     6
  9
$SURFTAB2
 70
     6
  9
$SURFTYPE
 70
     6
  9
$SURFU
 70
     6
  9
$SURFV
 70
     6
  9
$UCSBASE
  2

  9
$UCSNAME
  2

  9
$UCSORG
 10
0.0
 20
0.0
 30
0.0
  9
$UCSXDIR
 10
1.0
 20
0.0
 30
0.0
  9
$UCSYDIR
 10
0.0
 20
1.0
 30
0.0
  9
$UCSORTHOREF
  2

  9
$UCSORTHOVIEW
 70
     0
  9
$UCSORGTOP
 10
0.0
 20
0.0
 30
0.0
  9
$UCSORGBOTTOM
 10
0.0
 20
0.0
 30
0.0
  9
$UCSORGLEFT
 10
0.0
 20
0.0
 30
0.0
  9
$UCSORGRIGHT
 10
0.0
 20
0.0
 30
0.0
  9
$UCSORGFRONT
 10
0.0
 20
0.0
 30
0.0
  9
$UCSORGBACK
 10
0.0
 20
0.0
 30
0.0
  9
$PUCSBASE
  2

  9
$PUCSNAME
  2

  9
$PUCSORG
 10
0.0
 20
0.0
 30
0.0
  9
$PUCSXDIR
 10
1.0
 20
0.0
 30
0.0
  9
$PUCSYDIR
 10
0.0
 20
1.0
 30
0.0
  9
$PUCSORTHOREF
  2

  9
$PUCSORTHOVIEW
 70
     0
  9
$PUCSORGTOP
 10
0.0
 20
0.0
 30
0.0
  9
$PUCSORGBOTTOM
 10
0.0
 20
0.0
 30
0.0
  9
$PUCSORGLEFT
 10
0.0
 20
0.0
 30
0.0
  9
$PUCSORGRIGHT
 10
0.0
 20
0.0
 30
0.0
  9
$PUCSORGFRONT
 10
0.0
 20
0.0
 30
0.0
  9
$PUCSORGBACK
 10
0.0
 20
0.0
 30
0.0
  9
$USERI1
 70
     0
  9
$USERI2
 70
     0
  9
$USERI3
 70
     0
  9
$USERI4
 70
     0
  9
$USERI5
 70
     0
  9
$USERR1
 40
0.0
  9
$USERR2
 40
0.0
  9
$USERR3
 40
0.0
  9
$USERR4
 40
0.0
  9
$USERR5
 40
0.0
  9
$WORLDVIEW
 70
     1
  9
$SHADEDGE
 70
     3
  9
$SHADEDIF
 70
    70
  9
$TILEMODE
 70
     1
  9
$MAXACTVP
 70
    64
  9
$PINSBASE
 10
0.0
 20
0.0
 30
0.0
  9
$PLIMCHECK
 70
     0
  9
$PEXTMIN
 10
1.0000000000E+20
 20
1.0000000000E+20
 30
1.0000000000E+20
  9
$PEXTMAX
 10
-1.0000000000E+20
 20
-1.0000000000E+20
 30
-1.0000000000E+20
  9
$PLIMMIN
 10
0.0
 20
0.0
  9
$PLIMMAX
 10
12.0
 20
9.0
  9
$UNITMODE
 70
     0
  9
$VISRETAIN
 70
     1
  9
$PLINEGEN
 70
     0
  9
$PSLTSCALE
 70
     1
  9
$TREEDEPTH
 70
  3020
  9
$CMLSTYLE
  2
Standard
  9
$CMLJUST
 70
     0
  9
$CMLSCALE
 40
1.0
  9
$PROXYGRAPHICS
 70
     1
  9
$MEASUREMENT
 70
     0
  9
$CELWEIGHT
370
    -1
  9
$ENDCAPS
280
     0
  9
$JOINSTYLE
280
     0
  9
$LWDISPLAY
290
     1
  9
$INSUNITS
 70
     1
  9
$HYPERLINKBASE
  1

  9
$STYLESHEET
  1

  9
$XEDIT
290
     1
  9
$CEPSNTYPE
380
     0
  9
$PSTYLEMODE
290
     1
  9
$FINGERPRINTGUID
  2
{a84a56b1-b3a7-42bc-927a-6cc6350c096c}
  9
$VERSIONGUID
  2
{FAEB1C32-E019-11D5-929B-00C0DF256EC4}
  9
$EXTNAMES
290
     1
  9
$PSVPSCALE
 40
0.0
  9
$OLESTARTUP
290
     0
  0
ENDSEC
  0
SECTION
  2
CLASSES
  0
CLASS
  1
ACDBDICTIONARYWDFLT
  2
AcDbDictionaryWithDefault
  3
ObjectDBX Classes
 90
        0
280
     0
281
     0
  0
CLASS
  1
VISUALSTYLE
  2
AcDbVisualStyle
  3
ObjectDBX Classes
 90
     4095
280
     0
281
     0
  0
CLASS
  1
MATERIAL
  2
AcDbMaterial
  3
ObjectDBX Classes
 90
     1153
280
     0
281
     0
  0
CLASS
  1
SCALE
  2
AcDbScale
  3
ObjectDBX Classes
 90
     1153
280
     0
281
     0
  0
CLASS
  1
TABLESTYLE
  2
AcDbTableStyle
  3
ObjectDBX Classes
 90
     4095
280
     0
281
     0
  0
CLASS
  1
MLEADERSTYLE
  2
AcDbMLeaderStyle
  3
ACDB_MLEADERSTYLE_CLASS
 90
     4095
280
     0
281
     0
  0
CLASS
  1
SUN
  2
AcDbSun
  3
SCENEOE
 90
     1153
280
     0
281
     0
  0
CLASS
  1
ACDBPLACEHOLDER
  2
AcDbPlaceHolder
  3
ObjectDBX Classes
 90
        0
280
     0
281
     0
  0
CLASS
  1
LAYOUT
  2
AcDbLayout
  3
ObjectDBX Classes
 90
        0
280
     0
281
     0
  0
ENDSEC
  0
SECTION
  2
TABLES
  0
TABLE
  2
VPORT
  5
8
330
0
100
AcDbSymbolTable
 70
     1
  0
VPORT
  5
29
330
8
100
AcDbSymbolTableRecord
100
AcDbViewportTableRecord
  2
*Active
 70
     0
 10
0.0
 20
0.0
 11
1.0
 21
1.0
 12
19.25
 22
14.875
 13
0.0
 23
0.0
 14
0.5
 24
0.5
 15
0.5
 25
0.5
 16
0.0
 26
0.0
 36
1.0
 17
0.0
 27
0.0
 37
0.0
 40
29.75
 41
1.2941176471
 42
50.0
 43
0.0
 44
0.0
 50
0.0
 51
0.0
 71
     0
 72
  2000
 73
     1
 74
     3
 75
     0
 76
     0
 77
     0
 78
     0
281
     0
 65
     1
110
0.0
120
0.0
130
0.0
111
1.0
121
0.0
131
0.0
112
0.0
122
1.0
132
0.0
 79
     0
146
0.0
  0
ENDTAB
  0
TABLE
  2
LTYPE
  5
5
330
0
100
AcDbSymbolTable
 70
     6
  0
LTYPE
  5
14
330
5
100
AcDbSymbolTableRecord
100
AcDbLinetypeTableRecord
  2
ByBlock
 70
     0
  3

 72
    65
 73
     0
 40
0.0
  0
LTYPE
  5
15
330
5
100
AcDbSymbolTableRecord
100
AcDbLinetypeTableRecord
  2
ByLayer
 70
     0
  3

 72
    65
 73
     0
 40
0.0
  0
LTYPE
  5
16
330
5
100
AcDbSymbolTableRecord
100
AcDbLinetypeTableRecord
  2
Continuous
 70
     0
  3
Solid line
 72
    65
 73
     0
 40
0.0
  0
LTYPE
  5
5E
330
5
100
AcDbSymbolTableRecord
100
AcDbLinetypeTableRecord
  2
HIDDEN
 70
     0
  3
Hidden __ __ __ __ __ __ __ __ __ __ __ __ __ __
 72
    65
 73
     2
 40
0.075
 49
0.05
 74
     0
 49
-0.025
 74
     0
  0
LTYPE
  5
5F
330
5
100
AcDbSymbolTableRecord
100
AcDbLinetypeTableRecord
  2
PHANTOM
 70
     0
  3
Phantom ______  __  __  ______  __  __  ______
 72
    65
 73
     6
 40
0.5
 49
0.25
 74
     0
 49
-0.05
 74
     0
 49
0.05
 74
     0
 49
-0.05
 74
     0
 49
0.05
 74
     0
 49
-0.05
 74
     0
  0
LTYPE
  5
60
330
5
100
AcDbSymbolTableRecord
100
AcDbLinetypeTableRecord
  2
CENTER
 70
     0
  3
Center ____ _ ____ _ ____ _ ____ _ ____ _ ____
 72
    65
 73
     4
 40
0.4
 49
0.25
 74
     0
 49
-0.05
 74
     0
 49
0.05
 74
     0
 49
-0.05
 74
     0
  0
LTYPE
  5
61
330
5
100
AcDbSymbolTableRecord
100
AcDbLinetypeTableRecord
  2
CENTERX2
 70
     0
  3
Center (2x) ________  __  ________  __  _____
 72
    65
 73
     4
 40
0.8
 49
0.5
 74
     0
 49
-0.1
 74
     0
 49
0.1
 74
     0
 49
-0.1
 74
     0
  0
LTYPE
  5
62
330
5
100
AcDbSymbolTableRecord
100
AcDbLinetypeTableRecord
  2
DOT2
 70
     0
  3
Dot (.5x) ........................................
 72
    65
 73
     2
 40
0.025
 49
0.0
 74
     0
 49
-0.025
 74
     0
  0
ENDTAB
  0
TABLE
  2
LAYER
  5
2
330
0
100
AcDbSymbolTable
 70
    11
  0
LAYER
  5
10
330
2
100
AcDbSymbolTableRecord
100
AcDbLayerTableRecord
  2
0
 70
     0
 62
     7
  6
Continuous
370
    -3
390
F
  0
LAYER
  5
63
330
2
100
AcDbSymbolTableRecord
100
AcDbLayerTableRecord
  2
SLD-0
 70
     0
 62
     7
  6
Continuous
370
    -3
390
F
  0
LAYER
  5
64
330
2
100
AcDbSymbolTableRecord
100
AcDbLayerTableRecord
  2
DIM
 70
     0
 62
     7
  6
Continuous
370
    -3
390
F
  0
LAYER
  5
65
330
2
100
AcDbSymbolTableRecord
100
AcDbLayerTableRecord
  2
CEN
 70
     0
 62
     1
  6
CENTER
370
    -3
390
F
  0
LAYER
  5
66
330
2
100
AcDbSymbolTableRecord
100
AcDbLayerTableRecord
  2
HAT
 70
     0
 62
     4
  6
Continuous
370
    -3
390
F
  0
LAYER
  5
67
330
2
100
AcDbSymbolTableRecord
100
AcDbLayerTableRecord
  2
OBJ
 70
     0
 62
     5
  6
Continuous
370
    -3
390
F
  0
LAYER
  5
68
330
2
100
AcDbSymbolTableRecord
100
AcDbLayerTableRecord
  2
SLD-DEFPOINTS
 70
     0
 62
     7
  6
Continuous
370
    -3
390
F
  0
LAYER
  5
69
330
2
100
AcDbSymbolTableRecord
100
AcDbLayerTableRecord
  2
HID
 70
     0
 62
     4
  6
HIDDEN
370
    -3
390
F
  0
LAYER
  5
6A
330
2
100
AcDbSymbolTableRecord
100
AcDbLayerTableRecord
  2
NOTE
 70
     0
 62
     7
  6
Continuous
370
    -3
390
F
  0
LAYER
  5
6B
330
2
100
AcDbSymbolTableRecord
100
AcDbLayerTableRecord
  2
TITLE
 70
     0
 62
     7
  6
Continuous
370
    -3
390
F
  0
LAYER
  5
6C
330
2
100
AcDbSymbolTableRecord
100
AcDbLayerTableRecord
  2
THICK_TITLE
 70
     0
 62
     7
  6
Continuous
370
   100
390
F
  0
ENDTAB
  0
TABLE
  2
STYLE
  5
3
330
0
100
AcDbSymbolTable
 70
     3
  0
STYLE
  5
11
330
3
100
AcDbSymbolTableRecord
100
AcDbTextStyleTableRecord
  2
Standard
 70
     0
 40
0.0
 41
1.0
 50
0.0
 71
     0
 42
0.4822834646
  3
txt
  4

  0
STYLE
  5
73
330
3
100
AcDbSymbolTableRecord
100
AcDbTextStyleTableRecord
  2
SLDTEXTSTYLE0
 70
     0
 40
0.0
 41
0.75
 50
0.0
 71
     0
 42
0.4822834646
  3
TXT
  4

  0
STYLE
  5
84
330
3
100
AcDbSymbolTableRecord
100
AcDbTextStyleTableRecord
  2
SLDTEXTSTYLE1
 70
     0
 40
0.0
 41
0.7
 50
0.0
 71
     0
 42
0.4822834646
  3
TXT
  4

  0
ENDTAB
  0
TABLE
  2
VIEW
  5
6
330
0
100
AcDbSymbolTable
 70
     0
  0
ENDTAB
  0
TABLE
  2
UCS
  5
7
330
0
100
AcDbSymbolTable
 70
     0
  0
ENDTAB
  0
TABLE
  2
APPID
  5
9
330
0
100
AcDbSymbolTable
 70
     1
  0
APPID
  5
12
330
9
100
AcDbSymbolTableRecord
100
AcDbRegAppTableRecord
  2
ACAD
 70
     0
  0
ENDTAB
  0
TABLE
  2
DIMSTYLE
  5
A
330
0
100
AcDbSymbolTable
 70
     4
100
AcDbDimStyleTable
  0
DIMSTYLE
105
27
330
A
100
AcDbSymbolTableRecord
100
AcDbDimStyleTableRecord
  2
Standard
 70
     0
178
     0
340
11
  0
DIMSTYLE
105
171
102
{ACAD_REACTORS
330
170
330
185
330
1AD
330
26C
330
28B
330
2A7
102
}
330
A
100
AcDbSymbolTableRecord
100
AcDbDimStyleTableRecord
  2
SLDDIMSTYLE0
 70
     0
 41
0.455
 44
0.0
 45
0.000000001
 78
    12
 79
     3
140
0.3645833333
147
0.0911458333
148
0.000000001
170
     1
171
     0
173
     1
178
     0
271
     6
272
     0
274
     0
276
     2
277
     5
284
    12
340
73
  0
DIMSTYLE
105
19A
102
{ACAD_REACTORS
330
199
102
}
330
A
100
AcDbSymbolTableRecord
100
AcDbDimStyleTableRecord
  2
SLDDIMSTYLE1
 70
     0
 41
0.455
 44
0.0
 45
0.000000001
 78
    12
 79
     3
140
0.3645833333
147
0.0911458333
148
0.000000001
170
     1
171
     0
173
     1
178
     0
271
     0
272
     0
274
     0
276
     2
277
     5
284
    12
340
73
  0
DIMSTYLE
105
1C3
330
A
100
AcDbSymbolTableRecord
100
AcDbDimStyleTableRecord
  2
SLDDIMSTYLE2
 70
     0
 41
0.455
 44
0.0
 45
0.000000001
146
0.455
147
0.0
173
     1
178
     0
271
     0
272
     0
276
     2
277
     5
340
11
  0
ENDTAB
  0
TABLE
  2
BLOCK_RECORD
  5
1
330
0
100
AcDbSymbolTable
 70
    14
  0
BLOCK_RECORD
  5
1F
330
1
100
AcDbSymbolTableRecord
100
AcDbBlockTableRecord
  2
*Model_Space
340
22
  0
BLOCK_RECORD
  5
1B
330
1
100
AcDbSymbolTableRecord
100
AcDbBlockTableRecord
  2
*Paper_Space
340
1E
  0
BLOCK_RECORD
  5
23
330
1
100
AcDbSymbolTableRecord
100
AcDbBlockTableRecord
  2
*Paper_Space0
340
26
  0
BLOCK_RECORD
  5
6D
330
1
100
AcDbSymbolTableRecord
100
AcDbBlockTableRecord
  2
Block1
340
0
102
{BLKREFS
331
26B
102
}
  0
BLOCK_RECORD
  5
70
330
1
100
AcDbSymbolTableRecord
100
AcDbBlockTableRecord
  2
SW_NOTE_0
340
0
102
{BLKREFS
331
75
102
}
  0
BLOCK_RECORD
  5
76
330
1
100
AcDbSymbolTableRecord
100
AcDbBlockTableRecord
  2
Block2
340
0
102
{BLKREFS
331
28A
102
}
  0
BLOCK_RECORD
  5
79
330
1
100
AcDbSymbolTableRecord
100
AcDbBlockTableRecord
  2
SW_NOTE_0_1
340
0
102
{BLKREFS
331
7D
102
}
  0
BLOCK_RECORD
  5
7E
330
1
100
AcDbSymbolTableRecord
100
AcDbBlockTableRecord
  2
Block3
340
0
102
{BLKREFS
331
2A6
102
}
  0
BLOCK_RECORD
  5
81
330
1
100
AcDbSymbolTableRecord
100
AcDbBlockTableRecord
  2
SW_NOTE_0_2
340
0
102
{BLKREFS
331
86
102
}
  0
BLOCK_RECORD
  5
172
330
1
100
AcDbSymbolTableRecord
100
AcDbBlockTableRecord
  2
_D
340
0
  0
BLOCK_RECORD
  5
186
330
1
100
AcDbSymbolTableRecord
100
AcDbBlockTableRecord
  2
_D_1
340
0
  0
BLOCK_RECORD
  5
19B
330
1
100
AcDbSymbolTableRecord
100
AcDbBlockTableRecord
  2
_D_2
340
0
  0
BLOCK_RECORD
  5
1AE
330
1
100
AcDbSymbolTableRecord
100
AcDbBlockTableRecord
  2
_D_3
340
0
  0
BLOCK_RECORD
  5
26D
330
1
100
AcDbSymbolTableRecord
100
AcDbBlockTableRecord
  2
_D_4
340
0
  0
BLOCK_RECORD
  5
28C
330
1
100
AcDbSymbolTableRecord
100
AcDbBlockTableRecord
  2
_D_5
340
0
  0
BLOCK_RECORD
  5
2A8
330
1
100
AcDbSymbolTableRecord
100
AcDbBlockTableRecord
  2
_D_6
340
0
  0
ENDTAB
  0
ENDSEC
  0
SECTION
  2
BLOCKS
  0
BLOCK
  5
20
330
1F
100
AcDbEntity
  8
0
100
AcDbBlockBegin
  2
*Model_Space
 70
     0
 10
0.0
 20
0.0
 30
0.0
  3
*Model_Space
  1

  0
ENDBLK
  5
21
330
1F
100
AcDbEntity
  8
0
100
AcDbBlockEnd
  0
BLOCK
  5
1C
330
1B
100
AcDbEntity
 67
     1
  8
0
100
AcDbBlockBegin
  2
*Paper_Space
 70
     0
 10
0.0
 20
0.0
 30
0.0
  3
*Paper_Space
  1

  0
ENDBLK
  5
1D
330
1B
100
AcDbEntity
 67
     1
  8
0
100
AcDbBlockEnd
  0
BLOCK
  5
24
330
23
100
AcDbEntity
  8
0
100
AcDbBlockBegin
  2
*Paper_Space0
 70
     0
 10
0.0
 20
0.0
 30
0.0
  3
*Paper_Space0
  1

  0
ENDBLK
  5
25
330
23
100
AcDbEntity
  8
0
100
AcDbBlockEnd
  0
BLOCK
  5
6E
330
6D
100
AcDbEntity
  8
0
100
AcDbBlockBegin
  2
Block1
 70
     0
 10
0.0
 20
0.0
 30
0.0
  3
Block1
  1

  0
INSERT
  5
75
330
6D
100
AcDbEntity
  8
0
  6
Continuous
 62
     7
370
     0
100
AcDbBlockReference
  2
SW_NOTE_0
 10
0.0014376014
 20
-0.0608373386
 30
0.0
  0
ENDBLK
  5
6F
330
6D
100
AcDbEntity
  8
0
100
AcDbBlockEnd
  0
BLOCK
  5
71
330
70
100
AcDbEntity
  8
0
100
AcDbBlockBegin
  2
SW_NOTE_0
 70
     0
 10
0.0
 20
0.0
 30
0.0
  3
SW_NOTE_0
  1

  0
MTEXT
  5
74
330
70
100
AcDbEntity
  8
0
  6
Continuous
 62
     0
370
     0
100
AcDbMText
 10
2.0279947917
 20
0.9399452269
 30
0.0
 40
0.7291666667
 41
0.0
 71
     2
 72
     1
  1
A/D CAP
  7
SLDTEXTSTYLE0
 73
     1
 44
1.0
  0
ENDBLK
  5
72
330
70
100
AcDbEntity
  8
0
100
AcDbBlockEnd
  0
BLOCK
  5
77
330
76
100
AcDbEntity
  8
0
100
AcDbBlockBegin
  2
Block2
 70
     0
 10
0.0
 20
0.0
 30
0.0
  3
Block2
  1

  0
INSERT
  5
7D
330
76
100
AcDbEntity
  8
0
  6
Continuous
 62
     7
370
     0
100
AcDbBlockReference
  2
SW_NOTE_0_1
 10
0.0137950315
 20
0.9946327322
 30
0.0
  0
ENDBLK
  5
78
330
76
100
AcDbEntity
  8
0
100
AcDbBlockEnd
  0
BLOCK
  5
7A
330
79
100
AcDbEntity
  8
0
100
AcDbBlockBegin
  2
SW_NOTE_0_1
 70
     0
 10
0.0
 20
0.0
 30
0.0
  3
SW_NOTE_0_1
  1

  0
MTEXT
  5
7C
330
79
100
AcDbEntity
  8
0
  6
Continuous
 62
     0
370
     0
100
AcDbMText
 10
1.8798828125
 20
0.9399452269
 30
0.0
 40
0.7291666667
 41
0.0
 71
     2
 72
     1
  1
B/E CAP
  7
SLDTEXTSTYLE0
 73
     1
 44
1.0
  0
ENDBLK
  5
7B
330
79
100
AcDbEntity
  8
0
100
AcDbBlockEnd
  0
BLOCK
  5
7F
330
7E
100
AcDbEntity
  8
0
100
AcDbBlockBegin
  2
Block3
 70
     0
 10
0.0
 20
0.0
 30
0.0
  3
Block3
  1

  0
INSERT
  5
86
330
7E
100
AcDbEntity
  8
0
  6
Continuous
 62
     7
370
     0
100
AcDbBlockReference
  2
SW_NOTE_0_2
 10
0.0395968412
 20
-0.0324613209
 30
0.0
  0
ENDBLK
  5
80
330
7E
100
AcDbEntity
  8
0
100
AcDbBlockEnd
  0
BLOCK
  5
82
330
81
100
AcDbEntity
  8
0
100
AcDbBlockBegin
  2
SW_NOTE_0_2
 70
     0
 10
0.0
 20
0.0
 30
0.0
  3
SW_NOTE_0_2
  1

  0
MTEXT
  5
85
330
81
100
AcDbEntity
  8
0
  6
Continuous
 62
     0
370
     0
100
AcDbMText
 10
1.5266927083
 20
0.9399452269
 30
0.0
 40
0.7291666667
 41
0.0
 71
     2
 72
     1
  1
C CAP
  7
SLDTEXTSTYLE1
 73
     1
 44
1.0
  0
ENDBLK
  5
83
330
81
100
AcDbEntity
  8
0
100
AcDbBlockEnd
  0
BLOCK
  5
173
330
172
100
AcDbEntity
  8
0
100
AcDbBlockBegin
  2
_D
 70
     0
 10
0.0
 20
0.0
 30
0.0
  3
_D
  1

  0
SOLID
  5
175
330
172
100
AcDbEntity
  8
0
  6
Continuous
 62
     7
370
    18
100
AcDbTrace
 10
3.0706376862
 20
18.9969330881
 30
0.0
 11
3.4418687464
 21
19.2691691989
 31
0.0
 12
3.342873797
 22
19.3681641483
 32
0.0
 13
3.342873797
 23
19.3681641483
 33
0.0
  0
SOLID
  5
176
330
172
100
AcDbEntity
  8
0
  6
Continuous
 62
     7
370
    18
100
AcDbTrace
 10
12.0266400447
 20
27.9529354466
 30
0.0
 11
11.6554089846
 21
27.6806993359
 31
0.0
 12
11.754403934
 22
27.5817043865
 32
0.0
 13
11.754403934
 23
27.5817043865
 33
0.0
  0
LINE
  5
177
330
172
100
AcDbEntity
  8
0
  6
Continuous
 62
     7
370
     0
100
AcDbLine
 10
6.6888297498
 20
23.4749342674
 30
0.0
 11
6.577935655
 21
23.4749342674
 31
0.0
  0
LINE
  5
178
330
172
100
AcDbEntity
  8
0
  6
Continuous
 62
     7
370
     0
100
AcDbLine
 10
6.577935655
 20
23.4749342674
 30
0.0
 11
6.577935655
 21
22.8956518643
 31
0.0
  0
LINE
  5
179
330
172
100
AcDbEntity
  8
0
  6
Continuous
 62
     7
370
     0
100
AcDbLine
 10
6.577935655
 20
22.8956518643
 30
0.0
 11
6.6888297498
 21
22.8956518643
 31
0.0
  0
LINE
  5
17A
330
172
100
AcDbEntity
  8
0
  6
Continuous
 62
     7
370
     0
100
AcDbLine
 10
8.4084478047
 20
23.4749342674
 30
0.0
 11
8.5193418995
 21
23.4749342674
 31
0.0
  0
LINE
  5
17B
330
172
100
AcDbEntity
  8
0
  6
Continuous
 62
     7
370
     0
100
AcDbLine
 10
8.5193418995
 20
23.4749342674
 30
0.0
 11
8.5193418995
 21
22.8956518643
 31
0.0
  0
LINE
  5
17C
330
172
100
AcDbEntity
  8
0
  6
Continuous
 62
     7
370
     0
100
AcDbLine
 10
8.5193418995
 20
22.8956518643
 30
0.0
 11
8.4084478047
 21
22.8956518643
 31
0.0
  0
LINE
  5
17D
330
172
100
AcDbEntity
  8
0
  6
Continuous
 62
     7
370
     0
100
AcDbLine
 10
5.7191674033
 20
16.348403371
 30
0.0
 11
2.9732017125
 21
19.0943690619
 31
0.0
  0
LINE
  5
17E
330
172
100
AcDbEntity
  8
0
  6
Continuous
 62
     7
370
     0
100
AcDbLine
 10
13.2715628012
 20
26.7080126902
 30
0.0
 11
11.9292040709
 21
28.0503714204
 31
0.0
  0
LINE
  5
17F
330
172
100
AcDbEntity
  8
0
  6
Continuous
 62
     7
370
     0
100
AcDbLine
 10
3.0706376862
 20
18.9969330881
 30
0.0
 11
6.8954270498
 21
22.8217224517
 31
0.0
  0
LINE
  5
180
330
172
100
AcDbEntity
  8
0
  6
Continuous
 62
     7
370
     0
100
AcDbLine
 10
12.0266400447
 20
27.9529354466
 30
0.0
 11
8.2018506812
 21
24.1281460831
 31
0.0
  0
MTEXT
  5
181
330
172
100
AcDbEntity
  8
0
  6
Continuous
 62
     7
370
    18
100
AcDbMText
 10
6.4694046023
 20
24.0188362854
 30
0.0
 40
0.3645833333
 41
0.0
 71
     1
 72
     1
  1

  7
SLDTEXTSTYLE0
 73
     1
 44
1.0
  0
MTEXT
  5
182
330
172
100
AcDbEntity
  8
0
  6
Continuous
 62
     7
370
    18
100
AcDbMText
 10
6.4916847404
 20
24.0188362854
 30
0.0
 40
0.3645833333
 41
0.0
 71
     1
 72
     1
  1
12 11/16"
  7
SLDTEXTSTYLE0
 73
     1
 44
1.0
  0
MTEXT
  5
183
330
172
100
AcDbEntity
  8
0
  6
Continuous
 62
     7
370
    18
100
AcDbMText
 10
6.6888297498
 20
23.3656244697
 30
0.0
 40
0.3645833333
 41
0.0
 71
     1
 72
     1
  1
322mm
  7
SLDTEXTSTYLE0
 73
     1
 44
1.0
  0
MTEXT
  5
184
330
172
100
AcDbEntity
  8
0
  6
Continuous
 62
     7
370
    18
100
AcDbMText
 10
8.7669548808
 20
24.0188362854
 30
0.0
 40
0.3645833333
 41
0.0
 71
     1
 72
     1
  1

  7
SLDTEXTSTYLE0
 73
     1
 44
1.0
  0
ENDBLK
  5
174
330
172
100
AcDbEntity
  8
0
100
AcDbBlockEnd
  0
BLOCK
  5
187
330
186
100
AcDbEntity
  8
0
100
AcDbBlockBegin
  2
_D_1
 70
     0
 10
0.0
 20
0.0
 30
0.0
  3
_D_1
  1

  0
SOLID
  5
189
330
186
100
AcDbEntity
  8
0
  6
Continuous
 62
     7
370
    18
100
AcDbTrace
 10
3.0410882912
 20
16.2509673973
 30
0.0
 11
2.9710882912
 21
15.7959673973
 31
0.0
 12
3.1110882912
 22
15.7959673973
 32
0.0
 13
3.1110882912
 23
15.7959673973
 33
0.0
  0
SOLID
  5
18A
330
186
100
AcDbEntity
  8
0
  6
Continuous
 62
     7
370
    18
100
AcDbTrace
 10
3.0410882912
 20
13.5629673973
 30
0.0
 11
3.1110882912
 21
14.0179673973
 31
0.0
 12
2.9710882912
 22
14.0179673973
 32
0.0
 13
2.9710882912
 23
14.0179673973
 33
0.0
  0
LINE
  5
18B
330
186
100
AcDbEntity
  8
0
  6
Continuous
 62
     7
370
     0
100
AcDbLine
 10
2.3159725646
 20
14.9069673973
 30
0.0
 11
2.2050784697
 21
14.9069673973
 31
0.0
  0
LINE
  5
18C
330
186
100
AcDbEntity
  8
0
  6
Continuous
 62
     7
370
     0
100
AcDbLine
 10
2.2050784697
 20
14.9069673973
 30
0.0
 11
2.2050784697
 21
14.3276849942
 31
0.0
  0
LINE
  5
18D
330
186
100
AcDbEntity
  8
0
  6
Continuous
 62
     7
370
     0
100
AcDbLine
 10
2.2050784697
 20
14.3276849942
 30
0.0
 11
2.3159725646
 21
14.3276849942
 31
0.0
  0
LINE
  5
18E
330
186
100
AcDbEntity
  8
0
  6
Continuous
 62
     7
370
     0
100
AcDbLine
 10
3.7662040981
 20
14.9069673973
 30
0.0
 11
3.8770981929
 21
14.9069673973
 31
0.0
  0
LINE
  5
18F
330
186
100
AcDbEntity
  8
0
  6
Continuous
 62
     7
370
     0
100
AcDbLine
 10
3.8770981929
 20
14.9069673973
 30
0.0
 11
3.8770981929
 21
14.3276849942
 31
0.0
  0
LINE
  5
190
330
186
100
AcDbEntity
  8
0
  6
Continuous
 62
     7
370
     0
100
AcDbLine
 10
3.8770981929
 20
14.3276849942
 30
0.0
 11
3.7662040981
 21
14.3276849942
 31
0.0
  0
LINE
  5
191
330
186
100
AcDbEntity
  8
0
  6
Continuous
 62
     7
370
     0
100
AcDbLine
 10
5.6788081015
 20
16.2509673973
 30
0.0
 11
2.9032930156
 21
16.2509673973
 31
0.0
  0
LINE
  5
192
330
186
100
AcDbEntity
  8
0
  6
Continuous
 62
     7
370
     0
100
AcDbLine
 10
4.9338081015
 20
13.5629673973
 30
0.0
 11
2.9032930156
 21
13.5629673973
 31
0.0
  0
LINE
  5
193
330
186
100
AcDbEntity
  8
0
  6
Continuous
 62
     7
370
     0
100
AcDbLine
 10
3.0410882912
 20
16.2509673973
 30
0.0
 11
3.0410882912
 21
15.560179213
 31
0.0
  0
LINE
  5
194
330
186
100
AcDbEntity
  8
0
  6
Continuous
 62
     7
370
     0
100
AcDbLine
 10
3.0410882912
 20
13.5629673973
 30
0.0
 11
3.0410882912
 21
14.2537555815
 31
0.0
  0
MTEXT
  5
195
330
186
100
AcDbEntity
  8
0
  6
Continuous
 62
     7
370
    18
100
AcDbMText
 10
2.096547417
 20
15.4508694153
 30
0.0
 40
0.3645833333
 41
0.0
 71
     1
 72
     1
  1

  7
SLDTEXTSTYLE0
 73
     1
 44
1.0
  0
MTEXT
  5
196
330
186
100
AcDbEntity
  8
0
  6
Continuous
 62
     7
370
    18
100
AcDbMText
 10
2.118827491
 20
15.4508694153
 30
0.0
 40
0.3645833333
 41
0.0
 71
     1
 72
     1
  1
2 11/16"
  7
SLDTEXTSTYLE0
 73
     1
 44
1.0
  0
MTEXT
  5
197
330
186
100
AcDbEntity
  8
0
  6
Continuous
 62
     7
370
    18
100
AcDbMText
 10
2.3159725646
 20
14.7976575996
 30
0.0
 40
0.3645833333
 41
0.0
 71
     1
 72
     1
  1
68mm
  7
SLDTEXTSTYLE0
 73
     1
 44
1.0
  0
MTEXT
  5
198
330
186
100
AcDbEntity
  8
0
  6
Continuous
 62
     7
370
    18
100
AcDbMText
 10
4.1247110458
 20
15.4508694153
 30
0.0
 40
0.3645833333
 41
0.0
 71
     1
 72
     1
  1

  7
SLDTEXTSTYLE0
 73
     1
 44
1.0
  0
ENDBLK
  5
188
330
186
100
AcDbEntity
  8
0
100
AcDbBlockEnd
  0
BLOCK
  5
19C
330
19B
100
AcDbEntity
  8
0
100
AcDbBlockBegin
  2
_D_2
 70
     0
 10
0.0
 20
0.0
 30
0.0
  3
_D_2
  1

  0
SOLID
  5
19E
330
19B
100
AcDbEntity
  8
0
  6
Continuous
 62
     7
370
    18
100
AcDbTrace
 10
14.2014504973
 20
27.4430284387
 30
0.0
 11
14.473686608
 21
27.0717973786
 31
0.0
 12
14.5726815574
 22
27.170792328
 32
0.0
 13
14.5726815574
 23
27.170792328
 33
0.0
  0
SOLID
  5
19F
330
19B
100
AcDbEntity
  8
0
  6
Continuous
 62
     7
370
    18
100
AcDbTrace
 10
17.0086644186
 20
24.6358145174
 30
0.0
 11
16.7364283078
 21
25.0070455775
 31
0.0
 12
16.6374333585
 22
24.9080506282
 32
0.0
 13
16.6374333585
 23
24.9080506282
 33
0.0
  0
LINE
  5
1A0
330
19B
100
AcDbEntity
  8
0
  6
Continuous
 62
     7
370
     0
100
AcDbLine
 10
14.7452483824
 20
26.0394214781
 30
0.0
 11
14.6343542875
 21
26.0394214781
 31
0.0
  0
LINE
  5
1A1
330
19B
100
AcDbEntity
  8
0
  6
Continuous
 62
     7
370
     0
100
AcDbLine
 10
14.6343542875
 20
26.0394214781
 30
0.0
 11
14.6343542875
 21
25.460139075
 31
0.0
  0
LINE
  5
1A2
330
19B
100
AcDbEntity
  8
0
  6
Continuous
 62
     7
370
     0
100
AcDbLine
 10
14.6343542875
 20
25.460139075
 30
0.0
 11
14.7452483824
 21
25.460139075
 31
0.0
  0
LINE
  5
1A3
330
19B
100
AcDbEntity
  8
0
  6
Continuous
 62
     7
370
     0
100
AcDbLine
 10
16.4648664372
 20
26.0394214781
 30
0.0
 11
16.5757605321
 21
26.0394214781
 31
0.0
  0
LINE
  5
1A4
330
19B
100
AcDbEntity
  8
0
  6
Continuous
 62
     7
370
     0
100
AcDbLine
 10
16.5757605321
 20
26.0394214781
 30
0.0
 11
16.5757605321
 21
25.460139075
 31
0.0
  0
LINE
  5
1A5
330
19B
100
AcDbEntity
  8
0
  6
Continuous
 62
     7
370
     0
100
AcDbLine
 10
16.5757605321
 20
25.460139075
 30
0.0
 11
16.4648664372
 21
25.460139075
 31
0.0
  0
LINE
  5
1A6
330
19B
100
AcDbEntity
  8
0
  6
Continuous
 62
     7
370
     0
100
AcDbLine
 10
13.4664347487
 20
26.7080126902
 30
0.0
 11
14.2988864711
 21
27.5404644125
 31
0.0
  0
LINE
  5
1A7
330
19B
100
AcDbEntity
  8
0
  6
Continuous
 62
     7
370
     0
100
AcDbLine
 10
13.4664347487
 20
21.0935848476
 30
0.0
 11
17.1061003924
 21
24.7332504912
 31
0.0
  0
LINE
  5
1A8
330
19B
100
AcDbEntity
  8
0
  6
Continuous
 62
     7
370
     0
100
AcDbLine
 10
14.2014504973
 20
27.4430284387
 30
0.0
 11
14.9518456422
 21
26.6926332938
 31
0.0
  0
LINE
  5
1A9
330
19B
100
AcDbEntity
  8
0
  6
Continuous
 62
     7
370
     0
100
AcDbLine
 10
17.0086644186
 20
24.6358145174
 30
0.0
 11
16.2582692736
 21
25.3862096624
 31
0.0
  0
MTEXT
  5
1AA
330
19B
100
AcDbEntity
  8
0
  6
Continuous
 62
     7
370
    18
100
AcDbMText
 10
15.1199253322
 20
26.5833234961
 30
0.0
 40
0.3645833333
 41
0.0
 71
     1
 72
     1
  1
%%c
  7
SLDTEXTSTYLE0
 73
     1
 44
1.0
  0
MTEXT
  5
1AB
330
19B
100
AcDbEntity
  8
0
  6
Continuous
 62
     7
370
    18
100
AcDbMText
 10
15.6702436216
 20
26.5833234961
 30
0.0
 40
0.3645833333
 41
0.0
 71
     1
 72
     1
  1
4"
  7
SLDTEXTSTYLE0
 73
     1
 44
1.0
  0
MTEXT
  5
1AC
330
19B
100
AcDbEntity
  8
0
  6
Continuous
 62
     7
370
    18
100
AcDbMText
 10
14.7452483824
 20
25.9301116804
 30
0.0
 40
0.3645833333
 41
0.0
 71
     1
 72
     1
  1
101mm
  7
SLDTEXTSTYLE0
 73
     1
 44
1.0
  0
ENDBLK
  5
19D
330
19B
100
AcDbEntity
  8
0
100
AcDbBlockEnd
  0
BLOCK
  5
1AF
330
1AE
100
AcDbEntity
  8
0
100
AcDbBlockBegin
  2
_D_3
 70
     0
 10
0.0
 20
0.0
 30
0.0
  3
_D_3
  1

  0
SOLID
  5
1B1
330
1AE
100
AcDbEntity
  8
0
  6
Continuous
 62
     7
370
    18
100
AcDbTrace
 10
12.7802211877
 20
17.4342096555
 30
0.0
 11
12.4089901276
 21
17.1619735447
 31
0.0
 12
12.5079850769
 22
17.0629785953
 32
0.0
 13
12.5079850769
 23
17.0629785953
 33
0.0
  0
SOLID
  5
1B2
330
1AE
100
AcDbEntity
  8
0
  6
Continuous
 62
     7
370
    18
100
AcDbTrace
 10
8.7067911533
 20
13.3607796211
 30
0.0
 11
9.0780222134
 21
13.6330157318
 31
0.0
 12
8.9790272641
 22
13.7320106812
 32
0.0
 13
8.9790272641
 23
13.7320106812
 33
0.0
  0
LINE
  5
1B3
330
1AE
100
AcDbEntity
  8
0
  6
Continuous
 62
     7
370
     0
100
AcDbLine
 10
9.8836970549
 20
15.3974946383
 30
0.0
 11
9.77280296
 21
15.3974946383
 31
0.0
  0
LINE
  5
1B4
330
1AE
100
AcDbEntity
  8
0
  6
Continuous
 62
     7
370
     0
100
AcDbLine
 10
9.77280296
 20
15.3974946383
 30
0.0
 11
9.77280296
 21
14.8182122352
 31
0.0
  0
LINE
  5
1B5
330
1AE
100
AcDbEntity
  8
0
  6
Continuous
 62
     7
370
     0
100
AcDbLine
 10
9.77280296
 20
14.8182122352
 30
0.0
 11
9.8836970549
 21
14.8182122352
 31
0.0
  0
LINE
  5
1B6
330
1AE
100
AcDbEntity
  8
0
  6
Continuous
 62
     7
370
     0
100
AcDbLine
 10
11.6033151097
 20
15.3974946383
 30
0.0
 11
11.7142092046
 21
15.3974946383
 31
0.0
  0
LINE
  5
1B7
330
1AE
100
AcDbEntity
  8
0
  6
Continuous
 62
     7
370
     0
100
AcDbLine
 10
11.7142092046
 20
15.3974946383
 30
0.0
 11
11.7142092046
 21
14.8182122352
 31
0.0
  0
LINE
  5
1B8
330
1AE
100
AcDbEntity
  8
0
  6
Continuous
 62
     7
370
     0
100
AcDbLine
 10
11.7142092046
 20
14.8182122352
 30
0.0
 11
11.6033151097
 21
14.8182122352
 31
0.0
  0
LINE
  5
1B9
330
1AE
100
AcDbEntity
  8
0
  6
Continuous
 62
     7
370
     0
100
AcDbLine
 10
11.3910763459
 20
18.8233544972
 30
0.0
 11
12.8776571615
 21
17.3367736817
 31
0.0
  0
LINE
  5
1BA
330
1AE
100
AcDbEntity
  8
0
  6
Continuous
 62
     7
370
     0
100
AcDbLine
 10
5.9140393509
 20
16.1535314235
 30
0.0
 11
8.8042271271
 21
13.2633436473
 31
0.0
  0
LINE
  5
1BB
330
1AE
100
AcDbEntity
  8
0
  6
Continuous
 62
     7
370
     0
100
AcDbLine
 10
12.7802211877
 20
17.4342096555
 30
0.0
 11
11.3967179862
 21
16.050706454
 31
0.0
  0
LINE
  5
1BC
330
1AE
100
AcDbEntity
  8
0
  6
Continuous
 62
     7
370
     0
100
AcDbLine
 10
8.7067911533
 20
13.3607796211
 30
0.0
 11
10.0902943548
 21
14.7442828226
 31
0.0
  0
MTEXT
  5
1BD
330
1AE
100
AcDbEntity
  8
0
  6
Continuous
 62
     7
370
    18
100
AcDbMText
 10
9.6642719073
 20
15.9413966563
 30
0.0
 40
0.3645833333
 41
0.0
 71
     1
 72
     1
  1

  7
SLDTEXTSTYLE0
 73
     1
 44
1.0
  0
MTEXT
  5
1BE
330
1AE
100
AcDbEntity
  8
0
  6
Continuous
 62
     7
370
    18
100
AcDbMText
 10
10.0906318275
 20
15.9413966563
 30
0.0
 40
0.3645833333
 41
0.0
 71
     1
 72
     1
  1
5 3/4"
  7
SLDTEXTSTYLE0
 73
     1
 44
1.0
  0
MTEXT
  5
1BF
330
1AE
100
AcDbEntity
  8
0
  6
Continuous
 62
     7
370
    18
100
AcDbMText
 10
9.8836970549
 20
15.2881848406
 30
0.0
 40
0.3645833333
 41
0.0
 71
     1
 72
     1
  1
146mm
  7
SLDTEXTSTYLE0
 73
     1
 44
1.0
  0
MTEXT
  5
1C0
330
1AE
100
AcDbEntity
  8
0
  6
Continuous
 62
     7
370
    18
100
AcDbMText
 10
11.9618221858
 20
15.9413966563
 30
0.0
 40
0.3645833333
 41
0.0
 71
     1
 72
     1
  1

  7
SLDTEXTSTYLE0
 73
     1
 44
1.0
  0
ENDBLK
  5
1B0
330
1AE
100
AcDbEntity
  8
0
100
AcDbBlockEnd
  0
BLOCK
  5
26E
330
26D
100
AcDbEntity
  8
0
100
AcDbBlockBegin
  2
_D_4
 70
     0
 10
0.0
 20
0.0
 30
0.0
  3
_D_4
  1

  0
SOLID
  5
270
330
26D
100
AcDbEntity
  8
0
  6
Continuous
 62
     7
370
    18
100
AcDbTrace
 10
6.8416255095
 20
10.8197654449
 30
0.0
 11
6.7716255095
 21
10.3647654449
 31
0.0
 12
6.9116255095
 22
10.3647654449
 32
0.0
 13
6.9116255095
 23
10.3647654449
 33
0.0
  0
SOLID
  5
271
330
26D
100
AcDbEntity
  8
0
  6
Continuous
 62
     7
370
    18
100
AcDbTrace
 10
6.8416255095
 20
3.9147654449
 30
0.0
 11
6.9116255095
 21
4.3697654449
 31
0.0
 12
6.7716255095
 22
4.3697654449
 32
0.0
 13
6.7716255095
 23
4.3697654449
 33
0.0
  0
LINE
  5
272
330
26D
100
AcDbEntity
  8
0
  6
Continuous
 62
     7
370
     0
100
AcDbLine
 10
5.9818163939
 20
7.3672654449
 30
0.0
 11
5.870922299
 21
7.3672654449
 31
0.0
  0
LINE
  5
273
330
26D
100
AcDbEntity
  8
0
  6
Continuous
 62
     7
370
     0
100
AcDbLine
 10
5.870922299
 20
7.3672654449
 30
0.0
 11
5.870922299
 21
6.7879830418
 31
0.0
  0
LINE
  5
274
330
26D
100
AcDbEntity
  8
0
  6
Continuous
 62
     7
370
     0
100
AcDbLine
 10
5.870922299
 20
6.7879830418
 30
0.0
 11
5.9818163939
 21
6.7879830418
 31
0.0
  0
LINE
  5
275
330
26D
100
AcDbEntity
  8
0
  6
Continuous
 62
     7
370
     0
100
AcDbLine
 10
7.7014344487
 20
7.3672654449
 30
0.0
 11
7.8123285436
 21
7.3672654449
 31
0.0
  0
LINE
  5
276
330
26D
100
AcDbEntity
  8
0
  6
Continuous
 62
     7
370
     0
100
AcDbLine
 10
7.8123285436
 20
7.3672654449
 30
0.0
 11
7.8123285436
 21
6.7879830418
 31
0.0
  0
LINE
  5
277
330
26D
100
AcDbEntity
  8
0
  6
Continuous
 62
     7
370
     0
100
AcDbLine
 10
7.8123285436
 20
6.7879830418
 30
0.0
 11
7.7014344487
 21
6.7879830418
 31
0.0
  0
LINE
  5
278
330
26D
100
AcDbEntity
  8
0
  6
Continuous
 62
     7
370
     0
100
AcDbLine
 10
8.4207191747
 20
10.8197654449
 30
0.0
 11
6.7038302339
 21
10.8197654449
 31
0.0
  0
LINE
  5
279
330
26D
100
AcDbEntity
  8
0
  6
Continuous
 62
     7
370
     0
100
AcDbLine
 10
8.4207191747
 20
3.9147654449
 30
0.0
 11
6.7038302339
 21
3.9147654449
 31
0.0
  0
LINE
  5
27A
330
26D
100
AcDbEntity
  8
0
  6
Continuous
 62
     7
370
     0
100
AcDbLine
 10
6.8416255095
 20
10.8197654449
 30
0.0
 11
6.8416255095
 21
8.0204772606
 31
0.0
  0
LINE
  5
27B
330
26D
100
AcDbEntity
  8
0
  6
Continuous
 62
     7
370
     0
100
AcDbLine
 10
6.8416255095
 20
3.9147654449
 30
0.0
 11
6.8416255095
 21
6.7140536292
 31
0.0
  0
MTEXT
  5
27C
330
26D
100
AcDbEntity
  8
0
  6
Continuous
 62
     7
370
    18
100
AcDbMText
 10
5.7623912463
 20
7.911167463
 30
0.0
 40
0.3645833333
 41
0.0
 71
     1
 72
     1
  1

  7
SLDTEXTSTYLE0
 73
     1
 44
1.0
  0
MTEXT
  5
27D
330
26D
100
AcDbEntity
  8
0
  6
Continuous
 62
     7
370
    18
100
AcDbMText
 10
6.1887511665
 20
7.911167463
 30
0.0
 40
0.3645833333
 41
0.0
 71
     1
 72
     1
  1
6 7/8"
  7
SLDTEXTSTYLE0
 73
     1
 44
1.0
  0
MTEXT
  5
27E
330
26D
100
AcDbEntity
  8
0
  6
Continuous
 62
     7
370
    18
100
AcDbMText
 10
5.9818163939
 20
7.2579556473
 30
0.0
 40
0.3645833333
 41
0.0
 71
     1
 72
     1
  1
175mm
  7
SLDTEXTSTYLE0
 73
     1
 44
1.0
  0
MTEXT
  5
27F
330
26D
100
AcDbEntity
  8
0
  6
Continuous
 62
     7
370
    18
100
AcDbMText
 10
8.0599415248
 20
7.911167463
 30
0.0
 40
0.3645833333
 41
0.0
 71
     1
 72
     1
  1

  7
SLDTEXTSTYLE0
 73
     1
 44
1.0
  0
ENDBLK
  5
26F
330
26D
100
AcDbEntity
  8
0
100
AcDbBlockEnd
  0
BLOCK
  5
28D
330
28C
100
AcDbEntity
  8
0
100
AcDbBlockBegin
  2
_D_5
 70
     0
 10
0.0
 20
0.0
 30
0.0
  3
_D_5
  1

  0
SOLID
  5
28F
330
28C
100
AcDbEntity
  8
0
  6
Continuous
 62
     7
370
    18
100
AcDbTrace
 10
15.7009600812
 20
7.0552021164
 30
0.0
 11
15.6309600812
 21
6.6002021164
 31
0.0
 12
15.7709600812
 22
6.6002021164
 32
0.0
 13
15.7709600812
 23
6.6002021164
 33
0.0
  0
SOLID
  5
290
330
28C
100
AcDbEntity
  8
0
  6
Continuous
 62
     7
370
    18
100
AcDbTrace
 10
15.7009600812
 20
3.6489521164
 30
0.0
 11
15.7709600812
 21
4.1039521164
 31
0.0
 12
15.6309600812
 22
4.1039521164
 32
0.0
 13
15.6309600812
 23
4.1039521164
 33
0.0
  0
LINE
  5
291
330
28C
100
AcDbEntity
  8
0
  6
Continuous
 62
     7
370
     0
100
AcDbLine
 10
14.9758443546
 20
5.3520771164
 30
0.0
 11
14.8649502597
 21
5.3520771164
 31
0.0
  0
LINE
  5
292
330
28C
100
AcDbEntity
  8
0
  6
Continuous
 62
     7
370
     0
100
AcDbLine
 10
14.8649502597
 20
5.3520771164
 30
0.0
 11
14.8649502597
 21
4.7727947133
 31
0.0
  0
LINE
  5
293
330
28C
100
AcDbEntity
  8
0
  6
Continuous
 62
     7
370
     0
100
AcDbLine
 10
14.8649502597
 20
4.7727947133
 30
0.0
 11
14.9758443546
 21
4.7727947133
 31
0.0
  0
LINE
  5
294
330
28C
100
AcDbEntity
  8
0
  6
Continuous
 62
     7
370
     0
100
AcDbLine
 10
16.426075888
 20
5.3520771164
 30
0.0
 11
16.5369699829
 21
5.3520771164
 31
0.0
  0
LINE
  5
295
330
28C
100
AcDbEntity
  8
0
  6
Continuous
 62
     7
370
     0
100
AcDbLine
 10
16.5369699829
 20
5.3520771164
 30
0.0
 11
16.5369699829
 21
4.7727947133
 31
0.0
  0
LINE
  5
296
330
28C
100
AcDbEntity
  8
0
  6
Continuous
 62
     7
370
     0
100
AcDbLine
 10
16.5369699829
 20
4.7727947133
 30
0.0
 11
16.426075888
 21
4.7727947133
 31
0.0
  0
LINE
  5
297
330
28C
100
AcDbEntity
  8
0
  6
Continuous
 62
     7
370
     0
100
AcDbLine
 10
17.0713548146
 20
7.0552021164
 30
0.0
 11
15.5631648056
 21
7.0552021164
 31
0.0
  0
LINE
  5
298
330
28C
100
AcDbEntity
  8
0
  6
Continuous
 62
     7
370
     0
100
AcDbLine
 10
17.0713548146
 20
3.6489521164
 30
0.0
 11
15.5631648056
 21
3.6489521164
 31
0.0
  0
LINE
  5
299
330
28C
100
AcDbEntity
  8
0
  6
Continuous
 62
     7
370
     0
100
AcDbLine
 10
15.7009600812
 20
7.0552021164
 30
0.0
 11
15.7009600812
 21
6.0052889321
 31
0.0
  0
LINE
  5
29A
330
28C
100
AcDbEntity
  8
0
  6
Continuous
 62
     7
370
     0
100
AcDbLine
 10
15.7009600812
 20
3.6489521164
 30
0.0
 11
15.7009600812
 21
4.6988653007
 31
0.0
  0
MTEXT
  5
29B
330
28C
100
AcDbEntity
  8
0
  6
Continuous
 62
     7
370
    18
100
AcDbMText
 10
14.756419207
 20
5.8959791345
 30
0.0
 40
0.3645833333
 41
0.0
 71
     1
 72
     1
  1

  7
SLDTEXTSTYLE0
 73
     1
 44
1.0
  0
MTEXT
  5
29C
330
28C
100
AcDbEntity
  8
0
  6
Continuous
 62
     7
370
    18
100
AcDbMText
 10
14.9133925417
 20
5.8959791345
 30
0.0
 40
0.3645833333
 41
0.0
 71
     1
 72
     1
  1
3 7/16"
  7
SLDTEXTSTYLE0
 73
     1
 44
1.0
  0
MTEXT
  5
29D
330
28C
100
AcDbEntity
  8
0
  6
Continuous
 62
     7
370
    18
100
AcDbMText
 10
14.9758443546
 20
5.2427673188
 30
0.0
 40
0.3645833333
 41
0.0
 71
     1
 72
     1
  1
87mm
  7
SLDTEXTSTYLE0
 73
     1
 44
1.0
  0
MTEXT
  5
29E
330
28C
100
AcDbEntity
  8
0
  6
Continuous
 62
     7
370
    18
100
AcDbMText
 10
16.7845828358
 20
5.8959791345
 30
0.0
 40
0.3645833333
 41
0.0
 71
     1
 72
     1
  1

  7
SLDTEXTSTYLE0
 73
     1
 44
1.0
  0
ENDBLK
  5
28E
330
28C
100
AcDbEntity
  8
0
100
AcDbBlockEnd
  0
BLOCK
  5
2A9
330
2A8
100
AcDbEntity
  8
0
100
AcDbBlockBegin
  2
_D_6
 70
     0
 10
0.0
 20
0.0
 30
0.0
  3
_D_6
  1

  0
SOLID
  5
2AB
330
2A8
100
AcDbEntity
  8
0
  6
Continuous
 62
     7
370
    18
100
AcDbTrace
 10
24.4540426621
 20
6.0046819078
 30
0.0
 11
24.3840426621
 21
5.5496819078
 31
0.0
 12
24.5240426621
 22
5.5496819078
 32
0.0
 13
24.5240426621
 23
5.5496819078
 33
0.0
  0
SOLID
  5
2AC
330
2A8
100
AcDbEntity
  8
0
  6
Continuous
 62
     7
370
    18
100
AcDbTrace
 10
24.4540426621
 20
3.5984319078
 30
0.0
 11
24.5240426621
 21
4.0534319078
 31
0.0
 12
24.3840426621
 22
4.0534319078
 32
0.0
 13
24.3840426621
 23
4.0534319078
 33
0.0
  0
LINE
  5
2AD
330
2A8
100
AcDbEntity
  8
0
  6
Continuous
 62
     7
370
     0
100
AcDbLine
 10
23.7289269355
 20
4.8015569078
 30
0.0
 11
23.6180328406
 21
4.8015569078
 31
0.0
  0
LINE
  5
2AE
330
2A8
100
AcDbEntity
  8
0
  6
Continuous
 62
     7
370
     0
100
AcDbLine
 10
23.6180328406
 20
4.8015569078
 30
0.0
 11
23.6180328406
 21
4.2222745047
 31
0.0
  0
LINE
  5
2AF
330
2A8
100
AcDbEntity
  8
0
  6
Continuous
 62
     7
370
     0
100
AcDbLine
 10
23.6180328406
 20
4.2222745047
 30
0.0
 11
23.7289269355
 21
4.2222745047
 31
0.0
  0
LINE
  5
2B0
330
2A8
100
AcDbEntity
  8
0
  6
Continuous
 62
     7
370
     0
100
AcDbLine
 10
25.179158469
 20
4.8015569078
 30
0.0
 11
25.2900525638
 21
4.8015569078
 31
0.0
  0
LINE
  5
2B1
330
2A8
100
AcDbEntity
  8
0
  6
Continuous
 62
     7
370
     0
100
AcDbLine
 10
25.2900525638
 20
4.8015569078
 30
0.0
 11
25.2900525638
 21
4.2222745047
 31
0.0
  0
LINE
  5
2B2
330
2A8
100
AcDbEntity
  8
0
  6
Continuous
 62
     7
370
     0
100
AcDbLine
 10
25.2900525638
 20
4.2222745047
 30
0.0
 11
25.179158469
 21
4.2222745047
 31
0.0
  0
LINE
  5
2B3
330
2A8
100
AcDbEntity
  8
0
  6
Continuous
 62
     7
370
     0
100
AcDbLine
 10
26.0725288347
 20
6.0046819078
 30
0.0
 11
24.3162473865
 21
6.0046819078
 31
0.0
  0
LINE
  5
2B4
330
2A8
100
AcDbEntity
  8
0
  6
Continuous
 62
     7
370
     0
100
AcDbLine
 10
26.0725288347
 20
3.5984319078
 30
0.0
 11
24.3162473865
 21
3.5984319078
 31
0.0
  0
LINE
  5
2B5
330
2A8
100
AcDbEntity
  8
0
  6
Continuous
 62
     7
370
     0
100
AcDbLine
 10
24.4540426621
 20
6.0046819078
 30
0.0
 11
24.4540426621
 21
5.4547687235
 31
0.0
  0
LINE
  5
2B6
330
2A8
100
AcDbEntity
  8
0
  6
Continuous
 62
     7
370
     0
100
AcDbLine
 10
24.4540426621
 20
3.5984319078
 30
0.0
 11
24.4540426621
 21
4.1483450921
 31
0.0
  0
MTEXT
  5
2B7
330
2A8
100
AcDbEntity
  8
0
  6
Continuous
 62
     7
370
    18
100
AcDbMText
 10
23.5095017879
 20
5.3454589259
 30
0.0
 40
0.3645833333
 41
0.0
 71
     1
 72
     1
  1

  7
SLDTEXTSTYLE0
 73
     1
 44
1.0
  0
MTEXT
  5
2B8
330
2A8
100
AcDbEntity
  8
0
  6
Continuous
 62
     7
370
    18
100
AcDbMText
 10
23.6664751226
 20
5.3454589259
 30
0.0
 40
0.3645833333
 41
0.0
 71
     1
 72
     1
  1
2 7/16"
  7
SLDTEXTSTYLE0
 73
     1
 44
1.0
  0
MTEXT
  5
2B9
330
2A8
100
AcDbEntity
  8
0
  6
Continuous
 62
     7
370
    18
100
AcDbMText
 10
23.7289269355
 20
4.6922471101
 30
0.0
 40
0.3645833333
 41
0.0
 71
     1
 72
     1
  1
61mm
  7
SLDTEXTSTYLE0
 73
     1
 44
1.0
  0
MTEXT
  5
2BA
330
2A8
100
AcDbEntity
  8
0
  6
Continuous
 62
     7
370
    18
100
AcDbMText
 10
25.5376654167
 20
5.3454589259
 30
0.0
 40
0.3645833333
 41
0.0
 71
     1
 72
     1
  1

  7
SLDTEXTSTYLE0
 73
     1
 44
1.0
  0
ENDBLK
  5
2AA
330
2A8
100
AcDbEntity
  8
0
100
AcDbBlockEnd
  0
ENDSEC
  0
SECTION
  2
ENTITIES
  0
LINE
  5
87
330
1F
100
AcDbEntity
  8
0
  6
Continuous
 62
     7
370
    25
100
AcDbLine
 10
13.136342587
 20
20.7634926859
 30
0.0
 11
13.3689987749
 21
20.9961488738
 31
0.0
  0
LINE
  5
88
330
1F
100
AcDbEntity
  8
0
  6
Continuous
 62
     7
370
    25
100
AcDbLine
 10
11.2936403722
 20
18.920790471
 30
0.0
 11
13.037622821
 21
20.6647729198
 31
0.0
  0
LINE
  5
89
330
1F
100
AcDbEntity
  8
0
  6
Continuous
 62
     7
370
    25
100
AcDbLine
 10
13.3689987749
 20
26.6105767164
 30
0.0
 11
8.4864264509
 21
21.7280043923
 31
0.0
  0
LINE
  5
8A
330
1F
100
AcDbEntity
  8
0
  6
Continuous
 62
     7
370
    25
100
AcDbLine
 10
8.4722843152
 20
21.7138622567
 30
0.0
 11
5.0175727144
 21
18.2591506558
 31
0.0
  0
LINE
  5
8B
330
1F
100
AcDbEntity
  8
0
  6
Continuous
 62
     7
370
    25
100
AcDbLine
 10
7.8247866357
 20
15.4519367345
 30
0.0
 11
11.2794982365
 21
18.9066483354
 31
0.0
  0
LINE
  5
8C
330
1F
100
AcDbEntity
  8
0
  6
Continuous
 62
     7
370
    25
100
AcDbLine
 10
5.0175727144
 20
18.2591506558
 30
0.0
 11
5.0175727144
 21
18.216724249
 31
0.0
  0
LINE
  5
8D
330
1F
100
AcDbEntity
  8
0
  6
Continuous
 62
     7
370
    25
100
AcDbLine
 10
7.7823602288
 20
15.4519367345
 30
0.0
 11
7.8247866357
 21
15.4519367345
 31
0.0
  0
LINE
  5
8E
330
1F
100
AcDbEntity
  8
0
  6
Continuous
 62
     7
370
    25
100
AcDbLine
 10
11.2794982365
 20
18.9066483354
 30
0.0
 11
11.2794982365
 21
18.9349326066
 31
0.0
  0
LINE
  5
8F
330
1F
100
AcDbEntity
  8
0
  6
Continuous
 62
     7
370
    25
100
AcDbLine
 10
8.5005685865
 20
21.7138622567
 30
0.0
 11
8.4722843152
 21
21.7138622567
 31
0.0
  0
LWPOLYLINE
  5
90
330
1F
100
AcDbEntity
  8
0
  6
Continuous
 62
     7
370
    25
100
AcDbPolyline
 90
        3
 70
   128
 43
0.0
 10
6.2701311335
 20
13.5542026873
 10
6.2768521145
 20
13.5594539499
 10
6.2799253551
 20
13.5629673973
  0
LINE
  5
91
330
1F
100
AcDbEntity
  8
0
  6
Continuous
 62
     7
370
    25
100
AcDbLine
 10
5.4106033771
 20
13.2832026873
 30
0.0
 11
5.4306033771
 21
13.2477026873
 31
0.0
  0
LINE
  5
92
330
1F
100
AcDbEntity
  8
0
  6
Continuous
 62
     7
370
    25
100
AcDbLine
 10
6.2026033771
 20
13.2477026873
 30
0.0
 11
6.2226033771
 21
13.2832026873
 31
0.0
  0
LINE
  5
93
330
1F
100
AcDbEntity
  8
0
  6
Continuous
 62
     7
370
    25
100
AcDbLine
 10
6.2226033771
 20
13.2122026873
 30
0.0
 11
6.2026033771
 21
13.2477026873
 31
0.0
  0
LINE
  5
94
330
1F
100
AcDbEntity
  8
0
  6
Continuous
 62
     7
370
    25
100
AcDbLine
 10
5.4306033771
 20
13.2477026873
 30
0.0
 11
5.4106033771
 21
13.2122026873
 31
0.0
  0
LINE
  5
95
330
1F
100
AcDbEntity
  8
0
  6
Continuous
 62
     7
370
    25
100
AcDbLine
 10
5.4106033771
 20
13.3542026873
 30
0.0
 11
5.4306033771
 21
13.3187026873
 31
0.0
  0
LINE
  5
96
330
1F
100
AcDbEntity
  8
0
  6
Continuous
 62
     7
370
    25
100
AcDbLine
 10
6.2026033771
 20
13.3187026873
 30
0.0
 11
6.2226033771
 21
13.3542026873
 31
0.0
  0
LINE
  5
97
330
1F
100
AcDbEntity
  8
0
  6
Continuous
 62
     7
370
    25
100
AcDbLine
 10
6.2226033771
 20
13.2832026873
 30
0.0
 11
6.2026033771
 21
13.3187026873
 31
0.0
  0
LINE
  5
98
330
1F
100
AcDbEntity
  8
0
  6
Continuous
 62
     7
370
    25
100
AcDbLine
 10
5.4306033771
 20
13.3187026873
 30
0.0
 11
5.4106033771
 21
13.2832026873
 31
0.0
  0
LINE
  5
99
330
1F
100
AcDbEntity
  8
0
  6
Continuous
 62
     7
370
    25
100
AcDbLine
 10
5.4145470391
 20
13.4182026873
 30
0.0
 11
5.4306033771
 21
13.3897026873
 31
0.0
  0
LINE
  5
9A
330
1F
100
AcDbEntity
  8
0
  6
Continuous
 62
     7
370
    25
100
AcDbLine
 10
6.2026033771
 20
13.3897026873
 30
0.0
 11
6.2186597152
 21
13.4182026873
 31
0.0
  0
LINE
  5
9B
330
1F
100
AcDbEntity
  8
0
  6
Continuous
 62
     7
370
    25
100
AcDbLine
 10
6.2226033771
 20
13.3542026873
 30
0.0
 11
6.2026033771
 21
13.3897026873
 31
0.0
  0
LINE
  5
9C
330
1F
100
AcDbEntity
  8
0
  6
Continuous
 62
     7
370
    25
100
AcDbLine
 10
5.4306033771
 20
13.3897026873
 30
0.0
 11
5.4106033771
 21
13.3542026873
 31
0.0
  0
LINE
  5
9D
330
1F
100
AcDbEntity
  8
0
  6
Continuous
 62
     7
370
    25
100
AcDbLine
 10
5.4106033771
 20
13.0702026873
 30
0.0
 11
5.4306033771
 21
13.0347026873
 31
0.0
  0
LINE
  5
9E
330
1F
100
AcDbEntity
  8
0
  6
Continuous
 62
     7
370
    25
100
AcDbLine
 10
6.2026033771
 20
13.0347026873
 30
0.0
 11
6.2226033771
 21
13.0702026873
 31
0.0
  0
LINE
  5
9F
330
1F
100
AcDbEntity
  8
0
  6
Continuous
 62
     7
370
    25
100
AcDbLine
 10
6.2226033771
 20
12.9992026873
 30
0.0
 11
6.2026033771
 21
13.0347026873
 31
0.0
  0
LINE
  5
A0
330
1F
100
AcDbEntity
  8
0
  6
Continuous
 62
     7
370
    25
100
AcDbLine
 10
5.4306033771
 20
13.0347026873
 30
0.0
 11
5.4106033771
 21
12.9992026873
 31
0.0
  0
LINE
  5
A1
330
1F
100
AcDbEntity
  8
0
  6
Continuous
 62
     7
370
    25
100
AcDbLine
 10
5.4106033771
 20
13.2122026873
 30
0.0
 11
5.4306033771
 21
13.1767026873
 31
0.0
  0
LINE
  5
A2
330
1F
100
AcDbEntity
  8
0
  6
Continuous
 62
     7
370
    25
100
AcDbLine
 10
6.2026033771
 20
13.1767026873
 30
0.0
 11
6.2226033771
 21
13.2122026873
 31
0.0
  0
LINE
  5
A3
330
1F
100
AcDbEntity
  8
0
  6
Continuous
 62
     7
370
    25
100
AcDbLine
 10
6.2226033771
 20
13.1412026873
 30
0.0
 11
6.2026033771
 21
13.1767026873
 31
0.0
  0
LINE
  5
A4
330
1F
100
AcDbEntity
  8
0
  6
Continuous
 62
     7
370
    25
100
AcDbLine
 10
5.4306033771
 20
13.1767026873
 30
0.0
 11
5.4106033771
 21
13.1412026873
 31
0.0
  0
LINE
  5
A5
330
1F
100
AcDbEntity
  8
0
  6
Continuous
 62
     7
370
    25
100
AcDbLine
 10
5.4106033771
 20
13.1412026873
 30
0.0
 11
5.4306033771
 21
13.1057026873
 31
0.0
  0
LINE
  5
A6
330
1F
100
AcDbEntity
  8
0
  6
Continuous
 62
     7
370
    25
100
AcDbLine
 10
6.2026033771
 20
13.1057026873
 30
0.0
 11
6.2226033771
 21
13.1412026873
 31
0.0
  0
LINE
  5
A7
330
1F
100
AcDbEntity
  8
0
  6
Continuous
 62
     7
370
    25
100
AcDbLine
 10
6.2226033771
 20
13.0702026873
 30
0.0
 11
6.2026033771
 21
13.1057026873
 31
0.0
  0
LINE
  5
A8
330
1F
100
AcDbEntity
  8
0
  6
Continuous
 62
     7
370
    25
100
AcDbLine
 10
5.4306033771
 20
13.1057026873
 30
0.0
 11
5.4106033771
 21
13.0702026873
 31
0.0
  0
LINE
  5
A9
330
1F
100
AcDbEntity
  8
0
  6
Continuous
 62
     7
370
    25
100
AcDbLine
 10
5.4106033771
 20
12.9992026873
 30
0.0
 11
5.4306033771
 21
12.9637026873
 31
0.0
  0
LINE
  5
AA
330
1F
100
AcDbEntity
  8
0
  6
Continuous
 62
     7
370
    25
100
AcDbLine
 10
6.2026033771
 20
12.9637026873
 30
0.0
 11
6.2226033771
 21
12.9992026873
 31
0.0
  0
LINE
  5
AB
330
1F
100
AcDbEntity
  8
0
  6
Continuous
 62
     7
370
    25
100
AcDbLine
 10
6.2147160532
 20
12.9422026873
 30
0.0
 11
6.2026033771
 21
12.9637026873
 31
0.0
  0
LINE
  5
AC
330
1F
100
AcDbEntity
  8
0
  6
Continuous
 62
     7
370
    25
100
AcDbLine
 10
5.4306033771
 20
12.9637026873
 30
0.0
 11
5.4184907011
 21
12.9422026873
 31
0.0
  0
LINE
  5
AD
330
1F
100
AcDbEntity
  8
0
  6
Continuous
 62
     7
370
    25
100
AcDbLine
 10
6.5616033771
 20
13.5629673973
 30
0.0
 11
6.5616033771
 21
15.4329673973
 31
0.0
  0
LINE
  5
AE
330
1F
100
AcDbEntity
  8
0
  6
Continuous
 62
     7
370
    25
100
AcDbLine
 10
5.0716033771
 20
15.4329673973
 30
0.0
 11
5.0716033771
 21
13.5629673973
 31
0.0
  0
ARC
  5
AF
330
1F
100
AcDbEntity
  8
0
  6
Continuous
 62
     7
370
    25
100
AcDbCircle
 10
6.255984643
 20
13.7167749397
 30
0.0
 40
0.2999999999999996
100
AcDbArc
 50
275.5921022903
 51
277.9142345778
  0
ARC
  5
B0
330
1F
100
AcDbEntity
  8
0
  6
Continuous
 62
     7
370
    25
100
AcDbCircle
 10
5.3772221113
 20
13.7167749397
 30
0.0
 40
0.2999999999999997
100
AcDbArc
 50
262.0857654222
 51
264.4078977097
  0
ARC
  5
B1
330
1F
100
AcDbEntity
  8
0
  6
Continuous
 62
     7
370
    25
100
AcDbCircle
 10
6.2966033771
 20
13.4245847304
 30
0.0
 40
0.0050000000000008
100
AcDbArc
 50
277.9142345778
 51
0.0
  0
LINE
  5
B2
330
1F
100
AcDbEntity
  8
0
  6
Continuous
 62
     7
370
    25
100
AcDbLine
 10
6.3016033771
 20
13.4245847304
 30
0.0
 11
6.3016033771
 21
13.4328841967
 31
0.0
  0
SPLINE
  5
B3
330
1F
100
AcDbEntity
  8
0
  6
Continuous
 62
     7
370
    25
100
AcDbSpline
210
0.0
220
0.0
230
1.0
 70
     8
 71
     3
 72
    12
 73
     8
 74
     0
 42
0.00000001
 43
0.00000001
 40
0.0
 40
0.0
 40
0.0
 40
0.0
 40
0.2147460258112592
 40
0.4294887874454916
 40
0.6443162510141127
 40
0.8591989045559433
 40
1.0
 40
1.0
 40
1.0
 40
1.0
 10
13.08638007916878
 20
20.71529185328272
 30
0.0
 10
13.09198569372219
 20
20.72085762394364
 30
0.0
 10
13.10319683762268
 20
20.7319890806648
 30
0.0
 10
13.11840068739521
 20
20.74663291912483
 30
0.0
 10
13.12984127623502
 20
20.7574674578854
 30
0.0
 10
13.13637341695157
 20
20.76356542958614
 30
0.0
 10
13.13633531942194
 20
20.76352932654195
 30
0.0
 10
13.13632023812031
 20
20.76351503477804
 30
0.0
  0
SPLINE
  5
B4
330
1F
100
AcDbEntity
  8
0
  6
Continuous
 62
     7
370
    25
100
AcDbSpline
210
0.0
220
0.0
230
1.0
 70
     8
 71
     3
 72
    13
 73
     9
 74
     0
 42
0.00000001
 43
0.00000001
 40
0.0
 40
0.0
 40
0.0
 40
0.0
 40
0.0063357716002028
 40
0.2208798181583068
 40
0.4354244646946375
 40
0.6500862066356425
 40
0.864799000528192
 40
1.0
 40
1.0
 40
1.0
 40
1.0
 10
13.03762004824767
 20
20.66477569251527
 30
0.0
 10
13.03759425769457
 20
20.66474805882254
 30
0.0
 10
13.03669513868617
 20
20.66378468365523
 30
0.0
 10
13.03993279022385
 20
20.66726135550055
 30
0.0
 10
13.04754501384992
 20
20.67537815760663
 30
0.0
 10
13.06017589011645
 20
20.6886373213026
 30
0.0
 10
13.07381128322553
 20
20.70266602274442
 30
0.0
 10
13.08287716852004
 20
20.71177304715034
 30
0.0
 10
13.08638007916878
 20
20.71529185328272
 30
0.0
  0
LINE
  5
B5
330
1F
100
AcDbEntity
  8
0
  6
Continuous
 62
     7
370
    25
100
AcDbLine
 10
13.3689987749
 20
20.9961488738
 30
0.0
 11
13.3689987749
 21
26.6105767164
 31
0.0
  0
LINE
  5
B6
330
1F
100
AcDbEntity
  8
0
  6
Continuous
 62
     7
370
    25
100
AcDbLine
 10
9.8900334115
 20
20.3243974316
 30
0.0
 11
11.2936403722
 21
18.920790471
 31
0.0
  0
LINE
  5
B7
330
1F
100
AcDbEntity
  8
0
  6
Continuous
 62
     7
370
    25
100
AcDbLine
 10
8.4864264509
 20
21.7280043923
 30
0.0
 11
9.8900334115
 21
20.3243974316
 31
0.0
  0
LINE
  5
B8
330
1F
100
AcDbEntity
  8
0
  6
Continuous
 62
     7
370
    25
100
AcDbLine
 10
5.0175727144
 20
18.2591506558
 30
0.0
 11
7.8247866357
 21
15.4519367345
 31
0.0
  0
LINE
  5
B9
330
1F
100
AcDbEntity
  8
0
  6
Continuous
 62
     7
370
    25
100
AcDbLine
 10
11.2794982365
 20
18.9066483354
 30
0.0
 11
8.4722843152
 21
21.7138622567
 31
0.0
  0
LINE
  5
BA
330
1F
100
AcDbEntity
  8
0
  6
Continuous
 62
     7
370
    25
100
AcDbLine
 10
7.7823602288
 20
15.4519367345
 30
0.0
 11
5.0175727144
 21
18.216724249
 31
0.0
  0
LINE
  5
BB
330
1F
100
AcDbEntity
  8
0
  6
Continuous
 62
     7
370
    25
100
AcDbLine
 10
5.8731719196
 20
17.3611250437
 30
0.0
 11
5.2898088251
 21
16.7777619492
 31
0.0
  0
LINE
  5
BC
330
1F
100
AcDbEntity
  8
0
  6
Continuous
 62
     7
370
    25
100
AcDbLine
 10
6.9267610236
 20
16.3075359398
 30
0.0
 11
6.5616033771
 21
15.9423782933
 31
0.0
  0
ARC
  5
BD
330
1F
100
AcDbEntity
  8
0
  6
Continuous
 62
     7
370
    25
100
AcDbCircle
 10
5.8166033771
 20
16.2509673973
 30
0.0
 40
0.7449999999999993
100
AcDbArc
 50
135.0
 51
180.0
  0
LINE
  5
BE
330
1F
100
AcDbEntity
  8
0
  6
Continuous
 62
     7
370
    25
100
AcDbLine
 10
6.106494415
 20
13.2832026873
 30
0.0
 11
6.2226033771
 21
13.2832026873
 31
0.0
  0
LINE
  5
BF
330
1F
100
AcDbEntity
  8
0
  6
Continuous
 62
     7
370
    25
100
AcDbLine
 10
5.4106033771
 20
13.2832026873
 30
0.0
 11
5.5929089677
 21
13.2832026873
 31
0.0
  0
LINE
  5
C0
330
1F
100
AcDbEntity
  8
0
  6
Continuous
 62
     7
370
    25
100
AcDbLine
 10
5.5929089677
 20
13.2832026873
 30
0.0
 11
5.6487597664
 21
13.2477026873
 31
0.0
  0
LINE
  5
C1
330
1F
100
AcDbEntity
  8
0
  6
Continuous
 62
     7
370
    25
100
AcDbLine
 10
6.0537354852
 20
13.2477026873
 30
0.0
 11
6.2026033771
 21
13.2477026873
 31
0.0
  0
LINE
  5
C2
330
1F
100
AcDbEntity
  8
0
  6
Continuous
 62
     7
370
    25
100
AcDbLine
 10
5.4306033771
 20
13.2477026873
 30
0.0
 11
5.6487597664
 21
13.2477026873
 31
0.0
  0
LINE
  5
C3
330
1F
100
AcDbEntity
  8
0
  6
Continuous
 62
     7
370
    25
100
AcDbLine
 10
6.0537354852
 20
13.2477026873
 30
0.0
 11
6.106494415
 21
13.2832026873
 31
0.0
  0
LINE
  5
C4
330
1F
100
AcDbEntity
  8
0
  6
Continuous
 62
     7
370
    25
100
AcDbLine
 10
5.6487597664
 20
13.2477026873
 30
0.0
 11
5.5929089677
 21
13.2122026873
 31
0.0
  0
LINE
  5
C5
330
1F
100
AcDbEntity
  8
0
  6
Continuous
 62
     7
370
    25
100
AcDbLine
 10
6.106494415
 20
13.2122026873
 30
0.0
 11
6.2226033771
 21
13.2122026873
 31
0.0
  0
LINE
  5
C6
330
1F
100
AcDbEntity
  8
0
  6
Continuous
 62
     7
370
    25
100
AcDbLine
 10
5.4106033771
 20
13.2122026873
 30
0.0
 11
5.5929089677
 21
13.2122026873
 31
0.0
  0
LINE
  5
C7
330
1F
100
AcDbEntity
  8
0
  6
Continuous
 62
     7
370
    25
100
AcDbLine
 10
6.106494415
 20
13.2122026873
 30
0.0
 11
6.0537354852
 21
13.2477026873
 31
0.0
  0
LINE
  5
C8
330
1F
100
AcDbEntity
  8
0
  6
Continuous
 62
     7
370
    25
100
AcDbLine
 10
6.106494415
 20
13.3542026873
 30
0.0
 11
6.2226033771
 21
13.3542026873
 31
0.0
  0
LINE
  5
C9
330
1F
100
AcDbEntity
  8
0
  6
Continuous
 62
     7
370
    25
100
AcDbLine
 10
5.4106033771
 20
13.3542026873
 30
0.0
 11
5.5929089677
 21
13.3542026873
 31
0.0
  0
LINE
  5
CA
330
1F
100
AcDbEntity
  8
0
  6
Continuous
 62
     7
370
    25
100
AcDbLine
 10
5.5929089677
 20
13.3542026873
 30
0.0
 11
5.6487597664
 21
13.3187026873
 31
0.0
  0
LINE
  5
CB
330
1F
100
AcDbEntity
  8
0
  6
Continuous
 62
     7
370
    25
100
AcDbLine
 10
6.0537354852
 20
13.3187026873
 30
0.0
 11
6.2026033771
 21
13.3187026873
 31
0.0
  0
LINE
  5
CC
330
1F
100
AcDbEntity
  8
0
  6
Continuous
 62
     7
370
    25
100
AcDbLine
 10
5.4306033771
 20
13.3187026873
 30
0.0
 11
5.6487597664
 21
13.3187026873
 31
0.0
  0
LINE
  5
CD
330
1F
100
AcDbEntity
  8
0
  6
Continuous
 62
     7
370
    25
100
AcDbLine
 10
6.0537354852
 20
13.3187026873
 30
0.0
 11
6.106494415
 21
13.3542026873
 31
0.0
  0
LINE
  5
CE
330
1F
100
AcDbEntity
  8
0
  6
Continuous
 62
     7
370
    25
100
AcDbLine
 10
5.6487597664
 20
13.3187026873
 30
0.0
 11
5.5929089677
 21
13.2832026873
 31
0.0
  0
LINE
  5
CF
330
1F
100
AcDbEntity
  8
0
  6
Continuous
 62
     7
370
    25
100
AcDbLine
 10
6.106494415
 20
13.2832026873
 30
0.0
 11
6.0537354852
 21
13.3187026873
 31
0.0
  0
LINE
  5
D0
330
1F
100
AcDbEntity
  8
0
  6
Continuous
 62
     7
370
    25
100
AcDbLine
 10
5.6039218012
 20
13.4182026873
 30
0.0
 11
5.6487597664
 21
13.3897026873
 31
0.0
  0
LINE
  5
D1
330
1F
100
AcDbEntity
  8
0
  6
Continuous
 62
     7
370
    25
100
AcDbLine
 10
6.0537354852
 20
13.3897026873
 30
0.0
 11
6.2026033771
 21
13.3897026873
 31
0.0
  0
LINE
  5
D2
330
1F
100
AcDbEntity
  8
0
  6
Continuous
 62
     7
370
    25
100
AcDbLine
 10
5.4306033771
 20
13.3897026873
 30
0.0
 11
5.6487597664
 21
13.3897026873
 31
0.0
  0
LINE
  5
D3
330
1F
100
AcDbEntity
  8
0
  6
Continuous
 62
     7
370
    25
100
AcDbLine
 10
6.0537354852
 20
13.3897026873
 30
0.0
 11
6.0960912457
 21
13.4182026873
 31
0.0
  0
LINE
  5
D4
330
1F
100
AcDbEntity
  8
0
  6
Continuous
 62
     7
370
    25
100
AcDbLine
 10
5.6487597664
 20
13.3897026873
 30
0.0
 11
5.5929089677
 21
13.3542026873
 31
0.0
  0
LINE
  5
D5
330
1F
100
AcDbEntity
  8
0
  6
Continuous
 62
     7
370
    25
100
AcDbLine
 10
6.106494415
 20
13.3542026873
 30
0.0
 11
6.0537354852
 21
13.3897026873
 31
0.0
  0
LINE
  5
D6
330
1F
100
AcDbEntity
  8
0
  6
Continuous
 62
     7
370
    25
100
AcDbLine
 10
6.106494415
 20
13.0702026873
 30
0.0
 11
6.2226033771
 21
13.0702026873
 31
0.0
  0
LINE
  5
D7
330
1F
100
AcDbEntity
  8
0
  6
Continuous
 62
     7
370
    25
100
AcDbLine
 10
5.4106033771
 20
13.0702026873
 30
0.0
 11
5.5929089677
 21
13.0702026873
 31
0.0
  0
LINE
  5
D8
330
1F
100
AcDbEntity
  8
0
  6
Continuous
 62
     7
370
    25
100
AcDbLine
 10
5.5929089677
 20
13.0702026873
 30
0.0
 11
5.6487597664
 21
13.0347026873
 31
0.0
  0
LINE
  5
D9
330
1F
100
AcDbEntity
  8
0
  6
Continuous
 62
     7
370
    25
100
AcDbLine
 10
6.0537354852
 20
13.0347026873
 30
0.0
 11
6.2026033771
 21
13.0347026873
 31
0.0
  0
LINE
  5
DA
330
1F
100
AcDbEntity
  8
0
  6
Continuous
 62
     7
370
    25
100
AcDbLine
 10
5.4306033771
 20
13.0347026873
 30
0.0
 11
5.6487597664
 21
13.0347026873
 31
0.0
  0
LINE
  5
DB
330
1F
100
AcDbEntity
  8
0
  6
Continuous
 62
     7
370
    25
100
AcDbLine
 10
6.0537354852
 20
13.0347026873
 30
0.0
 11
6.106494415
 21
13.0702026873
 31
0.0
  0
LINE
  5
DC
330
1F
100
AcDbEntity
  8
0
  6
Continuous
 62
     7
370
    25
100
AcDbLine
 10
5.6487597664
 20
13.0347026873
 30
0.0
 11
5.5929089677
 21
12.9992026873
 31
0.0
  0
LINE
  5
DD
330
1F
100
AcDbEntity
  8
0
  6
Continuous
 62
     7
370
    25
100
AcDbLine
 10
6.106494415
 20
12.9992026873
 30
0.0
 11
6.2226033771
 21
12.9992026873
 31
0.0
  0
LINE
  5
DE
330
1F
100
AcDbEntity
  8
0
  6
Continuous
 62
     7
370
    25
100
AcDbLine
 10
5.4106033771
 20
12.9992026873
 30
0.0
 11
5.5929089677
 21
12.9992026873
 31
0.0
  0
LINE
  5
DF
330
1F
100
AcDbEntity
  8
0
  6
Continuous
 62
     7
370
    25
100
AcDbLine
 10
6.106494415
 20
12.9992026873
 30
0.0
 11
6.0537354852
 21
13.0347026873
 31
0.0
  0
LINE
  5
E0
330
1F
100
AcDbEntity
  8
0
  6
Continuous
 62
     7
370
    25
100
AcDbLine
 10
5.5929089677
 20
13.2122026873
 30
0.0
 11
5.6487597664
 21
13.1767026873
 31
0.0
  0
LINE
  5
E1
330
1F
100
AcDbEntity
  8
0
  6
Continuous
 62
     7
370
    25
100
AcDbLine
 10
6.0537354852
 20
13.1767026873
 30
0.0
 11
6.2026033771
 21
13.1767026873
 31
0.0
  0
LINE
  5
E2
330
1F
100
AcDbEntity
  8
0
  6
Continuous
 62
     7
370
    25
100
AcDbLine
 10
5.4306033771
 20
13.1767026873
 30
0.0
 11
5.6487597664
 21
13.1767026873
 31
0.0
  0
LINE
  5
E3
330
1F
100
AcDbEntity
  8
0
  6
Continuous
 62
     7
370
    25
100
AcDbLine
 10
6.0537354852
 20
13.1767026873
 30
0.0
 11
6.106494415
 21
13.2122026873
 31
0.0
  0
LINE
  5
E4
330
1F
100
AcDbEntity
  8
0
  6
Continuous
 62
     7
370
    25
100
AcDbLine
 10
5.6487597664
 20
13.1767026873
 30
0.0
 11
5.5929089677
 21
13.1412026873
 31
0.0
  0
LINE
  5
E5
330
1F
100
AcDbEntity
  8
0
  6
Continuous
 62
     7
370
    25
100
AcDbLine
 10
6.106494415
 20
13.1412026873
 30
0.0
 11
6.2226033771
 21
13.1412026873
 31
0.0
  0
LINE
  5
E6
330
1F
100
AcDbEntity
  8
0
  6
Continuous
 62
     7
370
    25
100
AcDbLine
 10
5.4106033771
 20
13.1412026873
 30
0.0
 11
5.5929089677
 21
13.1412026873
 31
0.0
  0
LINE
  5
E7
330
1F
100
AcDbEntity
  8
0
  6
Continuous
 62
     7
370
    25
100
AcDbLine
 10
6.106494415
 20
13.1412026873
 30
0.0
 11
6.0537354852
 21
13.1767026873
 31
0.0
  0
LINE
  5
E8
330
1F
100
AcDbEntity
  8
0
  6
Continuous
 62
     7
370
    25
100
AcDbLine
 10
5.5929089677
 20
13.1412026873
 30
0.0
 11
5.6487597664
 21
13.1057026873
 31
0.0
  0
LINE
  5
E9
330
1F
100
AcDbEntity
  8
0
  6
Continuous
 62
     7
370
    25
100
AcDbLine
 10
6.0537354852
 20
13.1057026873
 30
0.0
 11
6.2026033771
 21
13.1057026873
 31
0.0
  0
LINE
  5
EA
330
1F
100
AcDbEntity
  8
0
  6
Continuous
 62
     7
370
    25
100
AcDbLine
 10
5.4306033771
 20
13.1057026873
 30
0.0
 11
5.6487597664
 21
13.1057026873
 31
0.0
  0
LINE
  5
EB
330
1F
100
AcDbEntity
  8
0
  6
Continuous
 62
     7
370
    25
100
AcDbLine
 10
6.0537354852
 20
13.1057026873
 30
0.0
 11
6.106494415
 21
13.1412026873
 31
0.0
  0
LINE
  5
EC
330
1F
100
AcDbEntity
  8
0
  6
Continuous
 62
     7
370
    25
100
AcDbLine
 10
5.6487597664
 20
13.1057026873
 30
0.0
 11
5.5929089677
 21
13.0702026873
 31
0.0
  0
LINE
  5
ED
330
1F
100
AcDbEntity
  8
0
  6
Continuous
 62
     7
370
    25
100
AcDbLine
 10
6.106494415
 20
13.0702026873
 30
0.0
 11
6.0537354852
 21
13.1057026873
 31
0.0
  0
LINE
  5
EE
330
1F
100
AcDbEntity
  8
0
  6
Continuous
 62
     7
370
    25
100
AcDbLine
 10
5.5929089677
 20
12.9992026873
 30
0.0
 11
5.6487597664
 21
12.9637026873
 31
0.0
  0
LINE
  5
EF
330
1F
100
AcDbEntity
  8
0
  6
Continuous
 62
     7
370
    25
100
AcDbLine
 10
6.0537354852
 20
12.9637026873
 30
0.0
 11
6.2026033771
 21
12.9637026873
 31
0.0
  0
LINE
  5
F0
330
1F
100
AcDbEntity
  8
0
  6
Continuous
 62
     7
370
    25
100
AcDbLine
 10
5.4306033771
 20
12.9637026873
 30
0.0
 11
5.6487597664
 21
12.9637026873
 31
0.0
  0
LINE
  5
F1
330
1F
100
AcDbEntity
  8
0
  6
Continuous
 62
     7
370
    25
100
AcDbLine
 10
6.0537354852
 20
12.9637026873
 30
0.0
 11
6.106494415
 21
12.9992026873
 31
0.0
  0
LINE
  5
F2
330
1F
100
AcDbEntity
  8
0
  6
Continuous
 62
     7
370
    25
100
AcDbLine
 10
5.6487597664
 20
12.9637026873
 30
0.0
 11
5.6126933561
 21
12.9422026873
 31
0.0
  0
LINE
  5
F3
330
1F
100
AcDbEntity
  8
0
  6
Continuous
 62
     7
370
    25
100
AcDbLine
 10
6.0878052792
 20
12.9422026873
 30
0.0
 11
6.0537354852
 21
12.9637026873
 31
0.0
  0
LINE
  5
F4
330
1F
100
AcDbEntity
  8
0
  6
Continuous
 62
     7
370
    25
100
AcDbLine
 10
6.0878052792
 20
12.9422026873
 30
0.0
 11
6.2147160532
 21
12.9422026873
 31
0.0
  0
LINE
  5
F5
330
1F
100
AcDbEntity
  8
0
  6
Continuous
 62
     7
370
    25
100
AcDbLine
 10
5.4184907011
 20
12.9422026873
 30
0.0
 11
5.6126933561
 21
12.9422026873
 31
0.0
  0
LINE
  5
F6
330
1F
100
AcDbEntity
  8
0
  6
Continuous
 62
     7
370
    25
100
AcDbLine
 10
5.6757808482
 20
13.4182026873
 30
0.0
 11
5.6757808482
 21
12.9422026873
 31
0.0
  0
LINE
  5
F7
330
1F
100
AcDbEntity
  8
0
  6
Continuous
 62
     7
370
    25
100
AcDbLine
 10
5.6126933561
 20
12.9422026873
 30
0.0
 11
5.6757808482
 21
12.9422026873
 31
0.0
  0
LINE
  5
F8
330
1F
100
AcDbEntity
  8
0
  6
Continuous
 62
     7
370
    25
100
AcDbLine
 10
6.0282102753
 20
13.4182026873
 30
0.0
 11
6.0282102753
 21
12.9422026873
 31
0.0
  0
LINE
  5
F9
330
1F
100
AcDbEntity
  8
0
  6
Continuous
 62
     7
370
    25
100
AcDbLine
 10
5.6757808482
 20
12.9422026873
 30
0.0
 11
6.0282102753
 21
12.9422026873
 31
0.0
  0
LINE
  5
FA
330
1F
100
AcDbEntity
  8
0
  6
Continuous
 62
     7
370
    25
100
AcDbLine
 10
6.0282102753
 20
12.9422026873
 30
0.0
 11
6.0878052792
 21
12.9422026873
 31
0.0
  0
LINE
  5
FB
330
1F
100
AcDbEntity
  8
0
  6
Continuous
 62
     7
370
    25
100
AcDbLine
 10
6.5616033771
 20
15.4329673973
 30
0.0
 11
6.5616033771
 21
16.2509673973
 31
0.0
  0
LINE
  5
FC
330
1F
100
AcDbEntity
  8
0
  6
Continuous
 62
     7
370
    25
100
AcDbLine
 10
5.0716033771
 20
16.2509673973
 30
0.0
 11
5.0716033771
 21
15.4329673973
 31
0.0
  0
LINE
  5
FD
330
1F
100
AcDbEntity
  8
0
  6
Continuous
 62
     7
370
    25
100
AcDbLine
 10
5.6212908771
 20
16.2509673973
 30
0.0
 11
5.0716033771
 21
16.2509673973
 31
0.0
  0
SPLINE
  5
FE
330
1F
100
AcDbEntity
  8
0
  6
Continuous
 62
     7
370
    25
100
AcDbSpline
210
0.0
220
0.0
230
1.0
 70
     8
 71
     3
 72
    17
 73
    13
 74
     0
 42
0.00000001
 43
0.00000001
 40
0.0
 40
0.0
 40
0.0
 40
0.0
 40
0.1048327141697728
 40
0.2095765072388669
 40
0.3166109314861631
 40
0.425264627047736
 40
0.5314898903667558
 40
0.6351464711814765
 40
0.739835171060989
 40
0.8476277085572538
 40
0.9560054683794267
 40
1.0
 40
1.0
 40
1.0
 40
1.0
 10
6.01191587712494
 20
16.25096739725693
 30
0.0
 10
6.009832741636696
 20
16.22942949547704
 30
0.0
 10
6.005668237615324
 20
16.18637196077491
 30
0.0
 10
5.973296004664089
 20
16.12878242265187
 30
0.0
 10
5.925029813526853
 20
16.08398292101722
 30
0.0
 10
5.863580136434972
 20
16.05750586494965
 30
0.0
 10
5.797297576397508
 20
16.05298421270954
 30
0.0
 10
5.734182809039895
 20
16.07003335966416
 30
0.0
 10
5.679920254357664
 20
16.10639967183555
 30
0.0
 10
5.640092762865866
 20
16.15915388666708
 30
0.0
 10
5.622984798831173
 20
16.21079955421827
 30
0.0
 10
5.621670387731186
 20
16.24196808966959
 30
0.0
 10
5.621290877124938
 20
16.25096739725693
 30
0.0
  0
LINE
  5
FF
330
1F
100
AcDbEntity
  8
0
  6
Continuous
 62
     7
370
    25
100
AcDbLine
 10
6.5616033771
 20
16.2509673973
 30
0.0
 11
6.0119158771
 21
16.2509673973
 31
0.0
  0
LINE
  5
100
330
1F
100
AcDbEntity
  8
0
  6
Continuous
 62
     7
370
    25
100
AcDbLine
 10
6.5616033771
 20
13.5629673973
 30
0.0
 11
5.0716033771
 21
13.5629673973
 31
0.0
  0
SPLINE
  5
101
330
1F
100
AcDbEntity
  8
0
  6
Continuous
 62
     7
370
    25
100
AcDbSpline
210
0.0
220
0.0
230
1.0
 70
    11
 71
     3
 72
    26
 73
    22
 74
     0
 42
0.00000001
 43
0.00000001
 40
0.0
 40
0.0
 40
0.0
 40
0.0
 40
0.052894715666276
 40
0.1057625792859796
 40
0.159332266590895
 40
0.2134316404220803
 40
0.2667475109838142
 40
0.3191827041124954
 40
0.3720138496745182
 40
0.4258895455422453
 40
0.4798528879677866
 40
0.5328256628780201
 40
0.5852788564907035
 40
0.638435639557886
 40
0.6924812656097622
 40
0.7462180467634861
 40
0.7988827075199599
 40
0.8514032332846577
 40
0.9049083132415093
 40
0.9590132449241452
 40
1.0
 40
1.0
 40
1.0
 40
1.0
 10
5.816603377124951
 20
14.15671739725686
 30
0.0
 10
5.799245176386571
 20
14.1584066953413
 30
0.0
 10
5.764537586814908
 20
14.1617844339366
 30
0.0
 10
5.718205280931147
 20
14.18806989211858
 30
0.0
 10
5.682475549021984
 20
14.22707004719283
 30
0.0
 10
5.661612444461428
 20
14.27635765678085
 30
0.0
 10
5.658292013567122
 20
14.32948699724561
 30
0.0
 10
5.672410962248196
 20
14.38025435662482
 30
0.0
 10
5.702208237050034
 20
14.4236585717609
 30
0.0
 10
5.745008455897318
 20
14.4552311313365
 30
0.0
 10
5.796144917095214
 20
14.47088589873586
 30
0.0
 10
5.849186979001871
 20
14.46874360802692
 30
0.0
 10
5.898194649535203
 20
14.44958898004006
 30
0.0
 10
5.938456378561877
 20
14.41543646345127
 30
0.0
 10
5.965511588953945
 20
14.36947479648658
 30
0.0
 10
5.975761360831808
 20
14.31704684090099
 30
0.0
 10
5.968232923733198
 20
14.26471341186719
 30
0.0
 10
5.944247156971038
 20
14.21787044089044
 30
0.0
 10
5.906071967513315
 20
14.18141795915632
 30
0.0
 10
5.861160609179214
 20
14.16010993597662
 30
0.0
 10
5.830023991973622
 20
14.1577392281341
 30
0.0
 10
5.816603377124951
 20
14.15671739725686
 30
0.0
  0
ARC
  5
102
330
1F
100
AcDbEntity
  8
0
  6
Continuous
 62
     7
370
    25
100
AcDbCircle
 10
5.8166033771
 20
16.2509673973
 30
0.0
 40
0.7450000000000028
100
AcDbArc
 50
0.0
 51
180.0
  0
ARC
  5
103
330
1F
100
AcDbEntity
  8
0
  6
Continuous
 62
     7
370
    25
100
AcDbCircle
 10
5.8166033771
 20
16.2509673973
 30
0.0
 40
0.1953125000000018
100
AcDbArc
 50
0.0
 51
180.0
  0
ARC
  5
104
330
1F
100
AcDbEntity
  8
0
  6
Continuous
 62
     7
370
    25
100
AcDbCircle
 10
5.8166033771
 20
16.2509673973
 30
0.0
 40
0.1082531754730895
100
AcDbArc
 50
335.9285606557
 51
35.9285606557
  0
SPLINE
  5
105
330
1F
100
AcDbEntity
  8
0
  6
Continuous
 62
     7
370
    25
100
AcDbSpline
210
0.0
220
0.0
230
1.0
 70
    24
 71
     3
 72
    10
 73
     6
 74
     0
 42
0.00000001
 43
0.00000001
 40
0.0
 40
0.0
 40
0.0
 40
0.0
 40
0.4391249614229223
 40
0.7513736477007029
 40
1.0
 40
1.0
 40
1.0
 40
1.0
 10
5.915442597447162
 20
16.20681359191585
 30
0.0
 10
5.913841875778067
 20
16.22222830196291
 30
0.0
 10
5.911102928587352
 20
16.24860395339201
 30
0.0
 10
5.907121433667478
 20
16.28694515344556
 30
0.0
 10
5.90513975069623
 20
16.30602846380328
 30
0.0
 10
5.904261304385257
 20
16.31448777027567
 30
0.0
  0
SPLINE
  5
106
330
1F
100
AcDbEntity
  8
0
  6
Continuous
 62
     7
370
    25
100
AcDbSpline
210
0.0
220
0.0
230
1.0
 70
    24
 71
     3
 72
    10
 73
     6
 74
     0
 42
0.00000001
 43
0.00000001
 40
0.0
 40
0.0
 40
0.0
 40
0.0
 40
0.439124961423002
 40
0.75137364770065
 40
1.0
 40
1.0
 40
1.0
 40
1.0
 10
5.728945449864695
 20
16.18744702423832
 30
0.0
 10
5.743095341191971
 20
16.18112593484458
 30
0.0
 10
5.767306798966292
 20
16.17031010697675
 30
0.0
 10
5.802501999684214
 20
16.15458758269562
 30
0.0
 10
5.820019472727958
 20
16.14676211531213
 30
0.0
 10
5.827784670186946
 20
16.14329321889711
 30
0.0
  0
ARC
  5
107
330
1F
100
AcDbEntity
  8
0
  6
Continuous
 62
     7
370
    25
100
AcDbCircle
 10
5.8166033771
 20
16.2509673973
 30
0.0
 40
0.1082531754730493
100
AcDbArc
 50
215.9285606556
 51
275.9285606557
  0
ARC
  5
108
330
1F
100
AcDbEntity
  8
0
  6
Continuous
 62
     7
370
    25
100
AcDbCircle
 10
5.8166033771
 20
16.2509673973
 30
0.0
 40
0.1082531754730944
100
AcDbArc
 50
155.9285606556
 51
215.9285606556
  0
SPLINE
  5
109
330
1F
100
AcDbEntity
  8
0
  6
Continuous
 62
     7
370
    25
100
AcDbSpline
210
0.0
220
0.0
230
1.0
 70
    24
 71
     3
 72
    10
 73
     6
 74
     0
 42
0.00000001
 43
0.00000001
 40
0.0
 40
0.0
 40
0.0
 40
0.0
 40
0.4391249614232595
 40
0.7513736477014579
 40
1.0
 40
1.0
 40
1.0
 40
1.0
 10
5.717764156802773
 20
16.2951212025981
 30
0.0
 10
5.719364878471874
 20
16.27970649255103
 30
0.0
 10
5.722103825662596
 20
16.25333084112192
 30
0.0
 10
5.726085320582515
 20
16.21498964106837
 30
0.0
 10
5.728067003553735
 20
16.19590633071067
 30
0.0
 10
5.728945449864695
 20
16.18744702423832
 30
0.0
  0
ARC
  5
10A
330
1F
100
AcDbEntity
  8
0
  6
Continuous
 62
     7
370
    25
100
AcDbCircle
 10
5.8166033771
 20
16.2509673973
 30
0.0
 40
0.1082531754731149
100
AcDbArc
 50
35.9285606557
 51
95.9285606557
  0
SPLINE
  5
10B
330
1F
100
AcDbEntity
  8
0
  6
Continuous
 62
     7
370
    25
100
AcDbSpline
210
0.0
220
0.0
230
1.0
 70
    24
 71
     3
 72
    10
 73
     6
 74
     0
 42
0.00000001
 43
0.00000001
 40
0.0
 40
0.0
 40
0.0
 40
0.0
 40
0.4391249614224125
 40
0.7513736477011543
 40
0.9999999999999999
 40
0.9999999999999999
 40
0.9999999999999999
 40
0.9999999999999999
 10
5.904261304385257
 20
16.31448777027567
 30
0.0
 10
5.890111413057992
 20
16.32080885966936
 30
0.0
 10
5.865899955283641
 20
16.33162468753712
 30
0.0
 10
5.830704754565759
 20
16.34734721181833
 30
0.0
 10
5.813187281522004
 20
16.3551726792018
 30
0.0
 10
5.805422084063034
 20
16.35864157561681
 30
0.0
  0
ARC
  5
10C
330
1F
100
AcDbEntity
  8
0
  6
Continuous
 62
     7
370
    25
100
AcDbCircle
 10
5.8166033771
 20
16.2509673973
 30
0.0
 40
0.1082531754730493
100
AcDbArc
 50
275.9285606557
 51
335.9285606557
  0
SPLINE
  5
10D
330
1F
100
AcDbEntity
  8
0
  6
Continuous
 62
     7
370
    25
100
AcDbSpline
210
0.0
220
0.0
230
1.0
 70
    24
 71
     3
 72
    11
 73
     7
 74
     0
 42
0.00000001
 43
0.00000001
 40
0.0
 40
0.0
 40
0.0
 40
0.0
 40
0.1809422465196665
 40
0.5062925772656119
 40
0.8439745107795922
 40
1.0
 40
1.0
 40
1.0
 40
1.0
 10
5.827784670186946
 20
16.14329321889711
 30
0.0
 10
5.832777174283591
 20
16.14691098322752
 30
0.0
 10
5.846746646945272
 20
16.15703381115749
 30
0.0
 10
5.872581569955083
 20
16.17575480990533
 30
0.0
 10
5.897554732963595
 20
16.19385134354856
 30
0.0
 10
5.911147043449812
 20
16.2037008649696
 30
0.0
 10
5.915442597447162
 20
16.20681359191585
 30
0.0
  0
SPLINE
  5
10E
330
1F
100
AcDbEntity
  8
0
  6
Continuous
 62
     7
370
    25
100
AcDbSpline
210
0.0
220
0.0
230
1.0
 70
    24
 71
     3
 72
    11
 73
     7
 74
     0
 42
0.00000001
 43
0.00000001
 40
0.0
 40
0.0
 40
0.0
 40
0.0
 40
0.1560254891886283
 40
0.4937074226655664
 40
0.8190577533760445
 40
1.0
 40
1.0
 40
1.0
 40
1.0
 10
5.805422084063034
 20
16.35864157561681
 30
0.0
 10
5.801126530066555
 20
16.35552884867122
 30
0.0
 10
5.787534219582219
 20
16.3456793272516
 30
0.0
 10
5.762561056577416
 20
16.32758279361099
 30
0.0
 10
5.736726133566179
 20
16.30886179486195
 30
0.0
 10
5.722756660902376
 20
16.2987389669306
 30
0.0
 10
5.717764156802773
 20
16.2951212025981
 30
0.0
  0
ARC
  5
10F
330
1F
100
AcDbEntity
  8
0
  6
Continuous
 62
     7
370
    25
100
AcDbCircle
 10
5.8166033771
 20
16.2509673973
 30
0.0
 40
0.1082531754731149
100
AcDbArc
 50
95.9285606557
 51
155.9285606556
  0
CIRCLE
  5
110
330
1F
100
AcDbEntity
  8
0
  6
Continuous
 62
     7
370
    25
100
AcDbCircle
 10
5.8166033771
 20
16.2509673973
 30
0.0
 40
0.1687500000000021
  0
CIRCLE
  5
111
330
1F
100
AcDbEntity
  8
0
  6
Continuous
 62
     7
370
    25
100
AcDbCircle
 10
5.8166033771
 20
16.2509673973
 30
0.0
 40
0.1875000000000013
  0
LWPOLYLINE
  5
112
330
1F
100
AcDbEntity
  8
0
  6
Continuous
 62
     7
370
    25
100
AcDbPolyline
 90
        3
 70
   128
 43
0.0
 10
5.9740904801
 20
14.3149829347
 10
5.9664996799
 20
14.3613135285
 10
5.9577867685
 20
14.3827778549
  0
ARC
  5
113
330
1F
100
AcDbEntity
  8
0
  6
Continuous
 62
     7
370
    25
100
AcDbCircle
 10
5.8166033771
 20
14.3129673973
 30
0.0
 40
0.1575000000000006
100
AcDbArc
 50
153.6891466666
 51
206.3108533334
  0
LWPOLYLINE
  5
114
330
1F
100
AcDbEntity
  8
0
  6
Continuous
 62
     7
370
    25
100
AcDbPolyline
 90
        3
 70
   128
 43
0.0
 10
5.9577867685
 20
14.2431569396
 10
5.9676878601
 20
14.2684732515
 10
5.9740904801
 20
14.3149829347
  0
LINE
  5
115
330
1F
100
AcDbEntity
  8
0
  6
Continuous
 62
     7
370
    25
100
AcDbLine
 10
5.8741381325
 20
14.2161957489
 30
0.0
 11
5.9291774606
 21
14.3144081329
 31
0.0
  0
LINE
  5
116
330
1F
100
AcDbEntity
  8
0
  6
Continuous
 62
     7
370
    25
100
AcDbLine
 10
5.9291774606
 20
14.3144081329
 30
0.0
 11
5.8716427052
 21
14.4111797812
 31
0.0
  0
LINE
  5
117
330
1F
100
AcDbEntity
  8
0
  6
Continuous
 62
     7
370
    25
100
AcDbLine
 10
5.8716427052
 20
14.4111797812
 30
0.0
 11
5.7590686217
 21
14.4097390456
 31
0.0
  0
LINE
  5
118
330
1F
100
AcDbEntity
  8
0
  6
Continuous
 62
     7
370
    25
100
AcDbLine
 10
5.7590686217
 20
14.4097390456
 30
0.0
 11
5.7040292936
 21
14.3115266616
 31
0.0
  0
LINE
  5
119
330
1F
100
AcDbEntity
  8
0
  6
Continuous
 62
     7
370
    25
100
AcDbLine
 10
5.7040292936
 20
14.3115266616
 30
0.0
 11
5.761564049
 21
14.2147550133
 31
0.0
  0
LINE
  5
11A
330
1F
100
AcDbEntity
  8
0
  6
Continuous
 62
     7
370
    25
100
AcDbLine
 10
5.761564049
 20
14.2147550133
 30
0.0
 11
5.8741381325
 21
14.2161957489
 31
0.0
  0
CIRCLE
  5
11B
330
1F
100
AcDbEntity
  8
0
  6
Continuous
 62
     7
370
    25
100
AcDbCircle
 10
5.8166033771
 20
14.3129673973
 30
0.0
 40
0.0967499999999987
  0
LINE
  5
11C
330
1F
100
AcDbEntity
  8
0
  6
Continuous
 62
     7
370
    25
100
AcDbLine
 10
5.3817639868
 20
13.4182026873
 30
0.0
 11
5.3479883966
 21
13.4182026873
 31
0.0
  0
LINE
  5
11D
330
1F
100
AcDbEntity
  8
0
  6
Continuous
 62
     7
370
    25
100
AcDbLine
 10
6.2852183577
 20
13.4182026873
 30
0.0
 11
5.3817639868
 21
13.4182026873
 31
0.0
  0
SPLINE
  5
11E
330
1F
100
AcDbEntity
  8
0
  6
Continuous
 62
     7
370
    25
100
AcDbSpline
210
0.0
220
0.0
230
1.0
 70
     8
 71
     3
 72
    10
 73
     6
 74
     0
 42
0.00000001
 43
0.00000001
 40
0.0
 40
0.0
 40
0.0
 40
0.0
 40
0.5332077067629026
 40
0.8059796939237559
 40
1.0
 40
1.0
 40
1.0
 40
1.0
 10
5.264704519868351
 20
13.44187312770398
 30
0.0
 10
5.277721101452095
 20
13.43655962671435
 30
0.0
 10
5.297396549326791
 20
13.42852790877973
 30
0.0
 10
5.322892719027708
 20
13.42240465627608
 30
0.0
 10
5.334926384717752
 20
13.42044632592355
 30
0.0
 10
5.339928128607331
 20
13.41963235392808
 30
0.0
  0
LINE
  5
11F
330
1F
100
AcDbEntity
  8
0
  6
Continuous
 62
     7
370
    25
100
AcDbLine
 10
5.3544900684
 20
13.4418731277
 30
0.0
 11
5.2647045199
 21
13.4418731277
 31
0.0
  0
SPLINE
  5
120
330
1F
100
AcDbEntity
  8
0
  6
Continuous
 62
     7
370
    25
100
AcDbSpline
210
0.0
220
0.0
230
1.0
 70
     8
 71
     3
 72
    10
 73
     6
 74
     0
 42
0.00000001
 43
0.00000001
 40
0.0
 40
0.0
 40
0.0
 40
0.0
 40
0.535153297429749
 40
0.8105539090351587
 40
1.0
 40
1.0
 40
1.0
 40
1.0
 10
5.429520722674297
 20
13.41963235392808
 30
0.0
 10
5.415795383303558
 20
13.42223649924347
 30
0.0
 10
5.395006709229759
 20
13.42618078992657
 30
0.0
 10
5.370245061037713
 20
13.4349395971402
 30
0.0
 10
5.359051820854567
 20
13.43986557042248
 30
0.0
 10
5.354490068375303
 20
13.44187312770398
 30
0.0
  0
LINE
  5
121
330
1F
100
AcDbEntity
  8
0
  6
Continuous
 62
     7
370
    25
100
AcDbLine
 10
5.6319460315
 20
13.4196323539
 30
0.0
 11
5.4295207227
 21
13.4196323539
 31
0.0
  0
SPLINE
  5
122
330
1F
100
AcDbEntity
  8
0
  6
Continuous
 62
     7
370
    25
100
AcDbSpline
210
0.0
220
0.0
230
1.0
 70
     8
 71
     3
 72
    10
 73
     6
 74
     0
 42
0.00000001
 43
0.00000001
 40
0.0
 40
0.0
 40
0.0
 40
0.0
 40
0.4665495905504856
 40
0.7778212346566827
 40
1.0
 40
1.0
 40
1.0
 40
1.0
 10
5.620263087199951
 20
13.44187312770398
 30
0.0
 10
5.622024493060581
 20
13.43717180269985
 30
0.0
 10
5.624961070241222
 20
13.42933385686664
 30
0.0
 10
5.628913003721938
 20
13.42284978589196
 30
0.0
 10
5.631054225829246
 20
13.4205783802134
 30
0.0
 10
5.631946031469846
 20
13.41963235392808
 30
0.0
  0
LINE
  5
123
330
1F
100
AcDbEntity
  8
0
  6
Continuous
 62
     7
370
    25
100
AcDbLine
 10
5.858713968
 20
13.4418731277
 30
0.0
 11
5.6202630872
 21
13.4418731277
 31
0.0
  0
SPLINE
  5
124
330
1F
100
AcDbEntity
  8
0
  6
Continuous
 62
     7
370
    25
100
AcDbSpline
210
0.0
220
0.0
230
1.0
 70
     8
 71
     3
 72
    10
 73
     6
 74
     0
 42
0.00000001
 43
0.00000001
 40
0.0
 40
0.0
 40
0.0
 40
0.0
 40
0.5331753442086762
 40
0.8095997620717453
 40
1.0
 40
1.0
 40
1.0
 40
1.0
 10
5.869884467217285
 20
13.41963235392808
 30
0.0
 10
5.867853036520434
 20
13.42222499430231
 30
0.0
 10
5.864768411871715
 20
13.42616178742846
 30
0.0
 10
5.861076366568316
 20
13.43490981031273
 30
0.0
 10
5.859398362692228
 20
13.43985583149269
 30
0.0
 10
5.858713967955815
 20
13.44187312770398
 30
0.0
  0
LINE
  5
125
330
1F
100
AcDbEntity
  8
0
  6
Continuous
 62
     7
370
    25
100
AcDbLine
 10
6.10862128
 20
13.4196323539
 30
0.0
 11
5.8698844672
 21
13.4196323539
 31
0.0
  0
SPLINE
  5
126
330
1F
100
AcDbEntity
  8
0
  6
Continuous
 62
     7
370
    25
100
AcDbSpline
210
0.0
220
0.0
230
1.0
 70
     8
 71
     3
 72
    10
 73
     6
 74
     0
 42
0.00000001
 43
0.00000001
 40
0.0
 40
0.0
 40
0.0
 40
0.0
 40
0.4665495905505347
 40
0.7778212346567681
 40
0.9999999999999999
 40
0.9999999999999999
 40
0.9999999999999999
 40
0.9999999999999999
 10
6.1721619444565
 20
13.44187312770398
 30
0.0
 10
6.162557345041908
 20
13.43717180269985
 30
0.0
 10
6.146544767758908
 20
13.42933385686664
 30
0.0
 10
6.125064401113338
 20
13.42284978589196
 30
0.0
 10
6.11345607524416
 20
13.42057838021341
 30
0.0
 10
6.108621279987413
 20
13.41963235392808
 30
0.0
  0
LINE
  5
127
330
1F
100
AcDbEntity
  8
0
  6
Continuous
 62
     7
370
    25
100
AcDbLine
 10
6.3208272767
 20
13.4418731277
 30
0.0
 11
6.1721619445
 21
13.4418731277
 31
0.0
  0
SPLINE
  5
128
330
1F
100
AcDbEntity
  8
0
  6
Continuous
 62
     7
370
    25
100
AcDbSpline
210
0.0
220
0.0
230
1.0
 70
     8
 71
     3
 72
    10
 73
     6
 74
     0
 42
0.00000001
 43
0.00000001
 40
0.0
 40
0.0
 40
0.0
 40
0.0
 40
0.5331753442086979
 40
0.809599762071822
 40
1.0
 40
1.0
 40
1.0
 40
1.0
 10
6.256967121667877
 20
13.41963235392808
 30
0.0
 10
6.268610444287837
 20
13.42222499430231
 30
0.0
 10
6.286290240109668
 20
13.42616178742846
 30
0.0
 10
6.307363490986507
 20
13.43490981031273
 30
0.0
 10
6.316926773196196
 20
13.4398558314927
 30
0.0
 10
6.320827276705403
 20
13.44187312770398
 30
0.0
  0
SPLINE
  5
129
330
1F
100
AcDbEntity
  8
0
  6
Continuous
 62
     7
370
    25
100
AcDbSpline
210
0.0
220
0.0
230
1.0
 70
     8
 71
     3
 72
    10
 73
     6
 74
     0
 42
0.00000001
 43
0.00000001
 40
0.0
 40
0.0
 40
0.0
 40
0.0
 40
0.5112343170839253
 40
0.8492997483036215
 40
1.0
 40
1.0
 40
1.0
 40
1.0
 10
6.368502234381451
 20
13.44187312770398
 30
0.0
 10
6.357082739944175
 20
13.43716455247383
 30
0.0
 10
6.338111842593909
 20
13.42934232375365
 30
0.0
 10
6.314811374575491
 20
13.42331370388134
 30
0.0
 10
6.303268495341118
 20
13.42137195757746
 30
0.0
 10
6.299709499964148
 20
13.42077326240111
 30
0.0
  0
LINE
  5
12A
330
1F
100
AcDbEntity
  8
0
  6
Continuous
 62
     7
370
    25
100
AcDbLine
 10
5.8629482392
 20
13.5512026873
 30
0.0
 11
5.7370553078
 21
13.5512026873
 31
0.0
  0
LINE
  5
12B
330
1F
100
AcDbEntity
  8
0
  6
Continuous
 62
     7
370
    25
100
AcDbLine
 10
5.8629482392
 20
13.4481972515
 30
0.0
 11
5.8629482392
 21
13.5512026873
 31
0.0
  0
LINE
  5
12C
330
1F
100
AcDbEntity
  8
0
  6
Continuous
 62
     7
370
    25
100
AcDbLine
 10
5.8626732059
 20
13.4464548246
 30
0.0
 11
5.8629482392
 21
13.4481972515
 31
0.0
  0
LINE
  5
12D
330
1F
100
AcDbEntity
  8
0
  6
Continuous
 62
     7
370
    25
100
AcDbLine
 10
5.6157084234
 20
13.4464548246
 30
0.0
 11
5.8626732059
 21
13.4464548246
 31
0.0
  0
LINE
  5
12E
330
1F
100
AcDbEntity
  8
0
  6
Continuous
 62
     7
370
    25
100
AcDbLine
 10
5.6154506821
 20
13.4481972515
 30
0.0
 11
5.6157084234
 21
13.4464548246
 31
0.0
  0
LINE
  5
12F
330
1F
100
AcDbEntity
  8
0
  6
Continuous
 62
     7
370
    25
100
AcDbLine
 10
5.6154506821
 20
13.4481972515
 30
0.0
 11
5.6154506821
 21
13.5629673973
 31
0.0
  0
SPLINE
  5
130
330
1F
100
AcDbEntity
  8
0
  6
Continuous
 62
     7
370
    25
100
AcDbSpline
210
0.0
220
0.0
230
1.0
 70
     8
 71
     3
 72
    12
 73
     8
 74
     0
 42
0.00000001
 43
0.00000001
 40
0.0
 40
0.0
 40
0.0
 40
0.0
 40
0.0130781908278338
 40
0.1682487970431098
 40
0.4796432328570517
 40
0.7389533742627268
 40
1.0
 40
1.0
 40
1.0
 40
1.0
 10
5.620263087199951
 20
13.44187312770398
 30
0.0
 10
5.620237785097536
 20
13.44188258048446
 30
0.0
 10
5.61991227766689
 20
13.4420041889673
 30
0.0
 10
5.618994649993645
 20
13.44242405156306
 30
0.0
 10
5.617694148246839
 20
13.44335059102476
 30
0.0
 10
5.616407243127113
 20
13.44477907149652
 30
0.0
 10
5.615941880974383
 20
13.44589499889088
 30
0.0
 10
5.615708423417209
 20
13.44645482457062
 30
0.0
  0
SPLINE
  5
131
330
1F
100
AcDbEntity
  8
0
  6
Continuous
 62
     7
370
    25
100
AcDbSpline
210
0.0
220
0.0
230
1.0
 70
     8
 71
     3
 72
    12
 73
     8
 74
     0
 42
0.00000001
 43
0.00000001
 40
0.0
 40
0.0
 40
0.0
 40
0.0
 40
0.2610466257363494
 40
0.520356767139741
 40
0.8317512029545494
 40
0.9869218091728345
 40
1.0
 40
1.0
 40
1.0
 40
1.0
 10
5.862673205898248
 20
13.44645482457062
 30
0.0
 10
5.862441333206261
 20
13.44589499889089
 30
0.0
 10
5.861979130241371
 20
13.44477907149653
 30
0.0
 10
5.86084832897121
 20
13.44335059102477
 30
0.0
 10
5.859751921292766
 20
13.44242405156306
 30
0.0
 10
5.858999144387303
 20
13.44200418896731
 30
0.0
 10
5.858734536277354
 20
13.44188258048446
 30
0.0
 10
5.858713967955815
 20
13.44187312770398
 30
0.0
  0
SPLINE
  5
132
330
1F
100
AcDbEntity
  8
0
  6
Continuous
 62
     7
370
    25
100
AcDbSpline
210
0.0
220
0.0
230
1.0
 70
     8
 71
     3
 72
    13
 73
     9
 74
     0
 42
0.00000001
 43
0.00000001
 40
0.0
 40
0.0
 40
0.0
 40
0.0
 40
0.0450838408440102
 40
0.1423612177188443
 40
0.3570576764419151
 40
0.5714659061371543
 40
0.7857353221871536
 40
1.0
 40
1.0
 40
1.0
 40
1.0
 10
5.737055307839023
 20
13.55120268726542
 30
0.0
 10
5.737059236046448
 20
13.55127317527635
 30
0.0
 10
5.737071640144722
 20
13.55149575522699
 30
0.0
 10
5.737112754513619
 20
13.55204964452366
 30
0.0
 10
5.737198795752954
 20
13.55282770141667
 30
0.0
 10
5.737335504135313
 20
13.55358727567323
 30
0.0
 10
5.737489615975117
 20
13.55410341289275
 30
0.0
 10
5.737588425933556
 20
13.55416959605179
 30
0.0
 10
5.737637830366512
 20
13.55420268726542
 30
0.0
  0
SPLINE
  5
133
330
1F
100
AcDbEntity
  8
0
  6
Continuous
 62
     7
370
    25
100
AcDbSpline
210
0.0
220
0.0
230
1.0
 70
     8
 71
     3
 72
    12
 73
     8
 74
     0
 42
0.00000001
 43
0.00000001
 40
0.0
 40
0.0
 40
0.0
 40
0.0
 40
0.2217181155149782
 40
0.4435284651949256
 40
0.662581296859296
 40
0.8762617802480892
 40
1.0
 40
1.0
 40
1.0
 40
1.0
 10
5.863382565787237
 20
13.55420268726542
 30
0.0
 10
5.863332777464588
 20
13.55416828453231
 30
0.0
 10
5.863233180107476
 20
13.55409946475464
 30
0.0
 10
5.863100858601649
 20
13.55356118945038
 30
0.0
 10
5.863002797908626
 20
13.55277297283254
 30
0.0
 10
5.862954460341959
 20
13.55193383134115
 30
0.0
 10
5.862949908436079
 20
13.5513988687859
 30
0.0
 10
5.86294823916071
 20
13.55120268726542
 30
0.0
  0
LINE
  5
134
330
1F
100
AcDbEntity
  8
0
  6
Continuous
 62
     7
370
    25
100
AcDbLine
 10
5.7376378304
 20
13.5542026873
 30
0.0
 11
5.8633825658
 21
13.5542026873
 31
0.0
  0
SPLINE
  5
135
330
1F
100
AcDbEntity
  8
0
  6
Continuous
 62
     7
370
    25
100
AcDbSpline
210
0.0
220
0.0
230
1.0
 70
     8
 71
     3
 72
     9
 73
     5
 74
     0
 42
0.00000001
 43
0.00000001
 40
0.0
 40
0.0
 40
0.0
 40
0.0
 40
0.5163266224404953
 40
1.0
 40
1.0
 40
1.0
 40
1.0
 10
5.862948239160708
 20
13.44819725152036
 30
0.0
 10
5.864831056014942
 20
13.44284057278819
 30
0.0
 10
5.868477617653258
 20
13.43246597946032
 30
0.0
 10
5.87234378665348
 20
13.42752042936358
 30
0.0
 10
5.874213749672032
 20
13.4251283984444
 30
0.0
  0
LINE
  5
136
330
1F
100
AcDbEntity
  8
0
  6
Continuous
 62
     7
370
    25
100
AcDbLine
 10
5.8742137497
 20
13.4251283984
 30
0.0
 11
5.8741838072
 21
13.4245847304
 31
0.0
  0
SPLINE
  5
137
330
1F
100
AcDbEntity
  8
0
  6
Continuous
 62
     7
370
    25
100
AcDbSpline
210
0.0
220
0.0
230
1.0
 70
     8
 71
     3
 72
    13
 73
     9
 74
     0
 42
0.00000001
 43
0.00000001
 40
0.0
 40
0.0
 40
0.0
 40
0.0
 40
0.1858612659551623
 40
0.3708268618805545
 40
0.5778789813021156
 40
0.8292801638917371
 40
0.9889166448665325
 40
0.9999999999999999
 40
0.9999999999999999
 40
0.9999999999999999
 40
0.9999999999999999
 10
5.874183807210377
 20
13.42458473035765
 30
0.0
 10
5.874088271556789
 20
13.42408153811667
 30
0.0
 10
5.873897660638287
 20
13.42307757853054
 30
0.0
 10
5.87317089367408
 20
13.42175302974372
 30
0.0
 10
5.872158525554226
 20
13.42061548995605
 30
0.0
 10
5.871028761483439
 20
13.41992215027531
 30
0.0
 10
5.870229411911891
 20
13.41968835099217
 30
0.0
 10
5.869905496246125
 20
13.41963576770395
 30
0.0
 10
5.869884467217285
 20
13.41963235392808
 30
0.0
  0
LINE
  5
138
330
1F
100
AcDbEntity
  8
0
  6
Continuous
 62
     7
370
    25
100
AcDbLine
 10
5.8742137497
 20
13.4251283984
 30
0.0
 11
5.8742137497
 21
13.5542026873
 31
0.0
  0
LINE
  5
139
330
1F
100
AcDbEntity
  8
0
  6
Continuous
 62
     7
370
    25
100
AcDbLine
 10
5.8742137497
 20
13.5542026873
 30
0.0
 11
5.8633825658
 21
13.5542026873
 31
0.0
  0
SPLINE
  5
13A
330
1F
100
AcDbEntity
  8
0
  6
Continuous
 62
     7
370
    25
100
AcDbSpline
210
0.0
220
0.0
230
1.0
 70
     8
 71
     3
 72
    13
 73
     9
 74
     0
 42
0.00000001
 43
0.00000001
 40
0.0
 40
0.0
 40
0.0
 40
0.0
 40
0.0110833551318785
 40
0.1707198361073436
 40
0.4221210186974995
 40
0.6291731381192208
 40
0.8141387340449195
 40
1.0
 40
1.0
 40
1.0
 40
1.0
 10
5.631946031469846
 20
13.41963235392808
 30
0.0
 10
5.63191982163386
 20
13.41963576770395
 30
0.0
 10
5.631516104632032
 20
13.41968835099217
 30
0.0
 10
5.630523603366234
 20
13.4199221502753
 30
0.0
 10
5.62913432320215
 20
13.42061548995605
 30
0.0
 10
5.627908655777103
 20
13.42175302974372
 30
0.0
 10
5.627047560012098
 20
13.42307757853053
 30
0.0
 10
5.626845310461825
 20
13.42408153811666
 30
0.0
 10
5.626743941436772
 20
13.42458473035764
 30
0.0
  0
SPLINE
  5
13B
330
1F
100
AcDbEntity
  8
0
  6
Continuous
 62
     7
370
    25
100
AcDbSpline
210
0.0
220
0.0
230
1.0
 70
     8
 71
     3
 72
     9
 73
     5
 74
     0
 42
0.00000001
 43
0.00000001
 40
0.0
 40
0.0
 40
0.0
 40
0.0
 40
0.5619369708830366
 40
1.0
 40
1.0
 40
1.0
 40
1.0
 10
5.626716192571878
 20
13.4251283984444
 30
0.0
 10
5.624843458546424
 20
13.42745192566619
 30
0.0
 10
5.621510817836721
 20
13.43158677947041
 30
0.0
 10
5.618367198743264
 20
13.44039454823232
 30
0.0
 10
5.616990095440793
 20
13.44425290609592
 30
0.0
  0
LINE
  5
13C
330
1F
100
AcDbEntity
  8
0
  6
Continuous
 62
     7
370
    25
100
AcDbLine
 10
5.8741838072
 20
13.4245847304
 30
0.0
 11
6.1081756593
 21
13.4245847304
 31
0.0
  0
SPLINE
  5
13D
330
1F
100
AcDbEntity
  8
0
  6
Continuous
 62
     7
370
    25
100
AcDbSpline
210
0.0
220
0.0
230
1.0
 70
     8
 71
     3
 72
    13
 73
     9
 74
     0
 42
0.00000001
 43
0.00000001
 40
0.0
 40
0.0
 40
0.0
 40
0.0
 40
0.1858612659551233
 40
0.3708268618805843
 40
0.5778789813017405
 40
0.8292801638916558
 40
0.9889166448661975
 40
1.0
 40
1.0
 40
1.0
 40
1.0
 10
6.108175659288773
 20
13.42458473035765
 30
0.0
 10
6.108220781079084
 20
13.42408153811667
 30
0.0
 10
6.108310807216686
 20
13.42307757853054
 30
0.0
 10
6.108431373566447
 20
13.42175302974372
 30
0.0
 10
6.108534501340062
 20
13.42061548995605
 30
0.0
 10
6.108596406303154
 20
13.4199221502753
 30
0.0
 10
6.108616602543108
 20
13.41968835099217
 30
0.0
 10
6.108620994834133
 20
13.41963576770396
 30
0.0
 10
6.108621279987413
 20
13.41963235392808
 30
0.0
  0
LINE
  5
13E
330
1F
100
AcDbEntity
  8
0
  6
Continuous
 62
     7
370
    25
100
AcDbLine
 10
6.1081515608
 20
13.4251283984
 30
0.0
 11
6.1081515608
 21
13.5542026873
 31
0.0
  0
LINE
  5
13F
330
1F
100
AcDbEntity
  8
0
  6
Continuous
 62
     7
370
    25
100
AcDbLine
 10
6.1081756593
 20
13.4245847304
 30
0.0
 11
6.1081515608
 21
13.4251283984
 31
0.0
  0
LINE
  5
140
330
1F
100
AcDbEntity
  8
0
  6
Continuous
 62
     7
370
    25
100
AcDbLine
 10
6.1081515608
 20
13.5542026873
 30
0.0
 11
5.8742137497
 21
13.5542026873
 31
0.0
  0
SPLINE
  5
141
330
1F
100
AcDbEntity
  8
0
  6
Continuous
 62
     7
370
    25
100
AcDbSpline
210
0.0
220
0.0
230
1.0
 70
     8
 71
     3
 72
    13
 73
     9
 74
     0
 42
0.00000001
 43
0.00000001
 40
0.0
 40
0.0
 40
0.0
 40
0.0
 40
0.0110833551321908
 40
0.1707198361078227
 40
0.4221210186987073
 40
0.6291731381193902
 40
0.814138734044685
 40
1.0
 40
1.0
 40
1.0
 40
1.0
 10
5.429520722674297
 20
13.41963235392808
 30
0.0
 10
5.429512585165938
 20
13.41963576770395
 30
0.0
 10
5.429387240982992
 20
13.41968835099217
 30
0.0
 10
5.429089633864558
 20
13.4199221502753
 30
0.0
 10
5.428710771697479
 20
13.42061548995604
 30
0.0
 10
5.428430934947105
 20
13.42175302974372
 30
0.0
 10
5.428288294395385
 20
13.42307757853053
 30
0.0
 10
5.42832399743432
 20
13.42408153811667
 30
0.0
 10
5.428341892071136
 20
13.42458473035764
 30
0.0
  0
LINE
  5
142
330
1F
100
AcDbEntity
  8
0
  6
Continuous
 62
     7
370
    25
100
AcDbLine
 10
5.4283418921
 20
13.4245847304
 30
0.0
 11
5.6267439414
 21
13.4245847304
 31
0.0
  0
LINE
  5
143
330
1F
100
AcDbEntity
  8
0
  6
Continuous
 62
     7
370
    25
100
AcDbLine
 10
5.4283599646
 20
13.4251283984
 30
0.0
 11
5.4283599646
 21
13.5542026873
 31
0.0
  0
LINE
  5
144
330
1F
100
AcDbEntity
  8
0
  6
Continuous
 62
     7
370
    25
100
AcDbLine
 10
5.4283599646
 20
13.4251283984
 30
0.0
 11
5.4283418921
 21
13.4245847304
 31
0.0
  0
LINE
  5
145
330
1F
100
AcDbEntity
  8
0
  6
Continuous
 62
     7
370
    25
100
AcDbLine
 10
5.6154506821
 20
13.5542026873
 30
0.0
 11
5.4283599646
 21
13.5542026873
 31
0.0
  0
SPLINE
  5
146
330
1F
100
AcDbEntity
  8
0
  6
Continuous
 62
     7
370
    25
100
AcDbSpline
210
0.0
220
0.0
230
1.0
 70
     8
 71
     3
 72
     9
 73
     5
 74
     0
 42
0.00000001
 43
0.00000001
 40
0.0
 40
0.0
 40
0.0
 40
0.0
 40
0.4836733775595311
 40
1.0
 40
1.0
 40
1.0
 40
1.0
 10
6.108151560772395
 20
13.4251283984444
 30
0.0
 10
6.118576021343671
 20
13.42752042936358
 30
0.0
 10
6.140128707629352
 20
13.43246597946032
 30
0.0
 10
6.160457151369816
 20
13.44284057278819
 30
0.0
 10
6.170953268065801
 20
13.44819725152036
 30
0.0
  0
LINE
  5
147
330
1F
100
AcDbEntity
  8
0
  6
Continuous
 62
     7
370
    25
100
AcDbLine
 10
6.1709532681
 20
13.4481972515
 30
0.0
 11
6.1711675492
 21
13.4464548246
 31
0.0
  0
SPLINE
  5
148
330
1F
100
AcDbEntity
  8
0
  6
Continuous
 62
     7
370
    25
100
AcDbSpline
210
0.0
220
0.0
230
1.0
 70
     8
 71
     3
 72
    12
 73
     8
 74
     0
 42
0.00000001
 43
0.00000001
 40
0.0
 40
0.0
 40
0.0
 40
0.0
 40
0.2610466257378465
 40
0.5203567671427689
 40
0.8317512029568788
 40
0.98692180917194
 40
1.0
 40
1.0
 40
1.0
 40
1.0
 10
6.171167549222033
 20
13.44645482457061
 30
0.0
 10
6.17130818978409
 20
13.44589499889088
 30
0.0
 10
6.17158853536601
 20
13.44477907149652
 30
0.0
 10
6.171907095626008
 20
13.44335059102476
 30
0.0
 10
6.172085407564784
 20
13.44242405156306
 30
0.0
 10
6.17214662959173
 20
13.44200418896729
 30
0.0
 10
6.172160839873413
 20
13.44188258048446
 30
0.0
 10
6.1721619444565
 20
13.44187312770398
 30
0.0
  0
LINE
  5
149
330
1F
100
AcDbEntity
  8
0
  6
Continuous
 62
     7
370
    25
100
AcDbLine
 10
6.1081515608
 20
13.5629673973
 30
0.0
 11
6.1081515608
 21
13.5542026873
 31
0.0
  0
LINE
  5
14A
330
1F
100
AcDbEntity
  8
0
  6
Continuous
 62
     7
370
    25
100
AcDbLine
 10
6.1709532681
 20
13.4481972515
 30
0.0
 11
6.1709532681
 21
13.5629673973
 31
0.0
  0
SPLINE
  5
14B
330
1F
100
AcDbEntity
  8
0
  6
Continuous
 62
     7
370
    25
100
AcDbSpline
210
0.0
220
0.0
230
1.0
 70
     8
 71
     3
 72
     9
 73
     5
 74
     0
 42
0.00000001
 43
0.00000001
 40
0.0
 40
0.0
 40
0.0
 40
0.0
 40
0.9638401935560971
 40
0.9999999999999999
 40
0.9999999999999999
 40
0.9999999999999999
 40
0.9999999999999999
 10
6.25907281418963
 20
13.55120268726542
 30
0.0
 10
6.245456929164494
 20
13.55363301807731
 30
0.0
 10
6.231330225260501
 20
13.55615452613241
 30
0.0
 10
6.215249730820843
 20
13.56272964232786
 30
0.0
 10
6.214668263254384
 20
13.56296739725684
 30
0.0
  0
LINE
  5
14C
330
1F
100
AcDbEntity
  8
0
  6
Continuous
 62
     7
370
    25
100
AcDbLine
 10
6.3252588695
 20
13.5512026873
 30
0.0
 11
6.2590728142
 21
13.5512026873
 31
0.0
  0
LINE
  5
14D
330
1F
100
AcDbEntity
  8
0
  6
Continuous
 62
     7
370
    25
100
AcDbLine
 10
6.3252588695
 20
13.4481972515
 30
0.0
 11
6.3252588695
 21
13.5512026873
 31
0.0
  0
LINE
  5
14E
330
1F
100
AcDbEntity
  8
0
  6
Continuous
 62
     7
370
    25
100
AcDbLine
 10
6.3251409853
 20
13.4464548246
 30
0.0
 11
6.3252588695
 21
13.4481972515
 31
0.0
  0
LINE
  5
14F
330
1F
100
AcDbEntity
  8
0
  6
Continuous
 62
     7
370
    25
100
AcDbLine
 10
6.1711675492
 20
13.4464548246
 30
0.0
 11
6.3251409853
 21
13.4464548246
 31
0.0
  0
SPLINE
  5
150
330
1F
100
AcDbEntity
  8
0
  6
Continuous
 62
     7
370
    25
100
AcDbSpline
210
0.0
220
0.0
230
1.0
 70
     8
 71
     3
 72
    12
 73
     8
 74
     0
 42
0.00000001
 43
0.00000001
 40
0.0
 40
0.0
 40
0.0
 40
0.0
 40
0.2610466257368753
 40
0.5203567671395584
 40
0.8317512029534899
 40
0.9869218091718803
 40
1.0
 40
1.0
 40
1.0
 40
1.0
 10
6.325140985281236
 20
13.44645482457062
 30
0.0
 10
6.32499150959009
 20
13.44589499889089
 30
0.0
 10
6.324693552521341
 20
13.44477907149653
 30
0.0
 10
6.323504761990299
 20
13.44335059102477
 30
0.0
 10
6.322188689278717
 20
13.44242405156307
 30
0.0
 10
6.321208475640131
 20
13.4420041889673
 30
0.0
 10
6.320854770640367
 20
13.44188258048446
 30
0.0
 10
6.320827276705403
 20
13.44187312770398
 30
0.0
  0
SPLINE
  5
151
330
1F
100
AcDbEntity
  8
0
  6
Continuous
 62
     7
370
    25
100
AcDbSpline
210
0.0
220
0.0
230
1.0
 70
     8
 71
     3
 72
    13
 73
     9
 74
     0
 42
0.00000001
 43
0.00000001
 40
0.0
 40
0.0
 40
0.0
 40
0.0
 40
0.2142797061670283
 40
0.4285450239896551
 40
0.6429491528019208
 40
0.8576415051290701
 40
0.9549170214531049
 40
0.9999999999999999
 40
0.9999999999999999
 40
0.9999999999999999
 40
0.9999999999999999
 10
6.256811598597011
 20
13.55420268726542
 30
0.0
 10
6.257075609912691
 20
13.55416960042314
 30
0.0
 10
6.257603614816357
 20
13.55410342896026
 30
0.0
 10
6.258292206240041
 20
13.5535872754818
 30
0.0
 10
6.258804596683775
 20
13.55282770146953
 30
0.0
 10
6.259029351392306
 20
13.55204964451768
 30
0.0
 10
6.259077472872173
 20
13.55149575522744
 30
0.0
 10
6.259073934684904
 20
13.55127317527644
 30
0.0
 10
6.25907281418963
 20
13.55120268726542
 30
0.0
  0
LINE
  5
152
330
1F
100
AcDbEntity
  8
0
  6
Continuous
 62
     7
370
    25
100
AcDbLine
 10
6.2231855297
 20
13.5629673973
 30
0.0
 11
6.2568115986
 21
13.5542026873
 31
0.0
  0
SPLINE
  5
153
330
1F
100
AcDbEntity
  8
0
  6
Continuous
 62
     7
370
    25
100
AcDbSpline
210
0.0
220
0.0
230
1.0
 70
     8
 71
     3
 72
    12
 73
     8
 74
     0
 42
0.00000001
 43
0.00000001
 40
0.0
 40
0.0
 40
0.0
 40
0.0
 40
0.221718115514171
 40
0.4435284651950478
 40
0.6625812968590904
 40
0.876261780248403
 40
1.0
 40
1.0
 40
1.0
 40
1.0
 10
6.322837633983338
 20
13.55420268726542
 30
0.0
 10
6.323115188352708
 20
13.55416828453231
 30
0.0
 10
6.323670412553354
 20
13.55409946475464
 30
0.0
 10
6.324408063676149
 20
13.55356118945039
 30
0.0
 10
6.324954721453831
 20
13.55277297283254
 30
0.0
 10
6.32522418831112
 20
13.55193383134116
 30
0.0
 10
6.325249563766616
 20
13.5513988687859
 30
0.0
 10
6.325258869456134
 20
13.55120268726542
 30
0.0
  0
LINE
  5
154
330
1F
100
AcDbEntity
  8
0
  6
Continuous
 62
     7
370
    25
100
AcDbLine
 10
6.2568115986
 20
13.5542026873
 30
0.0
 11
6.322837634
 21
13.5542026873
 31
0.0
  0
LINE
  5
155
330
1F
100
AcDbEntity
  8
0
  6
Continuous
 62
     7
370
    25
100
AcDbLine
 10
5.3542927468
 20
13.5512026873
 30
0.0
 11
5.2945858708
 21
13.5512026873
 31
0.0
  0
LINE
  5
156
330
1F
100
AcDbEntity
  8
0
  6
Continuous
 62
     7
370
    25
100
AcDbLine
 10
5.3542927468
 20
13.4481972515
 30
0.0
 11
5.3542927468
 21
13.5512026873
 31
0.0
  0
LINE
  5
157
330
1F
100
AcDbEntity
  8
0
  6
Continuous
 62
     7
370
    25
100
AcDbLine
 10
5.3541355977
 20
13.4464548246
 30
0.0
 11
5.3542927468
 21
13.4481972515
 31
0.0
  0
LINE
  5
158
330
1F
100
AcDbEntity
  8
0
  6
Continuous
 62
     7
370
    25
100
AcDbLine
 10
5.2611442513
 20
13.4464548246
 30
0.0
 11
5.3541355977
 21
13.4464548246
 31
0.0
  0
LINE
  5
159
330
1F
100
AcDbEntity
  8
0
  6
Continuous
 62
     7
370
    25
100
AcDbLine
 10
5.2611007911
 20
13.4481972515
 30
0.0
 11
5.2611442513
 21
13.4464548246
 31
0.0
  0
LINE
  5
15A
330
1F
100
AcDbEntity
  8
0
  6
Continuous
 62
     7
370
    25
100
AcDbLine
 10
5.2611007911
 20
13.4481972515
 30
0.0
 11
5.2611007911
 21
13.5629673973
 31
0.0
  0
SPLINE
  5
15B
330
1F
100
AcDbEntity
  8
0
  6
Continuous
 62
     7
370
    25
100
AcDbSpline
210
0.0
220
0.0
230
1.0
 70
     8
 71
     3
 72
    13
 73
     9
 74
     0
 42
0.00000001
 43
0.00000001
 40
0.0
 40
0.0
 40
0.0
 40
0.0
 40
0.2142797061514867
 40
0.4285450239876855
 40
0.6429491528107318
 40
0.8576415051482694
 40
0.9549170214500954
 40
1.0
 40
1.0
 40
1.0
 40
1.0
 10
5.297429621753973
 20
13.55420268726542
 30
0.0
 10
5.297116201802276
 20
13.55416960042311
 30
0.0
 10
5.296489382944203
 20
13.55410342896019
 30
0.0
 10
5.295646674999687
 20
13.55358727548172
 30
0.0
 10
5.294997576199648
 20
13.55282770146942
 30
0.0
 10
5.294686780245566
 20
13.55204964451759
 30
0.0
 10
5.294597544397501
 20
13.55149575522739
 30
0.0
 10
5.294588678486455
 20
13.55127317527644
 30
0.0
 10
5.294585870774291
 20
13.55120268726542
 30
0.0
  0
SPLINE
  5
15C
330
1F
100
AcDbEntity
  8
0
  6
Continuous
 62
     7
370
    25
100
AcDbSpline
210
0.0
220
0.0
230
1.0
 70
     8
 71
     3
 72
    12
 73
     8
 74
     0
 42
0.00000001
 43
0.00000001
 40
0.0
 40
0.0
 40
0.0
 40
0.0
 40
0.2217181155145017
 40
0.4435284651936427
 40
0.6625812968578586
 40
0.8762617802480479
 40
1.0
 40
1.0
 40
1.0
 40
1.0
 10
5.357148308928801
 20
13.55420268726542
 30
0.0
 10
5.356820966236777
 20
13.55416828453231
 30
0.0
 10
5.356166144679012
 20
13.55409946475463
 30
0.0
 10
5.355296172050405
 20
13.55356118945039
 30
0.0
 10
5.354651453579713
 20
13.55277297283253
 30
0.0
 10
5.354333649155726
 20
13.55193383134115
 30
0.0
 10
5.354303721794354
 20
13.5513988687859
 30
0.0
 10
5.354292746829469
 20
13.55120268726542
 30
0.0
  0
LINE
  5
15D
330
1F
100
AcDbEntity
  8
0
  6
Continuous
 62
     7
370
    25
100
AcDbLine
 10
5.2974296218
 20
13.5542026873
 30
0.0
 11
5.3571483089
 21
13.5542026873
 31
0.0
  0
SPLINE
  5
15E
330
1F
100
AcDbEntity
  8
0
  6
Continuous
 62
     7
370
    25
100
AcDbSpline
210
0.0
220
0.0
230
1.0
 70
     8
 71
     3
 72
    12
 73
     8
 74
     0
 42
0.00000001
 43
0.00000001
 40
0.0
 40
0.0
 40
0.0
 40
0.0
 40
0.0130781908276184
 40
0.1682487970426023
 40
0.4796432328576268
 40
0.7389533742624378
 40
1.0
 40
1.0
 40
1.0
 40
1.0
 10
5.26470451986835
 20
13.44187312770398
 30
0.0
 10
5.264680322349022
 20
13.44188258048446
 30
0.0
 10
5.264369025200049
 20
13.44200418896729
 30
0.0
 10
5.263512619553767
 20
13.44242405156306
 30
0.0
 10
5.262390429745728
 20
13.44335059102476
 30
0.0
 10
5.261422084885996
 20
13.44477907149652
 30
0.0
 10
5.261237068315191
 20
13.44589499889088
 30
0.0
 10
5.261144251320076
 20
13.44645482457061
 30
0.0
  0
SPLINE
  5
15F
330
1F
100
AcDbEntity
  8
0
  6
Continuous
 62
     7
370
    25
100
AcDbSpline
210
0.0
220
0.0
230
1.0
 70
     8
 71
     3
 72
    12
 73
     8
 74
     0
 42
0.00000001
 43
0.00000001
 40
0.0
 40
0.0
 40
0.0
 40
0.0
 40
0.013078190827376
 40
0.1682487970448965
 40
0.4796432328589202
 40
0.7389533742641861
 40
1.0
 40
1.0
 40
1.0
 40
1.0
 10
5.354490068375303
 20
13.44187312770398
 30
0.0
 10
5.354483142761881
 20
13.44188258048446
 30
0.0
 10
5.354394045872074
 20
13.4420041889673
 30
0.0
 10
5.354166609138966
 20
13.44242405156306
 30
0.0
 10
5.353946944105799
 20
13.44335059102478
 30
0.0
 10
5.35388895484492
 20
13.44477907149652
 30
0.0
 10
5.354053200741069
 20
13.44589499889088
 30
0.0
 10
5.354135597741912
 20
13.44645482457061
 30
0.0
  0
SPLINE
  5
160
330
1F
100
AcDbEntity
  8
0
  6
Continuous
 62
     7
370
    25
100
AcDbSpline
210
0.0
220
0.0
230
1.0
 70
     8
 71
     3
 72
     9
 73
     5
 74
     0
 42
0.00000001
 43
0.00000001
 40
0.0
 40
0.0
 40
0.0
 40
0.0
 40
0.5143610607822698
 40
1.0
 40
1.0
 40
1.0
 40
1.0
 10
5.354292746829472
 20
13.44819725152036
 30
0.0
 10
5.366623719360317
 20
13.44285921373501
 30
0.0
 10
5.390597098122875
 20
13.43248121626913
 30
0.0
 10
5.416015701199612
 20
13.42753195327485
 30
0.0
 10
5.428359964634195
 20
13.4251283984444
 30
0.0
  0
LINE
  5
161
330
1F
100
AcDbEntity
  8
0
  6
Continuous
 62
     7
370
    25
100
AcDbLine
 10
5.4283599646
 20
13.5542026873
 30
0.0
 11
5.3571483089
 21
13.5542026873
 31
0.0
  0
LINE
  5
162
330
1F
100
AcDbEntity
  8
0
  6
Continuous
 62
     7
370
    25
100
AcDbLine
 10
5.3637762464
 20
13.5542026873
 30
0.0
 11
5.3481329757
 21
13.5629673973
 31
0.0
  0
LINE
  5
163
330
1F
100
AcDbEntity
  8
0
  6
Continuous
 62
     7
370
    25
100
AcDbLine
 10
6.2980387453
 20
13.5629673973
 30
0.0
 11
6.2980387453
 21
13.5542026873
 31
0.0
  0
SPLINE
  5
164
330
1F
100
AcDbEntity
  8
0
  6
Continuous
 62
     7
370
    25
100
AcDbSpline
210
0.0
220
0.0
230
1.0
 70
     8
 71
     3
 72
     9
 73
     5
 74
     0
 42
0.00000001
 43
0.00000001
 40
0.0
 40
0.0
 40
0.0
 40
0.0
 40
0.0393758241946477
 40
1.0
 40
1.0
 40
1.0
 40
1.0
 10
6.287030808453244
 20
13.56296739725684
 30
0.0
 10
6.28692968998212
 20
13.56279646321167
 30
0.0
 10
6.284361655580502
 20
13.55845537197968
 30
0.0
 10
6.279452202477207
 20
13.55628632562866
 30
0.0
 10
6.274736063136201
 20
13.55420268726542
 30
0.0
  0
LINE
  5
165
330
1F
100
AcDbEntity
  8
0
  6
Continuous
 62
     7
370
    25
100
AcDbLine
 10
6.2694305079
 20
13.5542026873
 30
0.0
 11
6.2850737785
 21
13.5629673973
 31
0.0
  0
SPLINE
  5
166
330
1F
100
AcDbEntity
  8
0
  6
Continuous
 62
     7
370
    25
100
AcDbSpline
210
0.0
220
0.0
230
1.0
 70
     8
 71
     3
 72
     9
 73
     5
 74
     0
 42
0.00000001
 43
0.00000001
 40
0.0
 40
0.0
 40
0.0
 40
0.0
 40
0.4559316711300367
 40
1.0
 40
1.0
 40
1.0
 40
1.0
 10
6.301603377124891
 20
13.42595110548343
 30
0.0
 10
6.312640674755407
 20
13.42811804369171
 30
0.0
 10
6.33684890228029
 20
13.4328708133401
 30
0.0
 10
6.359682775749906
 20
13.44279682366859
 30
0.0
 10
6.372105963130149
 20
13.44819725152036
 30
0.0
  0
LINE
  5
167
330
1F
100
AcDbEntity
  8
0
  6
Continuous
 62
     7
370
    25
100
AcDbLine
 10
6.3721059631
 20
13.4481972515
 30
0.0
 11
6.3720625029
 21
13.4464548246
 31
0.0
  0
SPLINE
  5
168
330
1F
100
AcDbEntity
  8
0
  6
Continuous
 62
     7
370
    25
100
AcDbSpline
210
0.0
220
0.0
230
1.0
 70
     8
 71
     3
 72
    12
 73
     8
 74
     0
 42
0.00000001
 43
0.00000001
 40
0.0
 40
0.0
 40
0.0
 40
0.0
 40
0.2610466257370517
 40
0.5203567671423823
 40
0.8317512029576083
 40
0.9869218091729367
 40
1.0
 40
1.0
 40
1.0
 40
1.0
 10
6.372062502929726
 20
13.44645482457062
 30
0.0
 10
6.371969685934607
 20
13.44589499889088
 30
0.0
 10
6.371784669363793
 20
13.44477907149652
 30
0.0
 10
6.370816324504065
 20
13.44335059102476
 30
0.0
 10
6.369694134696058
 20
13.44242405156305
 30
0.0
 10
6.368837729049719
 20
13.44200418896731
 30
0.0
 10
6.368526431900775
 20
13.44188258048446
 30
0.0
 10
6.368502234381451
 20
13.44187312770398
 30
0.0
  0
LINE
  5
169
330
1F
100
AcDbEntity
  8
0
  6
Continuous
 62
     7
370
    25
100
AcDbLine
 10
6.3721059631
 20
13.4481972515
 30
0.0
 11
6.3721059631
 21
13.5629673973
 31
0.0
  0
LINE
  5
16A
330
1F
100
AcDbEntity
  8
0
  6
Continuous
 62
     7
370
    25
100
AcDbLine
 10
5.3399281286
 20
13.4196323539
 30
0.0
 11
5.335914924
 21
13.4196323539
 31
0.0
  0
LINE
  5
16B
330
1F
100
AcDbEntity
  8
0
  6
Continuous
 62
     7
370
    25
100
AcDbLine
 10
6.2972918302
 20
13.4196323539
 30
0.0
 11
6.2569671217
 21
13.4196323539
 31
0.0
  0
SPLINE
  5
16C
330
1F
100
AcDbEntity
  8
0
  6
Continuous
 62
     7
370
    25
100
AcDbSpline
210
0.0
220
0.0
230
1.0
 70
     8
 71
     3
 72
     9
 73
     5
 74
     0
 42
0.00000001
 43
0.00000001
 40
0.0
 40
0.0
 40
0.0
 40
0.0
 40
0.9638401935559362
 40
1.0
 40
1.0
 40
1.0
 40
1.0
 10
5.737055307839023
 20
13.55120268726542
 30
0.0
 10
5.715410023860978
 20
13.55363301807731
 30
0.0
 10
5.69295268692612
 20
13.55615452613241
 30
0.0
 10
5.672347222278394
 20
13.56272964232787
 30
0.0
 10
5.671602132665042
 20
13.56296739725684
 30
0.0
  0
LINE
  5
16D
330
1F
100
AcDbEntity
  8
0
  6
Continuous
 62
     7
370
    25
100
AcDbLine
 10
5.6878448771
 20
13.5629673973
 30
0.0
 11
5.7376378304
 21
13.5542026873
 31
0.0
  0
SPLINE
  5
16E
330
1F
100
AcDbEntity
  8
0
  6
Continuous
 62
     7
370
    25
100
AcDbSpline
210
0.0
220
0.0
230
1.0
 70
     8
 71
     3
 72
     9
 73
     5
 74
     0
 42
0.00000001
 43
0.00000001
 40
0.0
 40
0.0
 40
0.0
 40
0.0
 40
0.9638401935556663
 40
0.9999999999999999
 40
0.9999999999999999
 40
0.9999999999999999
 40
0.9999999999999999
 10
5.294585870774291
 20
13.55120268726542
 30
0.0
 10
5.286556471821378
 20
13.5536330180773
 30
0.0
 10
5.27822583879051
 20
13.55615452613241
 30
0.0
 10
5.273700868582447
 20
13.56272964232787
 30
0.0
 10
5.273537246535557
 20
13.56296739725684
 30
0.0
  0
LINE
  5
16F
330
1F
100
AcDbEntity
  8
0
  6
Continuous
 62
     7
370
    25
100
AcDbLine
 10
5.2812627271
 20
13.5629673973
 30
0.0
 11
5.2974296218
 21
13.5542026873
 31
0.0
  0
DIMENSION
  5
170
330
1F
100
AcDbEntity
  8
0
  6
Continuous
 62
     7
370
    18
100
AcDbDimension
  2
_D
 10
12.0266400447
 20
27.9529354466
 30
0.0
 11
7.5486388655
 21
23.4749342674
 31
0.0
 70
   160
  1
<>
 71
     2
 42
-1.0
  3
SLDDIMSTYLE0
100
AcDbAlignedDimension
 13
5.8166033771
 23
16.2509673973
 33
0.0
 14
13.3689987749
 24
26.6105767164
 34
0.0
 50
45.0
100
AcDbRotatedDimension
  0
DIMENSION
  5
185
330
1F
100
AcDbEntity
  8
0
  6
Continuous
 62
     7
370
    18
100
AcDbDimension
  2
_D_1
 10
3.0410882912
 20
13.5629673973
 30
0.0
 11
3.0410882912
 21
14.9069673973
 31
0.0
 70
   160
  1
<>
 71
     2
 42
-1.0
  3
SLDDIMSTYLE0
100
AcDbAlignedDimension
 13
5.8166033771
 23
16.2509673973
 33
0.0
 14
5.0716033771
 24
13.5629673973
 34
0.0
 50
90.0
100
AcDbRotatedDimension
  0
DIMENSION
  5
199
330
1F
100
AcDbEntity
  8
0
  6
Continuous
 62
     7
370
    18
100
AcDbDimension
  2
_D_2
 10
17.0086644186
 20
24.6358145174
 30
0.0
 11
15.6050574579
 21
26.0394214781
 31
0.0
 70
   160
  1
%%c<>
 71
     2
 42
-1.0
  3
SLDDIMSTYLE1
100
AcDbAlignedDimension
 13
13.3689987749
 23
26.6105767164
 33
0.0
 14
13.3689987749
 24
20.9961488738
 34
0.0
 50
-45.0
100
AcDbRotatedDimension
  0
DIMENSION
  5
1AD
330
1F
100
AcDbEntity
  8
0
  6
Continuous
 62
     7
370
    18
100
AcDbDimension
  2
_D_3
 10
8.7067911533
 20
13.3607796211
 30
0.0
 11
10.7435061705
 21
15.3974946383
 31
0.0
 70
   160
  1
<>
 71
     2
 42
-1.0
  3
SLDDIMSTYLE0
100
AcDbAlignedDimension
 13
11.2936403722
 23
18.920790471
 33
0.0
 14
5.8166033771
 24
16.2509673973
 34
0.0
 50
45.0
100
AcDbRotatedDimension
  0
MTEXT
  5
1C1
330
1F
100
AcDbEntity
  8
SLD-0
100
AcDbMText
 10
10.0981579923
 20
12.5393984505
 30
0.0
 40
0.4822834646
 41
0.0
 71
     2
 72
     1
  1
1/2" PIPE THREAD
  7
SLDTEXTSTYLE0
 73
     1
 44
1.0
  0
MTEXT
  5
1C2
330
1F
100
AcDbEntity
  8
SLD-0
100
AcDbMText
 10
10.1088752295
 20
11.9157791254
 30
0.0
 40
0.4822834646
 41
0.0
 71
     2
 72
     1
  1
FOR MOUNTING
  7
SLDTEXTSTYLE0
 73
     1
 44
1.0
  0
LEADER
  5
1C4
330
1F
100
AcDbEntity
  8
SLD-0
100
AcDbLeader
  3
SLDDIMSTYLE2
 76
     3
 10
5.7822984902
 20
12.9422026873
 30
0.0
 10
6.5803159754
 20
12.3046815613
 30
0.0
 10
7.4553159754
 20
12.3046815613
 30
0.0
  0
LINE
  5
1C5
330
1F
100
AcDbEntity
  8
0
  6
Continuous
 62
     7
370
    25
100
AcDbLine
 10
31.0205197786
 20
21.4894425362
 30
0.0
 11
27.750146922
 21
26.114448184
 31
0.0
  0
LINE
  5
1C6
330
1F
100
AcDbEntity
  8
0
  6
Continuous
 62
     7
370
    25
100
AcDbLine
 10
26.1294012088
 20
21.5302870466
 30
0.0
 11
27.7790283523
 21
19.1973619675
 31
0.0
  0
LINE
  5
1C7
330
1F
100
AcDbEntity
  8
0
  6
Continuous
 62
     7
370
    25
100
AcDbLine
 10
27.7890283523
 20
19.1832198319
 30
0.0
 11
30.2318783523
 21
15.7285082311
 31
0.0
  0
LINE
  5
1C8
330
1F
100
AcDbEntity
  8
0
  6
Continuous
 62
     7
370
    25
100
AcDbLine
 10
33.4733697786
 20
18.0205887997
 30
0.0
 11
31.0305197786
 21
21.4753004006
 31
0.0
  0
LINE
  5
1C9
330
1F
100
AcDbEntity
  8
0
  6
Continuous
 62
     7
370
    25
100
AcDbLine
 10
30.8601240654
 20
15.4709415547
 30
0.0
 11
30.8901240654
 21
15.4709415547
 31
0.0
  0
LINE
  5
1CA
330
1F
100
AcDbEntity
  8
0
  6
Continuous
 62
     7
370
    25
100
AcDbLine
 10
33.4967907321
 20
17.314133231
 30
0.0
 11
33.5067907321
 21
17.3424175023
 31
0.0
  0
ARC
  5
1CB
330
1F
100
AcDbEntity
  8
0
  6
Continuous
 62
     7
370
    25
100
AcDbCircle
 10
32.2801240654
 20
16.2699722175
 30
0.0
 40
0.7449999999999992
100
AcDbArc
 50
270.0
 51
20.1315566675
  0
LWPOLYLINE
  5
1CC
330
1F
100
AcDbEntity
  8
0
  6
Continuous
 62
     7
370
    25
100
AcDbPolyline
 90
        3
 70
   128
 43
0.0
 10
31.8168020874
 20
13.5819722175
 10
31.8198753281
 20
13.5784587701
 10
31.826596309
 20
13.5732075075
  0
LWPOLYLINE
  5
1CD
330
1F
100
AcDbEntity
  8
0
  6
Continuous
 62
     7
370
    25
100
AcDbPolyline
 90
        3
 70
   128
 43
0.0
 10
32.7336518218
 20
13.5732075075
 10
32.7403728028
 20
13.5784587701
 10
32.7434460434
 20
13.5819722175
  0
LINE
  5
1CE
330
1F
100
AcDbEntity
  8
0
  6
Continuous
 62
     7
370
    25
100
AcDbLine
 10
31.8780677274
 20
13.4372075075
 30
0.0
 11
31.8941240654
 21
13.4087075075
 31
0.0
  0
LINE
  5
1CF
330
1F
100
AcDbEntity
  8
0
  6
Continuous
 62
     7
370
    25
100
AcDbLine
 10
32.6661240654
 20
13.4087075075
 30
0.0
 11
32.6821804034
 21
13.4372075075
 31
0.0
  0
LINE
  5
1D0
330
1F
100
AcDbEntity
  8
0
  6
Continuous
 62
     7
370
    25
100
AcDbLine
 10
32.6861240654
 20
13.3732075075
 30
0.0
 11
32.6661240654
 21
13.4087075075
 31
0.0
  0
LINE
  5
1D1
330
1F
100
AcDbEntity
  8
0
  6
Continuous
 62
     7
370
    25
100
AcDbLine
 10
31.8941240654
 20
13.4087075075
 30
0.0
 11
31.8741240654
 21
13.3732075075
 31
0.0
  0
LINE
  5
1D2
330
1F
100
AcDbEntity
  8
0
  6
Continuous
 62
     7
370
    25
100
AcDbLine
 10
31.8741240654
 20
13.3732075075
 30
0.0
 11
31.8941240654
 21
13.3377075075
 31
0.0
  0
LINE
  5
1D3
330
1F
100
AcDbEntity
  8
0
  6
Continuous
 62
     7
370
    25
100
AcDbLine
 10
32.6661240654
 20
13.3377075075
 30
0.0
 11
32.6861240654
 21
13.3732075075
 31
0.0
  0
LINE
  5
1D4
330
1F
100
AcDbEntity
  8
0
  6
Continuous
 62
     7
370
    25
100
AcDbLine
 10
32.6861240654
 20
13.1602075075
 30
0.0
 11
32.6661240654
 21
13.1957075075
 31
0.0
  0
LINE
  5
1D5
330
1F
100
AcDbEntity
  8
0
  6
Continuous
 62
     7
370
    25
100
AcDbLine
 10
31.8941240654
 20
13.1957075075
 30
0.0
 11
31.8741240654
 21
13.1602075075
 31
0.0
  0
LINE
  5
1D6
330
1F
100
AcDbEntity
  8
0
  6
Continuous
 62
     7
370
    25
100
AcDbLine
 10
31.8741240654
 20
13.1602075075
 30
0.0
 11
31.8941240654
 21
13.1247075075
 31
0.0
  0
LINE
  5
1D7
330
1F
100
AcDbEntity
  8
0
  6
Continuous
 62
     7
370
    25
100
AcDbLine
 10
32.6661240654
 20
13.1247075075
 30
0.0
 11
32.6861240654
 21
13.1602075075
 31
0.0
  0
LINE
  5
1D8
330
1F
100
AcDbEntity
  8
0
  6
Continuous
 62
     7
370
    25
100
AcDbLine
 10
31.8741240654
 20
13.2312075075
 30
0.0
 11
31.8941240654
 21
13.1957075075
 31
0.0
  0
LINE
  5
1D9
330
1F
100
AcDbEntity
  8
0
  6
Continuous
 62
     7
370
    25
100
AcDbLine
 10
32.6661240654
 20
13.1957075075
 30
0.0
 11
32.6861240654
 21
13.2312075075
 31
0.0
  0
LINE
  5
1DA
330
1F
100
AcDbEntity
  8
0
  6
Continuous
 62
     7
370
    25
100
AcDbLine
 10
32.6861240654
 20
13.2312075075
 30
0.0
 11
32.6661240654
 21
13.2667075075
 31
0.0
  0
LINE
  5
1DB
330
1F
100
AcDbEntity
  8
0
  6
Continuous
 62
     7
370
    25
100
AcDbLine
 10
31.8941240654
 20
13.2667075075
 30
0.0
 11
31.8741240654
 21
13.2312075075
 31
0.0
  0
LINE
  5
1DC
330
1F
100
AcDbEntity
  8
0
  6
Continuous
 62
     7
370
    25
100
AcDbLine
 10
31.8741240654
 20
13.0892075075
 30
0.0
 11
31.8941240654
 21
13.0537075075
 31
0.0
  0
LINE
  5
1DD
330
1F
100
AcDbEntity
  8
0
  6
Continuous
 62
     7
370
    25
100
AcDbLine
 10
32.6661240654
 20
13.0537075075
 30
0.0
 11
32.6861240654
 21
13.0892075075
 31
0.0
  0
LINE
  5
1DE
330
1F
100
AcDbEntity
  8
0
  6
Continuous
 62
     7
370
    25
100
AcDbLine
 10
32.6861240654
 20
13.0892075075
 30
0.0
 11
32.6661240654
 21
13.1247075075
 31
0.0
  0
LINE
  5
1DF
330
1F
100
AcDbEntity
  8
0
  6
Continuous
 62
     7
370
    25
100
AcDbLine
 10
31.8941240654
 20
13.1247075075
 30
0.0
 11
31.8741240654
 21
13.0892075075
 31
0.0
  0
LINE
  5
1E0
330
1F
100
AcDbEntity
  8
0
  6
Continuous
 62
     7
370
    25
100
AcDbLine
 10
32.6861240654
 20
13.3022075075
 30
0.0
 11
32.6661240654
 21
13.3377075075
 31
0.0
  0
LINE
  5
1E1
330
1F
100
AcDbEntity
  8
0
  6
Continuous
 62
     7
370
    25
100
AcDbLine
 10
31.8941240654
 20
13.3377075075
 30
0.0
 11
31.8741240654
 21
13.3022075075
 31
0.0
  0
LINE
  5
1E2
330
1F
100
AcDbEntity
  8
0
  6
Continuous
 62
     7
370
    25
100
AcDbLine
 10
31.8741240654
 20
13.3022075075
 30
0.0
 11
31.8941240654
 21
13.2667075075
 31
0.0
  0
LINE
  5
1E3
330
1F
100
AcDbEntity
  8
0
  6
Continuous
 62
     7
370
    25
100
AcDbLine
 10
32.6661240654
 20
13.2667075075
 30
0.0
 11
32.6861240654
 21
13.3022075075
 31
0.0
  0
LINE
  5
1E4
330
1F
100
AcDbEntity
  8
0
  6
Continuous
 62
     7
370
    25
100
AcDbLine
 10
31.8741240654
 20
13.0182075075
 30
0.0
 11
31.8941240654
 21
12.9827075075
 31
0.0
  0
LINE
  5
1E5
330
1F
100
AcDbEntity
  8
0
  6
Continuous
 62
     7
370
    25
100
AcDbLine
 10
32.6661240654
 20
12.9827075075
 30
0.0
 11
32.6861240654
 21
13.0182075075
 31
0.0
  0
LINE
  5
1E6
330
1F
100
AcDbEntity
  8
0
  6
Continuous
 62
     7
370
    25
100
AcDbLine
 10
32.6861240654
 20
13.0182075075
 30
0.0
 11
32.6661240654
 21
13.0537075075
 31
0.0
  0
LINE
  5
1E7
330
1F
100
AcDbEntity
  8
0
  6
Continuous
 62
     7
370
    25
100
AcDbLine
 10
31.8941240654
 20
13.0537075075
 30
0.0
 11
31.8741240654
 21
13.0182075075
 31
0.0
  0
LINE
  5
1E8
330
1F
100
AcDbEntity
  8
0
  6
Continuous
 62
     7
370
    25
100
AcDbLine
 10
32.6782367415
 20
12.9612075075
 30
0.0
 11
32.6661240654
 21
12.9827075075
 31
0.0
  0
LINE
  5
1E9
330
1F
100
AcDbEntity
  8
0
  6
Continuous
 62
     7
370
    25
100
AcDbLine
 10
31.8941240654
 20
12.9827075075
 30
0.0
 11
31.8820113894
 21
12.9612075075
 31
0.0
  0
LINE
  5
1EA
330
1F
100
AcDbEntity
  8
0
  6
Continuous
 62
     7
370
    25
100
AcDbLine
 10
33.0251240654
 20
13.5819722175
 30
0.0
 11
33.0251240654
 21
15.4519722175
 31
0.0
  0
LINE
  5
1EB
330
1F
100
AcDbEntity
  8
0
  6
Continuous
 62
     7
370
    25
100
AcDbLine
 10
31.5351240654
 20
15.5898538534
 30
0.0
 11
31.5351240654
 21
13.5819722175
 31
0.0
  0
ARC
  5
1EC
330
1F
100
AcDbEntity
  8
0
  6
Continuous
 62
     7
370
    25
100
AcDbCircle
 10
31.8407427996
 20
13.7357797599
 30
0.0
 40
0.300000000000002
100
AcDbArc
 50
246.3966576055
 51
264.4078977097
  0
LINE
  5
1ED
330
1F
100
AcDbEntity
  8
0
  6
Continuous
 62
     7
370
    25
100
AcDbLine
 10
31.7176240654
 20
13.5819722175
 30
0.0
 11
31.7176240654
 21
13.4654596448
 31
0.0
  0
ARC
  5
1EE
330
1F
100
AcDbEntity
  8
0
  6
Continuous
 62
     7
370
    25
100
AcDbCircle
 10
31.7226240654
 20
13.4654596448
 30
0.0
 40
0.0049999999999991
100
AcDbArc
 50
180.0
 51
246.3966576056
  0
LINE
  5
1EF
330
1F
100
AcDbEntity
  8
0
  6
Continuous
 62
     7
370
    25
100
AcDbLine
 10
32.8426240654
 20
13.4654596448
 30
0.0
 11
32.8426240654
 21
13.5819722175
 31
0.0
  0
ARC
  5
1F0
330
1F
100
AcDbEntity
  8
0
  6
Continuous
 62
     7
370
    25
100
AcDbCircle
 10
32.8376240654
 20
13.4654596448
 30
0.0
 40
0.0050000000000026
100
AcDbArc
 50
293.6033423945
 51
360.0
  0
SPLINE
  5
1F1
330
1F
100
AcDbEntity
  8
0
  6
Continuous
 62
     7
370
    25
100
AcDbSpline
210
0.0
220
0.0
230
1.0
 70
    11
 71
     3
 72
    26
 73
    22
 74
     0
 42
0.00000001
 43
0.00000001
 40
0.0
 40
0.0
 40
0.0
 40
0.0
 40
0.0536657763187098
 40
0.1073307369082691
 40
0.1610168648048659
 40
0.2147167848670982
 40
0.2683937137132696
 40
0.3220467760556746
 40
0.3757123019820662
 40
0.4294071900448393
 40
0.4831025401611782
 40
0.5367686814228646
 40
0.5904215493230057
 40
0.644097781729959
 40
0.69779755639126
 40
0.7514843153039578
 40
0.8051418377385839
 40
0.858799510227922
 40
0.912486468308745
 40
0.9661861944960675
 40
1.0
 40
1.0
 40
1.0
 40
1.0
 10
27.08989721613538
 20
20.7342966735043
 30
0.0
 10
27.08648053291229
 20
20.73986543529784
 30
0.0
 10
27.07964721840031
 20
20.75100287423877
 30
0.0
 10
27.07749501651185
 20
20.76560184067449
 30
0.0
 10
27.08189115744975
 20
20.7766069720993
 30
0.0
 10
27.09291393850518
 20
20.78285819150348
 30
0.0
 10
27.10923589657927
 20
20.78372500619085
 30
0.0
 10
27.12905438437551
 20
20.7791234128855
 30
0.0
 10
27.15009258670526
 20
20.76951878741131
 30
0.0
 10
27.16992071385797
 20
20.75589094323864
 30
0.0
 10
27.18623017778986
 20
20.73967903405337
 30
0.0
 10
27.19713972726117
 20
20.7226633696462
 30
0.0
 10
27.20143436826456
 20
20.70677421011354
 30
0.0
 10
27.19868489576446
 20
20.69386877689868
 30
0.0
 10
27.18926762096238
 20
20.68550390351346
 30
0.0
 10
27.17430198594602
 20
20.68271358636952
 30
0.0
 10
27.15551243343516
 20
20.68584089674729
 30
0.0
 10
27.13496072181751
 20
20.69449708562523
 30
0.0
 10
27.11500166708548
 20
20.70761122945882
 30
0.0
 10
27.09957647512817
 20
20.72167534104615
 30
0.0
 10
27.09259481577426
 20
20.73077912098229
 30
0.0
 10
27.08989721613538
 20
20.7342966735043
 30
0.0
  0
ELLIPSE
  5
1F2
330
1F
100
AcDbEntity
  8
0
  6
Continuous
 62
     7
370
    25
100
AcDbEllipse
 10
26.9397740654
 20
23.8223676153
 30
0.0
 11
0.0
 21
2.807213921310613
 31
0.0
210
0.0
220
0.0
230
1.0
 40
0.5
 41
0.0
 42
6.283185307179586
  0
LWPOLYLINE
  5
1F3
330
1F
100
AcDbEntity
  8
0
  6
Continuous
 62
     7
370
    25
100
AcDbPolyline
 90
       39
 70
   128
 43
0.0
 10
27.7790283523
 20
19.1973619675
 10
27.8096883802
 20
19.1582976985
 10
27.8699314733
 20
19.0995207395
 10
27.940905313
 20
19.0494687155
 10
28.0221120687
 20
19.0084927056
 10
28.1129821336
 20
18.976880127
 10
28.2128781192
 20
18.9548527193
 10
28.3210993272
 20
18.9425649889
 10
28.4368866634
 20
18.9401031254
 10
28.5594279629
 20
18.947484397
 10
28.6878636865
 20
18.9646570294
 10
28.8212929499
 20
18.9915005689
 10
28.9587798428
 20
19.0278267273
 10
29.0993599932
 20
19.0733807028
 10
29.2420473325
 20
19.127842967
 10
29.3858410115
 20
19.1908315062
 10
29.5297324209
 20
19.261904501
 10
29.6727122657
 20
19.3405634255
 10
29.8137776452
 20
19.4262565439
 10
29.9519390871
 20
19.5183827804
 10
30.0862274881
 20
19.6162959357
 10
30.2157009115
 20
19.7193092194
 10
30.3394511943
 20
19.8267000673
 10
30.4566103173
 20
19.9377152098
 10
30.5663564932
 20
20.0515759554
 10
30.6679199316
 20
20.1674836528
 10
30.760588238
 20
20.2846252928
 10
30.8437114106
 20
20.4021792109
 10
30.9167064003
 20
20.5193208509
 10
30.9790611995
 20
20.6352285483
 10
31.0303384342
 20
20.7490892939
 10
31.0701784314
 20
20.8601044364
 10
31.0983017422
 20
20.9674952843
 10
31.1145111017
 20
21.070508568
 10
31.1186928129
 20
21.1684217233
 10
31.1108175442
 20
21.2605479599
 10
31.0909405348
 20
21.3462410782
 10
31.0592012078
 20
21.4249000027
 10
31.0205197786
 20
21.4894425362
  0
ELLIPSE
  5
1F4
330
1F
100
AcDbEntity
  8
0
  6
Continuous
 62
     7
370
    25
100
AcDbEllipse
 10
26.9397740654
 20
23.8223676153
 30
0.0
 11
3.552713678800501E-15
 21
2.683470234602961
 31
0.0
210
0.0
220
0.0
230
1.0
 40
0.5
 41
0.0
 42
6.283185307179586
  0
LWPOLYLINE
  5
1F5
330
1F
100
AcDbEntity
  8
0
  6
Continuous
 62
     7
370
    25
100
AcDbPolyline
 90
       21
 70
   128
 43
0.0
 10
28.2472091306
 20
23.219485619
 10
28.1172708624
 20
23.1590546865
 10
27.9762529312
 20
23.085694738
 10
27.8366446263
 20
23.0049430564
 10
27.6994795588
 20
22.9173974988
 10
27.5657732509
 20
22.823706222
 10
27.4365156173
 20
22.7245628834
 10
27.3126636363
 20
22.6207015055
 10
27.1951342647
 20
22.5128910418
 10
27.0847976487
 20
22.4019296831
 10
26.9824706821
 20
22.2886389485
 10
26.8889109579
 20
22.1738576029
 10
26.8048111597
 20
22.0584354474
 10
26.7307939328
 20
21.9432270272
 10
26.667407275
 20
21.8290853051
 10
26.6151204789
 20
21.7168553464
 10
26.5743206576
 20
21.6073680625
 10
26.5453098787
 20
21.501434059
 10
26.5283029279
 20
21.3998376342
 10
26.5234257187
 20
21.3033309724
 10
26.5246117275
 20
21.270589131
  0
LWPOLYLINE
  5
1F6
330
1F
100
AcDbEntity
  8
0
  6
Continuous
 62
     7
370
    25
100
AcDbPolyline
 90
       22
 70
   128
 43
0.0
 10
26.6625438873
 20
21.1968036352
 10
26.6523805775
 20
21.2345713816
 10
26.6398921902
 20
21.3184486446
 10
26.6393527456
 20
21.4083432458
 10
26.6507664654
 20
21.5035516384
 10
26.6740440219
 20
21.6033286873
 10
26.7090032366
 20
21.7068935021
 10
26.7553705062
 20
21.8134355475
 10
26.8127829441
 20
21.9221209876
 10
26.88079122
 20
22.0320992115
 10
26.958863077
 20
22.1425094904
 10
27.0463874969
 20
22.2524877143
 10
27.1426794824
 20
22.3611731545
 10
27.2469854184
 20
22.4677151999
 10
27.3584889693
 20
22.5712800146
 10
27.4763174686
 20
22.6710570636
 10
27.5995487488
 20
22.7662654561
 10
27.7272183578
 20
22.8561600574
 10
27.8583271078
 20
22.9400373203
 10
27.9918488953
 20
23.0172407916
 10
28.1267387311
 20
23.0871662494
 10
28.237208263
 20
23.1385032197
  0
LWPOLYLINE
  5
1F7
330
1F
100
AcDbEntity
  8
0
  6
Continuous
 62
     7
370
    25
100
AcDbPolyline
 90
       21
 70
   128
 43
0.0
 10
26.6984388307
 20
21.182662761
 10
26.6898921902
 20
21.2477379664
 10
26.6893527456
 20
21.3376325677
 10
26.7007664654
 20
21.4328409602
 10
26.7240440219
 20
21.5326180092
 10
26.7590032366
 20
21.6361828239
 10
26.8053705062
 20
21.7427248693
 10
26.8627829441
 20
21.8514103095
 10
26.93079122
 20
21.9613885334
 10
27.008863077
 20
22.0717988123
 10
27.0963874969
 20
22.1817770362
 10
27.1926794824
 20
22.2904624763
 10
27.2969854184
 20
22.3970045218
 10
27.4084889693
 20
22.5005693365
 10
27.5263174686
 20
22.6003463855
 10
27.6495487488
 20
22.695554778
 10
27.7772183578
 20
22.7854493793
 10
27.9083271078
 20
22.8693266422
 10
28.0418488953
 20
22.9465301135
 10
28.1767387311
 20
23.0164555712
 10
28.2230051098
 20
23.038604356
  0
LWPOLYLINE
  5
1F8
330
1F
100
AcDbEntity
  8
0
  6
Continuous
 62
     7
370
    25
100
AcDbPolyline
 90
        9
 70
   128
 43
0.0
 10
28.4172740654
 20
18.9256531556
 10
28.3033040993
 20
18.9305758028
 10
28.1970952249
 20
18.9453092154
 10
28.0993924213
 20
18.9697500493
 10
28.0108810035
 20
19.0037268695
 10
27.9321818153
 20
19.047001353
 10
27.8638468752
 20
19.0992699605
 10
27.8063555035
 20
19.1601660651
 10
27.7840900529
 20
19.1903345297
  0
LWPOLYLINE
  5
1F9
330
1F
100
AcDbEntity
  8
0
  6
Continuous
 62
     7
370
    25
100
AcDbPolyline
 90
       32
 70
   128
 43
0.0
 10
31.0254580773
 20
21.4823278391
 10
31.0377429038
 20
21.4648020008
 10
31.0782373661
 20
21.3917836455
 10
31.1070287572
 20
21.3113124511
 10
31.1239151261
 20
21.2239528651
 10
31.128778027
 20
21.1303176524
 10
31.1215833503
 20
21.0310635966
 10
31.1023815613
 20
20.9268868936
 10
31.0713073469
 20
20.8185182681
 10
31.0285786704
 20
20.7067178483
 10
30.9744952426
 20
20.5922698337
 10
30.9094364201
 20
20.4759769949
 10
30.8338585436
 20
20.3586550426
 10
30.7482917377
 20
20.241126906
 10
30.6533361921
 20
20.1242169605
 10
30.5496579516
 20
20.0087452455
 10
30.4379842447
 20
19.895521712
 10
30.3190983822
 20
19.7853405417
 10
30.1938342629
 20
19.6789745765
 10
30.0630705247
 20
19.5771698971
 10
29.9277243812
 20
19.4806405902
 10
29.7887451884
 20
19.3900637396
 10
29.6471077855
 20
19.3060746767
 10
29.503805657
 20
19.2292625245
 10
29.3598439645
 20
19.1601660651
 10
29.2162324958
 20
19.0992699605
 10
29.0739785821
 20
19.047001353
 10
28.9340800324
 20
19.0037268695
 10
28.7975181347
 20
18.9697500493
 10
28.6652507723
 20
18.9453092154
 10
28.538205706
 20
18.9305758028
 10
28.4172740654
 20
18.9256531556
  0
LWPOLYLINE
  5
1FA
330
1F
100
AcDbEntity
  8
0
  6
Continuous
 62
     7
370
    25
100
AcDbPolyline
 90
       39
 70
   128
 43
0.0
 10
30.2318783523
 20
15.7285082311
 10
30.276568721
 20
15.6739532859
 10
30.3395371109
 20
15.617321254
 10
30.4131187186
 20
15.5695077679
 10
30.4967974221
 20
15.5308482051
 10
30.5899862753
 20
15.5016137345
 10
30.6920316253
 20
15.4820094149
 10
30.8022176975
 20
15.4721727565
 10
30.9197716156
 20
15.4721727565
 10
31.0438688234
 20
15.4820094149
 10
31.1736388681
 20
15.5016137345
 10
31.3081715062
 20
15.5308482051
 10
31.4465230877
 20
15.5695077679
 10
31.5877231758
 20
15.617321254
 10
31.7307813534
 20
15.6739532859
 10
31.87469417
 20
15.7390066308
 10
32.0184521807
 20
15.8120249861
 10
32.1610470263
 20
15.8924961805
 10
32.3014785064
 20
15.9798557665
 10
32.4387615952
 20
16.0734909793
 10
32.5719333503
 20
16.1727450351
 10
32.7000596676
 20
16.276921738
 10
32.822241833
 20
16.3852903635
 10
32.9376228265
 20
16.4970907833
 10
33.0453933332
 20
16.6115387979
 10
33.1447974205
 20
16.7278316368
 10
33.2351378401
 20
16.8451535891
 10
33.315780919
 20
16.9626817257
 10
33.3861610038
 20
17.0795916711
 10
33.4457844288
 20
17.1950633862
 10
33.4942329786
 20
17.3082869197
 10
33.5311668213
 20
17.4184680899
 10
33.5563268926
 20
17.5248340551
 10
33.5695367127
 20
17.6266387345
 10
33.5707036242
 20
17.7231680414
 10
33.559819442
 20
17.8137448921
 10
33.5369605109
 20
17.8977339549
 10
33.5022871698
 20
17.9745461071
 10
33.4733697786
 20
18.0205887997
  0
LWPOLYLINE
  5
1FB
330
1F
100
AcDbEntity
  8
0
  6
Continuous
 62
     7
370
    25
100
AcDbPolyline
 90
       24
 70
   128
 43
0.0
 10
33.4967907321
 20
17.314133231
 10
33.4756572493
 20
17.2581316829
 10
33.4249293115
 20
17.1445770196
 10
33.3629809537
 20
17.028923953
 10
33.2902585153
 20
16.9120057663
 10
33.207285963
 20
16.7946648576
 10
33.1146611161
 20
16.6777466709
 10
33.0130513387
 20
16.5620936043
 10
32.9031887315
 20
16.448538941
 10
32.7858648571
 20
16.3379008447
 10
32.6619250368
 20
16.2309764656
 10
32.5322622598
 20
16.1285361963
 10
32.3978107494
 20
16.0313181212
 10
32.2595392318
 20
15.9400226988
 10
32.1184439564
 20
15.8553077147
 10
31.975541518
 20
15.7777835423
 10
31.8318615318
 20
15.708008745
 10
31.6884392156
 20
15.646486052
 10
31.5463079302
 20
15.5936587354
 10
31.406491735
 20
15.5499074175
 10
31.2699980088
 20
15.5155473275
 10
31.137810192
 20
15.4908260305
 10
31.0108807009
 20
15.4759216441
 10
30.8901240654
 20
15.4709415547
  0
LINE
  5
1FC
330
1F
100
AcDbEntity
  8
0
  6
Continuous
 62
     7
370
    25
100
AcDbLine
 10
31.9073037058
 20
15.7436307224
 30
0.0
 11
31.9076240654
 21
15.7431776655
 31
0.0
  0
ARC
  5
1FD
330
1F
100
AcDbEntity
  8
0
  6
Continuous
 62
     7
370
    25
100
AcDbCircle
 10
32.3025596555
 20
15.9903235274
 30
0.0
 40
0.4658918301288083
100
AcDbArc
 50
212.0378289632
 51
267.2397842271
  0
LINE
  5
1FE
330
1F
100
AcDbEntity
  8
0
  6
Continuous
 62
     7
370
    25
100
AcDbLine
 10
31.8941240654
 20
13.4087075075
 30
0.0
 11
32.6661240654
 21
13.4087075075
 31
0.0
  0
LINE
  5
1FF
330
1F
100
AcDbEntity
  8
0
  6
Continuous
 62
     7
370
    25
100
AcDbLine
 10
31.8741436466
 20
13.3732075075
 30
0.0
 11
32.6861240654
 21
13.3732075075
 31
0.0
  0
LINE
  5
200
330
1F
100
AcDbEntity
  8
0
  6
Continuous
 62
     7
370
    25
100
AcDbLine
 10
31.8941240654
 20
13.3377075075
 30
0.0
 11
32.6661240654
 21
13.3377075075
 31
0.0
  0
LINE
  5
201
330
1F
100
AcDbEntity
  8
0
  6
Continuous
 62
     7
370
    25
100
AcDbLine
 10
31.8941240654
 20
13.1957075075
 30
0.0
 11
32.6661240654
 21
13.1957075075
 31
0.0
  0
LINE
  5
202
330
1F
100
AcDbEntity
  8
0
  6
Continuous
 62
     7
370
    25
100
AcDbLine
 10
31.8741436466
 20
13.1602075075
 30
0.0
 11
32.6861240654
 21
13.1602075075
 31
0.0
  0
LINE
  5
203
330
1F
100
AcDbEntity
  8
0
  6
Continuous
 62
     7
370
    25
100
AcDbLine
 10
31.8941240654
 20
13.1247075075
 30
0.0
 11
32.6661240654
 21
13.1247075075
 31
0.0
  0
LINE
  5
204
330
1F
100
AcDbEntity
  8
0
  6
Continuous
 62
     7
370
    25
100
AcDbLine
 10
31.8741436466
 20
13.2312075075
 30
0.0
 11
32.6861240654
 21
13.2312075075
 31
0.0
  0
LINE
  5
205
330
1F
100
AcDbEntity
  8
0
  6
Continuous
 62
     7
370
    25
100
AcDbLine
 10
31.8941240654
 20
13.2667075075
 30
0.0
 11
32.6661240654
 21
13.2667075075
 31
0.0
  0
LINE
  5
206
330
1F
100
AcDbEntity
  8
0
  6
Continuous
 62
     7
370
    25
100
AcDbLine
 10
31.8741436466
 20
13.0892075075
 30
0.0
 11
32.6861240654
 21
13.0892075075
 31
0.0
  0
LINE
  5
207
330
1F
100
AcDbEntity
  8
0
  6
Continuous
 62
     7
370
    25
100
AcDbLine
 10
31.8941240654
 20
13.0537075075
 30
0.0
 11
32.6661240654
 21
13.0537075075
 31
0.0
  0
LINE
  5
208
330
1F
100
AcDbEntity
  8
0
  6
Continuous
 62
     7
370
    25
100
AcDbLine
 10
31.8741436466
 20
13.3022075075
 30
0.0
 11
32.6861240654
 21
13.3022075075
 31
0.0
  0
LINE
  5
209
330
1F
100
AcDbEntity
  8
0
  6
Continuous
 62
     7
370
    25
100
AcDbLine
 10
31.8741436466
 20
13.0182075075
 30
0.0
 11
32.6861240654
 21
13.0182075075
 31
0.0
  0
LINE
  5
20A
330
1F
100
AcDbEntity
  8
0
  6
Continuous
 62
     7
370
    25
100
AcDbLine
 10
31.8941240654
 20
12.9827075075
 30
0.0
 11
32.6661240654
 21
12.9827075075
 31
0.0
  0
LINE
  5
20B
330
1F
100
AcDbEntity
  8
0
  6
Continuous
 62
     7
370
    25
100
AcDbLine
 10
31.8820113894
 20
12.9612075075
 30
0.0
 11
32.6782367415
 21
12.9612075075
 31
0.0
  0
LINE
  5
20C
330
1F
100
AcDbEntity
  8
0
  6
Continuous
 62
     7
370
    25
100
AcDbLine
 10
32.8124812079
 20
14.9766357781
 30
0.0
 11
32.7998475496
 21
14.9730972175
 31
0.0
  0
LWPOLYLINE
  5
20D
330
1F
100
AcDbEntity
  8
0
  6
Continuous
 62
     7
370
    25
100
AcDbPolyline
 90
       17
 70
   128
 43
0.0
 10
32.83299318
 20
15.0199722175
 10
32.8310083721
 20
15.034083669
 10
32.8253561174
 20
15.04604678
 10
32.8168969205
 20
15.0540402752
 10
32.8069186174
 20
15.0568472175
 10
32.7969403143
 20
15.0540402752
 10
32.7884811174
 20
15.04604678
 10
32.7828288627
 20
15.034083669
 10
32.7808440548
 20
15.0199722175
 10
32.7828288627
 20
15.0058607659
 10
32.7884811174
 20
14.9938976549
 10
32.7969403143
 20
14.9859041597
 10
32.8069186174
 20
14.9830972175
 10
32.8168969205
 20
14.9859041597
 10
32.8253561174
 20
14.9938976549
 10
32.8310083721
 20
15.0058607659
 10
32.83299318
 20
15.0199722175
  0
SPLINE
  5
20E
330
1F
100
AcDbEntity
  8
0
  6
Continuous
 62
     7
370
    25
100
AcDbSpline
210
0.0
220
0.0
230
1.0
 70
    11
 71
     3
 72
    26
 73
    22
 74
     0
 42
0.00000001
 43
0.00000001
 40
0.0
 40
0.0
 40
0.0
 40
0.0
 40
0.0536235447489054
 40
0.1072447815489636
 40
0.1609259535779683
 40
0.2146466086157218
 40
0.2683019801713042
 40
0.3218891771731637
 40
0.3755117052882352
 40
0.4292178703846102
 40
0.4829255826092457
 40
0.5365504508230353
 40
0.5901373908209986
 40
0.6437901403945278
 40
0.6975101730121724
 40
0.7511938685390592
 40
0.8047940694062692
 40
0.8583940411272084
 40
0.912077262469474
 40
0.9657974298943632
 40
1.0
 40
1.0
 40
1.0
 40
1.0
 10
32.80691861739871
 20
14.97547221747847
 30
0.0
 10
32.81043209199115
 20
14.97596332816923
 30
0.0
 10
32.81745888995663
 20
14.97694552841342
 30
0.0
 10
32.82657330563465
 20
14.98460121557145
 30
0.0
 10
32.83340587218678
 20
14.99588237996004
 30
0.0
 10
32.83727073069656
 20
15.0099821947335
 30
0.0
 10
32.83781004611541
 20
15.02517739559345
 30
0.0
 10
32.83498077090334
 20
15.03978106254023
 30
0.0
 10
32.82904568180506
 20
15.05215555713488
 30
0.0
 10
32.82055965771696
 20
15.06091678369597
 30
0.0
 10
32.81037484925865
 20
15.06506388901512
 30
0.0
 10
32.79959333013178
 20
15.06412816192512
 30
0.0
 10
32.78944254229538
 20
15.05822777168286
 30
0.0
 10
32.78113079574776
 20
15.04802270883719
 30
0.0
 10
32.77570349964637
 20
15.03464860614138
 30
0.0
 10
32.7738739371636
 20
15.01961793333717
 30
0.0
 10
32.77587775433029
 20
15.00464510324283
 30
0.0
 10
32.78144658741458
 20
14.99138092037441
 30
0.0
 10
32.78985905616718
 20
14.98140031060198
 30
0.0
 10
32.79886385564259
 20
14.97619633962409
 30
0.0
 10
32.80466279050271
 20
14.97567501605421
 30
0.0
 10
32.80691861739871
 20
14.97547221747847
 30
0.0
  0
LINE
  5
20F
330
1F
100
AcDbEntity
  8
0
  6
Continuous
 62
     7
370
    25
100
AcDbLine
 10
31.7533295134
 20
15.4519722175
 30
0.0
 11
31.7533295134
 21
15.6733113941
 31
0.0
  0
LINE
  5
210
330
1F
100
AcDbEntity
  8
0
  6
Continuous
 62
     7
370
    25
100
AcDbLine
 10
31.7533295134
 20
15.4519722175
 30
0.0
 11
33.0251240654
 21
15.4519722175
 31
0.0
  0
LINE
  5
211
330
1F
100
AcDbEntity
  8
0
  6
Continuous
 62
     7
370
    25
100
AcDbLine
 10
32.8069186174
 20
15.7431776655
 30
0.0
 11
32.8069186174
 21
15.4519722175
 31
0.0
  0
LINE
  5
212
330
1F
100
AcDbEntity
  8
0
  6
Continuous
 62
     7
370
    25
100
AcDbLine
 10
33.0251240654
 20
13.5819722175
 30
0.0
 11
31.5351240654
 21
13.5819722175
 31
0.0
  0
LINE
  5
213
330
1F
100
AcDbEntity
  8
0
  6
Continuous
 62
     7
370
    25
100
AcDbLine
 10
32.748739046
 20
13.4372075075
 30
0.0
 11
31.8115090849
 21
13.4372075075
 31
0.0
  0
LINE
  5
214
330
1F
100
AcDbEntity
  8
0
  6
Continuous
 62
     7
370
    25
100
AcDbLine
 10
32.7565998058
 20
13.4386371741
 30
0.0
 11
32.6556030634
 21
13.4386371741
 31
0.0
  0
SPLINE
  5
215
330
1F
100
AcDbEntity
  8
0
  6
Continuous
 62
     7
370
    25
100
AcDbSpline
210
0.0
220
0.0
230
1.0
 70
     8
 71
     3
 72
    10
 73
     6
 74
     0
 42
0.00000001
 43
0.00000001
 40
0.0
 40
0.0
 40
0.0
 40
0.0
 40
0.4665495905510346
 40
0.7778212346569314
 40
1.0
 40
1.0
 40
1.0
 40
1.0
 10
32.83700929217891
 20
13.46087794792556
 30
0.0
 10
32.82485857164783
 20
13.45617662292142
 30
0.0
 10
32.80460115713741
 20
13.44833867708821
 30
0.0
 10
32.77741618108331
 20
13.44185460611354
 30
0.0
 10
32.76272047542214
 20
13.43958320043498
 30
0.0
 10
32.75659980575574
 20
13.43863717414966
 30
0.0
  0
SPLINE
  5
216
330
1F
100
AcDbEntity
  8
0
  6
Continuous
 62
     7
370
    25
100
AcDbSpline
210
0.0
220
0.0
230
1.0
 70
     8
 71
     3
 72
    10
 73
     6
 74
     0
 42
0.00000001
 43
0.00000001
 40
0.0
 40
0.0
 40
0.0
 40
0.0
 40
0.5331753442086969
 40
0.8095997620718213
 40
1.0
 40
1.0
 40
1.0
 40
1.0
 10
31.83246595745634
 20
13.43863717414966
 30
0.0
 10
31.81782086230293
 20
13.44122981452389
 30
0.0
 10
31.79558302688818
 20
13.44516660765004
 30
0.0
 10
31.76906432727968
 20
13.45391463053431
 30
0.0
 10
31.75702778753788
 20
13.45886065171428
 30
0.0
 10
31.75211853520461
 20
13.46087794792557
 30
0.0
  0
LINE
  5
217
330
1F
100
AcDbEntity
  8
0
  6
Continuous
 62
     7
370
    25
100
AcDbLine
 10
31.9868935287
 20
13.4386371741
 30
0.0
 11
31.8324659575
 21
13.4386371741
 31
0.0
  0
SPLINE
  5
218
330
1F
100
AcDbEntity
  8
0
  6
Continuous
 62
     7
370
    25
100
AcDbSpline
210
0.0
220
0.0
230
1.0
 70
     8
 71
     3
 72
    10
 73
     6
 74
     0
 42
0.00000001
 43
0.00000001
 40
0.0
 40
0.0
 40
0.0
 40
0.0
 40
0.4686381556240153
 40
0.7785358969781576
 40
1.0
 40
1.0
 40
1.0
 40
1.0
 10
31.95487323048143
 20
13.46087794792557
 30
0.0
 10
31.95973020301852
 20
13.45615723185329
 30
0.0
 10
31.96779896017237
 20
13.44831483388035
 30
0.0
 10
31.97862719450247
 20
13.44184145903704
 30
0.0
 10
31.98446176304326
 20
13.43957980116838
 30
0.0
 10
31.98689352870743
 20
13.43863717414966
 30
0.0
  0
LINE
  5
219
330
1F
100
AcDbEntity
  8
0
  6
Continuous
 62
     7
370
    25
100
AcDbLine
 10
32.1764007329
 20
13.4608779479
 30
0.0
 11
31.9548732305
 21
13.4608779479
 31
0.0
  0
SPLINE
  5
21A
330
1F
100
AcDbEntity
  8
0
  6
Continuous
 62
     7
370
    25
100
AcDbSpline
210
0.0
220
0.0
230
1.0
 70
     8
 71
     3
 72
    10
 73
     6
 74
     0
 42
0.00000001
 43
0.00000001
 40
0.0
 40
0.0
 40
0.0
 40
0.0
 40
0.533231133784701
 40
0.8096265694457463
 40
1.0
 40
1.0
 40
1.0
 40
1.0
 10
32.20794495540929
 20
13.43863717414966
 30
0.0
 10
32.20219888339032
 20
13.4412301388503
 30
0.0
 10
32.19347438798531
 20
13.4451671428665
 30
0.0
 10
32.18305856909602
 20
13.4539154695583
 30
0.0
 10
32.17832950099352
 20
13.45886092528306
 30
0.0
 10
32.1764007328533
 20
13.46087794792557
 30
0.0
  0
LINE
  5
21B
330
1F
100
AcDbEntity
  8
0
  6
Continuous
 62
     7
370
    25
100
AcDbLine
 10
32.463369269
 20
13.4386371741
 30
0.0
 11
32.2079449554
 21
13.4386371741
 31
0.0
  0
SPLINE
  5
21C
330
1F
100
AcDbEntity
  8
0
  6
Continuous
 62
     7
370
    25
100
AcDbSpline
210
0.0
220
0.0
230
1.0
 70
     8
 71
     3
 72
    10
 73
     6
 74
     0
 42
0.00000001
 43
0.00000001
 40
0.0
 40
0.0
 40
0.0
 40
0.0
 40
0.4665495905504185
 40
0.777821234656761
 40
1.0
 40
1.0
 40
1.0
 40
1.0
 10
32.51175845724557
 20
13.46087794792556
 30
0.0
 10
32.50444274575944
 20
13.45617662292143
 30
0.0
 10
32.49224615218013
 20
13.44833867708822
 30
0.0
 10
32.47588857513244
 20
13.44185460611355
 30
0.0
 10
32.46705033915724
 20
13.43958320043499
 30
0.0
 10
32.46336926904839
 20
13.43863717414966
 30
0.0
  0
LINE
  5
21D
330
1F
100
AcDbEntity
  8
0
  6
Continuous
 62
     7
370
    25
100
AcDbLine
 10
32.7044062631
 20
13.4608779479
 30
0.0
 11
32.5117584572
 21
13.4608779479
 31
0.0
  0
SPLINE
  5
21E
330
1F
100
AcDbEntity
  8
0
  6
Continuous
 62
     7
370
    25
100
AcDbSpline
210
0.0
220
0.0
230
1.0
 70
     8
 71
     3
 72
    10
 73
     6
 74
     0
 42
0.00000001
 43
0.00000001
 40
0.0
 40
0.0
 40
0.0
 40
0.0
 40
0.5331753442087291
 40
0.8095997620717693
 40
1.0
 40
1.0
 40
1.0
 40
1.0
 10
32.65560306336773
 20
13.43863717414966
 30
0.0
 10
32.6645026861655
 20
13.44122981452389
 30
0.0
 10
32.67801631273857
 20
13.44516660765004
 30
0.0
 10
32.69411915094148
 20
13.45391463053431
 30
0.0
 10
32.7014260524623
 20
13.45886065171427
 30
0.0
 10
32.70440626306348
 20
13.46087794792556
 30
0.0
  0
LINE
  5
21F
330
1F
100
AcDbEntity
  8
0
  6
Continuous
 62
     7
370
    25
100
AcDbLine
 10
32.1797990296
 20
13.4672020717
 30
0.0
 11
32.1797990296
 21
13.5732075075
 31
0.0
  0
LINE
  5
220
330
1F
100
AcDbEntity
  8
0
  6
Continuous
 62
     7
370
    25
100
AcDbLine
 10
32.1795275005
 20
13.4654596448
 30
0.0
 11
32.1797990296
 21
13.4672020717
 31
0.0
  0
LINE
  5
221
330
1F
100
AcDbEntity
  8
0
  6
Continuous
 62
     7
370
    25
100
AcDbLine
 10
31.9500903466
 20
13.4654596448
 30
0.0
 11
32.1795275005
 21
13.4654596448
 31
0.0
  0
LINE
  5
222
330
1F
100
AcDbEntity
  8
0
  6
Continuous
 62
     7
370
    25
100
AcDbLine
 10
31.9498669132
 20
13.4672020717
 30
0.0
 11
31.9500903466
 21
13.4654596448
 31
0.0
  0
LINE
  5
223
330
1F
100
AcDbEntity
  8
0
  6
Continuous
 62
     7
370
    25
100
AcDbLine
 10
31.9498669132
 20
13.4672020717
 30
0.0
 11
31.9498669132
 21
13.5819722175
 31
0.0
  0
LINE
  5
224
330
1F
100
AcDbEntity
  8
0
  6
Continuous
 62
     7
370
    25
100
AcDbLine
 10
32.1797990296
 20
13.5732075075
 30
0.0
 11
32.0380411002
 21
13.5732075075
 31
0.0
  0
SPLINE
  5
225
330
1F
100
AcDbEntity
  8
0
  6
Continuous
 62
     7
370
    25
100
AcDbSpline
210
0.0
220
0.0
230
1.0
 70
     8
 71
     3
 72
    12
 73
     8
 74
     0
 42
0.00000001
 43
0.00000001
 40
0.0
 40
0.0
 40
0.0
 40
0.0
 40
0.261046625736063
 40
0.5203567671407809
 40
0.8317512029540814
 40
0.9869218091726203
 40
1.0
 40
1.0
 40
1.0
 40
1.0
 10
32.17952750053788
 20
13.4654596447922
 30
0.0
 10
32.17931355223435
 20
13.46489981911247
 30
0.0
 10
32.1788870788132
 20
13.4637838917181
 30
0.0
 10
32.17798111402538
 20
13.46235541124636
 30
0.0
 10
32.17715154966493
 20
13.46142887178464
 30
0.0
 10
32.17660488129417
 20
13.46100900918889
 30
0.0
 10
32.17641545703915
 20
13.46088740070605
 30
0.0
 10
32.1764007328533
 20
13.46087794792557
 30
0.0
  0
SPLINE
  5
226
330
1F
100
AcDbEntity
  8
0
  6
Continuous
 62
     7
370
    25
100
AcDbSpline
210
0.0
220
0.0
230
1.0
 70
     8
 71
     3
 72
    12
 73
     8
 74
     0
 42
0.00000001
 43
0.00000001
 40
0.0
 40
0.0
 40
0.0
 40
0.0
 40
0.2610466257370538
 40
0.5203567671423818
 40
0.8317512029576088
 40
0.9869218091729355
 40
0.9999999999999999
 40
0.9999999999999999
 40
0.9999999999999999
 40
0.9999999999999999
 10
31.95009034659065
 20
13.4654596447922
 30
0.0
 10
31.95030870303495
 20
13.46489981911247
 30
0.0
 10
31.95074396341466
 20
13.4637838917181
 30
0.0
 10
31.95208411512817
 20
13.46235541124635
 30
0.0
 10
31.95348134631026
 20
13.46142887178463
 30
0.0
 10
31.95448653026693
 20
13.46100900918889
 30
0.0
 10
31.95484533976722
 20
13.46088740070605
 30
0.0
 10
31.95487323048143
 20
13.46087794792557
 30
0.0
  0
LINE
  5
227
330
1F
100
AcDbEntity
  8
0
  6
Continuous
 62
     7
370
    25
100
AcDbLine
 10
32.2111030483
 20
13.4435895506
 30
0.0
 11
32.4614507325
 21
13.4435895506
 31
0.0
  0
SPLINE
  5
228
330
1F
100
AcDbEntity
  8
0
  6
Continuous
 62
     7
370
    25
100
AcDbSpline
210
0.0
220
0.0
230
1.0
 70
     8
 71
     3
 72
    13
 73
     9
 74
     0
 42
0.00000001
 43
0.00000001
 40
0.0
 40
0.0
 40
0.0
 40
0.0
 40
0.1858612659550139
 40
0.3708268618810215
 40
0.5778789813015397
 40
0.8292801638919054
 40
0.9889166448681558
 40
1.0
 40
1.0
 40
1.0
 40
1.0
 10
32.46145073249568
 20
13.44358955057923
 30
0.0
 10
32.46151786927702
 20
13.44308635833824
 30
0.0
 10
32.46165181930591
 20
13.44208239875211
 30
0.0
 10
32.46200760709897
 20
13.44075784996531
 30
0.0
 10
32.46245811169029
 20
13.43962031017763
 30
0.0
 10
32.46292385505405
 20
13.43892697049688
 30
0.0
 10
32.4632369626452
 20
13.43869317121375
 30
0.0
 10
32.46336120318968
 20
13.43864058792553
 30
0.0
 10
32.46336926904839
 20
13.43863717414966
 30
0.0
  0
SPLINE
  5
229
330
1F
100
AcDbEntity
  8
0
  6
Continuous
 62
     7
370
    25
100
AcDbSpline
210
0.0
220
0.0
230
1.0
 70
     8
 71
     3
 72
    13
 73
     9
 74
     0
 42
0.00000001
 43
0.00000001
 40
0.0
 40
0.0
 40
0.0
 40
0.0
 40
0.1858612659551688
 40
0.3708268618806559
 40
0.5778789813016528
 40
0.8292801638919013
 40
0.9889166448663265
 40
1.0
 40
1.0
 40
1.0
 40
1.0
 10
32.21110304827901
 20
13.44358955057923
 30
0.0
 10
32.21101969578035
 20
13.44308635833825
 30
0.0
 10
32.21085339246077
 20
13.44208239875212
 30
0.0
 10
32.21030261905938
 20
13.44075784996531
 30
0.0
 10
32.20955965553973
 20
13.43962031017763
 30
0.0
 10
32.20875043321414
 20
13.43892697049689
 30
0.0
 10
32.20818670943623
 20
13.43869317121374
 30
0.0
 10
32.20795969357597
 20
13.43864058792554
 30
0.0
 10
32.20794495540929
 20
13.43863717414966
 30
0.0
  0
LINE
  5
22A
330
1F
100
AcDbEntity
  8
0
  6
Continuous
 62
     7
370
    25
100
AcDbLine
 10
32.2111328973
 20
13.4441332187
 30
0.0
 11
32.2111328973
 21
13.5732075075
 31
0.0
  0
LINE
  5
22B
330
1F
100
AcDbEntity
  8
0
  6
Continuous
 62
     7
370
    25
100
AcDbLine
 10
32.4614227632
 20
13.4441332187
 30
0.0
 11
32.4614227632
 21
13.5732075075
 31
0.0
  0
LINE
  5
22C
330
1F
100
AcDbEntity
  8
0
  6
Continuous
 62
     7
370
    25
100
AcDbLine
 10
32.4614507325
 20
13.4435895506
 30
0.0
 11
32.4614227632
 21
13.4441332187
 31
0.0
  0
LINE
  5
22D
330
1F
100
AcDbEntity
  8
0
  6
Continuous
 62
     7
370
    25
100
AcDbLine
 10
32.2111328973
 20
13.4441332187
 30
0.0
 11
32.2111030483
 21
13.4435895506
 31
0.0
  0
LINE
  5
22E
330
1F
100
AcDbEntity
  8
0
  6
Continuous
 62
     7
370
    25
100
AcDbLine
 10
32.4614227632
 20
13.5732075075
 30
0.0
 11
32.2111328973
 21
13.5732075075
 31
0.0
  0
LINE
  5
22F
330
1F
100
AcDbEntity
  8
0
  6
Continuous
 62
     7
370
    25
100
AcDbLine
 10
32.509333349
 20
13.4672020717
 30
0.0
 11
32.509585337
 21
13.4654596448
 31
0.0
  0
LINE
  5
230
330
1F
100
AcDbEntity
  8
0
  6
Continuous
 62
     7
370
    25
100
AcDbLine
 10
32.509333349
 20
13.4672020717
 30
0.0
 11
32.509333349
 21
13.5819722175
 31
0.0
  0
SPLINE
  5
231
330
1F
100
AcDbEntity
  8
0
  6
Continuous
 62
     7
370
    25
100
AcDbSpline
210
0.0
220
0.0
230
1.0
 70
     8
 71
     3
 72
     9
 73
     5
 74
     0
 42
0.00000001
 43
0.00000001
 40
0.0
 40
0.0
 40
0.0
 40
0.0
 40
0.96384019355591
 40
1.0
 40
1.0
 40
1.0
 40
1.0
 10
32.61762523201648
 20
13.57020750748701
 30
0.0
 10
32.60003903154621
 20
13.57263783829889
 30
0.0
 10
32.58179306028681
 20
13.57515934635399
 30
0.0
 10
32.56250527349195
 20
13.58173446254944
 30
0.0
 10
32.56180783085471
 20
13.58197221747842
 30
0.0
  0
LINE
  5
232
330
1F
100
AcDbEntity
  8
0
  6
Continuous
 62
     7
370
    25
100
AcDbLine
 10
32.7092900913
 20
13.5702075075
 30
0.0
 11
32.617625232
 21
13.5702075075
 31
0.0
  0
LINE
  5
233
330
1F
100
AcDbEntity
  8
0
  6
Continuous
 62
     7
370
    25
100
AcDbLine
 10
32.7092900913
 20
13.4672020717
 30
0.0
 11
32.7092900913
 21
13.5702075075
 31
0.0
  0
LINE
  5
234
330
1F
100
AcDbEntity
  8
0
  6
Continuous
 62
     7
370
    25
100
AcDbLine
 10
32.7091116432
 20
13.4654596448
 30
0.0
 11
32.7092900913
 21
13.4672020717
 31
0.0
  0
LINE
  5
235
330
1F
100
AcDbEntity
  8
0
  6
Continuous
 62
     7
370
    25
100
AcDbLine
 10
32.509585337
 20
13.4654596448
 30
0.0
 11
32.7091116432
 21
13.4654596448
 31
0.0
  0
SPLINE
  5
236
330
1F
100
AcDbEntity
  8
0
  6
Continuous
 62
     7
370
    25
100
AcDbSpline
210
0.0
220
0.0
230
1.0
 70
     8
 71
     3
 72
    12
 73
     8
 74
     0
 42
0.00000001
 43
0.00000001
 40
0.0
 40
0.0
 40
0.0
 40
0.0
 40
0.2610466257363422
 40
0.5203567671404047
 40
0.8317512029545366
 40
0.9869218091724322
 40
1.0
 40
1.0
 40
1.0
 40
1.0
 10
32.50958533699268
 20
13.4654596447922
 30
0.0
 10
32.50976994030393
 20
13.46489981911247
 30
0.0
 10
32.51013791894364
 20
13.4637838917181
 30
0.0
 10
32.51078262482854
 20
13.46235541124635
 30
0.0
 10
32.5113168819061
 20
13.46142887178463
 30
0.0
 10
32.51164111030328
 20
13.46100900918889
 30
0.0
 10
32.51174999360911
 20
13.46088740070605
 30
0.0
 10
32.51175845724557
 20
13.46087794792556
 30
0.0
  0
SPLINE
  5
237
330
1F
100
AcDbEntity
  8
0
  6
Continuous
 62
     7
370
    25
100
AcDbSpline
210
0.0
220
0.0
230
1.0
 70
     8
 71
     3
 72
    12
 73
     8
 74
     0
 42
0.00000001
 43
0.00000001
 40
0.0
 40
0.0
 40
0.0
 40
0.0
 40
0.01307819082732
 40
0.1682487970461879
 40
0.4796432328598563
 40
0.7389533742640159
 40
0.9999999999999999
 40
0.9999999999999999
 40
0.9999999999999999
 40
0.9999999999999999
 10
32.70440626306348
 20
13.46087794792556
 30
0.0
 10
32.70443485878491
 20
13.46088740070604
 30
0.0
 10
32.70480273808823
 20
13.46100900918889
 30
0.0
 10
32.70582805294256
 20
13.46142887178464
 30
0.0
 10
32.70723029255579
 20
13.46235541124636
 30
0.0
 10
32.70853888552076
 20
13.4637838917181
 30
0.0
 10
32.70892029972914
 20
13.46489981911247
 30
0.0
 10
32.70911164324266
 20
13.46545964479219
 30
0.0
  0
SPLINE
  5
238
330
1F
100
AcDbEntity
  8
0
  6
Continuous
 62
     7
370
    25
100
AcDbSpline
210
0.0
220
0.0
230
1.0
 70
     8
 71
     3
 72
     9
 73
     5
 74
     0
 42
0.00000001
 43
0.00000001
 40
0.0
 40
0.0
 40
0.0
 40
0.0
 40
0.5162711822621029
 40
0.9999999999999999
 40
0.9999999999999999
 40
0.9999999999999999
 40
0.9999999999999999
 10
32.17979902959545
 20
13.46720207174194
 30
0.0
 10
32.18503532019758
 20
13.46184591860279
 30
0.0
 10
32.19517783983076
 20
13.4514712292473
 30
0.0
 10
32.20593119132869
 20
13.44652557442575
 30
0.0
 10
32.2111328973355
 20
13.44413321866598
 30
0.0
  0
LINE
  5
239
330
1F
100
AcDbEntity
  8
0
  6
Continuous
 62
     7
370
    25
100
AcDbLine
 10
32.2111328973
 20
13.5732075075
 30
0.0
 11
32.1797990296
 21
13.5732075075
 31
0.0
  0
LINE
  5
23A
330
1F
100
AcDbEntity
  8
0
  6
Continuous
 62
     7
370
    25
100
AcDbLine
 10
32.5736164326
 20
13.5819722175
 30
0.0
 11
32.6159530529
 21
13.5732075075
 31
0.0
  0
SPLINE
  5
23B
330
1F
100
AcDbEntity
  8
0
  6
Continuous
 62
     7
370
    25
100
AcDbSpline
210
0.0
220
0.0
230
1.0
 70
     8
 71
     3
 72
    13
 73
     9
 74
     0
 42
0.00000001
 43
0.00000001
 40
0.0
 40
0.0
 40
0.0
 40
0.0
 40
0.2142797061537077
 40
0.4285450239862406
 40
0.642949152809887
 40
0.8576415051481314
 40
0.9549170214504926
 40
0.9999999999999999
 40
0.9999999999999999
 40
0.9999999999999999
 40
0.9999999999999999
 10
32.61595305286314
 20
13.573207507487
 30
0.0
 10
32.61615385100929
 20
13.5731744206447
 30
0.0
 10
32.61655543381853
 20
13.57310824918178
 30
0.0
 10
32.61707160733076
 20
13.57259209570329
 30
0.0
 10
32.61744911592311
 20
13.57183252169101
 30
0.0
 10
32.61760691321737
 20
13.57105446473918
 30
0.0
 10
32.61763391686308
 20
13.57050057544897
 30
0.0
 10
32.61762732087518
 20
13.57027799549803
 30
0.0
 10
32.61762523201648
 20
13.57020750748701
 30
0.0
  0
LINE
  5
23C
330
1F
100
AcDbEntity
  8
0
  6
Continuous
 62
     7
370
    25
100
AcDbLine
 10
32.0885571908
 20
13.5732075075
 30
0.0
 11
32.0443206547
 21
13.5818096012
 31
0.0
  0
SPLINE
  5
23D
330
1F
100
AcDbEntity
  8
0
  6
Continuous
 62
     7
370
    25
100
AcDbSpline
210
0.0
220
0.0
230
1.0
 70
     8
 71
     3
 72
     9
 73
     5
 74
     0
 42
0.00000001
 43
0.00000001
 40
0.0
 40
0.0
 40
0.0
 40
0.0
 40
0.4836733775596206
 40
1.0
 40
1.0
 40
1.0
 40
1.0
 10
32.46142276315557
 20
13.44413321866598
 30
0.0
 10
32.4693754452446
 20
13.44652524958516
 30
0.0
 10
32.48581770247438
 20
13.4514707996819
 30
0.0
 10
32.50132600137649
 20
13.46184539300977
 30
0.0
 10
32.50933334896841
 20
13.46720207174194
 30
0.0
  0
LINE
  5
23E
330
1F
100
AcDbEntity
  8
0
  6
Continuous
 62
     7
370
    25
100
AcDbLine
 10
32.4614227632
 20
13.5819722175
 30
0.0
 11
32.4614227632
 21
13.5732075075
 31
0.0
  0
SPLINE
  5
23F
330
1F
100
AcDbEntity
  8
0
  6
Continuous
 62
     7
370
    25
100
AcDbSpline
210
0.0
220
0.0
230
1.0
 70
     8
 71
     3
 72
    12
 73
     8
 74
     0
 42
0.00000001
 43
0.00000001
 40
0.0
 40
0.0
 40
0.0
 40
0.0
 40
0.2217181155139598
 40
0.4435284651959118
 40
0.6625812968592318
 40
0.8762617802483822
 40
1.0
 40
1.0
 40
1.0
 40
1.0
 10
32.70744296300905
 20
13.573207507487
 30
0.0
 10
32.7076547055397
 20
13.57317310475389
 30
0.0
 10
32.70807827868535
 20
13.57310428497621
 30
0.0
 10
32.70864102289951
 20
13.57256600967197
 30
0.0
 10
32.70905806083519
 20
13.57177779305411
 30
0.0
 10
32.70926363351064
 20
13.57093865156273
 30
0.0
 10
32.70928299210757
 20
13.57040368900748
 30
0.0
 10
32.70929009129412
 20
13.570207507487
 30
0.0
  0
LINE
  5
240
330
1F
100
AcDbEntity
  8
0
  6
Continuous
 62
     7
370
    25
100
AcDbLine
 10
32.6159530529
 20
13.5732075075
 30
0.0
 11
32.707442963
 21
13.5732075075
 31
0.0
  0
LINE
  5
241
330
1F
100
AcDbEntity
  8
0
  6
Continuous
 62
     7
370
    25
100
AcDbLine
 10
31.8298662485
 20
13.4435895506
 30
0.0
 11
31.9812245287
 21
13.4435895506
 31
0.0
  0
SPLINE
  5
242
330
1F
100
AcDbEntity
  8
0
  6
Continuous
 62
     7
370
    25
100
AcDbSpline
210
0.0
220
0.0
230
1.0
 70
     8
 71
     3
 72
    13
 73
     9
 74
     0
 42
0.00000001
 43
0.00000001
 40
0.0
 40
0.0
 40
0.0
 40
0.0
 40
0.1858612659550314
 40
0.3708268618803169
 40
0.5778789813016388
 40
0.8292801638910121
 40
0.9889166448665352
 40
0.9999999999999999
 40
0.9999999999999999
 40
0.9999999999999999
 40
0.9999999999999999
 10
31.82986624850304
 20
13.44358955057923
 30
0.0
 10
31.82987484127036
 20
13.44308635833825
 30
0.0
 10
31.82989198539623
 20
13.44208239875211
 30
0.0
 10
31.83026828073704
 20
13.44075784996531
 30
0.0
 10
31.83088295288415
 20
13.43962031017763
 30
0.0
 10
31.83164315830876
 20
13.43892697049689
 30
0.0
 10
31.83221398832411
 20
13.43869317121375
 30
0.0
 10
31.8324505965413
 20
13.43864058792554
 30
0.0
 10
31.83246595745634
 20
13.43863717414966
 30
0.0
  0
LINE
  5
243
330
1F
100
AcDbEntity
  8
0
  6
Continuous
 62
     7
370
    25
100
AcDbLine
 10
31.8298774573
 20
13.4441332187
 30
0.0
 11
31.8298774573
 21
13.5732075075
 31
0.0
  0
LINE
  5
244
330
1F
100
AcDbEntity
  8
0
  6
Continuous
 62
     7
370
    25
100
AcDbLine
 10
31.8298774573
 20
13.4441332187
 30
0.0
 11
31.8298662485
 21
13.4435895506
 31
0.0
  0
LINE
  5
245
330
1F
100
AcDbEntity
  8
0
  6
Continuous
 62
     7
370
    25
100
AcDbLine
 10
31.9538162893
 20
13.5732075075
 30
0.0
 11
31.8298774573
 21
13.5732075075
 31
0.0
  0
SPLINE
  5
246
330
1F
100
AcDbEntity
  8
0
  6
Continuous
 62
     7
370
    25
100
AcDbSpline
210
0.0
220
0.0
230
1.0
 70
     8
 71
     3
 72
    13
 73
     9
 74
     0
 42
0.00000001
 43
0.00000001
 40
0.0
 40
0.0
 40
0.0
 40
0.0
 40
0.0110833551326757
 40
0.1707198361089397
 40
0.4221210186985231
 40
0.6291731381187183
 40
0.8141387340448545
 40
0.9999999999999999
 40
0.9999999999999999
 40
0.9999999999999999
 40
0.9999999999999999
 10
32.75659980575574
 20
13.43863717414966
 30
0.0
 10
32.75662088795006
 20
13.43864058792553
 30
0.0
 10
32.75694562253766
 20
13.43869317121374
 30
0.0
 10
32.75773347044905
 20
13.43892697049688
 30
0.0
 10
32.75879876693845
 20
13.43962031017762
 30
0.0
 10
32.75968449611504
 20
13.44075784996531
 30
0.0
 10
32.76025310357331
 20
13.44208239875211
 30
0.0
 10
32.76031782853046
 20
13.44308635833824
 30
0.0
 10
32.76035026917517
 20
13.44358955057923
 30
0.0
  0
LINE
  5
247
330
1F
100
AcDbEntity
  8
0
  6
Continuous
 62
     7
370
    25
100
AcDbLine
 10
32.6613608652
 20
13.4435895506
 30
0.0
 11
32.7603502692
 21
13.4435895506
 31
0.0
  0
LINE
  5
248
330
1F
100
AcDbEntity
  8
0
  6
Continuous
 62
     7
370
    25
100
AcDbLine
 10
32.7603460476
 20
13.4441332187
 30
0.0
 11
32.7603460476
 21
13.5732075075
 31
0.0
  0
LINE
  5
249
330
1F
100
AcDbEntity
  8
0
  6
Continuous
 62
     7
370
    25
100
AcDbLine
 10
32.7603502692
 20
13.4435895506
 30
0.0
 11
32.7603460476
 21
13.4441332187
 31
0.0
  0
LINE
  5
24A
330
1F
100
AcDbEntity
  8
0
  6
Continuous
 62
     7
370
    25
100
AcDbLine
 10
32.7603460476
 20
13.5732075075
 30
0.0
 11
32.7079039448
 21
13.5732075075
 31
0.0
  0
LINE
  5
24B
330
1F
100
AcDbEntity
  8
0
  6
Continuous
 62
     7
370
    25
100
AcDbLine
 10
31.7505399227
 20
13.4654596448
 30
0.0
 11
31.7506330037
 21
13.4672020717
 31
0.0
  0
SPLINE
  5
24C
330
1F
100
AcDbEntity
  8
0
  6
Continuous
 62
     7
370
    25
100
AcDbSpline
210
0.0
220
0.0
230
1.0
 70
     8
 71
     3
 72
     9
 73
     5
 74
     0
 42
0.00000001
 43
0.00000001
 40
0.0
 40
0.0
 40
0.0
 40
0.0
 40
0.5163266224405172
 40
1.0
 40
1.0
 40
1.0
 40
1.0
 10
31.75063300371611
 20
13.46720207174195
 30
0.0
 10
31.76387721422961
 20
13.46184539300977
 30
0.0
 10
31.78952805216412
 20
13.45147079968191
 30
0.0
 10
31.81672366389051
 20
13.44652524958516
 30
0.0
 10
31.82987745726902
 20
13.44413321866598
 30
0.0
  0
SPLINE
  5
24D
330
1F
100
AcDbEntity
  8
0
  6
Continuous
 62
     7
370
    25
100
AcDbSpline
210
0.0
220
0.0
230
1.0
 70
     8
 71
     3
 72
    12
 73
     8
 74
     0
 42
0.00000001
 43
0.00000001
 40
0.0
 40
0.0
 40
0.0
 40
0.0
 40
0.2610466257368757
 40
0.5203567671395546
 40
0.8317512029534907
 40
0.9869218091718791
 40
1.0
 40
1.0
 40
1.0
 40
1.0
 10
31.75053992271001
 20
13.4654596447922
 30
0.0
 10
31.75051731792
 20
13.46489981911247
 30
0.0
 10
31.75047225870723
 20
13.46378389171811
 30
0.0
 10
31.75087488688436
 20
13.46235541124635
 30
0.0
 10
31.75144756213717
 20
13.46142887178465
 30
0.0
 10
31.75192620862069
 20
13.46100900918888
 30
0.0
 10
31.75210466366902
 20
13.46088740070605
 30
0.0
 10
31.75211853520461
 20
13.46087794792557
 30
0.0
  0
SPLINE
  5
24E
330
1F
100
AcDbEntity
  8
0
  6
Continuous
 62
     7
370
    25
100
AcDbSpline
210
0.0
220
0.0
230
1.0
 70
     8
 71
     3
 72
    12
 73
     8
 74
     0
 42
0.00000001
 43
0.00000001
 40
0.0
 40
0.0
 40
0.0
 40
0.0
 40
0.2217181155141724
 40
0.4435284651950409
 40
0.6625812968590846
 40
0.8762617802484027
 40
0.9999999999999999
 40
0.9999999999999999
 40
0.9999999999999999
 40
0.9999999999999999
 10
31.75368816718592
 20
13.57320750748701
 30
0.0
 10
31.75333794351717
 20
13.57317310475389
 30
0.0
 10
31.75263735048751
 20
13.57310428497622
 30
0.0
 10
31.75170656750952
 20
13.57256600967197
 30
0.0
 10
31.75101678376415
 20
13.57177779305412
 30
0.0
 10
31.7506767650803
 20
13.57093865156274
 30
0.0
 10
31.75064474582173
 20
13.57040368900749
 30
0.0
 10
31.75063300371611
 20
13.57020750748701
 30
0.0
  0
LINE
  5
24F
330
1F
100
AcDbEntity
  8
0
  6
Continuous
 62
     7
370
    25
100
AcDbLine
 10
31.7506330037
 20
13.4672020717
 30
0.0
 11
31.7506330037
 21
13.5702075075
 31
0.0
  0
LINE
  5
250
330
1F
100
AcDbEntity
  8
0
  6
Continuous
 62
     7
370
    25
100
AcDbLine
 10
31.8298774573
 20
13.5732075075
 30
0.0
 11
31.7536881672
 21
13.5732075075
 31
0.0
  0
LINE
  5
251
330
1F
100
AcDbEntity
  8
0
  6
Continuous
 62
     7
370
    25
100
AcDbLine
 10
31.7506330037
 20
13.5702075075
 30
0.0
 11
31.7216628081
 21
13.5702075075
 31
0.0
  0
SPLINE
  5
252
330
1F
100
AcDbEntity
  8
0
  6
Continuous
 62
     7
370
    25
100
AcDbSpline
210
0.0
220
0.0
230
1.0
 70
     8
 71
     3
 72
    13
 73
     9
 74
     0
 42
0.00000001
 43
0.00000001
 40
0.0
 40
0.0
 40
0.0
 40
0.0
 40
0.2142797061670261
 40
0.4285450239896687
 40
0.6429491528019188
 40
0.8576415051290739
 40
0.9549170214531045
 40
1.0
 40
1.0
 40
1.0
 40
1.0
 10
31.72466050457432
 20
13.57320750748701
 30
0.0
 10
31.72432569623199
 20
13.57317442064472
 30
0.0
 10
31.72365610202888
 20
13.57310824918184
 30
0.0
 10
31.72276224247982
 20
13.57259209570338
 30
0.0
 10
31.72207912329421
 20
13.57183252169112
 30
0.0
 10
31.72175818960731
 20
13.57105446473926
 30
0.0
 10
31.72167094732961
 20
13.57050057544902
 30
0.0
 10
31.72166476576087
 20
13.57027799549803
 30
0.0
 10
31.72166280814301
 20
13.57020750748701
 30
0.0
  0
LINE
  5
253
330
1F
100
AcDbEntity
  8
0
  6
Continuous
 62
     7
370
    25
100
AcDbLine
 10
31.7246605046
 20
13.5732075075
 30
0.0
 11
31.7536881672
 21
13.5732075075
 31
0.0
  0
LINE
  5
254
330
1F
100
AcDbEntity
  8
0
  6
Continuous
 62
     7
370
    25
100
AcDbLine
 10
32.8395905012
 20
13.4672020717
 30
0.0
 11
32.8396190558
 21
13.4654596448
 31
0.0
  0
SPLINE
  5
255
330
1F
100
AcDbEntity
  8
0
  6
Continuous
 62
     7
370
    25
100
AcDbSpline
210
0.0
220
0.0
230
1.0
 70
     8
 71
     3
 72
    12
 73
     8
 74
     0
 42
0.00000001
 43
0.00000001
 40
0.0
 40
0.0
 40
0.0
 40
0.0
 40
0.0130781908284129
 40
0.1682487970435639
 40
0.4796432328580201
 40
0.738953374262614
 40
1.0
 40
1.0
 40
1.0
 40
1.0
 10
32.83700929217891
 20
13.46087794792556
 30
0.0
 10
32.83702871925668
 20
13.46088740070605
 30
0.0
 10
32.83727864545112
 20
13.46100900918888
 30
0.0
 10
32.83795960101065
 20
13.46142887178464
 30
0.0
 10
32.83882257511515
 20
13.46235541124634
 30
0.0
 10
32.83951802094377
 20
13.4637838917181
 30
0.0
 10
32.83958530268376
 20
13.46489981911247
 30
0.0
 10
32.83961905581681
 20
13.4654596447922
 30
0.0
  0
SPLINE
  5
256
330
1F
100
AcDbEntity
  8
0
  6
Continuous
 62
     7
370
    25
100
AcDbSpline
210
0.0
220
0.0
230
1.0
 70
     8
 71
     3
 72
     9
 73
     5
 74
     0
 42
0.00000001
 43
0.00000001
 40
0.0
 40
0.0
 40
0.0
 40
0.0
 40
0.4836733775589931
 40
1.0
 40
1.0
 40
1.0
 40
1.0
 10
32.76034604762602
 20
13.44413321866598
 30
0.0
 10
32.77349984100451
 20
13.44652524958516
 30
0.0
 10
32.8006954527309
 20
13.45147079968189
 30
0.0
 10
32.82634629066541
 20
13.46184539300976
 30
0.0
 10
32.83959050117892
 20
13.46720207174194
 30
0.0
  0
LINE
  5
257
330
1F
100
AcDbEntity
  8
0
  6
Continuous
 62
     7
370
    25
100
AcDbLine
 10
32.7603460476
 20
13.5819722175
 30
0.0
 11
32.7603460476
 21
13.5732075075
 31
0.0
  0
LINE
  5
258
330
1F
100
AcDbEntity
  8
0
  6
Continuous
 62
     7
370
    25
100
AcDbLine
 10
32.8395905012
 20
13.4672020717
 30
0.0
 11
32.8395905012
 21
13.5819722175
 31
0.0
  0
SPLINE
  5
259
330
1F
100
AcDbEntity
  8
0
  6
Continuous
 62
     7
370
    25
100
AcDbSpline
210
0.0
220
0.0
230
1.0
 70
     8
 71
     3
 72
     9
 73
     5
 74
     0
 42
0.00000001
 43
0.00000001
 40
0.0
 40
0.0
 40
0.0
 40
0.0
 40
0.9113028757550597
 40
1.0
 40
1.0
 40
1.0
 40
1.0
 10
31.79564470204209
 20
13.57320750748701
 30
0.0
 10
31.79329417575594
 20
13.57577413058379
 30
0.0
 10
31.79071487270678
 20
13.57859056314981
 30
0.0
 10
31.79254229636348
 20
13.58558694824863
 30
0.0
 10
31.79270438358661
 20
13.58620750748701
 30
0.0
  0
LINE
  5
25A
330
1F
100
AcDbEntity
  8
0
  6
Continuous
 62
     7
370
    25
100
AcDbLine
 10
31.7951679611
 20
13.581462783
 30
0.0
 11
31.7964021057
 21
13.5732075075
 31
0.0
  0
LINE
  5
25B
330
1F
100
AcDbEntity
  8
0
  6
Continuous
 62
     7
370
    25
100
AcDbLine
 10
31.7999020832
 20
13.5819722175
 30
0.0
 11
31.7999020832
 21
13.5769890077
 31
0.0
  0
LWPOLYLINE
  5
25C
330
1F
100
AcDbEntity
  8
0
  6
Continuous
 62
     7
370
    25
100
AcDbPolyline
 90
       16
 70
   128
 43
0.0
 10
31.9076240654
 20
15.7431776655
 10
31.9828253994
 20
15.7480842584
 10
32.0635648451
 20
15.7627126365
 10
32.1483383792
 20
15.7867903008
 10
32.2355668314
 20
15.8198687301
 10
32.3236253005
 20
15.8613317356
 10
32.4108734239
 20
15.9104069402
 10
32.4956859342
 20
15.9661801656
 10
32.5764829347
 20
16.027612462
 10
32.6517593302
 20
16.0935594622
 10
32.7201128639
 20
16.1627926982
 10
32.7802702387
 20
16.2340224859
 10
32.8311108367
 20
16.3059219491
 10
32.8716875936
 20
16.3771517367
 10
32.9012446413
 20
16.4463849727
 10
32.9013719716
 20
16.4467474322
  0
LINE
  5
25D
330
1F
100
AcDbEntity
  8
0
  6
Continuous
 62
     7
370
    25
100
AcDbLine
 10
32.8396260779
 20
13.4608779479
 30
0.0
 11
32.8370092922
 21
13.4608779479
 31
0.0
  0
LINE
  5
25E
330
1F
100
AcDbEntity
  8
0
  6
Continuous
 62
     7
370
    25
100
AcDbLine
 10
31.7521185352
 20
13.4608779479
 30
0.0
 11
31.720622053
 21
13.4608779479
 31
0.0
  0
SPLINE
  5
25F
330
1F
100
AcDbEntity
  8
0
  6
Continuous
 62
     7
370
    25
100
AcDbSpline
210
0.0
220
0.0
230
1.0
 70
     8
 71
     3
 72
     9
 73
     5
 74
     0
 42
0.00000001
 43
0.00000001
 40
0.0
 40
0.0
 40
0.0
 40
0.0
 40
0.9449233076771983
 40
1.0
 40
1.0
 40
1.0
 40
1.0
 10
32.03804110016148
 20
13.57320750748701
 30
0.0
 10
32.0253970182808
 20
13.57524905333136
 30
0.0
 10
32.01201595150221
 20
13.57740959464489
 30
0.0
 10
32.00008806923426
 20
13.58173404126259
 30
0.0
 10
31.99943112093252
 20
13.58197221747842
 30
0.0
  0
LINE
  5
260
330
1F
100
AcDbEntity
  8
0
  6
Continuous
 62
     7
370
    25
100
AcDbLine
 10
32.0150020938
 20
13.5819722175
 30
0.0
 11
32.060489492
 21
13.5732075075
 31
0.0
  0
LINE
  5
261
330
1F
100
AcDbEntity
  8
0
  6
Continuous
 62
     7
370
    25
100
AcDbLine
 10
31.7176240654
 20
13.4654596448
 30
0.0
 11
31.7505399227
 21
13.4654596448
 31
0.0
  0
LINE
  5
262
330
1F
100
AcDbEntity
  8
0
  6
Continuous
 62
     7
370
    25
100
AcDbLine
 10
32.8396190558
 20
13.4654596448
 30
0.0
 11
32.8426240654
 21
13.4654596448
 31
0.0
  0
LINE
  5
263
330
1F
100
AcDbEntity
  8
0
  6
Continuous
 62
     7
370
    25
100
AcDbLine
 10
12.5285144503
 20
6.5207399086
 30
0.0
 11
12.5285144503
 21
6.8497654449
 31
0.0
  0
LINE
  5
264
330
1F
100
AcDbEntity
  8
0
  6
Continuous
 62
     7
370
    25
100
AcDbLine
 10
12.5285144503
 20
3.9147654449
 30
0.0
 11
12.5285144503
 21
6.3811290766
 31
0.0
  0
LINE
  5
265
330
1F
100
AcDbEntity
  8
0
  6
Continuous
 62
     7
370
    25
100
AcDbLine
 10
8.5585144503
 20
10.8197654449
 30
0.0
 11
8.5585144503
 21
3.9147654449
 31
0.0
  0
SPLINE
  5
266
330
1F
100
AcDbEntity
  8
0
  6
Continuous
 62
     7
370
    25
100
AcDbSpline
210
0.0
220
0.0
230
1.0
 70
     8
 71
     3
 72
    12
 73
     8
 74
     0
 42
0.00000001
 43
0.00000001
 40
0.0
 40
0.0
 40
0.0
 40
0.0
 40
0.2147460258112717
 40
0.4294887874454931
 40
0.6443162510141137
 40
0.8591989045559372
 40
1.0
 40
1.0
 40
1.0
 40
1.0
 10
12.52726875779197
 20
6.451327944918289
 30
0.0
 10
12.52729693167853
 20
6.459227307158586
 30
0.0
 10
12.52735327902341
 20
6.475025911567499
 30
0.0
 10
12.52774926682003
 20
6.496131414319483
 30
0.0
 10
12.52817780894079
 20
6.511882308097507
 30
0.0
 10
12.52848481279606
 20
6.520813146234914
 30
0.0
 10
12.52848340248187
 20
6.520760678506008
 30
0.0
 10
12.5284828441944
 20
6.520739908612172
 30
0.0
  0
SPLINE
  5
267
330
1F
100
AcDbEntity
  8
0
  6
Continuous
 62
     7
370
    25
100
AcDbSpline
210
0.0
220
0.0
230
1.0
 70
     8
 71
     3
 72
    13
 73
     9
 74
     0
 42
0.00000001
 43
0.00000001
 40
0.0
 40
0.0
 40
0.0
 40
0.0
 40
0.0063357716002052
 40
0.2208798181582985
 40
0.4354244646946178
 40
0.6500862066356128
 40
0.8647990005281498
 40
1.0
 40
1.0
 40
1.0
 40
1.0
 10
12.52851052911496
 20
6.381129076564924
 30
0.0
 10
12.52851183241149
 20
6.381091299918419
 30
0.0
 10
12.52855726837718
 20
6.379774317656882
 30
0.0
 10
12.52838825549681
 20
6.384522061252032
 30
0.0
 10
12.52803146463196
 20
6.395644162008718
 30
0.0
 10
12.52758719833007
 20
6.413951184831387
 30
0.0
 10
12.52730908734089
 20
6.433512653683709
 30
0.0
 10
12.52727999759624
 20
6.446362841366787
 30
0.0
 10
12.52726875779197
 20
6.451327944918289
 30
0.0
  0
LINE
  5
268
330
1F
100
AcDbEntity
  8
0
  6
Continuous
 62
     7
370
    25
100
AcDbLine
 10
10.5435144503
 20
3.9147654449
 30
0.0
 11
12.5285144503
 21
3.9147654449
 31
0.0
  0
LINE
  5
269
330
1F
100
AcDbEntity
  8
0
  6
Continuous
 62
     7
370
    25
100
AcDbLine
 10
8.5585144503
 20
3.9147654449
 30
0.0
 11
10.5435144503
 21
3.9147654449
 31
0.0
  0
LINE
  5
26A
330
1F
100
AcDbEntity
  8
0
  6
Continuous
 62
     7
370
    25
100
AcDbLine
 10
12.5285144503
 20
6.8497654449
 30
0.0
 11
8.5585144503
 21
10.8197654449
 31
0.0
  0
INSERT
  5
26B
330
1F
100
AcDbEntity
  8
0
  6
Continuous
 62
     7
100
AcDbBlockReference
  2
Block1
 10
9.6169568959
 20
2.5338501675
 30
0.0
 41
0.5
 42
0.5
 43
0.5
  0
DIMENSION
  5
26C
330
1F
100
AcDbEntity
  8
0
  6
Continuous
 62
     7
370
    18
100
AcDbDimension
  2
_D_4
 10
6.8416255095
 20
3.9147654449
 30
0.0
 11
6.8416255095
 21
7.3672654449
 31
0.0
 70
   160
  1
<>
 71
     2
 42
-1.0
  3
SLDDIMSTYLE0
100
AcDbAlignedDimension
 13
8.5585144503
 23
10.8197654449
 33
0.0
 14
8.5585144503
 24
3.9147654449
 34
0.0
 50
90.0
100
AcDbRotatedDimension
  0
LINE
  5
280
330
1F
100
AcDbEntity
  8
0
  6
Continuous
 62
     7
370
    25
100
AcDbLine
 10
21.1791500902
 20
6.2261765801
 30
0.0
 11
21.1791500902
 21
7.0552021164
 31
0.0
  0
LINE
  5
281
330
1F
100
AcDbEntity
  8
0
  6
Continuous
 62
     7
370
    25
100
AcDbLine
 10
21.1791500902
 20
3.6489521164
 30
0.0
 11
21.1791500902
 21
6.0865657481
 31
0.0
  0
LINE
  5
282
330
1F
100
AcDbEntity
  8
0
  6
Continuous
 62
     7
370
    25
100
AcDbLine
 10
17.2091500902
 20
7.0552021164
 30
0.0
 11
17.2091500902
 21
3.6489521164
 31
0.0
  0
ARC
  5
283
330
1F
100
AcDbEntity
  8
0
  6
Continuous
 62
     7
370
    25
100
AcDbCircle
 10
17.2404000902
 20
7.0552021164
 30
0.0
 40
0.03125
100
AcDbArc
 50
90.0
 51
180.0
  0
ARC
  5
284
330
1F
100
AcDbEntity
  8
0
  6
Continuous
 62
     7
370
    25
100
AcDbCircle
 10
21.1479000902
 20
7.0552021164
 30
0.0
 40
0.0312500000000036
100
AcDbArc
 50
0.0
 51
90.0
  0
SPLINE
  5
285
330
1F
100
AcDbEntity
  8
0
  6
Continuous
 62
     7
370
    25
100
AcDbSpline
210
0.0
220
0.0
230
1.0
 70
     8
 71
     3
 72
    12
 73
     8
 74
     0
 42
0.00000001
 43
0.00000001
 40
0.0
 40
0.0
 40
0.0
 40
0.0
 40
0.2147460258112722
 40
0.4294887874454942
 40
0.6443162510141158
 40
0.8591989045559381
 40
1.0
 40
1.0
 40
1.0
 40
1.0
 10
21.17790439768955
 20
6.156764616417936
 30
0.0
 10
21.17793257157611
 20
6.164663978658234
 30
0.0
 10
21.17798891892099
 20
6.180462583067146
 30
0.0
 10
21.17838490671761
 20
6.20156808581913
 30
0.0
 10
21.17881344883837
 20
6.217318979597154
 30
0.0
 10
21.17912045269364
 20
6.226249817734563
 30
0.0
 10
21.17911904237945
 20
6.226197350005656
 30
0.0
 10
21.17911848409198
 20
6.226176580111819
 30
0.0
  0
SPLINE
  5
286
330
1F
100
AcDbEntity
  8
0
  6
Continuous
 62
     7
370
    25
100
AcDbSpline
210
0.0
220
0.0
230
1.0
 70
     8
 71
     3
 72
    13
 73
     9
 74
     0
 42
0.00000001
 43
0.00000001
 40
0.0
 40
0.0
 40
0.0
 40
0.0
 40
0.0063357716002058
 40
0.2208798181582991
 40
0.4354244646946183
 40
0.6500862066356135
 40
0.864799000528151
 40
1.0
 40
1.0
 40
1.0
 40
1.0
 10
21.17914616901254
 20
6.086565748064572
 30
0.0
 10
21.17914747230907
 20
6.086527971418066
 30
0.0
 10
21.17919290827477
 20
6.085210989156526
 30
0.0
 10
21.17902389539439
 20
6.089958732751682
 30
0.0
 10
21.17866710452954
 20
6.101080833508366
 30
0.0
 10
21.17822283822765
 20
6.119387856331035
 30
0.0
 10
21.17794472723847
 20
6.138949325183358
 30
0.0
 10
21.17791563749382
 20
6.151799512866434
 30
0.0
 10
21.17790439768955
 20
6.156764616417936
 30
0.0
  0
LINE
  5
287
330
1F
100
AcDbEntity
  8
0
  6
Continuous
 62
     7
370
    25
100
AcDbLine
 10
17.2091500902
 20
3.6489521164
 30
0.0
 11
21.1791500902
 21
3.6489521164
 31
0.0
  0
LINE
  5
288
330
1F
100
AcDbEntity
  8
0
  6
Continuous
 62
     7
370
    25
100
AcDbLine
 10
17.2404000903
 20
7.0864521164
 30
0.0
 11
21.1479000902
 21
7.0864521164
 31
0.0
  0
LINE
  5
289
330
1F
100
AcDbEntity
  8
0
  6
Continuous
 62
     7
370
    25
100
AcDbLine
 10
21.1791500902
 20
7.0552021164
 30
0.0
 11
17.2091500902
 21
7.0552021164
 31
0.0
  0
INSERT
  5
28A
330
1F
100
AcDbEntity
  8
0
  6
Continuous
 62
     7
100
AcDbBlockReference
  2
Block2
 10
18.4008895415
 20
1.7482797125
 30
0.0
 41
0.5
 42
0.5
 43
0.5
  0
DIMENSION
  5
28B
330
1F
100
AcDbEntity
  8
0
  6
Continuous
 62
     7
370
    18
100
AcDbDimension
  2
_D_5
 10
15.7009600812
 20
3.6489521164
 30
0.0
 11
15.7009600812
 21
5.3520771164
 31
0.0
 70
   160
  1
<>
 71
     2
 42
-1.0
  3
SLDDIMSTYLE0
100
AcDbAlignedDimension
 13
17.2091500902
 23
7.0552021164
 33
0.0
 14
17.2091500902
 24
3.6489521164
 34
0.0
 50
90.0
100
AcDbRotatedDimension
  0
LINE
  5
29F
330
1F
100
AcDbEntity
  8
0
  6
Continuous
 62
     7
370
    25
100
AcDbLine
 10
30.1803241103
 20
3.5984319078
 30
0.0
 11
30.1803241103
 21
6.0046819078
 31
0.0
  0
LINE
  5
2A0
330
1F
100
AcDbEntity
  8
0
  6
Continuous
 62
     7
370
    25
100
AcDbLine
 10
26.2103241103
 20
6.0046819078
 30
0.0
 11
26.2103241103
 21
3.5984319078
 31
0.0
  0
ARC
  5
2A1
330
1F
100
AcDbEntity
  8
0
  6
Continuous
 62
     7
370
    25
100
AcDbCircle
 10
26.2415741103
 20
6.0046819078
 30
0.0
 40
0.03125
100
AcDbArc
 50
90.0
 51
180.0
  0
ARC
  5
2A2
330
1F
100
AcDbEntity
  8
0
  6
Continuous
 62
     7
370
    25
100
AcDbCircle
 10
30.1490741103
 20
6.0046819078
 30
0.0
 40
0.03125
100
AcDbArc
 50
0.0
 51
90.0
  0
LINE
  5
2A3
330
1F
100
AcDbEntity
  8
0
  6
Continuous
 62
     7
370
    25
100
AcDbLine
 10
26.2103241103
 20
3.5984319078
 30
0.0
 11
30.1803241103
 21
3.5984319078
 31
0.0
  0
LINE
  5
2A4
330
1F
100
AcDbEntity
  8
0
  6
Continuous
 62
     7
370
    25
100
AcDbLine
 10
30.1490741103
 20
6.0359319078
 30
0.0
 11
26.2415741103
 21
6.0359319078
 31
0.0
  0
LINE
  5
2A5
330
1F
100
AcDbEntity
  8
0
  6
Continuous
 62
     7
370
    25
100
AcDbLine
 10
30.1803241103
 20
6.0046819078
 30
0.0
 11
26.2103241103
 21
6.0046819078
 31
0.0
  0
INSERT
  5
2A6
330
1F
100
AcDbEntity
  8
0
  6
Continuous
 62
     7
100
AcDbBlockReference
  2
Block3
 10
27.5820544853
 20
2.1153520128
 30
0.0
 41
0.5
 42
0.5
 43
0.5
  0
DIMENSION
  5
2A7
330
1F
100
AcDbEntity
  8
0
  6
Continuous
 62
     7
370
    18
100
AcDbDimension
  2
_D_6
 10
24.4540426621
 20
3.5984319078
 30
0.0
 11
24.4540426621
 21
4.8015569078
 31
0.0
 70
   160
  1
<>
 71
     2
 42
-1.0
  3
SLDDIMSTYLE0
100
AcDbAlignedDimension
 13
26.2103241103
 23
6.0046819078
 33
0.0
 14
26.2103241103
 24
3.5984319078
 34
0.0
 50
90.0
100
AcDbRotatedDimension
  0
ENDSEC
  0
SECTION
  2
OBJECTS
  0
DICTIONARY
  5
C
330
0
100
AcDbDictionary
281
     1
  3
ACAD_GROUP
350
D
  3
ACAD_LAYOUT
350
1A
  3
ACAD_MLINESTYLE
350
17
  3
ACAD_PLOTSETTINGS
350
19
  3
ACAD_PLOTSTYLENAME
350
E
  3
ACAD_SCALELIST
350
47
  3
DWGPROPS
350
2BB
  0
DICTIONARY
  5
D
102
{ACAD_REACTORS
330
C
102
}
330
C
100
AcDbDictionary
281
     1
  0
DICTIONARY
  5
1A
102
{ACAD_REACTORS
330
C
102
}
330
C
100
AcDbDictionary
281
     1
  3
Layout1
350
1E
  3
Layout2
350
26
  3
Model
350
22
  0
DICTIONARY
  5
17
102
{ACAD_REACTORS
330
C
102
}
330
C
100
AcDbDictionary
281
     1
  3
Standard
350
18
  0
DICTIONARY
  5
19
102
{ACAD_REACTORS
330
C
102
}
330
C
100
AcDbDictionary
281
     1
  0
ACDBDICTIONARYWDFLT
  5
E
102
{ACAD_REACTORS
330
C
102
}
330
C
100
AcDbDictionary
281
     1
  3
Normal
350
F
100
AcDbDictionaryWithDefault
340
F
  0
DICTIONARY
  5
47
102
{ACAD_REACTORS
330
C
102
}
330
C
100
AcDbDictionary
281
     1
  3
A0
350
48
  3
A1
350
49
  3
A2
350
4A
  3
A3
350
4B
  3
A4
350
4C
  3
A5
350
4D
  3
A6
350
4E
  3
A7
350
4F
  3
A8
350
50
  3
A9
350
51
  3
B1
350
52
  3
B2
350
53
  3
B3
350
54
  3
B4
350
55
  3
B5
350
56
  3
B6
350
57
  3
B7
350
58
  0
XRECORD
  5
2BB
102
{ACAD_REACTORS
330
C
102
}
330
C
100
AcDbXrecord
280
     1
  1
DWGPROPS COOKIE
  2

  3

  4

  6

  7

  8
shawnd
  9

300
=
301
=
302
=
303
=
304
=
305
=
306
=
307
=
308
=
309
=
 40
0.0
 41
2460858.728438449
 42
2460858.728439074
  1

 90
        0
  0
LAYOUT
  5
1E
102
{ACAD_REACTORS
330
1A
102
}
330
1A
100
AcDbPlotSettings
  1

  2
none_device
  4

  6

 40
0.0
 41
0.0
 42
0.0
 43
0.0
 44
0.0
 45
0.0
 46
0.0
 47
0.0
 48
0.0
 49
0.0
140
0.0
141
0.0
142
1.0
143
1.0
 70
   688
 72
     0
 73
     0
 74
     5
  7

 75
    16
147
1.0
148
0.0
149
0.0
100
AcDbLayout
  1
Layout1
 70
     1
 71
     1
 10
0.0
 20
0.0
 11
12.0
 21
9.0
 12
0.0
 22
0.0
 32
0.0
 14
1.0000000000E+20
 24
1.0000000000E+20
 34
1.0000000000E+20
 15
-1.0000000000E+20
 25
-1.0000000000E+20
 35
-1.0000000000E+20
146
0.0
 13
0.0
 23
0.0
 33
0.0
 16
1.0
 26
0.0
 36
0.0
 17
0.0
 27
1.0
 37
0.0
 76
     0
330
1B
  0
LAYOUT
  5
26
102
{ACAD_REACTORS
330
1A
102
}
330
1A
100
AcDbPlotSettings
  1

  2
none_device
  4

  6

 40
0.0
 41
0.0
 42
0.0
 43
0.0
 44
0.0
 45
0.0
 46
0.0
 47
0.0
 48
0.0
 49
0.0
140
0.0
141
0.0
142
1.0
143
1.0
 70
   688
 72
     0
 73
     0
 74
     5
  7

 75
    16
147
1.0
148
0.0
149
0.0
100
AcDbLayout
  1
Layout2
 70
     1
 71
     2
 10
0.0
 20
0.0
 11
0.0
 21
0.0
 12
0.0
 22
0.0
 32
0.0
 14
0.0
 24
0.0
 34
0.0
 15
0.0
 25
0.0
 35
0.0
146
0.0
 13
0.0
 23
0.0
 33
0.0
 16
1.0
 26
0.0
 36
0.0
 17
0.0
 27
1.0
 37
0.0
 76
     0
330
23
  0
LAYOUT
  5
22
102
{ACAD_REACTORS
330
1A
102
}
330
1A
100
AcDbPlotSettings
  1

  2
none_device
  4
Letter_(8.50_x_11.00_Inches)
  6

 40
6.35
 41
6.35
 42
6.35000508
 43
6.35000508
 44
215.9
 45
279.4
 46
0.0
 47
0.0
 48
0.0
 49
0.0
140
0.0
141
0.0
142
1.0
143
1.0
 70
  1712
 72
     0
 73
     0
 74
     0
  7

 75
     0
147
1.0
148
0.0
149
0.0
100
AcDbLayout
  1
Model
 70
     1
 71
     0
 10
0.0
 20
0.0
 11
38.5
 21
29.75
 12
0.0
 22
0.0
 32
0.0
 14
0.0
 24
0.0
 34
0.0
 15
38.5
 25
29.75
 35
0.0
146
0.0
 13
0.0
 23
0.0
 33
0.0
 16
1.0
 26
0.0
 36
0.0
 17
0.0
 27
1.0
 37
0.0
 76
     0
330
1F
331
29
  0
MLINESTYLE
  5
18
102
{ACAD_REACTORS
330
17
102
}
330
17
100
AcDbMlineStyle
  2
Standard
 70
     0
  3

 62
   256
 51
90.0
 52
90.0
 71
     2
 49
0.5
 62
   256
  6
BYLAYER
 49
-0.5
 62
   256
  6
BYLAYER
  0
ACDBPLACEHOLDER
  5
F
102
{ACAD_REACTORS
330
E
102
}
330
E
  0
SCALE
  5
48
102
{ACAD_REACTORS
330
47
102
}
330
47
100
AcDbScale
 70
     0
300
1:1
140
1.0
141
1.0
290
     1
  0
SCALE
  5
49
102
{ACAD_REACTORS
330
47
102
}
330
47
100
AcDbScale
 70
     0
300
1/128" = 1'-0"
140
0.0078125
141
12.0
290
     0
  0
SCALE
  5
4A
102
{ACAD_REACTORS
330
47
102
}
330
47
100
AcDbScale
 70
     0
300
1/64" = 1'-0"
140
0.015625
141
12.0
290
     0
  0
SCALE
  5
4B
102
{ACAD_REACTORS
330
47
102
}
330
47
100
AcDbScale
 70
     0
300
1/32" = 1'-0"
140
0.03125
141
12.0
290
     0
  0
SCALE
  5
4C
102
{ACAD_REACTORS
330
47
102
}
330
47
100
AcDbScale
 70
     0
300
1/16" = 1'-0"
140
0.0625
141
12.0
290
     0
  0
SCALE
  5
4D
102
{ACAD_REACTORS
330
47
102
}
330
47
100
AcDbScale
 70
     0
300
3/32" = 1'-0"
140
0.09375
141
12.0
290
     0
  0
SCALE
  5
4E
102
{ACAD_REACTORS
330
47
102
}
330
47
100
AcDbScale
 70
     0
300
1/8" = 1'-0"
140
0.125
141
12.0
290
     0
  0
SCALE
  5
4F
102
{ACAD_REACTORS
330
47
102
}
330
47
100
AcDbScale
 70
     0
300
3/16" = 1'-0"
140
0.1875
141
12.0
290
     0
  0
SCALE
  5
50
102
{ACAD_REACTORS
330
47
102
}
330
47
100
AcDbScale
 70
     0
300
1/4" = 1'-0"
140
0.25
141
12.0
290
     0
  0
SCALE
  5
51
102
{ACAD_REACTORS
330
47
102
}
330
47
100
AcDbScale
 70
     0
300
3/8" = 1'-0"
140
0.375
141
12.0
290
     0
  0
SCALE
  5
52
102
{ACAD_REACTORS
330
47
102
}
330
47
100
AcDbScale
 70
     0
300
1/2" = 1'-0"
140
0.5
141
12.0
290
     0
  0
SCALE
  5
53
102
{ACAD_REACTORS
330
47
102
}
330
47
100
AcDbScale
 70
     0
300
3/4" = 1'-0"
140
0.75
141
12.0
290
     0
  0
SCALE
  5
54
102
{ACAD_REACTORS
330
47
102
}
330
47
100
AcDbScale
 70
     0
300
1" = 1'-0"
140
1.0
141
12.0
290
     0
  0
SCALE
  5
55
102
{ACAD_REACTORS
330
47
102
}
330
47
100
AcDbScale
 70
     0
300
1-1/2" = 1'-0"
140
1.5
141
12.0
290
     0
  0
SCALE
  5
56
102
{ACAD_REACTORS
330
47
102
}
330
47
100
AcDbScale
 70
     0
300
3" = 1'-0"
140
3.0
141
12.0
290
     0
  0
SCALE
  5
57
102
{ACAD_REACTORS
330
47
102
}
330
47
100
AcDbScale
 70
     0
300
6" = 1'-0"
140
6.0
141
12.0
290
     0
  0
SCALE
  5
58
102
{ACAD_REACTORS
330
47
102
}
330
47
100
AcDbScale
 70
     0
300
1'-0" = 1'-0"
140
12.0
141
12.0
290
     0
  0
ENDSEC
  0
EOF
