  0
SECTION
  2
HEADER
  9
$ACADVER
  1
AC1015
  9
$ACADMAINTVER
 70
     6
  9
$DWGCODEPAGE
  3
ANSI_1252
  9
$INSBASE
 10
0.0
 20
0.0
 30
0.0
  9
$EXTMIN
 10
0.0
 20
0.0
 30
0.0
  9
$EXTMAX
 10
33.0
 20
25.5
 30
0.0
  9
$LIMMIN
 10
0.0
 20
0.0
  9
$LIMMAX
 10
33.0
 20
25.5
  9
$ORTHOMODE
 70
     0
  9
$REGENMODE
 70
     1
  9
$FILLMODE
 70
     1
  9
$QTEXTMODE
 70
     0
  9
$MIRRTEXT
 70
     1
  9
$LTSCALE
 40
3.0
  9
$ATTMODE
 70
     1
  9
$TEXTSIZE
 40
0.375
  9
$TRACEWID
 40
0.05
  9
$TEXTSTYLE
  7
Standard
  9
$CLAYER
  8
0
  9
$CELTYPE
  6
ByLayer
  9
$CECOLOR
 62
   256
  9
$CELTSCALE
 40
1.0
  9
$DISPSILH
 70
     0
  9
$DIMSCALE
 40
1.0
  9
$DIMASZ
 40
0.39
  9
$DIMEXO
 40
0.15
  9
$DIMDLI
 40
0.38
  9
$DIMRND
 40
0.0
  9
$DIMDLE
 40
0.0
  9
$DIMEXE
 40
0.375
  9
$DIMTP
 40
0.0
  9
$DIMTM
 40
0.0
  9
$DIMTXT
 40
0.375
  9
$DIMCEN
 40
0.09
  9
$DIMTSZ
 40
0.0
  9
$DIMTOL
 70
     0
  9
$DIMLIM
 70
     0
  9
$DIMTIH
 70
     1
  9
$DIMTOH
 70
     1
  9
$DIMSE1
 70
     0
  9
$DIMSE2
 70
     0
  9
$DIMTAD
 70
     0
  9
$DIMZIN
 70
     1
  9
$DIMBLK
  1

  9
$DIMASO
 70
     1
  9
$DIMSHO
 70
     1
  9
$DIMPOST
  1

  9
$DIMAPOST
  1

  9
$DIMALT
 70
     0
  9
$DIMALTD
 70
     2
  9
$DIMALTF
 40
25.4
  9
$DIMLFAC
 40
1.0
  9
$DIMTOFL
 70
     0
  9
$DIMTVP
 40
0.0
  9
$DIMTIX
 70
     0
  9
$DIMSOXD
 70
     0
  9
$DIMSAH
 70
     0
  9
$DIMBLK1
  1

  9
$DIMBLK2
  1

  9
$DIMSTYLE
  2
Standard
  9
$DIMCLRD
 70
     0
  9
$DIMCLRE
 70
     0
  9
$DIMCLRT
 70
     0
  9
$DIMTFAC
 40
1.0
  9
$DIMGAP
 40
0.18
  9
$DIMJUST
 70
     0
  9
$DIMSD1
 70
     0
  9
$DIMSD2
 70
     0
  9
$DIMTOLJ
 70
     1
  9
$DIMTZIN
 70
     1
  9
$DIMALTZ
 70
     0
  9
$DIMALTTZ
 70
     0
  9
$DIMUPT
 70
     0
  9
$DIMDEC
 70
     0
  9
$DIMTDEC
 70
     0
  9
$DIMALTU
 70
     2
  9
$DIMALTTD
 70
     2
  9
$DIMTXSTY
  7
Standard
  9
$DIMAUNIT
 70
     0
  9
$DIMADEC
 70
     0
  9
$DIMALTRND
 40
0.0
  9
$DIMAZIN
 70
     0
  9
$DIMDSEP
 70
    46
  9
$DIMATFIT
 70
     3
  9
$DIMFRAC
 70
     0
  9
$DIMLDRBLK
  1

  9
$DIMLUNIT
 70
     2
  9
$DIMLWD
 70
    -2
  9
$DIMLWE
 70
    -2
  9
$DIMTMOVE
 70
     0
  9
$LUNITS
 70
     2
  9
$LUPREC
 70
     6
  9
$SKETCHINC
 40
0.1
  9
$FILLETRAD
 40
0.0
  9
$AUNITS
 70
     0
  9
$AUPREC
 70
     2
  9
$MENU
  1
.
  9
$ELEVATION
 40
0.0
  9
$PELEVATION
 40
0.0
  9
$THICKNESS
 40
0.0
  9
$LIMCHECK
 70
     0
  9
$CHAMFERA
 40
0.0
  9
$CHAMFERB
 40
0.0
  9
$CHAMFERC
 40
0.0
  9
$CHAMFERD
 40
0.0
  9
$SKPOLY
 70
     0
  9
$TDCREATE
 40
2460860.413178704
  9
$TDUCREATE
 40
2460860.704845371
  9
$TDUPDATE
 40
2460860.413179352
  9
$TDUUPDATE
 40
2460860.704846019
  9
$TDINDWG
 40
0.0000000116
  9
$TDUSRTIMER
 40
0.0000000116
  9
$USRTIMER
 70
     1
  9
$ANGBASE
 50
0.0
  9
$ANGDIR
 70
     0
  9
$PDMODE
 70
     0
  9
$PDSIZE
 40
-1.0
  9
$PLINEWID
 40
0.0
  9
$SPLFRAME
 70
     0
  9
$SPLINETYPE
 70
     6
  9
$SPLINESEGS
 70
     8
  9
$HANDSEED
  5
394
  9
$SURFTAB1
 70
     6
  9
$SURFTAB2
 70
     6
  9
$SURFTYPE
 70
     6
  9
$SURFU
 70
     6
  9
$SURFV
 70
     6
  9
$UCSBASE
  2

  9
$UCSNAME
  2

  9
$UCSORG
 10
0.0
 20
0.0
 30
0.0
  9
$UCSXDIR
 10
1.0
 20
0.0
 30
0.0
  9
$UCSYDIR
 10
0.0
 20
1.0
 30
0.0
  9
$UCSORTHOREF
  2

  9
$UCSORTHOVIEW
 70
     0
  9
$UCSORGTOP
 10
0.0
 20
0.0
 30
0.0
  9
$UCSORGBOTTOM
 10
0.0
 20
0.0
 30
0.0
  9
$UCSORGLEFT
 10
0.0
 20
0.0
 30
0.0
  9
$UCSORGRIGHT
 10
0.0
 20
0.0
 30
0.0
  9
$UCSORGFRONT
 10
0.0
 20
0.0
 30
0.0
  9
$UCSORGBACK
 10
0.0
 20
0.0
 30
0.0
  9
$PUCSBASE
  2

  9
$PUCSNAME
  2

  9
$PUCSORG
 10
0.0
 20
0.0
 30
0.0
  9
$PUCSXDIR
 10
1.0
 20
0.0
 30
0.0
  9
$PUCSYDIR
 10
0.0
 20
1.0
 30
0.0
  9
$PUCSORTHOREF
  2

  9
$PUCSORTHOVIEW
 70
     0
  9
$PUCSORGTOP
 10
0.0
 20
0.0
 30
0.0
  9
$PUCSORGBOTTOM
 10
0.0
 20
0.0
 30
0.0
  9
$PUCSORGLEFT
 10
0.0
 20
0.0
 30
0.0
  9
$PUCSORGRIGHT
 10
0.0
 20
0.0
 30
0.0
  9
$PUCSORGFRONT
 10
0.0
 20
0.0
 30
0.0
  9
$PUCSORGBACK
 10
0.0
 20
0.0
 30
0.0
  9
$USERI1
 70
     0
  9
$USERI2
 70
     0
  9
$USERI3
 70
     0
  9
$USERI4
 70
     0
  9
$USERI5
 70
     0
  9
$USERR1
 40
0.0
  9
$USERR2
 40
0.0
  9
$USERR3
 40
0.0
  9
$USERR4
 40
0.0
  9
$USERR5
 40
0.0
  9
$WORLDVIEW
 70
     1
  9
$SHADEDGE
 70
     3
  9
$SHADEDIF
 70
    70
  9
$TILEMODE
 70
     1
  9
$MAXACTVP
 70
    64
  9
$PINSBASE
 10
0.0
 20
0.0
 30
0.0
  9
$PLIMCHECK
 70
     0
  9
$PEXTMIN
 10
1.0000000000E+20
 20
1.0000000000E+20
 30
1.0000000000E+20
  9
$PEXTMAX
 10
-1.0000000000E+20
 20
-1.0000000000E+20
 30
-1.0000000000E+20
  9
$PLIMMIN
 10
0.0
 20
0.0
  9
$PLIMMAX
 10
12.0
 20
9.0
  9
$UNITMODE
 70
     0
  9
$VISRETAIN
 70
     1
  9
$PLINEGEN
 70
     0
  9
$PSLTSCALE
 70
     1
  9
$TREEDEPTH
 70
  3020
  9
$CMLSTYLE
  2
Standard
  9
$CMLJUST
 70
     0
  9
$CMLSCALE
 40
1.0
  9
$PROXYGRAPHICS
 70
     1
  9
$MEASUREMENT
 70
     0
  9
$CELWEIGHT
370
    -1
  9
$ENDCAPS
280
     0
  9
$JOINSTYLE
280
     0
  9
$LWDISPLAY
290
     1
  9
$INSUNITS
 70
     1
  9
$HYPERLINKBASE
  1

  9
$STYLESHEET
  1

  9
$XEDIT
290
     1
  9
$CEPSNTYPE
380
     0
  9
$PSTYLEMODE
290
     1
  9
$FINGERPRINTGUID
  2
{835327e3-e136-4aba-a87a-669240c58158}
  9
$VERSIONGUID
  2
{FAEB1C32-E019-11D5-929B-00C0DF256EC4}
  9
$EXTNAMES
290
     1
  9
$PSVPSCALE
 40
0.0
  9
$OLESTARTUP
290
     0
  0
ENDSEC
  0
SECTION
  2
CLASSES
  0
CLASS
  1
ACDBDICTIONARYWDFLT
  2
AcDbDictionaryWithDefault
  3
ObjectDBX Classes
 90
        0
280
     0
281
     0
  0
CLASS
  1
VISUALSTYLE
  2
AcDbVisualStyle
  3
ObjectDBX Classes
 90
     4095
280
     0
281
     0
  0
CLASS
  1
MATERIAL
  2
AcDbMaterial
  3
ObjectDBX Classes
 90
     1153
280
     0
281
     0
  0
CLASS
  1
SCALE
  2
AcDbScale
  3
ObjectDBX Classes
 90
     1153
280
     0
281
     0
  0
CLASS
  1
TABLESTYLE
  2
AcDbTableStyle
  3
ObjectDBX Classes
 90
     4095
280
     0
281
     0
  0
CLASS
  1
MLEADERSTYLE
  2
AcDbMLeaderStyle
  3
ACDB_MLEADERSTYLE_CLASS
 90
     4095
280
     0
281
     0
  0
CLASS
  1
SUN
  2
AcDbSun
  3
SCENEOE
 90
     1153
280
     0
281
     0
  0
CLASS
  1
ACDBPLACEHOLDER
  2
AcDbPlaceHolder
  3
ObjectDBX Classes
 90
        0
280
     0
281
     0
  0
CLASS
  1
LAYOUT
  2
AcDbLayout
  3
ObjectDBX Classes
 90
        0
280
     0
281
     0
  0
ENDSEC
  0
SECTION
  2
TABLES
  0
TABLE
  2
VPORT
  5
8
330
0
100
AcDbSymbolTable
 70
     1
  0
VPORT
  5
29
330
8
100
AcDbSymbolTableRecord
100
AcDbViewportTableRecord
  2
*Active
 70
     0
 10
0.0
 20
0.0
 11
1.0
 21
1.0
 12
16.5
 22
12.75
 13
0.0
 23
0.0
 14
0.5
 24
0.5
 15
0.5
 25
0.5
 16
0.0
 26
0.0
 36
1.0
 17
0.0
 27
0.0
 37
0.0
 40
25.5
 41
1.2941176471
 42
50.0
 43
0.0
 44
0.0
 50
0.0
 51
0.0
 71
     0
 72
  2000
 73
     1
 74
     3
 75
     0
 76
     0
 77
     0
 78
     0
281
     0
 65
     1
110
0.0
120
0.0
130
0.0
111
1.0
121
0.0
131
0.0
112
0.0
122
1.0
132
0.0
 79
     0
146
0.0
  0
ENDTAB
  0
TABLE
  2
LTYPE
  5
5
330
0
100
AcDbSymbolTable
 70
     6
  0
LTYPE
  5
14
330
5
100
AcDbSymbolTableRecord
100
AcDbLinetypeTableRecord
  2
ByBlock
 70
     0
  3

 72
    65
 73
     0
 40
0.0
  0
LTYPE
  5
15
330
5
100
AcDbSymbolTableRecord
100
AcDbLinetypeTableRecord
  2
ByLayer
 70
     0
  3

 72
    65
 73
     0
 40
0.0
  0
LTYPE
  5
16
330
5
100
AcDbSymbolTableRecord
100
AcDbLinetypeTableRecord
  2
Continuous
 70
     0
  3
Solid line
 72
    65
 73
     0
 40
0.0
  0
LTYPE
  5
5E
330
5
100
AcDbSymbolTableRecord
100
AcDbLinetypeTableRecord
  2
HIDDEN
 70
     0
  3
Hidden __ __ __ __ __ __ __ __ __ __ __ __ __ __
 72
    65
 73
     2
 40
0.075
 49
0.05
 74
     0
 49
-0.025
 74
     0
  0
LTYPE
  5
5F
330
5
100
AcDbSymbolTableRecord
100
AcDbLinetypeTableRecord
  2
PHANTOM
 70
     0
  3
Phantom ______  __  __  ______  __  __  ______
 72
    65
 73
     6
 40
0.5
 49
0.25
 74
     0
 49
-0.05
 74
     0
 49
0.05
 74
     0
 49
-0.05
 74
     0
 49
0.05
 74
     0
 49
-0.05
 74
     0
  0
LTYPE
  5
60
330
5
100
AcDbSymbolTableRecord
100
AcDbLinetypeTableRecord
  2
CENTER
 70
     0
  3
Center ____ _ ____ _ ____ _ ____ _ ____ _ ____
 72
    65
 73
     4
 40
0.4
 49
0.25
 74
     0
 49
-0.05
 74
     0
 49
0.05
 74
     0
 49
-0.05
 74
     0
  0
LTYPE
  5
61
330
5
100
AcDbSymbolTableRecord
100
AcDbLinetypeTableRecord
  2
CENTERX2
 70
     0
  3
Center (2x) ________  __  ________  __  _____
 72
    65
 73
     4
 40
0.8
 49
0.5
 74
     0
 49
-0.1
 74
     0
 49
0.1
 74
     0
 49
-0.1
 74
     0
  0
LTYPE
  5
62
330
5
100
AcDbSymbolTableRecord
100
AcDbLinetypeTableRecord
  2
DOT2
 70
     0
  3
Dot (.5x) ........................................
 72
    65
 73
     2
 40
0.025
 49
0.0
 74
     0
 49
-0.025
 74
     0
  0
ENDTAB
  0
TABLE
  2
LAYER
  5
2
330
0
100
AcDbSymbolTable
 70
    11
  0
LAYER
  5
10
330
2
100
AcDbSymbolTableRecord
100
AcDbLayerTableRecord
  2
0
 70
     0
 62
     7
  6
Continuous
370
    -3
390
F
  0
LAYER
  5
63
330
2
100
AcDbSymbolTableRecord
100
AcDbLayerTableRecord
  2
SLD-0
 70
     0
 62
     7
  6
Continuous
370
    -3
390
F
  0
LAYER
  5
64
330
2
100
AcDbSymbolTableRecord
100
AcDbLayerTableRecord
  2
DIM
 70
     0
 62
     7
  6
Continuous
370
    -3
390
F
  0
LAYER
  5
65
330
2
100
AcDbSymbolTableRecord
100
AcDbLayerTableRecord
  2
CEN
 70
     0
 62
     1
  6
CENTER
370
    -3
390
F
  0
LAYER
  5
66
330
2
100
AcDbSymbolTableRecord
100
AcDbLayerTableRecord
  2
HAT
 70
     0
 62
     4
  6
Continuous
370
    -3
390
F
  0
LAYER
  5
67
330
2
100
AcDbSymbolTableRecord
100
AcDbLayerTableRecord
  2
OBJ
 70
     0
 62
     5
  6
Continuous
370
    -3
390
F
  0
LAYER
  5
68
330
2
100
AcDbSymbolTableRecord
100
AcDbLayerTableRecord
  2
SLD-DEFPOINTS
 70
     0
 62
     7
  6
Continuous
370
    -3
390
F
  0
LAYER
  5
69
330
2
100
AcDbSymbolTableRecord
100
AcDbLayerTableRecord
  2
HID
 70
     0
 62
     4
  6
HIDDEN
370
    -3
390
F
  0
LAYER
  5
6A
330
2
100
AcDbSymbolTableRecord
100
AcDbLayerTableRecord
  2
NOTE
 70
     0
 62
     7
  6
Continuous
370
    -3
390
F
  0
LAYER
  5
6B
330
2
100
AcDbSymbolTableRecord
100
AcDbLayerTableRecord
  2
TITLE
 70
     0
 62
     7
  6
Continuous
370
    -3
390
F
  0
LAYER
  5
6C
330
2
100
AcDbSymbolTableRecord
100
AcDbLayerTableRecord
  2
THICK_TITLE
 70
     0
 62
     7
  6
Continuous
370
   100
390
F
  0
ENDTAB
  0
TABLE
  2
STYLE
  5
3
330
0
100
AcDbSymbolTable
 70
     3
  0
STYLE
  5
11
330
3
100
AcDbSymbolTableRecord
100
AcDbTextStyleTableRecord
  2
Standard
 70
     0
 40
0.0
 41
1.0
 50
0.0
 71
     0
 42
0.375
  3
txt
  4

  0
STYLE
  5
73
330
3
100
AcDbSymbolTableRecord
100
AcDbTextStyleTableRecord
  2
SLDTEXTSTYLE0
 70
     0
 40
0.0
 41
0.75
 50
0.0
 71
     0
 42
0.375
  3
TXT
  4

  0
STYLE
  5
84
330
3
100
AcDbSymbolTableRecord
100
AcDbTextStyleTableRecord
  2
SLDTEXTSTYLE1
 70
     0
 40
0.0
 41
0.7
 50
0.0
 71
     0
 42
0.375
  3
TXT
  4

  0
ENDTAB
  0
TABLE
  2
VIEW
  5
6
330
0
100
AcDbSymbolTable
 70
     0
  0
ENDTAB
  0
TABLE
  2
UCS
  5
7
330
0
100
AcDbSymbolTable
 70
     0
  0
ENDTAB
  0
TABLE
  2
APPID
  5
9
330
0
100
AcDbSymbolTable
 70
     1
  0
APPID
  5
12
330
9
100
AcDbSymbolTableRecord
100
AcDbRegAppTableRecord
  2
ACAD
 70
     0
  0
ENDTAB
  0
TABLE
  2
DIMSTYLE
  5
A
330
0
100
AcDbSymbolTable
 70
     5
100
AcDbDimStyleTable
  0
DIMSTYLE
105
27
330
A
100
AcDbSymbolTableRecord
100
AcDbDimStyleTableRecord
  2
Standard
 70
     0
178
     0
340
11
  0
DIMSTYLE
105
1DF
102
{ACAD_REACTORS
330
1DE
330
2C5
330
2E8
330
36D
102
}
330
A
100
AcDbSymbolTableRecord
100
AcDbDimStyleTableRecord
  2
SLDDIMSTYLE0
 70
     0
 41
0.39
 44
0.0
 45
0.000000001
 78
    12
 79
     3
140
0.375
147
0.09375
148
0.000000001
170
     1
172
     1
173
     1
178
     0
271
     6
272
     0
276
     2
277
     5
284
    12
289
     0
340
73
  0
DIMSTYLE
105
1F4
102
{ACAD_REACTORS
330
1F3
330
380
102
}
330
A
100
AcDbSymbolTableRecord
100
AcDbDimStyleTableRecord
  2
SLDDIMSTYLE1
 70
     0
 41
0.39
 44
0.0
 45
0.000000001
 78
    12
 79
     3
140
0.375
147
0.09375
148
0.000000001
170
     1
172
     1
173
     1
178
     0
271
     0
272
     0
276
     2
277
     5
284
    12
289
     0
340
73
  0
DIMSTYLE
105
209
102
{ACAD_REACTORS
330
208
330
21C
330
2A0
330
345
102
}
330
A
100
AcDbSymbolTableRecord
100
AcDbDimStyleTableRecord
  2
SLDDIMSTYLE2
 70
     0
 41
0.39
 44
0.0
 45
0.000000001
 78
    12
 79
     3
140
0.375
147
0.09375
148
0.000000001
170
     1
173
     1
178
     0
271
     6
272
     0
276
     2
277
     5
284
    12
340
73
  0
DIMSTYLE
105
35A
102
{ACAD_REACTORS
330
359
102
}
330
A
100
AcDbSymbolTableRecord
100
AcDbDimStyleTableRecord
  2
SLDDIMSTYLE3
 70
     0
 41
0.39
 44
0.0
 45
0.000000001
 78
    12
 79
     3
140
0.375
147
0.09375
148
0.000000001
170
     1
173
     1
178
     0
271
     0
272
     0
276
     2
277
     5
284
    12
340
73
  0
ENDTAB
  0
TABLE
  2
BLOCK_RECORD
  5
1
330
0
100
AcDbSymbolTable
 70
    18
  0
BLOCK_RECORD
  5
1F
330
1
100
AcDbSymbolTableRecord
100
AcDbBlockTableRecord
  2
*Model_Space
340
22
  0
BLOCK_RECORD
  5
1B
330
1
100
AcDbSymbolTableRecord
100
AcDbBlockTableRecord
  2
*Paper_Space
340
1E
  0
BLOCK_RECORD
  5
23
330
1
100
AcDbSymbolTableRecord
100
AcDbBlockTableRecord
  2
*Paper_Space0
340
26
  0
BLOCK_RECORD
  5
6D
330
1
100
AcDbSymbolTableRecord
100
AcDbBlockTableRecord
  2
Block1
340
0
102
{BLKREFS
331
29F
102
}
  0
BLOCK_RECORD
  5
70
330
1
100
AcDbSymbolTableRecord
100
AcDbBlockTableRecord
  2
SW_NOTE_0
340
0
102
{BLKREFS
331
75
102
}
  0
BLOCK_RECORD
  5
76
330
1
100
AcDbSymbolTableRecord
100
AcDbBlockTableRecord
  2
Block2
340
0
102
{BLKREFS
331
2C4
102
}
  0
BLOCK_RECORD
  5
79
330
1
100
AcDbSymbolTableRecord
100
AcDbBlockTableRecord
  2
SW_NOTE_0_1
340
0
102
{BLKREFS
331
7D
102
}
  0
BLOCK_RECORD
  5
7E
330
1
100
AcDbSymbolTableRecord
100
AcDbBlockTableRecord
  2
Block3
340
0
102
{BLKREFS
331
2E7
102
}
  0
BLOCK_RECORD
  5
81
330
1
100
AcDbSymbolTableRecord
100
AcDbBlockTableRecord
  2
SW_NOTE_0_2
340
0
102
{BLKREFS
331
86
102
}
  0
BLOCK_RECORD
  5
1E0
330
1
100
AcDbSymbolTableRecord
100
AcDbBlockTableRecord
  2
_D
340
0
  0
BLOCK_RECORD
  5
1F5
330
1
100
AcDbSymbolTableRecord
100
AcDbBlockTableRecord
  2
_D_1
340
0
  0
BLOCK_RECORD
  5
20A
330
1
100
AcDbSymbolTableRecord
100
AcDbBlockTableRecord
  2
_D_2
340
0
  0
BLOCK_RECORD
  5
21D
330
1
100
AcDbSymbolTableRecord
100
AcDbBlockTableRecord
  2
_D_3
340
0
  0
BLOCK_RECORD
  5
2A1
330
1
100
AcDbSymbolTableRecord
100
AcDbBlockTableRecord
  2
_D_4
340
0
  0
BLOCK_RECORD
  5
2C6
330
1
100
AcDbSymbolTableRecord
100
AcDbBlockTableRecord
  2
_D_5
340
0
  0
BLOCK_RECORD
  5
2E9
330
1
100
AcDbSymbolTableRecord
100
AcDbBlockTableRecord
  2
_D_6
340
0
  0
BLOCK_RECORD
  5
346
330
1
100
AcDbSymbolTableRecord
100
AcDbBlockTableRecord
  2
_D_7
340
0
  0
BLOCK_RECORD
  5
35B
330
1
100
AcDbSymbolTableRecord
100
AcDbBlockTableRecord
  2
_D_8
340
0
  0
BLOCK_RECORD
  5
36E
330
1
100
AcDbSymbolTableRecord
100
AcDbBlockTableRecord
  2
_D_9
340
0
  0
BLOCK_RECORD
  5
381
330
1
100
AcDbSymbolTableRecord
100
AcDbBlockTableRecord
  2
_D_10
340
0
  0
ENDTAB
  0
ENDSEC
  0
SECTION
  2
BLOCKS
  0
BLOCK
  5
20
330
1F
100
AcDbEntity
  8
0
100
AcDbBlockBegin
  2
*Model_Space
 70
     0
 10
0.0
 20
0.0
 30
0.0
  3
*Model_Space
  1

  0
ENDBLK
  5
21
330
1F
100
AcDbEntity
  8
0
100
AcDbBlockEnd
  0
BLOCK
  5
1C
330
1B
100
AcDbEntity
 67
     1
  8
0
100
AcDbBlockBegin
  2
*Paper_Space
 70
     0
 10
0.0
 20
0.0
 30
0.0
  3
*Paper_Space
  1

  0
ENDBLK
  5
1D
330
1B
100
AcDbEntity
 67
     1
  8
0
100
AcDbBlockEnd
  0
BLOCK
  5
24
330
23
100
AcDbEntity
  8
0
100
AcDbBlockBegin
  2
*Paper_Space0
 70
     0
 10
0.0
 20
0.0
 30
0.0
  3
*Paper_Space0
  1

  0
ENDBLK
  5
25
330
23
100
AcDbEntity
  8
0
100
AcDbBlockEnd
  0
BLOCK
  5
6E
330
6D
100
AcDbEntity
  8
0
100
AcDbBlockBegin
  2
Block1
 70
     0
 10
0.0
 20
0.0
 30
0.0
  3
Block1
  1

  0
INSERT
  5
75
330
6D
100
AcDbEntity
  8
0
  6
Continuous
 62
     7
370
     0
100
AcDbBlockReference
  2
SW_NOTE_0
 10
0.0012322298
 20
-0.0521462902
 30
0.0
  0
ENDBLK
  5
6F
330
6D
100
AcDbEntity
  8
0
100
AcDbBlockEnd
  0
BLOCK
  5
71
330
70
100
AcDbEntity
  8
0
100
AcDbBlockBegin
  2
SW_NOTE_0
 70
     0
 10
0.0
 20
0.0
 30
0.0
  3
SW_NOTE_0
  1

  0
MTEXT
  5
74
330
70
100
AcDbEntity
  8
0
  6
Continuous
 62
     0
370
     0
100
AcDbMText
 10
1.73828125
 20
0.8056673374
 30
0.0
 40
0.625
 41
0.0
 71
     2
 72
     1
  1
A/D CAP
  7
SLDTEXTSTYLE0
 73
     1
 44
1.0
  0
ENDBLK
  5
72
330
70
100
AcDbEntity
  8
0
100
AcDbBlockEnd
  0
BLOCK
  5
77
330
76
100
AcDbEntity
  8
0
100
AcDbBlockBegin
  2
Block2
 70
     0
 10
0.0
 20
0.0
 30
0.0
  3
Block2
  1

  0
INSERT
  5
7D
330
76
100
AcDbEntity
  8
0
  6
Continuous
 62
     7
370
     0
100
AcDbBlockReference
  2
SW_NOTE_0_1
 10
0.0118243127
 20
0.8525423419
 30
0.0
  0
ENDBLK
  5
78
330
76
100
AcDbEntity
  8
0
100
AcDbBlockEnd
  0
BLOCK
  5
7A
330
79
100
AcDbEntity
  8
0
100
AcDbBlockBegin
  2
SW_NOTE_0_1
 70
     0
 10
0.0
 20
0.0
 30
0.0
  3
SW_NOTE_0_1
  1

  0
MTEXT
  5
7C
330
79
100
AcDbEntity
  8
0
  6
Continuous
 62
     0
370
     0
100
AcDbMText
 10
1.611328125
 20
0.8056673374
 30
0.0
 40
0.625
 41
0.0
 71
     2
 72
     1
  1
B/E CAP
  7
SLDTEXTSTYLE0
 73
     1
 44
1.0
  0
ENDBLK
  5
7B
330
79
100
AcDbEntity
  8
0
100
AcDbBlockEnd
  0
BLOCK
  5
7F
330
7E
100
AcDbEntity
  8
0
100
AcDbBlockBegin
  2
Block3
 70
     0
 10
0.0
 20
0.0
 30
0.0
  3
Block3
  1

  0
INSERT
  5
86
330
7E
100
AcDbEntity
  8
0
  6
Continuous
 62
     7
370
     0
100
AcDbBlockReference
  2
SW_NOTE_0_2
 10
0.0339401496
 20
-0.0278239893
 30
0.0
  0
ENDBLK
  5
80
330
7E
100
AcDbEntity
  8
0
100
AcDbBlockEnd
  0
BLOCK
  5
82
330
81
100
AcDbEntity
  8
0
100
AcDbBlockBegin
  2
SW_NOTE_0_2
 70
     0
 10
0.0
 20
0.0
 30
0.0
  3
SW_NOTE_0_2
  1

  0
MTEXT
  5
85
330
81
100
AcDbEntity
  8
0
  6
Continuous
 62
     0
370
     0
100
AcDbMText
 10
1.30859375
 20
0.8056673374
 30
0.0
 40
0.625
 41
0.0
 71
     2
 72
     1
  1
C CAP
  7
SLDTEXTSTYLE1
 73
     1
 44
1.0
  0
ENDBLK
  5
83
330
81
100
AcDbEntity
  8
0
100
AcDbBlockEnd
  0
BLOCK
  5
1E1
330
1E0
100
AcDbEntity
  8
0
100
AcDbBlockBegin
  2
_D
 70
     0
 10
0.0
 20
0.0
 30
0.0
  3
_D
  1

  0
SOLID
  5
1E3
330
1E0
100
AcDbEntity
  8
0
  6
Continuous
 62
     7
370
    18
100
AcDbTrace
 10
5.5141666987
 20
21.4937578797
 30
0.0
 11
5.1241666987
 21
21.5537578797
 31
0.0
 12
5.1241666987
 22
21.4337578797
 32
0.0
 13
5.1241666987
 23
21.4337578797
 33
0.0
  0
SOLID
  5
1E4
330
1E0
100
AcDbEntity
  8
0
  6
Continuous
 62
     7
370
    18
100
AcDbTrace
 10
5.8891666987
 20
21.4937578797
 30
0.0
 11
6.2791666987
 21
21.4337578797
 31
0.0
 12
6.2791666987
 22
21.5537578797
 32
0.0
 13
6.2791666987
 23
21.5537578797
 33
0.0
  0
LINE
  5
1E5
330
1E0
100
AcDbEntity
  8
0
  6
Continuous
 62
     7
370
     0
100
AcDbLine
 10
2.4980066487
 20
21.4908932378
 30
0.0
 11
2.3837488373
 21
21.4908932378
 31
0.0
  0
LINE
  5
1E6
330
1E0
100
AcDbEntity
  8
0
  6
Continuous
 62
     7
370
     0
100
AcDbLine
 10
2.3837488373
 20
21.4908932378
 30
0.0
 11
2.3837488373
 21
20.8955807199
 31
0.0
  0
LINE
  5
1E7
330
1E0
100
AcDbEntity
  8
0
  6
Continuous
 62
     7
370
     0
100
AcDbLine
 10
2.3837488373
 20
20.8955807199
 30
0.0
 11
2.4980066487
 21
20.8955807199
 31
0.0
  0
LINE
  5
1E8
330
1E0
100
AcDbEntity
  8
0
  6
Continuous
 62
     7
370
     0
100
AcDbLine
 10
3.9896733468
 20
21.4908932378
 30
0.0
 11
4.1039311582
 21
21.4908932378
 31
0.0
  0
LINE
  5
1E9
330
1E0
100
AcDbEntity
  8
0
  6
Continuous
 62
     7
370
     0
100
AcDbLine
 10
4.1039311582
 20
21.4908932378
 30
0.0
 11
4.1039311582
 21
20.8955807199
 31
0.0
  0
LINE
  5
1EA
330
1E0
100
AcDbEntity
  8
0
  6
Continuous
 62
     7
370
     0
100
AcDbLine
 10
4.1039311582
 20
20.8955807199
 30
0.0
 11
3.9896733468
 21
20.8955807199
 31
0.0
  0
LINE
  5
1EB
330
1E0
100
AcDbEntity
  8
0
  6
Continuous
 62
     7
370
     0
100
AcDbLine
 10
5.5141666987
 20
20.3842299893
 30
0.0
 11
5.5141666987
 21
21.8687578797
 31
0.0
  0
LINE
  5
1EC
330
1E0
100
AcDbEntity
  8
0
  6
Continuous
 62
     7
370
     0
100
AcDbLine
 10
5.8891666987
 20
20.3342299893
 30
0.0
 11
5.8891666987
 21
21.8687578797
 31
0.0
  0
LINE
  5
1ED
330
1E0
100
AcDbEntity
  8
0
  6
Continuous
 62
     7
370
     0
100
AcDbLine
 10
5.5141666987
 20
21.4937578797
 30
0.0
 11
4.4327911453
 21
21.4937578797
 31
0.0
  0
LINE
  5
1EE
330
1E0
100
AcDbEntity
  8
0
  6
Continuous
 62
     7
370
     0
100
AcDbLine
 10
5.8891666987
 20
21.4937578797
 30
0.0
 11
6.6391666987
 21
21.4937578797
 31
0.0
  0
MTEXT
  5
1EF
330
1E0
100
AcDbEntity
  8
0
  6
Continuous
 62
     7
370
    18
100
AcDbMText
 10
2.271574359
 20
22.0561947203
 30
0.0
 40
0.375
 41
0.0
 71
     1
 72
     1
  1

  7
SLDTEXTSTYLE0
 73
     1
 44
1.0
  0
MTEXT
  5
1F0
330
1E0
100
AcDbEntity
  8
0
  6
Continuous
 62
     7
370
    18
100
AcDbMText
 10
2.7800378631
 20
22.0504655259
 30
0.0
 40
0.375
 41
0.0
 71
     1
 72
     1
  1
3/8"
  7
SLDTEXTSTYLE0
 73
     1
 44
1.0
  0
MTEXT
  5
1F1
330
1E0
100
AcDbEntity
  8
0
  6
Continuous
 62
     7
370
    18
100
AcDbMText
 10
2.4980066487
 20
21.3789811636
 30
0.0
 40
0.375
 41
0.0
 71
     1
 72
     1
  1
10mm
  7
SLDTEXTSTYLE0
 73
     1
 44
1.0
  0
MTEXT
  5
1F2
330
1E0
100
AcDbEntity
  8
0
  6
Continuous
 62
     7
370
    18
100
AcDbMText
 10
4.358813887
 20
22.0561947203
 30
0.0
 40
0.375
 41
0.0
 71
     1
 72
     1
  1

  7
SLDTEXTSTYLE0
 73
     1
 44
1.0
  0
ENDBLK
  5
1E2
330
1E0
100
AcDbEntity
  8
0
100
AcDbBlockEnd
  0
BLOCK
  5
1F6
330
1F5
100
AcDbEntity
  8
0
100
AcDbBlockBegin
  2
_D_1
 70
     0
 10
0.0
 20
0.0
 30
0.0
  3
_D_1
  1

  0
SOLID
  5
1F8
330
1F5
100
AcDbEntity
  8
0
  6
Continuous
 62
     7
370
    18
100
AcDbTrace
 10
5.5141666987
 20
22.9110807144
 30
0.0
 11
5.1241666987
 21
22.9710807144
 31
0.0
 12
5.1241666987
 22
22.8510807144
 32
0.0
 13
5.1241666987
 23
22.8510807144
 33
0.0
  0
SOLID
  5
1F9
330
1F5
100
AcDbEntity
  8
0
  6
Continuous
 62
     7
370
    18
100
AcDbTrace
 10
9.5141666987
 20
22.9110807144
 30
0.0
 11
9.9041666987
 21
22.8510807144
 31
0.0
 12
9.9041666987
 22
22.9710807144
 32
0.0
 13
9.9041666987
 23
22.9710807144
 33
0.0
  0
LINE
  5
1FA
330
1F5
100
AcDbEntity
  8
0
  6
Continuous
 62
     7
370
     0
100
AcDbLine
 10
6.6297917651
 20
22.9082160724
 30
0.0
 11
6.5155339537
 21
22.9082160724
 31
0.0
  0
LINE
  5
1FB
330
1F5
100
AcDbEntity
  8
0
  6
Continuous
 62
     7
370
     0
100
AcDbLine
 10
6.5155339537
 20
22.9082160724
 30
0.0
 11
6.5155339537
 21
22.3129035546
 31
0.0
  0
LINE
  5
1FC
330
1F5
100
AcDbEntity
  8
0
  6
Continuous
 62
     7
370
     0
100
AcDbLine
 10
6.5155339537
 20
22.3129035546
 30
0.0
 11
6.6297917651
 21
22.3129035546
 31
0.0
  0
LINE
  5
1FD
330
1F5
100
AcDbEntity
  8
0
  6
Continuous
 62
     7
370
     0
100
AcDbLine
 10
8.3985417423
 20
22.9082160724
 30
0.0
 11
8.5127995536
 21
22.9082160724
 31
0.0
  0
LINE
  5
1FE
330
1F5
100
AcDbEntity
  8
0
  6
Continuous
 62
     7
370
     0
100
AcDbLine
 10
8.5127995536
 20
22.9082160724
 30
0.0
 11
8.5127995536
 21
22.3129035546
 31
0.0
  0
LINE
  5
1FF
330
1F5
100
AcDbEntity
  8
0
  6
Continuous
 62
     7
370
     0
100
AcDbLine
 10
8.5127995536
 20
22.3129035546
 30
0.0
 11
8.3985417423
 21
22.3129035546
 31
0.0
  0
LINE
  5
200
330
1F5
100
AcDbEntity
  8
0
  6
Continuous
 62
     7
370
     0
100
AcDbLine
 10
5.5141666987
 20
20.3842299893
 30
0.0
 11
5.5141666987
 21
23.2860807144
 31
0.0
  0
LINE
  5
201
330
1F5
100
AcDbEntity
  8
0
  6
Continuous
 62
     7
370
     0
100
AcDbLine
 10
9.5141666987
 20
19.1392299893
 30
0.0
 11
9.5141666987
 21
23.2860807144
 31
0.0
  0
LINE
  5
202
330
1F5
100
AcDbEntity
  8
0
  6
Continuous
 62
     7
370
     0
100
AcDbLine
 10
5.5141666987
 20
22.9110807144
 30
0.0
 11
4.7641666987
 21
22.9110807144
 31
0.0
  0
LINE
  5
203
330
1F5
100
AcDbEntity
  8
0
  6
Continuous
 62
     7
370
     0
100
AcDbLine
 10
9.5141666987
 20
22.9110807144
 30
0.0
 11
10.2641666987
 21
22.9110807144
 31
0.0
  0
MTEXT
  5
204
330
1F5
100
AcDbEntity
  8
0
  6
Continuous
 62
     7
370
    18
100
AcDbMText
 10
6.4033594753
 20
23.473517555
 30
0.0
 40
0.375
 41
0.0
 71
     1
 72
     1
  1

  7
SLDTEXTSTYLE0
 73
     1
 44
1.0
  0
MTEXT
  5
205
330
1F5
100
AcDbEntity
  8
0
  6
Continuous
 62
     7
370
    18
100
AcDbMText
 10
7.2982813089
 20
23.4677883605
 30
0.0
 40
0.375
 41
0.0
 71
     1
 72
     1
  1
4"
  7
SLDTEXTSTYLE0
 73
     1
 44
1.0
  0
MTEXT
  5
206
330
1F5
100
AcDbEntity
  8
0
  6
Continuous
 62
     7
370
    18
100
AcDbMText
 10
6.6297917651
 20
22.7963039982
 30
0.0
 40
0.375
 41
0.0
 71
     1
 72
     1
  1
102mm
  7
SLDTEXTSTYLE0
 73
     1
 44
1.0
  0
MTEXT
  5
207
330
1F5
100
AcDbEntity
  8
0
  6
Continuous
 62
     7
370
    18
100
AcDbMText
 10
8.7676822825
 20
23.473517555
 30
0.0
 40
0.375
 41
0.0
 71
     1
 72
     1
  1

  7
SLDTEXTSTYLE0
 73
     1
 44
1.0
  0
ENDBLK
  5
1F7
330
1F5
100
AcDbEntity
  8
0
100
AcDbBlockEnd
  0
BLOCK
  5
20B
330
20A
100
AcDbEntity
  8
0
100
AcDbBlockBegin
  2
_D_2
 70
     0
 10
0.0
 20
0.0
 30
0.0
  3
_D_2
  1

  0
SOLID
  5
20D
330
20A
100
AcDbEntity
  8
0
  6
Continuous
 62
     7
370
    18
100
AcDbTrace
 10
5.5141666987
 20
19.7078554846
 30
0.0
 11
5.1241666987
 21
19.7678554846
 31
0.0
 12
5.1241666987
 22
19.6478554846
 32
0.0
 13
5.1241666987
 23
19.6478554846
 33
0.0
  0
SOLID
  5
20E
330
20A
100
AcDbEntity
  8
0
  6
Continuous
 62
     7
370
    18
100
AcDbTrace
 10
4.4516666987
 20
19.7078554846
 30
0.0
 11
4.8416666987
 21
19.6478554846
 31
0.0
 12
4.8416666987
 22
19.7678554846
 32
0.0
 13
4.8416666987
 23
19.7678554846
 33
0.0
  0
LINE
  5
20F
330
20A
100
AcDbEntity
  8
0
  6
Continuous
 62
     7
370
     0
100
AcDbLine
 10
1.5405532906
 20
19.7049908426
 30
0.0
 11
1.4262954792
 21
19.7049908426
 31
0.0
  0
LINE
  5
210
330
20A
100
AcDbEntity
  8
0
  6
Continuous
 62
     7
370
     0
100
AcDbLine
 10
1.4262954792
 20
19.7049908426
 30
0.0
 11
1.4262954792
 21
19.1096783248
 31
0.0
  0
LINE
  5
211
330
20A
100
AcDbEntity
  8
0
  6
Continuous
 62
     7
370
     0
100
AcDbLine
 10
1.4262954792
 20
19.1096783248
 30
0.0
 11
1.5405532906
 21
19.1096783248
 31
0.0
  0
LINE
  5
212
330
20A
100
AcDbEntity
  8
0
  6
Continuous
 62
     7
370
     0
100
AcDbLine
 10
3.0322199887
 20
19.7049908426
 30
0.0
 11
3.1464778
 21
19.7049908426
 31
0.0
  0
LINE
  5
213
330
20A
100
AcDbEntity
  8
0
  6
Continuous
 62
     7
370
     0
100
AcDbLine
 10
3.1464778
 20
19.7049908426
 30
0.0
 11
3.1464778
 21
19.1096783248
 31
0.0
  0
LINE
  5
214
330
20A
100
AcDbEntity
  8
0
  6
Continuous
 62
     7
370
     0
100
AcDbLine
 10
3.1464778
 20
19.1096783248
 30
0.0
 11
3.0322199887
 21
19.1096783248
 31
0.0
  0
LINE
  5
215
330
20A
100
AcDbEntity
  8
0
  6
Continuous
 62
     7
370
     0
100
AcDbLine
 10
4.4516666987
 20
18.3322426912
 30
0.0
 11
4.4516666987
 21
20.0828554846
 31
0.0
  0
LINE
  5
216
330
20A
100
AcDbEntity
  8
0
  6
Continuous
 62
     7
370
     0
100
AcDbLine
 10
5.5141666987
 20
19.7078554846
 30
0.0
 11
4.4516666987
 21
19.7078554846
 31
0.0
  0
LINE
  5
217
330
20A
100
AcDbEntity
  8
0
  6
Continuous
 62
     7
370
     0
100
AcDbLine
 10
4.4516666987
 20
19.7078554846
 30
0.0
 11
3.4753377872
 21
19.7078554846
 31
0.0
  0
MTEXT
  5
218
330
20A
100
AcDbEntity
  8
0
  6
Continuous
 62
     7
370
    18
100
AcDbMText
 10
1.3141210009
 20
20.2702923252
 30
0.0
 40
0.375
 41
0.0
 71
     1
 72
     1
  1

  7
SLDTEXTSTYLE0
 73
     1
 44
1.0
  0
MTEXT
  5
219
330
20A
100
AcDbEntity
  8
0
  6
Continuous
 62
     7
370
    18
100
AcDbMText
 10
1.4762303511
 20
20.2645631307
 30
0.0
 40
0.375
 41
0.0
 71
     1
 72
     1
  1
1 1/16"
  7
SLDTEXTSTYLE0
 73
     1
 44
1.0
  0
MTEXT
  5
21A
330
20A
100
AcDbEntity
  8
0
  6
Continuous
 62
     7
370
    18
100
AcDbMText
 10
1.5405532906
 20
19.5930787684
 30
0.0
 40
0.375
 41
0.0
 71
     1
 72
     1
  1
27mm
  7
SLDTEXTSTYLE0
 73
     1
 44
1.0
  0
MTEXT
  5
21B
330
20A
100
AcDbEntity
  8
0
  6
Continuous
 62
     7
370
    18
100
AcDbMText
 10
3.4013605289
 20
20.2702923252
 30
0.0
 40
0.375
 41
0.0
 71
     1
 72
     1
  1

  7
SLDTEXTSTYLE0
 73
     1
 44
1.0
  0
ENDBLK
  5
20C
330
20A
100
AcDbEntity
  8
0
100
AcDbBlockEnd
  0
BLOCK
  5
21E
330
21D
100
AcDbEntity
  8
0
100
AcDbBlockBegin
  2
_D_3
 70
     0
 10
0.0
 20
0.0
 30
0.0
  3
_D_3
  1

  0
SOLID
  5
220
330
21D
100
AcDbEntity
  8
0
  6
Continuous
 62
     7
370
    18
100
AcDbTrace
 10
11.3356690337
 20
17.7492299893
 30
0.0
 11
11.2756690337
 21
17.3592299893
 31
0.0
 12
11.3956690337
 22
17.3592299893
 32
0.0
 13
11.3956690337
 23
17.3592299893
 33
0.0
  0
SOLID
  5
221
330
21D
100
AcDbEntity
  8
0
  6
Continuous
 62
     7
370
    18
100
AcDbTrace
 10
11.3356690337
 20
13.8192299893
 30
0.0
 11
11.3956690337
 21
14.2092299893
 31
0.0
 12
11.2756690337
 22
14.2092299893
 32
0.0
 13
11.2756690337
 23
14.2092299893
 33
0.0
  0
LINE
  5
222
330
21D
100
AcDbEntity
  8
0
  6
Continuous
 62
     7
370
     0
100
AcDbLine
 10
10.4512941
 20
15.7813653474
 30
0.0
 11
10.3370362887
 21
15.7813653474
 31
0.0
  0
LINE
  5
223
330
21D
100
AcDbEntity
  8
0
  6
Continuous
 62
     7
370
     0
100
AcDbLine
 10
10.3370362887
 20
15.7813653474
 30
0.0
 11
10.3370362887
 21
15.1860528295
 31
0.0
  0
LINE
  5
224
330
21D
100
AcDbEntity
  8
0
  6
Continuous
 62
     7
370
     0
100
AcDbLine
 10
10.3370362887
 20
15.1860528295
 30
0.0
 11
10.4512941
 21
15.1860528295
 31
0.0
  0
LINE
  5
225
330
21D
100
AcDbEntity
  8
0
  6
Continuous
 62
     7
370
     0
100
AcDbLine
 10
12.2200440773
 20
15.7813653474
 30
0.0
 11
12.3343018886
 21
15.7813653474
 31
0.0
  0
LINE
  5
226
330
21D
100
AcDbEntity
  8
0
  6
Continuous
 62
     7
370
     0
100
AcDbLine
 10
12.3343018886
 20
15.7813653474
 30
0.0
 11
12.3343018886
 21
15.1860528295
 31
0.0
  0
LINE
  5
227
330
21D
100
AcDbEntity
  8
0
  6
Continuous
 62
     7
370
     0
100
AcDbLine
 10
12.3343018886
 20
15.1860528295
 30
0.0
 11
12.2200440773
 21
15.1860528295
 31
0.0
  0
LINE
  5
228
330
21D
100
AcDbEntity
  8
0
  6
Continuous
 62
     7
370
     0
100
AcDbLine
 10
4.8516666987
 20
17.7492299893
 30
0.0
 11
11.7106690337
 21
17.7492299893
 31
0.0
  0
LINE
  5
229
330
21D
100
AcDbEntity
  8
0
  6
Continuous
 62
     7
370
     0
100
AcDbLine
 10
9.6641666987
 20
13.8192299893
 30
0.0
 11
11.7106690337
 21
13.8192299893
 31
0.0
  0
LINE
  5
22A
330
21D
100
AcDbEntity
  8
0
  6
Continuous
 62
     7
370
     0
100
AcDbLine
 10
11.3356690337
 20
17.7492299893
 30
0.0
 11
11.3356690337
 21
16.4585789041
 31
0.0
  0
LINE
  5
22B
330
21D
100
AcDbEntity
  8
0
  6
Continuous
 62
     7
370
     0
100
AcDbLine
 10
11.3356690337
 20
13.8192299893
 30
0.0
 11
11.3356690337
 21
15.1098810744
 31
0.0
  0
MTEXT
  5
22C
330
21D
100
AcDbEntity
  8
0
  6
Continuous
 62
     7
370
    18
100
AcDbMText
 10
10.2248618103
 20
16.3466668299
 30
0.0
 40
0.375
 41
0.0
 71
     1
 72
     1
  1

  7
SLDTEXTSTYLE0
 73
     1
 44
1.0
  0
MTEXT
  5
22D
330
21D
100
AcDbEntity
  8
0
  6
Continuous
 62
     7
370
    18
100
AcDbMText
 10
10.3869711606
 20
16.3409376355
 30
0.0
 40
0.375
 41
0.0
 71
     1
 72
     1
  1
3 15/16"
  7
SLDTEXTSTYLE0
 73
     1
 44
1.0
  0
MTEXT
  5
22E
330
21D
100
AcDbEntity
  8
0
  6
Continuous
 62
     7
370
    18
100
AcDbMText
 10
10.4512941
 20
15.6694532731
 30
0.0
 40
0.375
 41
0.0
 71
     1
 72
     1
  1
100mm
  7
SLDTEXTSTYLE0
 73
     1
 44
1.0
  0
MTEXT
  5
22F
330
21D
100
AcDbEntity
  8
0
  6
Continuous
 62
     7
370
    18
100
AcDbMText
 10
12.5891846175
 20
16.3466668299
 30
0.0
 40
0.375
 41
0.0
 71
     1
 72
     1
  1

  7
SLDTEXTSTYLE0
 73
     1
 44
1.0
  0
ENDBLK
  5
21F
330
21D
100
AcDbEntity
  8
0
100
AcDbBlockEnd
  0
BLOCK
  5
2A2
330
2A1
100
AcDbEntity
  8
0
100
AcDbBlockBegin
  2
_D_4
 70
     0
 10
0.0
 20
0.0
 30
0.0
  3
_D_4
  1

  0
SOLID
  5
2A4
330
2A1
100
AcDbEntity
  8
0
  6
Continuous
 62
     7
370
    18
100
AcDbTrace
 10
7.4383123906
 20
2.0915076658
 30
0.0
 11
7.4983123906
 21
2.4815076658
 31
0.0
 12
7.3783123906
 22
2.4815076658
 32
0.0
 13
7.3783123906
 23
2.4815076658
 33
0.0
  0
SOLID
  5
2A5
330
2A1
100
AcDbEntity
  8
0
  6
Continuous
 62
     7
370
    18
100
AcDbTrace
 10
7.4383123906
 20
7.3555076658
 30
0.0
 11
7.3783123906
 21
6.9655076658
 31
0.0
 12
7.4983123906
 22
6.9655076658
 32
0.0
 13
7.4983123906
 23
6.9655076658
 33
0.0
  0
LINE
  5
2A6
330
2A1
100
AcDbEntity
  8
0
  6
Continuous
 62
     7
370
     0
100
AcDbLine
 10
6.553937457
 20
4.7206430239
 30
0.0
 11
6.4396796457
 21
4.7206430239
 31
0.0
  0
LINE
  5
2A7
330
2A1
100
AcDbEntity
  8
0
  6
Continuous
 62
     7
370
     0
100
AcDbLine
 10
6.4396796457
 20
4.7206430239
 30
0.0
 11
6.4396796457
 21
4.125330506
 31
0.0
  0
LINE
  5
2A8
330
2A1
100
AcDbEntity
  8
0
  6
Continuous
 62
     7
370
     0
100
AcDbLine
 10
6.4396796457
 20
4.125330506
 30
0.0
 11
6.553937457
 21
4.125330506
 31
0.0
  0
LINE
  5
2A9
330
2A1
100
AcDbEntity
  8
0
  6
Continuous
 62
     7
370
     0
100
AcDbLine
 10
8.3226874343
 20
4.7206430239
 30
0.0
 11
8.4369452456
 21
4.7206430239
 31
0.0
  0
LINE
  5
2AA
330
2A1
100
AcDbEntity
  8
0
  6
Continuous
 62
     7
370
     0
100
AcDbLine
 10
8.4369452456
 20
4.7206430239
 30
0.0
 11
8.4369452456
 21
4.125330506
 31
0.0
  0
LINE
  5
2AB
330
2A1
100
AcDbEntity
  8
0
  6
Continuous
 62
     7
370
     0
100
AcDbLine
 10
8.4369452456
 20
4.125330506
 30
0.0
 11
8.3226874343
 21
4.125330506
 31
0.0
  0
LINE
  5
2AC
330
2A1
100
AcDbEntity
  8
0
  6
Continuous
 62
     7
370
     0
100
AcDbLine
 10
9.1780761702
 20
2.0915076658
 30
0.0
 11
7.0633123906
 21
2.0915076658
 31
0.0
  0
LINE
  5
2AD
330
2A1
100
AcDbEntity
  8
0
  6
Continuous
 62
     7
370
     0
100
AcDbLine
 10
9.1780761702
 20
7.3555076658
 30
0.0
 11
7.0633123906
 21
7.3555076658
 31
0.0
  0
LINE
  5
2AE
330
2A1
100
AcDbEntity
  8
0
  6
Continuous
 62
     7
370
     0
100
AcDbLine
 10
7.4383123906
 20
2.0915076658
 30
0.0
 11
7.4383123906
 21
4.0491587509
 31
0.0
  0
LINE
  5
2AF
330
2A1
100
AcDbEntity
  8
0
  6
Continuous
 62
     7
370
     0
100
AcDbLine
 10
7.4383123906
 20
7.3555076658
 30
0.0
 11
7.4383123906
 21
5.3978565806
 31
0.0
  0
MTEXT
  5
2B0
330
2A1
100
AcDbEntity
  8
0
  6
Continuous
 62
     7
370
    18
100
AcDbMText
 10
6.3275051673
 20
5.2859445064
 30
0.0
 40
0.375
 41
0.0
 71
     1
 72
     1
  1

  7
SLDTEXTSTYLE0
 73
     1
 44
1.0
  0
MTEXT
  5
2B1
330
2A1
100
AcDbEntity
  8
0
  6
Continuous
 62
     7
370
    18
100
AcDbMText
 10
6.7666978517
 20
5.2802153119
 30
0.0
 40
0.375
 41
0.0
 71
     1
 72
     1
  1
5 1/4"
  7
SLDTEXTSTYLE0
 73
     1
 44
1.0
  0
MTEXT
  5
2B2
330
2A1
100
AcDbEntity
  8
0
  6
Continuous
 62
     7
370
    18
100
AcDbMText
 10
6.553937457
 20
4.6087309496
 30
0.0
 40
0.375
 41
0.0
 71
     1
 72
     1
  1
134mm
  7
SLDTEXTSTYLE0
 73
     1
 44
1.0
  0
MTEXT
  5
2B3
330
2A1
100
AcDbEntity
  8
0
  6
Continuous
 62
     7
370
    18
100
AcDbMText
 10
8.6918279744
 20
5.2859445064
 30
0.0
 40
0.375
 41
0.0
 71
     1
 72
     1
  1

  7
SLDTEXTSTYLE0
 73
     1
 44
1.0
  0
ENDBLK
  5
2A3
330
2A1
100
AcDbEntity
  8
0
100
AcDbBlockEnd
  0
BLOCK
  5
2C7
330
2C6
100
AcDbEntity
  8
0
100
AcDbBlockBegin
  2
_D_5
 70
     0
 10
0.0
 20
0.0
 30
0.0
  3
_D_5
  1

  0
SOLID
  5
2C9
330
2C6
100
AcDbEntity
  8
0
  6
Continuous
 62
     7
370
    18
100
AcDbTrace
 10
14.4965948876
 20
2.0915076658
 30
0.0
 11
14.4365948876
 21
1.7015076658
 31
0.0
 12
14.5565948876
 22
1.7015076658
 32
0.0
 13
14.5565948876
 23
1.7015076658
 33
0.0
  0
SOLID
  5
2CA
330
2C6
100
AcDbEntity
  8
0
  6
Continuous
 62
     7
370
    18
100
AcDbTrace
 10
14.4965948876
 20
4.9155076658
 30
0.0
 11
14.5565948876
 21
5.3055076658
 31
0.0
 12
14.4365948876
 22
5.3055076658
 32
0.0
 13
14.4365948876
 23
5.3055076658
 33
0.0
  0
LINE
  5
2CB
330
2C6
100
AcDbEntity
  8
0
  6
Continuous
 62
     7
370
     0
100
AcDbLine
 10
13.7507615935
 20
3.5006430239
 30
0.0
 11
13.6365037822
 21
3.5006430239
 31
0.0
  0
LINE
  5
2CC
330
2C6
100
AcDbEntity
  8
0
  6
Continuous
 62
     7
370
     0
100
AcDbLine
 10
13.6365037822
 20
3.5006430239
 30
0.0
 11
13.6365037822
 21
2.905330506
 31
0.0
  0
LINE
  5
2CD
330
2C6
100
AcDbEntity
  8
0
  6
Continuous
 62
     7
370
     0
100
AcDbLine
 10
13.6365037822
 20
2.905330506
 30
0.0
 11
13.7507615935
 21
2.905330506
 31
0.0
  0
LINE
  5
2CE
330
2C6
100
AcDbEntity
  8
0
  6
Continuous
 62
     7
370
     0
100
AcDbLine
 10
15.2424282917
 20
3.5006430239
 30
0.0
 11
15.356686103
 21
3.5006430239
 31
0.0
  0
LINE
  5
2CF
330
2C6
100
AcDbEntity
  8
0
  6
Continuous
 62
     7
370
     0
100
AcDbLine
 10
15.356686103
 20
3.5006430239
 30
0.0
 11
15.356686103
 21
2.905330506
 31
0.0
  0
LINE
  5
2D0
330
2C6
100
AcDbEntity
  8
0
  6
Continuous
 62
     7
370
     0
100
AcDbLine
 10
15.356686103
 20
2.905330506
 30
0.0
 11
15.2424282917
 21
2.905330506
 31
0.0
  0
LINE
  5
2D1
330
2C6
100
AcDbEntity
  8
0
  6
Continuous
 62
     7
370
     0
100
AcDbLine
 10
15.8508243941
 20
2.0915076658
 30
0.0
 11
14.1215948876
 21
2.0915076658
 31
0.0
  0
LINE
  5
2D2
330
2C6
100
AcDbEntity
  8
0
  6
Continuous
 62
     7
370
     0
100
AcDbLine
 10
15.8808243941
 20
4.9155076658
 30
0.0
 11
14.1215948876
 21
4.9155076658
 31
0.0
  0
LINE
  5
2D3
330
2C6
100
AcDbEntity
  8
0
  6
Continuous
 62
     7
370
     0
100
AcDbLine
 10
14.4965948876
 20
2.0915076658
 30
0.0
 11
14.4965948876
 21
1.3415076658
 31
0.0
  0
LINE
  5
2D4
330
2C6
100
AcDbEntity
  8
0
  6
Continuous
 62
     7
370
     0
100
AcDbLine
 10
14.4965948876
 20
4.9155076658
 30
0.0
 11
14.4965948876
 21
5.6655076658
 31
0.0
  0
MTEXT
  5
2D5
330
2C6
100
AcDbEntity
  8
0
  6
Continuous
 62
     7
370
    18
100
AcDbMText
 10
13.5243293038
 20
4.0659445064
 30
0.0
 40
0.375
 41
0.0
 71
     1
 72
     1
  1

  7
SLDTEXTSTYLE0
 73
     1
 44
1.0
  0
MTEXT
  5
2D6
330
2C6
100
AcDbEntity
  8
0
  6
Continuous
 62
     7
370
    18
100
AcDbMText
 10
13.5478970145
 20
4.0602153119
 30
0.0
 40
0.375
 41
0.0
 71
     1
 72
     1
  1
2 13/16"
  7
SLDTEXTSTYLE0
 73
     1
 44
1.0
  0
MTEXT
  5
2D7
330
2C6
100
AcDbEntity
  8
0
  6
Continuous
 62
     7
370
    18
100
AcDbMText
 10
13.7507615935
 20
3.3887309496
 30
0.0
 40
0.375
 41
0.0
 71
     1
 72
     1
  1
72mm
  7
SLDTEXTSTYLE0
 73
     1
 44
1.0
  0
MTEXT
  5
2D8
330
2C6
100
AcDbEntity
  8
0
  6
Continuous
 62
     7
370
    18
100
AcDbMText
 10
15.6115688318
 20
4.0659445064
 30
0.0
 40
0.375
 41
0.0
 71
     1
 72
     1
  1

  7
SLDTEXTSTYLE0
 73
     1
 44
1.0
  0
ENDBLK
  5
2C8
330
2C6
100
AcDbEntity
  8
0
100
AcDbBlockEnd
  0
BLOCK
  5
2EA
330
2E9
100
AcDbEntity
  8
0
100
AcDbBlockBegin
  2
_D_6
 70
     0
 10
0.0
 20
0.0
 30
0.0
  3
_D_6
  1

  0
SOLID
  5
2EC
330
2E9
100
AcDbEntity
  8
0
  6
Continuous
 62
     7
370
    18
100
AcDbTrace
 10
20.724138789
 20
2.0915076658
 30
0.0
 11
20.664138789
 21
1.7015076658
 31
0.0
 12
20.784138789
 22
1.7015076658
 32
0.0
 13
20.784138789
 23
1.7015076658
 33
0.0
  0
SOLID
  5
2ED
330
2E9
100
AcDbEntity
  8
0
  6
Continuous
 62
     7
370
    18
100
AcDbTrace
 10
20.724138789
 20
3.9155076658
 30
0.0
 11
20.784138789
 21
4.3055076658
 31
0.0
 12
20.664138789
 22
4.3055076658
 32
0.0
 13
20.664138789
 23
4.3055076658
 33
0.0
  0
LINE
  5
2EE
330
2E9
100
AcDbEntity
  8
0
  6
Continuous
 62
     7
370
     0
100
AcDbLine
 10
19.9783054949
 20
3.0006430239
 30
0.0
 11
19.8640476835
 21
3.0006430239
 31
0.0
  0
LINE
  5
2EF
330
2E9
100
AcDbEntity
  8
0
  6
Continuous
 62
     7
370
     0
100
AcDbLine
 10
19.8640476835
 20
3.0006430239
 30
0.0
 11
19.8640476835
 21
2.405330506
 31
0.0
  0
LINE
  5
2F0
330
2E9
100
AcDbEntity
  8
0
  6
Continuous
 62
     7
370
     0
100
AcDbLine
 10
19.8640476835
 20
2.405330506
 30
0.0
 11
19.9783054949
 21
2.405330506
 31
0.0
  0
LINE
  5
2F1
330
2E9
100
AcDbEntity
  8
0
  6
Continuous
 62
     7
370
     0
100
AcDbLine
 10
21.469972193
 20
3.0006430239
 30
0.0
 11
21.5842300044
 21
3.0006430239
 31
0.0
  0
LINE
  5
2F2
330
2E9
100
AcDbEntity
  8
0
  6
Continuous
 62
     7
370
     0
100
AcDbLine
 10
21.5842300044
 20
3.0006430239
 30
0.0
 11
21.5842300044
 21
2.405330506
 31
0.0
  0
LINE
  5
2F3
330
2E9
100
AcDbEntity
  8
0
  6
Continuous
 62
     7
370
     0
100
AcDbLine
 10
21.5842300044
 20
2.405330506
 30
0.0
 11
21.469972193
 21
2.405330506
 31
0.0
  0
LINE
  5
2F4
330
2E9
100
AcDbEntity
  8
0
  6
Continuous
 62
     7
370
     0
100
AcDbLine
 10
21.8792877899
 20
2.0915076658
 30
0.0
 11
20.349138789
 21
2.0915076658
 31
0.0
  0
LINE
  5
2F5
330
2E9
100
AcDbEntity
  8
0
  6
Continuous
 62
     7
370
     0
100
AcDbLine
 10
22.0992877899
 20
3.9155076658
 30
0.0
 11
20.349138789
 21
3.9155076658
 31
0.0
  0
LINE
  5
2F6
330
2E9
100
AcDbEntity
  8
0
  6
Continuous
 62
     7
370
     0
100
AcDbLine
 10
20.724138789
 20
2.0915076658
 30
0.0
 11
20.724138789
 21
1.3415076658
 31
0.0
  0
LINE
  5
2F7
330
2E9
100
AcDbEntity
  8
0
  6
Continuous
 62
     7
370
     0
100
AcDbLine
 10
20.724138789
 20
3.9155076658
 30
0.0
 11
20.724138789
 21
4.6655076658
 31
0.0
  0
MTEXT
  5
2F8
330
2E9
100
AcDbEntity
  8
0
  6
Continuous
 62
     7
370
    18
100
AcDbMText
 10
19.7518732052
 20
3.5659445064
 30
0.0
 40
0.375
 41
0.0
 71
     1
 72
     1
  1

  7
SLDTEXTSTYLE0
 73
     1
 44
1.0
  0
MTEXT
  5
2F9
330
2E9
100
AcDbEntity
  8
0
  6
Continuous
 62
     7
370
    18
100
AcDbMText
 10
19.7754409159
 20
3.5602153119
 30
0.0
 40
0.375
 41
0.0
 71
     1
 72
     1
  1
1 13/16"
  7
SLDTEXTSTYLE0
 73
     1
 44
1.0
  0
MTEXT
  5
2FA
330
2E9
100
AcDbEntity
  8
0
  6
Continuous
 62
     7
370
    18
100
AcDbMText
 10
19.9783054949
 20
2.8887309496
 30
0.0
 40
0.375
 41
0.0
 71
     1
 72
     1
  1
46mm
  7
SLDTEXTSTYLE0
 73
     1
 44
1.0
  0
MTEXT
  5
2FB
330
2E9
100
AcDbEntity
  8
0
  6
Continuous
 62
     7
370
    18
100
AcDbMText
 10
21.8391127332
 20
3.5659445064
 30
0.0
 40
0.375
 41
0.0
 71
     1
 72
     1
  1

  7
SLDTEXTSTYLE0
 73
     1
 44
1.0
  0
ENDBLK
  5
2EB
330
2E9
100
AcDbEntity
  8
0
100
AcDbBlockEnd
  0
BLOCK
  5
347
330
346
100
AcDbEntity
  8
0
100
AcDbBlockBegin
  2
_D_7
 70
     0
 10
0.0
 20
0.0
 30
0.0
  3
_D_7
  1

  0
SOLID
  5
349
330
346
100
AcDbEntity
  8
0
  6
Continuous
 62
     7
370
    18
100
AcDbTrace
 10
20.3617318472
 20
19.0192299893
 30
0.0
 11
20.3017318472
 21
18.6292299893
 31
0.0
 12
20.4217318472
 22
18.6292299893
 32
0.0
 13
20.4217318472
 23
18.6292299893
 33
0.0
  0
SOLID
  5
34A
330
346
100
AcDbEntity
  8
0
  6
Continuous
 62
     7
370
    18
100
AcDbTrace
 10
20.3617318472
 20
13.8192299893
 30
0.0
 11
20.4217318472
 21
14.2092299893
 31
0.0
 12
20.3017318472
 22
14.2092299893
 32
0.0
 13
20.3017318472
 23
14.2092299893
 33
0.0
  0
LINE
  5
34B
330
346
100
AcDbEntity
  8
0
  6
Continuous
 62
     7
370
     0
100
AcDbLine
 10
19.4773569136
 20
16.4163653474
 30
0.0
 11
19.3630991023
 21
16.4163653474
 31
0.0
  0
LINE
  5
34C
330
346
100
AcDbEntity
  8
0
  6
Continuous
 62
     7
370
     0
100
AcDbLine
 10
19.3630991023
 20
16.4163653474
 30
0.0
 11
19.3630991023
 21
15.8210528295
 31
0.0
  0
LINE
  5
34D
330
346
100
AcDbEntity
  8
0
  6
Continuous
 62
     7
370
     0
100
AcDbLine
 10
19.3630991023
 20
15.8210528295
 30
0.0
 11
19.4773569136
 21
15.8210528295
 31
0.0
  0
LINE
  5
34E
330
346
100
AcDbEntity
  8
0
  6
Continuous
 62
     7
370
     0
100
AcDbLine
 10
21.2461068908
 20
16.4163653474
 30
0.0
 11
21.3603647022
 21
16.4163653474
 31
0.0
  0
LINE
  5
34F
330
346
100
AcDbEntity
  8
0
  6
Continuous
 62
     7
370
     0
100
AcDbLine
 10
21.3603647022
 20
16.4163653474
 30
0.0
 11
21.3603647022
 21
15.8210528295
 31
0.0
  0
LINE
  5
350
330
346
100
AcDbEntity
  8
0
  6
Continuous
 62
     7
370
     0
100
AcDbLine
 10
21.3603647022
 20
15.8210528295
 30
0.0
 11
21.2461068908
 21
15.8210528295
 31
0.0
  0
LINE
  5
351
330
346
100
AcDbEntity
  8
0
  6
Continuous
 62
     7
370
     0
100
AcDbLine
 10
17.760255242
 20
19.0192299893
 30
0.0
 11
20.7367318472
 21
19.0192299893
 31
0.0
  0
LINE
  5
352
330
346
100
AcDbEntity
  8
0
  6
Continuous
 62
     7
370
     0
100
AcDbLine
 10
17.790255242
 20
13.8192299893
 30
0.0
 11
20.7367318472
 21
13.8192299893
 31
0.0
  0
LINE
  5
353
330
346
100
AcDbEntity
  8
0
  6
Continuous
 62
     7
370
     0
100
AcDbLine
 10
20.3617318472
 20
19.0192299893
 30
0.0
 11
20.3617318472
 21
17.0935789041
 31
0.0
  0
LINE
  5
354
330
346
100
AcDbEntity
  8
0
  6
Continuous
 62
     7
370
     0
100
AcDbLine
 10
20.3617318472
 20
13.8192299893
 30
0.0
 11
20.3617318472
 21
15.7448810744
 31
0.0
  0
MTEXT
  5
355
330
346
100
AcDbEntity
  8
0
  6
Continuous
 62
     7
370
    18
100
AcDbMText
 10
19.2509246239
 20
16.9816668299
 30
0.0
 40
0.375
 41
0.0
 71
     1
 72
     1
  1

  7
SLDTEXTSTYLE0
 73
     1
 44
1.0
  0
MTEXT
  5
356
330
346
100
AcDbEntity
  8
0
  6
Continuous
 62
     7
370
    18
100
AcDbMText
 10
19.5515756137
 20
16.9759376355
 30
0.0
 40
0.375
 41
0.0
 71
     1
 72
     1
  1
5 3/16"
  7
SLDTEXTSTYLE0
 73
     1
 44
1.0
  0
MTEXT
  5
357
330
346
100
AcDbEntity
  8
0
  6
Continuous
 62
     7
370
    18
100
AcDbMText
 10
19.4773569136
 20
16.3044532731
 30
0.0
 40
0.375
 41
0.0
 71
     1
 72
     1
  1
132mm
  7
SLDTEXTSTYLE0
 73
     1
 44
1.0
  0
MTEXT
  5
358
330
346
100
AcDbEntity
  8
0
  6
Continuous
 62
     7
370
    18
100
AcDbMText
 10
21.615247431
 20
16.9816668299
 30
0.0
 40
0.375
 41
0.0
 71
     1
 72
     1
  1

  7
SLDTEXTSTYLE0
 73
     1
 44
1.0
  0
ENDBLK
  5
348
330
346
100
AcDbEntity
  8
0
100
AcDbBlockEnd
  0
BLOCK
  5
35C
330
35B
100
AcDbEntity
  8
0
100
AcDbBlockBegin
  2
_D_8
 70
     0
 10
0.0
 20
0.0
 30
0.0
  3
_D_8
  1

  0
SOLID
  5
35E
330
35B
100
AcDbEntity
  8
0
  6
Continuous
 62
     7
370
    18
100
AcDbTrace
 10
13.670255242
 20
23.6197421317
 30
0.0
 11
14.060255242
 21
23.5597421317
 31
0.0
 12
14.060255242
 22
23.6797421317
 32
0.0
 13
14.060255242
 23
23.6797421317
 33
0.0
  0
SOLID
  5
35F
330
35B
100
AcDbEntity
  8
0
  6
Continuous
 62
     7
370
    18
100
AcDbTrace
 10
18.640255242
 20
23.6197421317
 30
0.0
 11
18.250255242
 21
23.6797421317
 31
0.0
 12
18.250255242
 22
23.5597421317
 32
0.0
 13
18.250255242
 23
23.5597421317
 33
0.0
  0
LINE
  5
360
330
35B
100
AcDbEntity
  8
0
  6
Continuous
 62
     7
370
     0
100
AcDbLine
 10
15.2708802809
 20
23.6197420767
 30
0.0
 11
15.1566224696
 21
23.6197420767
 31
0.0
  0
LINE
  5
361
330
35B
100
AcDbEntity
  8
0
  6
Continuous
 62
     7
370
     0
100
AcDbLine
 10
15.1566224696
 20
23.6197420767
 30
0.0
 11
15.1566224696
 21
23.0244295588
 31
0.0
  0
LINE
  5
362
330
35B
100
AcDbEntity
  8
0
  6
Continuous
 62
     7
370
     0
100
AcDbLine
 10
15.1566224696
 20
23.0244295588
 30
0.0
 11
15.2708802809
 21
23.0244295588
 31
0.0
  0
LINE
  5
363
330
35B
100
AcDbEntity
  8
0
  6
Continuous
 62
     7
370
     0
100
AcDbLine
 10
17.0396302582
 20
23.6197420767
 30
0.0
 11
17.1538880695
 21
23.6197420767
 31
0.0
  0
LINE
  5
364
330
35B
100
AcDbEntity
  8
0
  6
Continuous
 62
     7
370
     0
100
AcDbLine
 10
17.1538880695
 20
23.6197420767
 30
0.0
 11
17.1538880695
 21
23.0244295588
 31
0.0
  0
LINE
  5
365
330
35B
100
AcDbEntity
  8
0
  6
Continuous
 62
     7
370
     0
100
AcDbLine
 10
17.1538880695
 20
23.0244295588
 30
0.0
 11
17.0396302582
 21
23.0244295588
 31
0.0
  0
LINE
  5
366
330
35B
100
AcDbEntity
  8
0
  6
Continuous
 62
     7
370
     0
100
AcDbLine
 10
13.670255242
 20
17.8992299893
 30
0.0
 11
13.670255242
 21
23.9947421317
 31
0.0
  0
LINE
  5
367
330
35B
100
AcDbEntity
  8
0
  6
Continuous
 62
     7
370
     0
100
AcDbLine
 10
18.640255242
 20
17.8992299893
 30
0.0
 11
18.640255242
 21
23.9947421317
 31
0.0
  0
LINE
  5
368
330
35B
100
AcDbEntity
  8
0
  6
Continuous
 62
     7
370
     0
100
AcDbLine
 10
13.670255242
 20
23.6197421317
 30
0.0
 11
14.9663040395
 21
23.6197421317
 31
0.0
  0
LINE
  5
369
330
35B
100
AcDbEntity
  8
0
  6
Continuous
 62
     7
370
     0
100
AcDbLine
 10
18.640255242
 20
23.6197421317
 30
0.0
 11
17.3442064446
 21
23.6197421317
 31
0.0
  0
MTEXT
  5
36A
330
35B
100
AcDbEntity
  8
0
  6
Continuous
 62
     7
370
    18
100
AcDbMText
 10
15.6565964076
 20
24.1793143923
 30
0.0
 40
0.375
 41
0.0
 71
     1
 72
     1
  1
%%c
  7
SLDTEXTSTYLE0
 73
     1
 44
1.0
  0
MTEXT
  5
36B
330
35B
100
AcDbEntity
  8
0
  6
Continuous
 62
     7
370
    18
100
AcDbMText
 10
16.2221432693
 20
24.1793143923
 30
0.0
 40
0.375
 41
0.0
 71
     1
 72
     1
  1
5"
  7
SLDTEXTSTYLE0
 73
     1
 44
1.0
  0
MTEXT
  5
36C
330
35B
100
AcDbEntity
  8
0
  6
Continuous
 62
     7
370
    18
100
AcDbMText
 10
15.2708802809
 20
23.5078300024
 30
0.0
 40
0.375
 41
0.0
 71
     1
 72
     1
  1
126mm
  7
SLDTEXTSTYLE0
 73
     1
 44
1.0
  0
ENDBLK
  5
35D
330
35B
100
AcDbEntity
  8
0
100
AcDbBlockEnd
  0
BLOCK
  5
36F
330
36E
100
AcDbEntity
  8
0
100
AcDbBlockBegin
  2
_D_9
 70
     0
 10
0.0
 20
0.0
 30
0.0
  3
_D_9
  1

  0
SOLID
  5
371
330
36E
100
AcDbEntity
  8
0
  6
Continuous
 62
     7
370
    18
100
AcDbTrace
 10
17.905255242
 20
21.6801855816
 30
0.0
 11
18.295255242
 21
21.6201855816
 31
0.0
 12
18.295255242
 22
21.7401855816
 32
0.0
 13
18.295255242
 23
21.7401855816
 33
0.0
  0
SOLID
  5
372
330
36E
100
AcDbEntity
  8
0
  6
Continuous
 62
     7
370
    18
100
AcDbTrace
 10
14.405255242
 20
21.6801855816
 30
0.0
 11
14.015255242
 21
21.7401855816
 31
0.0
 12
14.015255242
 22
21.6201855816
 32
0.0
 13
14.015255242
 23
21.6201855816
 33
0.0
  0
LINE
  5
373
330
36E
100
AcDbEntity
  8
0
  6
Continuous
 62
     7
370
     0
100
AcDbLine
 10
14.8505677664
 20
21.6773209397
 30
0.0
 11
14.7363099551
 21
21.6773209397
 31
0.0
  0
LINE
  5
374
330
36E
100
AcDbEntity
  8
0
  6
Continuous
 62
     7
370
     0
100
AcDbLine
 10
14.7363099551
 20
21.6773209397
 30
0.0
 11
14.7363099551
 21
21.0820084218
 31
0.0
  0
LINE
  5
375
330
36E
100
AcDbEntity
  8
0
  6
Continuous
 62
     7
370
     0
100
AcDbLine
 10
14.7363099551
 20
21.0820084218
 30
0.0
 11
14.8505677664
 21
21.0820084218
 31
0.0
  0
LINE
  5
376
330
36E
100
AcDbEntity
  8
0
  6
Continuous
 62
     7
370
     0
100
AcDbLine
 10
16.3422344645
 20
21.6773209397
 30
0.0
 11
16.4564922759
 21
21.6773209397
 31
0.0
  0
LINE
  5
377
330
36E
100
AcDbEntity
  8
0
  6
Continuous
 62
     7
370
     0
100
AcDbLine
 10
16.4564922759
 20
21.6773209397
 30
0.0
 11
16.4564922759
 21
21.0820084218
 31
0.0
  0
LINE
  5
378
330
36E
100
AcDbEntity
  8
0
  6
Continuous
 62
     7
370
     0
100
AcDbLine
 10
16.4564922759
 20
21.0820084218
 30
0.0
 11
16.3422344645
 21
21.0820084218
 31
0.0
  0
LINE
  5
379
330
36E
100
AcDbEntity
  8
0
  6
Continuous
 62
     7
370
     0
100
AcDbLine
 10
17.905255242
 20
17.8992299893
 30
0.0
 11
17.905255242
 21
22.0551855816
 31
0.0
  0
LINE
  5
37A
330
36E
100
AcDbEntity
  8
0
  6
Continuous
 62
     7
370
     0
100
AcDbLine
 10
14.405255242
 20
17.8992299893
 30
0.0
 11
14.405255242
 21
22.0551855816
 31
0.0
  0
LINE
  5
37B
330
36E
100
AcDbEntity
  8
0
  6
Continuous
 62
     7
370
     0
100
AcDbLine
 10
17.905255242
 20
21.6801855816
 30
0.0
 11
18.655255242
 21
21.6801855816
 31
0.0
  0
LINE
  5
37C
330
36E
100
AcDbEntity
  8
0
  6
Continuous
 62
     7
370
     0
100
AcDbLine
 10
14.405255242
 20
21.6801855816
 30
0.0
 11
13.655255242
 21
21.6801855816
 31
0.0
  0
MTEXT
  5
37D
330
36E
100
AcDbEntity
  8
0
  6
Continuous
 62
     7
370
    18
100
AcDbMText
 10
14.9247865215
 20
22.2368932278
 30
0.0
 40
0.375
 41
0.0
 71
     1
 72
     1
  1
3 1/2"
  7
SLDTEXTSTYLE0
 73
     1
 44
1.0
  0
MTEXT
  5
37E
330
36E
100
AcDbEntity
  8
0
  6
Continuous
 62
     7
370
    18
100
AcDbMText
 10
14.8505677664
 20
21.5654088655
 30
0.0
 40
0.375
 41
0.0
 71
     1
 72
     1
  1
89mm
  7
SLDTEXTSTYLE0
 73
     1
 44
1.0
  0
MTEXT
  5
37F
330
36E
100
AcDbEntity
  8
0
  6
Continuous
 62
     7
370
    18
100
AcDbMText
 10
16.5707500322
 20
22.2426224222
 30
0.0
 40
0.375
 41
0.0
 71
     1
 72
     1
  1
O.C.
  7
SLDTEXTSTYLE0
 73
     1
 44
1.0
  0
ENDBLK
  5
370
330
36E
100
AcDbEntity
  8
0
100
AcDbBlockEnd
  0
BLOCK
  5
382
330
381
100
AcDbEntity
  8
0
100
AcDbBlockBegin
  2
_D_10
 70
     0
 10
0.0
 20
0.0
 30
0.0
  3
_D_10
  1

  0
SOLID
  5
384
330
381
100
AcDbEntity
  8
0
  6
Continuous
 62
     7
370
    18
100
AcDbTrace
 10
14.670255242
 20
7.3741276271
 30
0.0
 11
14.280255242
 21
7.4341276271
 31
0.0
 12
14.280255242
 22
7.3141276271
 32
0.0
 13
14.280255242
 23
7.3141276271
 33
0.0
  0
SOLID
  5
385
330
381
100
AcDbEntity
  8
0
  6
Continuous
 62
     7
370
    18
100
AcDbTrace
 10
17.640255242
 20
7.3741276271
 30
0.0
 11
18.030255242
 21
7.3141276271
 31
0.0
 12
18.030255242
 22
7.4341276271
 32
0.0
 13
18.030255242
 23
7.4341276271
 33
0.0
  0
LINE
  5
386
330
381
100
AcDbEntity
  8
0
  6
Continuous
 62
     7
370
     0
100
AcDbLine
 10
15.4094219205
 20
7.3741275721
 30
0.0
 11
15.2951641091
 21
7.3741275721
 31
0.0
  0
LINE
  5
387
330
381
100
AcDbEntity
  8
0
  6
Continuous
 62
     7
370
     0
100
AcDbLine
 10
15.2951641091
 20
7.3741275721
 30
0.0
 11
15.2951641091
 21
6.7788150542
 31
0.0
  0
LINE
  5
388
330
381
100
AcDbEntity
  8
0
  6
Continuous
 62
     7
370
     0
100
AcDbLine
 10
15.2951641091
 20
6.7788150542
 30
0.0
 11
15.4094219205
 21
6.7788150542
 31
0.0
  0
LINE
  5
389
330
381
100
AcDbEntity
  8
0
  6
Continuous
 62
     7
370
     0
100
AcDbLine
 10
16.9010886186
 20
7.3741275721
 30
0.0
 11
17.0153464299
 21
7.3741275721
 31
0.0
  0
LINE
  5
38A
330
381
100
AcDbEntity
  8
0
  6
Continuous
 62
     7
370
     0
100
AcDbLine
 10
17.0153464299
 20
7.3741275721
 30
0.0
 11
17.0153464299
 21
6.7788150542
 31
0.0
  0
LINE
  5
38B
330
381
100
AcDbEntity
  8
0
  6
Continuous
 62
     7
370
     0
100
AcDbLine
 10
17.0153464299
 20
6.7788150542
 30
0.0
 11
16.9010886186
 21
6.7788150542
 31
0.0
  0
LINE
  5
38C
330
381
100
AcDbEntity
  8
0
  6
Continuous
 62
     7
370
     0
100
AcDbLine
 10
14.670255242
 20
9.8902299893
 30
0.0
 11
14.670255242
 21
6.9991276271
 31
0.0
  0
LINE
  5
38D
330
381
100
AcDbEntity
  8
0
  6
Continuous
 62
     7
370
     0
100
AcDbLine
 10
17.640255242
 20
9.8902299893
 30
0.0
 11
17.640255242
 21
6.9991276271
 31
0.0
  0
LINE
  5
38E
330
381
100
AcDbEntity
  8
0
  6
Continuous
 62
     7
370
     0
100
AcDbLine
 10
14.670255242
 20
7.3741276271
 30
0.0
 11
13.920255242
 21
7.3741276271
 31
0.0
  0
LINE
  5
38F
330
381
100
AcDbEntity
  8
0
  6
Continuous
 62
     7
370
     0
100
AcDbLine
 10
17.640255242
 20
7.3741276271
 30
0.0
 11
18.390255242
 21
7.3741276271
 31
0.0
  0
MTEXT
  5
390
330
381
100
AcDbEntity
  8
0
  6
Continuous
 62
     7
370
    18
100
AcDbMText
 10
15.6565964076
 20
7.9336998877
 30
0.0
 40
0.375
 41
0.0
 71
     1
 72
     1
  1
%%c
  7
SLDTEXTSTYLE0
 73
     1
 44
1.0
  0
MTEXT
  5
391
330
381
100
AcDbEntity
  8
0
  6
Continuous
 62
     7
370
    18
100
AcDbMText
 10
16.2221432693
 20
7.9336998877
 30
0.0
 40
0.375
 41
0.0
 71
     1
 72
     1
  1
3"
  7
SLDTEXTSTYLE0
 73
     1
 44
1.0
  0
MTEXT
  5
392
330
381
100
AcDbEntity
  8
0
  6
Continuous
 62
     7
370
    18
100
AcDbMText
 10
15.4094219205
 20
7.2622154978
 30
0.0
 40
0.375
 41
0.0
 71
     1
 72
     1
  1
75mm
  7
SLDTEXTSTYLE0
 73
     1
 44
1.0
  0
ENDBLK
  5
383
330
381
100
AcDbEntity
  8
0
100
AcDbBlockEnd
  0
ENDSEC
  0
SECTION
  2
ENTITIES
  0
LINE
  5
87
330
1F
100
AcDbEntity
  8
0
  6
Continuous
 62
     7
370
    25
100
AcDbLine
 10
6.5441666987
 20
11.8592803194
 30
0.0
 11
6.5441666987
 21
11.5252299893
 31
0.0
  0
LINE
  5
88
330
1F
100
AcDbEntity
  8
0
  6
Continuous
 62
     7
370
    25
100
AcDbLine
 10
6.5441666987
 20
13.5012803194
 30
0.0
 11
6.5441666987
 21
11.9950119198
 31
0.0
  0
LINE
  5
89
330
1F
100
AcDbEntity
  8
0
  6
Continuous
 62
     7
370
    25
100
AcDbLine
 10
6.5441666987
 20
13.8192299893
 30
0.0
 11
6.5441666987
 21
13.6370119198
 31
0.0
  0
LINE
  5
8A
330
1F
100
AcDbEntity
  8
0
  6
Continuous
 62
     7
370
    25
100
AcDbLine
 10
9.5141666987
 20
8.5552299893
 30
0.0
 11
9.5141666987
 21
13.8192299893
 31
0.0
  0
LINE
  5
8B
330
1F
100
AcDbEntity
  8
0
  6
Continuous
 62
     7
370
    25
100
AcDbLine
 10
3.1131666987
 20
17.6869043606
 30
0.0
 11
2.7381666987
 21
17.6869043606
 31
0.0
  0
LINE
  5
8C
330
1F
100
AcDbEntity
  8
0
  6
Continuous
 62
     7
370
    25
100
AcDbLine
 10
2.7381666987
 20
17.6244043606
 30
0.0
 11
3.1131666987
 21
17.6244043606
 31
0.0
  0
LINE
  5
8D
330
1F
100
AcDbEntity
  8
0
  6
Continuous
 62
     7
370
    25
100
AcDbLine
 10
4.4516666987
 20
17.6869043606
 30
0.0
 11
3.1756666987
 21
17.6869043606
 31
0.0
  0
LINE
  5
8E
330
1F
100
AcDbEntity
  8
0
  6
Continuous
 62
     7
370
    25
100
AcDbLine
 10
3.1756666987
 20
17.6244043606
 30
0.0
 11
4.4516666987
 21
17.6244043606
 31
0.0
  0
LINE
  5
8F
330
1F
100
AcDbEntity
  8
0
  6
Continuous
 62
     7
370
    25
100
AcDbLine
 10
3.1131666987
 20
17.6314043606
 30
0.0
 11
3.1756666987
 21
17.6314043606
 31
0.0
  0
LINE
  5
90
330
1F
100
AcDbEntity
  8
0
  6
Continuous
 62
     7
370
    25
100
AcDbLine
 10
3.1756666987
 20
17.6799043606
 30
0.0
 11
3.1131666987
 21
17.6799043606
 31
0.0
  0
LINE
  5
91
330
1F
100
AcDbEntity
  8
0
  6
Continuous
 62
     7
370
    25
100
AcDbLine
 10
2.7381666987
 20
17.7598182414
 30
0.0
 11
3.1131666987
 21
17.7598182414
 31
0.0
  0
LINE
  5
92
330
1F
100
AcDbEntity
  8
0
  6
Continuous
 62
     7
370
    25
100
AcDbLine
 10
3.1756666987
 20
17.7598182414
 30
0.0
 11
4.4516666987
 21
17.7598182414
 31
0.0
  0
LINE
  5
93
330
1F
100
AcDbEntity
  8
0
  6
Continuous
 62
     7
370
    25
100
AcDbLine
 10
3.1131666987
 20
17.7673182414
 30
0.0
 11
3.1756666987
 21
17.7673182414
 31
0.0
  0
LINE
  5
94
330
1F
100
AcDbEntity
  8
0
  6
Continuous
 62
     7
370
    25
100
AcDbLine
 10
3.1131666987
 20
17.8322173658
 30
0.0
 11
2.7381666987
 21
17.8322173658
 31
0.0
  0
LINE
  5
95
330
1F
100
AcDbEntity
  8
0
  6
Continuous
 62
     7
370
    25
100
AcDbLine
 10
2.7381666987
 20
17.7697173658
 30
0.0
 11
3.1131666987
 21
17.7697173658
 31
0.0
  0
LINE
  5
96
330
1F
100
AcDbEntity
  8
0
  6
Continuous
 62
     7
370
    25
100
AcDbLine
 10
4.4516666987
 20
17.8322173658
 30
0.0
 11
3.1756666987
 21
17.8322173658
 31
0.0
  0
LINE
  5
97
330
1F
100
AcDbEntity
  8
0
  6
Continuous
 62
     7
370
    25
100
AcDbLine
 10
3.1756666987
 20
17.7697173658
 30
0.0
 11
4.4516666987
 21
17.7697173658
 31
0.0
  0
LINE
  5
98
330
1F
100
AcDbEntity
  8
0
  6
Continuous
 62
     7
370
    25
100
AcDbLine
 10
3.1756666987
 20
17.8244173658
 30
0.0
 11
3.1131666987
 21
17.8244173658
 31
0.0
  0
LINE
  5
99
330
1F
100
AcDbEntity
  8
0
  6
Continuous
 62
     7
370
    25
100
AcDbLine
 10
3.1131666987
 20
17.7775173658
 30
0.0
 11
3.1756666987
 21
17.7775173658
 31
0.0
  0
LINE
  5
9A
330
1F
100
AcDbEntity
  8
0
  6
Continuous
 62
     7
370
    25
100
AcDbLine
 10
4.7216666987
 20
17.1888549893
 30
0.0
 11
5.5141666987
 21
17.1888549893
 31
0.0
  0
LINE
  5
9B
330
1F
100
AcDbEntity
  8
0
  6
Continuous
 62
     7
370
    25
100
AcDbLine
 10
5.5141666987
 20
18.3096049893
 30
0.0
 11
4.7216666987
 21
18.3096049893
 31
0.0
  0
ARC
  5
9C
330
1F
100
AcDbEntity
  8
0
  6
Continuous
 62
     7
370
    25
100
AcDbCircle
 10
4.7216666987
 20
17.2088549893
 30
0.0
 40
0.0200000000000005
100
AcDbArc
 50
180.0
 51
270.0
  0
ARC
  5
9D
330
1F
100
AcDbEntity
  8
0
  6
Continuous
 62
     7
370
    25
100
AcDbCircle
 10
4.7216666987
 20
18.2896049893
 30
0.0
 40
0.0199999999999996
100
AcDbArc
 50
90.0
 51
180.0
  0
LINE
  5
9E
330
1F
100
AcDbEntity
  8
0
  6
Continuous
 62
     7
370
    25
100
AcDbLine
 10
6.0601666987
 20
17.9054799893
 30
0.0
 11
5.8891666987
 21
17.9054799893
 31
0.0
  0
LINE
  5
9F
330
1F
100
AcDbEntity
  8
0
  6
Continuous
 62
     7
370
    25
100
AcDbLine
 10
5.8891666987
 20
17.5929799893
 30
0.0
 11
6.0601666987
 21
17.5929799893
 31
0.0
  0
LINE
  5
A0
330
1F
100
AcDbEntity
  8
0
  6
Continuous
 62
     7
370
    25
100
AcDbLine
 10
6.0601666987
 20
17.5929799893
 30
0.0
 11
6.0791666987
 21
17.6119799893
 31
0.0
  0
LINE
  5
A1
330
1F
100
AcDbEntity
  8
0
  6
Continuous
 62
     7
370
    25
100
AcDbLine
 10
6.0791666987
 20
17.8864799893
 30
0.0
 11
6.0601666987
 21
17.9054799893
 31
0.0
  0
LINE
  5
A2
330
1F
100
AcDbEntity
  8
0
  6
Continuous
 62
     7
370
    25
100
AcDbLine
 10
5.1443905589
 20
17.8442299893
 30
0.0
 11
5.1313666987
 21
17.8256299893
 31
0.0
  0
LINE
  5
A3
330
1F
100
AcDbEntity
  8
0
  6
Continuous
 62
     7
370
    25
100
AcDbLine
 10
5.1313666987
 20
17.6728299893
 30
0.0
 11
5.1443905589
 21
17.6542299893
 31
0.0
  0
LINE
  5
A4
330
1F
100
AcDbEntity
  8
0
  6
Continuous
 62
     7
370
    25
100
AcDbLine
 10
5.3605428385
 20
17.8442299893
 30
0.0
 11
5.3563155589
 21
17.8442299893
 31
0.0
  0
LINE
  5
A5
330
1F
100
AcDbEntity
  8
0
  6
Continuous
 62
     7
370
    25
100
AcDbLine
 10
5.3563155589
 20
17.6542299893
 30
0.0
 11
5.3605428385
 21
17.6542299893
 31
0.0
  0
LINE
  5
A6
330
1F
100
AcDbEntity
  8
0
  6
Continuous
 62
     7
370
    25
100
AcDbLine
 10
5.3302678385
 20
17.6542299893
 30
0.0
 11
5.3432916987
 21
17.6728299893
 31
0.0
  0
LINE
  5
A7
330
1F
100
AcDbEntity
  8
0
  6
Continuous
 62
     7
370
    25
100
AcDbLine
 10
5.3432916987
 20
17.8256299893
 30
0.0
 11
5.3302678385
 21
17.8442299893
 31
0.0
  0
LINE
  5
A8
330
1F
100
AcDbEntity
  8
0
  6
Continuous
 62
     7
370
    25
100
AcDbLine
 10
5.3865905589
 20
17.8442299893
 30
0.0
 11
5.3735666987
 21
17.8256299893
 31
0.0
  0
LINE
  5
A9
330
1F
100
AcDbEntity
  8
0
  6
Continuous
 62
     7
370
    25
100
AcDbLine
 10
5.3735666987
 20
17.6728299893
 30
0.0
 11
5.3865905589
 21
17.6542299893
 31
0.0
  0
LINE
  5
AA
330
1F
100
AcDbEntity
  8
0
  6
Continuous
 62
     7
370
    25
100
AcDbLine
 10
5.3302678385
 20
17.8442299893
 30
0.0
 11
5.3260405589
 21
17.8442299893
 31
0.0
  0
LINE
  5
AB
330
1F
100
AcDbEntity
  8
0
  6
Continuous
 62
     7
370
    25
100
AcDbLine
 10
5.3260405589
 20
17.6542299893
 30
0.0
 11
5.3302678385
 21
17.6542299893
 31
0.0
  0
LINE
  5
AC
330
1F
100
AcDbEntity
  8
0
  6
Continuous
 62
     7
370
    25
100
AcDbLine
 10
4.9972428385
 20
17.8442299893
 30
0.0
 11
4.9930155589
 21
17.8442299893
 31
0.0
  0
LINE
  5
AD
330
1F
100
AcDbEntity
  8
0
  6
Continuous
 62
     7
370
    25
100
AcDbLine
 10
4.9930155589
 20
17.6542299893
 30
0.0
 11
4.9972428385
 21
17.6542299893
 31
0.0
  0
LINE
  5
AE
330
1F
100
AcDbEntity
  8
0
  6
Continuous
 62
     7
370
    25
100
AcDbLine
 10
5.1183428385
 20
17.8442299893
 30
0.0
 11
5.1141155589
 21
17.8442299893
 31
0.0
  0
LINE
  5
AF
330
1F
100
AcDbEntity
  8
0
  6
Continuous
 62
     7
370
    25
100
AcDbLine
 10
5.1141155589
 20
17.6542299893
 30
0.0
 11
5.1183428385
 21
17.6542299893
 31
0.0
  0
LINE
  5
B0
330
1F
100
AcDbEntity
  8
0
  6
Continuous
 62
     7
370
    25
100
AcDbLine
 10
5.0880678385
 20
17.6542299893
 30
0.0
 11
5.1010916987
 21
17.6728299893
 31
0.0
  0
LINE
  5
B1
330
1F
100
AcDbEntity
  8
0
  6
Continuous
 62
     7
370
    25
100
AcDbLine
 10
5.1010916987
 20
17.8256299893
 30
0.0
 11
5.0880678385
 21
17.8442299893
 31
0.0
  0
LINE
  5
B2
330
1F
100
AcDbEntity
  8
0
  6
Continuous
 62
     7
370
    25
100
AcDbLine
 10
5.1141155589
 20
17.8442299893
 30
0.0
 11
5.1010916987
 21
17.8256299893
 31
0.0
  0
LINE
  5
B3
330
1F
100
AcDbEntity
  8
0
  6
Continuous
 62
     7
370
    25
100
AcDbLine
 10
5.1010916987
 20
17.6728299893
 30
0.0
 11
5.1141155589
 21
17.6542299893
 31
0.0
  0
LINE
  5
B4
330
1F
100
AcDbEntity
  8
0
  6
Continuous
 62
     7
370
    25
100
AcDbLine
 10
5.3563155589
 20
17.8442299893
 30
0.0
 11
5.3432916987
 21
17.8256299893
 31
0.0
  0
LINE
  5
B5
330
1F
100
AcDbEntity
  8
0
  6
Continuous
 62
     7
370
    25
100
AcDbLine
 10
5.3432916987
 20
17.6728299893
 30
0.0
 11
5.3563155589
 21
17.6542299893
 31
0.0
  0
LINE
  5
B6
330
1F
100
AcDbEntity
  8
0
  6
Continuous
 62
     7
370
    25
100
AcDbLine
 10
5.0577928385
 20
17.6542299893
 30
0.0
 11
5.0708166987
 21
17.6728299893
 31
0.0
  0
LINE
  5
B7
330
1F
100
AcDbEntity
  8
0
  6
Continuous
 62
     7
370
    25
100
AcDbLine
 10
5.0708166987
 20
17.8256299893
 30
0.0
 11
5.0577928385
 21
17.8442299893
 31
0.0
  0
LINE
  5
B8
330
1F
100
AcDbEntity
  8
0
  6
Continuous
 62
     7
370
    25
100
AcDbLine
 10
5.0838405589
 20
17.8442299893
 30
0.0
 11
5.0708166987
 21
17.8256299893
 31
0.0
  0
LINE
  5
B9
330
1F
100
AcDbEntity
  8
0
  6
Continuous
 62
     7
370
    25
100
AcDbLine
 10
5.0708166987
 20
17.6728299893
 30
0.0
 11
5.0838405589
 21
17.6542299893
 31
0.0
  0
LINE
  5
BA
330
1F
100
AcDbEntity
  8
0
  6
Continuous
 62
     7
370
    25
100
AcDbLine
 10
5.0577928385
 20
17.8442299893
 30
0.0
 11
5.0535655589
 21
17.8442299893
 31
0.0
  0
LINE
  5
BB
330
1F
100
AcDbEntity
  8
0
  6
Continuous
 62
     7
370
    25
100
AcDbLine
 10
5.0535655589
 20
17.6542299893
 30
0.0
 11
5.0577928385
 21
17.6542299893
 31
0.0
  0
LINE
  5
BC
330
1F
100
AcDbEntity
  8
0
  6
Continuous
 62
     7
370
    25
100
AcDbLine
 10
5.0275178385
 20
17.6542299893
 30
0.0
 11
5.0405416987
 21
17.6728299893
 31
0.0
  0
LINE
  5
BD
330
1F
100
AcDbEntity
  8
0
  6
Continuous
 62
     7
370
    25
100
AcDbLine
 10
5.0405416987
 20
17.8256299893
 30
0.0
 11
5.0275178385
 21
17.8442299893
 31
0.0
  0
LINE
  5
BE
330
1F
100
AcDbEntity
  8
0
  6
Continuous
 62
     7
370
    25
100
AcDbLine
 10
5.4513678385
 20
17.8442299893
 30
0.0
 11
5.4471405589
 21
17.8442299893
 31
0.0
  0
LINE
  5
BF
330
1F
100
AcDbEntity
  8
0
  6
Continuous
 62
     7
370
    25
100
AcDbLine
 10
5.4471405589
 20
17.6542299893
 30
0.0
 11
5.4513678385
 21
17.6542299893
 31
0.0
  0
LINE
  5
C0
330
1F
100
AcDbEntity
  8
0
  6
Continuous
 62
     7
370
    25
100
AcDbLine
 10
5.0880678385
 20
17.8442299893
 30
0.0
 11
5.0838405589
 21
17.8442299893
 31
0.0
  0
LINE
  5
C1
330
1F
100
AcDbEntity
  8
0
  6
Continuous
 62
     7
370
    25
100
AcDbLine
 10
5.0838405589
 20
17.6542299893
 30
0.0
 11
5.0880678385
 21
17.6542299893
 31
0.0
  0
LINE
  5
C2
330
1F
100
AcDbEntity
  8
0
  6
Continuous
 62
     7
370
    25
100
AcDbLine
 10
5.1486178385
 20
17.8442299893
 30
0.0
 11
5.1443905589
 21
17.8442299893
 31
0.0
  0
LINE
  5
C3
330
1F
100
AcDbEntity
  8
0
  6
Continuous
 62
     7
370
    25
100
AcDbLine
 10
5.1443905589
 20
17.6542299893
 30
0.0
 11
5.1486178385
 21
17.6542299893
 31
0.0
  0
LINE
  5
C4
330
1F
100
AcDbEntity
  8
0
  6
Continuous
 62
     7
370
    25
100
AcDbLine
 10
5.1183428385
 20
17.6542299893
 30
0.0
 11
5.1313666987
 21
17.6728299893
 31
0.0
  0
LINE
  5
C5
330
1F
100
AcDbEntity
  8
0
  6
Continuous
 62
     7
370
    25
100
AcDbLine
 10
5.1313666987
 20
17.8256299893
 30
0.0
 11
5.1183428385
 21
17.8442299893
 31
0.0
  0
LINE
  5
C6
330
1F
100
AcDbEntity
  8
0
  6
Continuous
 62
     7
370
    25
100
AcDbLine
 10
5.3908178385
 20
17.6542299893
 30
0.0
 11
5.4038416987
 21
17.6728299893
 31
0.0
  0
LINE
  5
C7
330
1F
100
AcDbEntity
  8
0
  6
Continuous
 62
     7
370
    25
100
AcDbLine
 10
5.4038416987
 20
17.8256299893
 30
0.0
 11
5.3908178385
 21
17.8442299893
 31
0.0
  0
LINE
  5
C8
330
1F
100
AcDbEntity
  8
0
  6
Continuous
 62
     7
370
    25
100
AcDbLine
 10
5.4168655589
 20
17.8442299893
 30
0.0
 11
5.4038416987
 21
17.8256299893
 31
0.0
  0
LINE
  5
C9
330
1F
100
AcDbEntity
  8
0
  6
Continuous
 62
     7
370
    25
100
AcDbLine
 10
5.4038416987
 20
17.6728299893
 30
0.0
 11
5.4168655589
 21
17.6542299893
 31
0.0
  0
LINE
  5
CA
330
1F
100
AcDbEntity
  8
0
  6
Continuous
 62
     7
370
    25
100
AcDbLine
 10
5.3908178385
 20
17.8442299893
 30
0.0
 11
5.3865905589
 21
17.8442299893
 31
0.0
  0
LINE
  5
CB
330
1F
100
AcDbEntity
  8
0
  6
Continuous
 62
     7
370
    25
100
AcDbLine
 10
5.3865905589
 20
17.6542299893
 30
0.0
 11
5.3908178385
 21
17.6542299893
 31
0.0
  0
LINE
  5
CC
330
1F
100
AcDbEntity
  8
0
  6
Continuous
 62
     7
370
    25
100
AcDbLine
 10
5.3605428385
 20
17.6542299893
 30
0.0
 11
5.3735666987
 21
17.6728299893
 31
0.0
  0
LINE
  5
CD
330
1F
100
AcDbEntity
  8
0
  6
Continuous
 62
     7
370
    25
100
AcDbLine
 10
5.3735666987
 20
17.8256299893
 30
0.0
 11
5.3605428385
 21
17.8442299893
 31
0.0
  0
LINE
  5
CE
330
1F
100
AcDbEntity
  8
0
  6
Continuous
 62
     7
370
    25
100
AcDbLine
 10
5.2999928385
 20
17.6542299893
 30
0.0
 11
5.3130166987
 21
17.6728299893
 31
0.0
  0
LINE
  5
CF
330
1F
100
AcDbEntity
  8
0
  6
Continuous
 62
     7
370
    25
100
AcDbLine
 10
5.3130166987
 20
17.8256299893
 30
0.0
 11
5.2999928385
 21
17.8442299893
 31
0.0
  0
LINE
  5
D0
330
1F
100
AcDbEntity
  8
0
  6
Continuous
 62
     7
370
    25
100
AcDbLine
 10
5.3260405589
 20
17.8442299893
 30
0.0
 11
5.3130166987
 21
17.8256299893
 31
0.0
  0
LINE
  5
D1
330
1F
100
AcDbEntity
  8
0
  6
Continuous
 62
     7
370
    25
100
AcDbLine
 10
5.3130166987
 20
17.6728299893
 30
0.0
 11
5.3260405589
 21
17.6542299893
 31
0.0
  0
LINE
  5
D2
330
1F
100
AcDbEntity
  8
0
  6
Continuous
 62
     7
370
    25
100
AcDbLine
 10
5.0535655589
 20
17.8442299893
 30
0.0
 11
5.0405416987
 21
17.8256299893
 31
0.0
  0
LINE
  5
D3
330
1F
100
AcDbEntity
  8
0
  6
Continuous
 62
     7
370
    25
100
AcDbLine
 10
5.0405416987
 20
17.6728299893
 30
0.0
 11
5.0535655589
 21
17.6542299893
 31
0.0
  0
LINE
  5
D4
330
1F
100
AcDbEntity
  8
0
  6
Continuous
 62
     7
370
    25
100
AcDbLine
 10
5.4210928385
 20
17.6542299893
 30
0.0
 11
5.4341166987
 21
17.6728299893
 31
0.0
  0
LINE
  5
D5
330
1F
100
AcDbEntity
  8
0
  6
Continuous
 62
     7
370
    25
100
AcDbLine
 10
5.4341166987
 20
17.8256299893
 30
0.0
 11
5.4210928385
 21
17.8442299893
 31
0.0
  0
LINE
  5
D6
330
1F
100
AcDbEntity
  8
0
  6
Continuous
 62
     7
370
    25
100
AcDbLine
 10
5.4471405589
 20
17.8442299893
 30
0.0
 11
5.4341166987
 21
17.8256299893
 31
0.0
  0
LINE
  5
D7
330
1F
100
AcDbEntity
  8
0
  6
Continuous
 62
     7
370
    25
100
AcDbLine
 10
5.4341166987
 20
17.6728299893
 30
0.0
 11
5.4471405589
 21
17.6542299893
 31
0.0
  0
LINE
  5
D8
330
1F
100
AcDbEntity
  8
0
  6
Continuous
 62
     7
370
    25
100
AcDbLine
 10
5.0232905589
 20
17.8442299893
 30
0.0
 11
5.0102666987
 21
17.8256299893
 31
0.0
  0
LINE
  5
D9
330
1F
100
AcDbEntity
  8
0
  6
Continuous
 62
     7
370
    25
100
AcDbLine
 10
5.0102666987
 20
17.6728299893
 30
0.0
 11
5.0232905589
 21
17.6542299893
 31
0.0
  0
LINE
  5
DA
330
1F
100
AcDbEntity
  8
0
  6
Continuous
 62
     7
370
    25
100
AcDbLine
 10
5.2394428385
 20
17.6542299893
 30
0.0
 11
5.2524666987
 21
17.6728299893
 31
0.0
  0
LINE
  5
DB
330
1F
100
AcDbEntity
  8
0
  6
Continuous
 62
     7
370
    25
100
AcDbLine
 10
5.2524666987
 20
17.8256299893
 30
0.0
 11
5.2394428385
 21
17.8442299893
 31
0.0
  0
LINE
  5
DC
330
1F
100
AcDbEntity
  8
0
  6
Continuous
 62
     7
370
    25
100
AcDbLine
 10
4.9669678385
 20
17.6542299893
 30
0.0
 11
4.9799916987
 21
17.6728299893
 31
0.0
  0
LINE
  5
DD
330
1F
100
AcDbEntity
  8
0
  6
Continuous
 62
     7
370
    25
100
AcDbLine
 10
4.9799916987
 20
17.8256299893
 30
0.0
 11
4.9669678385
 21
17.8442299893
 31
0.0
  0
LINE
  5
DE
330
1F
100
AcDbEntity
  8
0
  6
Continuous
 62
     7
370
    25
100
AcDbLine
 10
5.2394428385
 20
17.8442299893
 30
0.0
 11
5.2352155589
 21
17.8442299893
 31
0.0
  0
LINE
  5
DF
330
1F
100
AcDbEntity
  8
0
  6
Continuous
 62
     7
370
    25
100
AcDbLine
 10
5.2352155589
 20
17.6542299893
 30
0.0
 11
5.2394428385
 21
17.6542299893
 31
0.0
  0
LINE
  5
E0
330
1F
100
AcDbEntity
  8
0
  6
Continuous
 62
     7
370
    25
100
AcDbLine
 10
5.2091678385
 20
17.6542299893
 30
0.0
 11
5.2221916987
 21
17.6728299893
 31
0.0
  0
LINE
  5
E1
330
1F
100
AcDbEntity
  8
0
  6
Continuous
 62
     7
370
    25
100
AcDbLine
 10
5.2221916987
 20
17.8256299893
 30
0.0
 11
5.2091678385
 21
17.8442299893
 31
0.0
  0
LINE
  5
E2
330
1F
100
AcDbEntity
  8
0
  6
Continuous
 62
     7
370
    25
100
AcDbLine
 10
5.2352155589
 20
17.8442299893
 30
0.0
 11
5.2221916987
 21
17.8256299893
 31
0.0
  0
LINE
  5
E3
330
1F
100
AcDbEntity
  8
0
  6
Continuous
 62
     7
370
    25
100
AcDbLine
 10
5.2221916987
 20
17.6728299893
 30
0.0
 11
5.2352155589
 21
17.6542299893
 31
0.0
  0
LINE
  5
E4
330
1F
100
AcDbEntity
  8
0
  6
Continuous
 62
     7
370
    25
100
AcDbLine
 10
5.2091678385
 20
17.8442299893
 30
0.0
 11
5.2049405589
 21
17.8442299893
 31
0.0
  0
LINE
  5
E5
330
1F
100
AcDbEntity
  8
0
  6
Continuous
 62
     7
370
    25
100
AcDbLine
 10
5.2049405589
 20
17.6542299893
 30
0.0
 11
5.2091678385
 21
17.6542299893
 31
0.0
  0
LINE
  5
E6
330
1F
100
AcDbEntity
  8
0
  6
Continuous
 62
     7
370
    25
100
AcDbLine
 10
5.1788928385
 20
17.6542299893
 30
0.0
 11
5.1919166987
 21
17.6728299893
 31
0.0
  0
LINE
  5
E7
330
1F
100
AcDbEntity
  8
0
  6
Continuous
 62
     7
370
    25
100
AcDbLine
 10
5.1919166987
 20
17.8256299893
 30
0.0
 11
5.1788928385
 21
17.8442299893
 31
0.0
  0
LINE
  5
E8
330
1F
100
AcDbEntity
  8
0
  6
Continuous
 62
     7
370
    25
100
AcDbLine
 10
5.2049405589
 20
17.8442299893
 30
0.0
 11
5.1919166987
 21
17.8256299893
 31
0.0
  0
LINE
  5
E9
330
1F
100
AcDbEntity
  8
0
  6
Continuous
 62
     7
370
    25
100
AcDbLine
 10
5.1919166987
 20
17.6728299893
 30
0.0
 11
5.2049405589
 21
17.6542299893
 31
0.0
  0
LINE
  5
EA
330
1F
100
AcDbEntity
  8
0
  6
Continuous
 62
     7
370
    25
100
AcDbLine
 10
4.9324655589
 20
17.8442299893
 30
0.0
 11
4.9194416987
 21
17.8256299893
 31
0.0
  0
LINE
  5
EB
330
1F
100
AcDbEntity
  8
0
  6
Continuous
 62
     7
370
    25
100
AcDbLine
 10
4.9194416987
 20
17.6728299893
 30
0.0
 11
4.9324655589
 21
17.6542299893
 31
0.0
  0
LINE
  5
EC
330
1F
100
AcDbEntity
  8
0
  6
Continuous
 62
     7
370
    25
100
AcDbLine
 10
5.1486178385
 20
17.6542299893
 30
0.0
 11
5.1616416987
 21
17.6728299893
 31
0.0
  0
LINE
  5
ED
330
1F
100
AcDbEntity
  8
0
  6
Continuous
 62
     7
370
    25
100
AcDbLine
 10
5.1616416987
 20
17.8256299893
 30
0.0
 11
5.1486178385
 21
17.8442299893
 31
0.0
  0
LINE
  5
EE
330
1F
100
AcDbEntity
  8
0
  6
Continuous
 62
     7
370
    25
100
AcDbLine
 10
5.1746655589
 20
17.8442299893
 30
0.0
 11
5.1616416987
 21
17.8256299893
 31
0.0
  0
LINE
  5
EF
330
1F
100
AcDbEntity
  8
0
  6
Continuous
 62
     7
370
    25
100
AcDbLine
 10
5.1616416987
 20
17.6728299893
 30
0.0
 11
5.1746655589
 21
17.6542299893
 31
0.0
  0
LINE
  5
F0
330
1F
100
AcDbEntity
  8
0
  6
Continuous
 62
     7
370
    25
100
AcDbLine
 10
5.4816428385
 20
17.6542299893
 30
0.0
 11
5.4946666987
 21
17.6728299893
 31
0.0
  0
LINE
  5
F1
330
1F
100
AcDbEntity
  8
0
  6
Continuous
 62
     7
370
    25
100
AcDbLine
 10
5.4946666987
 20
17.8256299893
 30
0.0
 11
5.4816428385
 21
17.8442299893
 31
0.0
  0
LINE
  5
F2
330
1F
100
AcDbEntity
  8
0
  6
Continuous
 62
     7
370
    25
100
AcDbLine
 10
5.5076905589
 20
17.8442299893
 30
0.0
 11
5.4946666987
 21
17.8256299893
 31
0.0
  0
LINE
  5
F3
330
1F
100
AcDbEntity
  8
0
  6
Continuous
 62
     7
370
    25
100
AcDbLine
 10
5.4946666987
 20
17.6728299893
 30
0.0
 11
5.5076905589
 21
17.6542299893
 31
0.0
  0
LINE
  5
F4
330
1F
100
AcDbEntity
  8
0
  6
Continuous
 62
     7
370
    25
100
AcDbLine
 10
5.4816428385
 20
17.8442299893
 30
0.0
 11
5.4774155589
 21
17.8442299893
 31
0.0
  0
LINE
  5
F5
330
1F
100
AcDbEntity
  8
0
  6
Continuous
 62
     7
370
    25
100
AcDbLine
 10
5.4774155589
 20
17.6542299893
 30
0.0
 11
5.4816428385
 21
17.6542299893
 31
0.0
  0
LINE
  5
F6
330
1F
100
AcDbEntity
  8
0
  6
Continuous
 62
     7
370
    25
100
AcDbLine
 10
5.0275178385
 20
17.8442299893
 30
0.0
 11
5.0232905589
 21
17.8442299893
 31
0.0
  0
LINE
  5
F7
330
1F
100
AcDbEntity
  8
0
  6
Continuous
 62
     7
370
    25
100
AcDbLine
 10
5.0232905589
 20
17.6542299893
 30
0.0
 11
5.0275178385
 21
17.6542299893
 31
0.0
  0
LINE
  5
F8
330
1F
100
AcDbEntity
  8
0
  6
Continuous
 62
     7
370
    25
100
AcDbLine
 10
4.9972428385
 20
17.6542299893
 30
0.0
 11
5.0102666987
 21
17.6728299893
 31
0.0
  0
LINE
  5
F9
330
1F
100
AcDbEntity
  8
0
  6
Continuous
 62
     7
370
    25
100
AcDbLine
 10
5.0102666987
 20
17.8256299893
 30
0.0
 11
4.9972428385
 21
17.8442299893
 31
0.0
  0
LINE
  5
FA
330
1F
100
AcDbEntity
  8
0
  6
Continuous
 62
     7
370
    25
100
AcDbLine
 10
5.5119178385
 20
17.6542299893
 30
0.0
 11
5.5141666987
 21
17.6574416945
 31
0.0
  0
LINE
  5
FB
330
1F
100
AcDbEntity
  8
0
  6
Continuous
 62
     7
370
    25
100
AcDbLine
 10
5.5141666987
 20
17.8410182841
 30
0.0
 11
5.5119178385
 21
17.8442299893
 31
0.0
  0
LINE
  5
FC
330
1F
100
AcDbEntity
  8
0
  6
Continuous
 62
     7
370
    25
100
AcDbLine
 10
5.5119178385
 20
17.8442299893
 30
0.0
 11
5.5076905589
 21
17.8442299893
 31
0.0
  0
LINE
  5
FD
330
1F
100
AcDbEntity
  8
0
  6
Continuous
 62
     7
370
    25
100
AcDbLine
 10
5.5076905589
 20
17.6542299893
 30
0.0
 11
5.5119178385
 21
17.6542299893
 31
0.0
  0
LINE
  5
FE
330
1F
100
AcDbEntity
  8
0
  6
Continuous
 62
     7
370
    25
100
AcDbLine
 10
4.9669678385
 20
17.8442299893
 30
0.0
 11
4.9627405589
 21
17.8442299893
 31
0.0
  0
LINE
  5
FF
330
1F
100
AcDbEntity
  8
0
  6
Continuous
 62
     7
370
    25
100
AcDbLine
 10
4.9627405589
 20
17.6542299893
 30
0.0
 11
4.9669678385
 21
17.6542299893
 31
0.0
  0
LINE
  5
100
330
1F
100
AcDbEntity
  8
0
  6
Continuous
 62
     7
370
    25
100
AcDbLine
 10
4.9366928385
 20
17.6542299893
 30
0.0
 11
4.9497166987
 21
17.6728299893
 31
0.0
  0
LINE
  5
101
330
1F
100
AcDbEntity
  8
0
  6
Continuous
 62
     7
370
    25
100
AcDbLine
 10
4.9497166987
 20
17.8256299893
 30
0.0
 11
4.9366928385
 21
17.8442299893
 31
0.0
  0
LINE
  5
102
330
1F
100
AcDbEntity
  8
0
  6
Continuous
 62
     7
370
    25
100
AcDbLine
 10
4.9627405589
 20
17.8442299893
 30
0.0
 11
4.9497166987
 21
17.8256299893
 31
0.0
  0
LINE
  5
103
330
1F
100
AcDbEntity
  8
0
  6
Continuous
 62
     7
370
    25
100
AcDbLine
 10
4.9497166987
 20
17.6728299893
 30
0.0
 11
4.9627405589
 21
17.6542299893
 31
0.0
  0
LINE
  5
104
330
1F
100
AcDbEntity
  8
0
  6
Continuous
 62
     7
370
    25
100
AcDbLine
 10
5.4513678385
 20
17.6542299893
 30
0.0
 11
5.4643916987
 21
17.6728299893
 31
0.0
  0
LINE
  5
105
330
1F
100
AcDbEntity
  8
0
  6
Continuous
 62
     7
370
    25
100
AcDbLine
 10
5.4643916987
 20
17.8256299893
 30
0.0
 11
5.4513678385
 21
17.8442299893
 31
0.0
  0
LINE
  5
106
330
1F
100
AcDbEntity
  8
0
  6
Continuous
 62
     7
370
    25
100
AcDbLine
 10
5.4774155589
 20
17.8442299893
 30
0.0
 11
5.4643916987
 21
17.8256299893
 31
0.0
  0
LINE
  5
107
330
1F
100
AcDbEntity
  8
0
  6
Continuous
 62
     7
370
    25
100
AcDbLine
 10
5.4643916987
 20
17.6728299893
 30
0.0
 11
5.4774155589
 21
17.6542299893
 31
0.0
  0
LINE
  5
108
330
1F
100
AcDbEntity
  8
0
  6
Continuous
 62
     7
370
    25
100
AcDbLine
 10
4.9366928385
 20
17.8442299893
 30
0.0
 11
4.9324655589
 21
17.8442299893
 31
0.0
  0
LINE
  5
109
330
1F
100
AcDbEntity
  8
0
  6
Continuous
 62
     7
370
    25
100
AcDbLine
 10
4.9324655589
 20
17.6542299893
 30
0.0
 11
4.9366928385
 21
17.6542299893
 31
0.0
  0
LINE
  5
10A
330
1F
100
AcDbEntity
  8
0
  6
Continuous
 62
     7
370
    25
100
AcDbLine
 10
5.1788928385
 20
17.8442299893
 30
0.0
 11
5.1746655589
 21
17.8442299893
 31
0.0
  0
LINE
  5
10B
330
1F
100
AcDbEntity
  8
0
  6
Continuous
 62
     7
370
    25
100
AcDbLine
 10
5.1746655589
 20
17.6542299893
 30
0.0
 11
5.1788928385
 21
17.6542299893
 31
0.0
  0
LINE
  5
10C
330
1F
100
AcDbEntity
  8
0
  6
Continuous
 62
     7
370
    25
100
AcDbLine
 10
5.2697178385
 20
17.8442299893
 30
0.0
 11
5.2654905589
 21
17.8442299893
 31
0.0
  0
LINE
  5
10D
330
1F
100
AcDbEntity
  8
0
  6
Continuous
 62
     7
370
    25
100
AcDbLine
 10
5.2654905589
 20
17.6542299893
 30
0.0
 11
5.2697178385
 21
17.6542299893
 31
0.0
  0
LINE
  5
10E
330
1F
100
AcDbEntity
  8
0
  6
Continuous
 62
     7
370
    25
100
AcDbLine
 10
5.4210928385
 20
17.8442299893
 30
0.0
 11
5.4168655589
 21
17.8442299893
 31
0.0
  0
LINE
  5
10F
330
1F
100
AcDbEntity
  8
0
  6
Continuous
 62
     7
370
    25
100
AcDbLine
 10
5.4168655589
 20
17.6542299893
 30
0.0
 11
5.4210928385
 21
17.6542299893
 31
0.0
  0
LINE
  5
110
330
1F
100
AcDbEntity
  8
0
  6
Continuous
 62
     7
370
    25
100
AcDbLine
 10
5.2957655589
 20
17.8442299893
 30
0.0
 11
5.2827416987
 21
17.8256299893
 31
0.0
  0
LINE
  5
111
330
1F
100
AcDbEntity
  8
0
  6
Continuous
 62
     7
370
    25
100
AcDbLine
 10
5.2827416987
 20
17.6728299893
 30
0.0
 11
5.2957655589
 21
17.6542299893
 31
0.0
  0
LINE
  5
112
330
1F
100
AcDbEntity
  8
0
  6
Continuous
 62
     7
370
    25
100
AcDbLine
 10
5.2999928385
 20
17.8442299893
 30
0.0
 11
5.2957655589
 21
17.8442299893
 31
0.0
  0
LINE
  5
113
330
1F
100
AcDbEntity
  8
0
  6
Continuous
 62
     7
370
    25
100
AcDbLine
 10
5.2957655589
 20
17.6542299893
 30
0.0
 11
5.2999928385
 21
17.6542299893
 31
0.0
  0
LINE
  5
114
330
1F
100
AcDbEntity
  8
0
  6
Continuous
 62
     7
370
    25
100
AcDbLine
 10
5.2654905589
 20
17.8442299893
 30
0.0
 11
5.2524666987
 21
17.8256299893
 31
0.0
  0
LINE
  5
115
330
1F
100
AcDbEntity
  8
0
  6
Continuous
 62
     7
370
    25
100
AcDbLine
 10
5.2524666987
 20
17.6728299893
 30
0.0
 11
5.2654905589
 21
17.6542299893
 31
0.0
  0
LINE
  5
116
330
1F
100
AcDbEntity
  8
0
  6
Continuous
 62
     7
370
    25
100
AcDbLine
 10
5.2697178385
 20
17.6542299893
 30
0.0
 11
5.2827416987
 21
17.6728299893
 31
0.0
  0
LINE
  5
117
330
1F
100
AcDbEntity
  8
0
  6
Continuous
 62
     7
370
    25
100
AcDbLine
 10
5.2827416987
 20
17.8256299893
 30
0.0
 11
5.2697178385
 21
17.8442299893
 31
0.0
  0
LINE
  5
118
330
1F
100
AcDbEntity
  8
0
  6
Continuous
 62
     7
370
    25
100
AcDbLine
 10
4.9930155589
 20
17.8442299893
 30
0.0
 11
4.9799916987
 21
17.8256299893
 31
0.0
  0
LINE
  5
119
330
1F
100
AcDbEntity
  8
0
  6
Continuous
 62
     7
370
    25
100
AcDbLine
 10
4.9799916987
 20
17.6728299893
 30
0.0
 11
4.9930155589
 21
17.6542299893
 31
0.0
  0
LINE
  5
11A
330
1F
100
AcDbEntity
  8
0
  6
Continuous
 62
     7
370
    25
100
AcDbLine
 10
4.9069733484
 20
17.843436639
 30
0.0
 11
4.8891666987
 21
17.8256299893
 31
0.0
  0
LINE
  5
11B
330
1F
100
AcDbEntity
  8
0
  6
Continuous
 62
     7
370
    25
100
AcDbLine
 10
4.8891666987
 20
17.6728299893
 30
0.0
 11
4.9069733484
 21
17.6550233396
 31
0.0
  0
LINE
  5
11C
330
1F
100
AcDbEntity
  8
0
  6
Continuous
 62
     7
370
    25
100
AcDbLine
 10
4.9069733484
 20
17.6550233396
 30
0.0
 11
4.9194416987
 21
17.6728299893
 31
0.0
  0
LINE
  5
11D
330
1F
100
AcDbEntity
  8
0
  6
Continuous
 62
     7
370
    25
100
AcDbLine
 10
4.9194416987
 20
17.8256299893
 30
0.0
 11
4.9069733484
 21
17.843436639
 31
0.0
  0
LINE
  5
11E
330
1F
100
AcDbEntity
  8
0
  6
Continuous
 62
     7
370
    25
100
AcDbLine
 10
5.8391666987
 20
15.2642299893
 30
0.0
 11
5.8891666987
 21
15.3142299893
 31
0.0
  0
LINE
  5
11F
330
1F
100
AcDbEntity
  8
0
  6
Continuous
 62
     7
370
    25
100
AcDbLine
 10
5.8891666987
 20
20.1842299893
 30
0.0
 11
5.8391666987
 21
20.2342299893
 31
0.0
  0
LINE
  5
120
330
1F
100
AcDbEntity
  8
0
  6
Continuous
 62
     7
370
    25
100
AcDbLine
 10
5.5141666987
 20
15.2642299893
 30
0.0
 11
5.8391666987
 21
15.2642299893
 31
0.0
  0
LINE
  5
121
330
1F
100
AcDbEntity
  8
0
  6
Continuous
 62
     7
370
    25
100
AcDbLine
 10
5.8391666987
 20
20.2342299893
 30
0.0
 11
5.5141666987
 21
20.2342299893
 31
0.0
  0
LINE
  5
122
330
1F
100
AcDbEntity
  8
0
  6
Continuous
 62
     7
370
    25
100
AcDbLine
 10
5.8991666987
 20
17.2542299893
 30
0.0
 11
6.5458415953
 21
17.2542299893
 31
0.0
  0
LINE
  5
123
330
1F
100
AcDbEntity
  8
0
  6
Continuous
 62
     7
370
    25
100
AcDbLine
 10
6.5458412491
 20
18.2442299893
 30
0.0
 11
5.8991666987
 21
18.2442299893
 31
0.0
  0
ARC
  5
124
330
1F
100
AcDbEntity
  8
0
  6
Continuous
 62
     7
370
    25
100
AcDbCircle
 10
5.8991666987
 20
18.2342299893
 30
0.0
 40
0.0099999999999998
100
AcDbArc
 50
90.0
 51
180.0
  0
ARC
  5
125
330
1F
100
AcDbEntity
  8
0
  6
Continuous
 62
     7
370
    25
100
AcDbCircle
 10
5.8991666987
 20
17.2642299893
 30
0.0
 40
0.0100000000000016
100
AcDbArc
 50
180.0
 51
270.0
  0
LINE
  5
126
330
1F
100
AcDbEntity
  8
0
  6
Continuous
 62
     7
370
    25
100
AcDbLine
 10
6.5441666987
 20
17.2493004391
 30
0.0
 11
6.5441666987
 21
13.8342299893
 31
0.0
  0
LINE
  5
127
330
1F
100
AcDbEntity
  8
0
  6
Continuous
 62
     7
370
    25
100
AcDbLine
 10
6.5441666987
 20
18.9892299893
 30
0.0
 11
6.5441666987
 21
18.2491364457
 31
0.0
  0
LINE
  5
128
330
1F
100
AcDbEntity
  8
0
  6
Continuous
 62
     7
370
    25
100
AcDbLine
 10
9.5141666987
 20
13.8342299893
 30
0.0
 11
9.5141666987
 21
18.9892299893
 31
0.0
  0
LINE
  5
129
330
1F
100
AcDbEntity
  8
0
  6
Continuous
 62
     7
370
    25
100
AcDbLine
 10
9.5141666987
 20
18.9892299893
 30
0.0
 11
9.4841666987
 21
19.0192299893
 31
0.0
  0
LINE
  5
12A
330
1F
100
AcDbEntity
  8
0
  6
Continuous
 62
     7
370
    25
100
AcDbLine
 10
6.5741666987
 20
19.0192299893
 30
0.0
 11
6.5441666987
 21
18.9892299893
 31
0.0
  0
LINE
  5
12B
330
1F
100
AcDbEntity
  8
0
  6
Continuous
 62
     7
370
    25
100
AcDbLine
 10
6.5441666987
 20
13.8342299893
 30
0.0
 11
6.5591666987
 21
13.8192299893
 31
0.0
  0
LINE
  5
12C
330
1F
100
AcDbEntity
  8
0
  6
Continuous
 62
     7
370
    25
100
AcDbLine
 10
9.4991666987
 20
13.8192299893
 30
0.0
 11
9.5141666987
 21
13.8342299893
 31
0.0
  0
LINE
  5
12D
330
1F
100
AcDbEntity
  8
0
  6
Continuous
 62
     7
370
    25
100
AcDbLine
 10
6.5441666987
 20
13.6148663175
 30
0.0
 11
6.5441666987
 21
13.6326299893
 31
0.0
  0
LINE
  5
12E
330
1F
100
AcDbEntity
  8
0
  6
Continuous
 62
     7
370
    25
100
AcDbLine
 10
6.5441666987
 20
13.5058299893
 30
0.0
 11
6.5441666987
 21
13.6148663175
 31
0.0
  0
LWPOLYLINE
  5
12F
330
1F
100
AcDbEntity
  8
0
  6
Continuous
 62
     7
370
    25
100
AcDbPolyline
 90
       42
 70
   128
 43
0.0
 10
8.7793131798
 20
13.5064478121
 10
8.7875232544
 20
13.5085313936
 10
8.7953616649
 20
13.5120376987
 10
8.8026446854
 20
13.5168845426
 10
8.8092016081
 20
13.5229583194
 10
8.8148787444
 20
13.530116665
 10
8.819543027
 20
13.5381917937
 10
8.823085129
 20
13.5469944314
 10
8.8254220266
 20
13.5563182518
 10
8.8264989448
 20
13.5659447123
 10
8.8262906417
 20
13.5756481769
 10
8.8248019996
 20
13.5852012047
 10
8.8220679112
 20
13.5943798807
 10
8.818152461
 20
13.6029690646
 10
8.813147424
 20
13.6107674331
 10
8.8071701139
 20
13.6175921992
 10
8.8003606338
 20
13.623283396
 10
8.7928785923
 20
13.6277076268
 10
8.7848993619
 20
13.6307611914
 10
8.7766099691
 20
13.6323725167
 10
8.7682047103
 20
13.6325038347
 10
8.7598805975
 20
13.6311520674
 10
8.7518327409
 20
13.6283488991
 10
8.7442497755
 20
13.6241600336
 10
8.7373094396
 20
13.6186836544
 10
8.7311744087
 20
13.6120481233
 10
8.7259884827
 20
13.6044089714
 10
8.7218732154
 20
13.5959452539
 10
8.7189250652
 20
13.5868553533
 10
8.7172131341
 20
13.5773523291
 10
8.7167775484
 20
13.5676589241
 10
8.7176285179
 20
13.5580023436
 10
8.7197460966
 20
13.5486089296
 10
8.7230806501
 20
13.5396988557
 10
8.7275540195
 20
13.5314809666
 10
8.7330613527
 20
13.5241478826
 10
8.7394735624
 20
13.5178714849
 10
8.746640352
 20
13.5127988871
 10
8.754393738
 20
13.5090489864
 10
8.7625519875
 20
13.5067096775
 10
8.7709238781
 20
13.5058357917
 10
8.7793131798
 20
13.5064478121
  0
LINE
  5
130
330
1F
100
AcDbEntity
  8
0
  6
Continuous
 62
     7
370
    25
100
AcDbLine
 10
8.8023968916
 20
13.5969585604
 30
0.0
 11
8.7662353669
 21
13.6138244678
 31
0.0
  0
LINE
  5
131
330
1F
100
AcDbEntity
  8
0
  6
Continuous
 62
     7
370
    25
100
AcDbLine
 10
8.7355051739
 20
13.5860958967
 30
0.0
 11
8.7662353669
 21
13.6138244678
 31
0.0
  0
LINE
  5
132
330
1F
100
AcDbEntity
  8
0
  6
Continuous
 62
     7
370
    25
100
AcDbLine
 10
8.7409365057
 20
13.5415014182
 30
0.0
 11
8.7355051739
 21
13.5860958967
 31
0.0
  0
LINE
  5
133
330
1F
100
AcDbEntity
  8
0
  6
Continuous
 62
     7
370
    25
100
AcDbLine
 10
8.7409365057
 20
13.5415014182
 30
0.0
 11
8.7770980305
 21
13.5246355108
 31
0.0
  0
LINE
  5
134
330
1F
100
AcDbEntity
  8
0
  6
Continuous
 62
     7
370
    25
100
AcDbLine
 10
8.8078282235
 20
13.5523640819
 30
0.0
 11
8.7770980305
 21
13.5246355108
 31
0.0
  0
LINE
  5
135
330
1F
100
AcDbEntity
  8
0
  6
Continuous
 62
     7
370
    25
100
AcDbLine
 10
8.8078282235
 20
13.5523640819
 30
0.0
 11
8.8023968916
 21
13.5969585604
 31
0.0
  0
LINE
  5
136
330
1F
100
AcDbEntity
  8
0
  6
Continuous
 62
     7
370
    25
100
AcDbLine
 10
8.7573968916
 20
13.5969585604
 30
0.0
 11
8.8023968916
 21
13.5969585604
 31
0.0
  0
LINE
  5
137
330
1F
100
AcDbEntity
  8
0
  6
Continuous
 62
     7
370
    25
100
AcDbLine
 10
8.7573968916
 20
13.5969585604
 30
0.0
 11
8.7509012666
 21
13.5999881508
 31
0.0
  0
LINE
  5
138
330
1F
100
AcDbEntity
  8
0
  6
Continuous
 62
     7
370
    25
100
AcDbLine
 10
8.7628282235
 20
13.5523640819
 30
0.0
 11
8.7474321308
 21
13.5384718277
 31
0.0
  0
LINE
  5
139
330
1F
100
AcDbEntity
  8
0
  6
Continuous
 62
     7
370
    25
100
AcDbLine
 10
8.7628282235
 20
13.5523640819
 30
0.0
 11
8.8078282235
 21
13.5523640819
 31
0.0
  0
LINE
  5
13A
330
1F
100
AcDbEntity
  8
0
  6
Continuous
 62
     7
370
    25
100
AcDbLine
 10
8.7628282235
 20
13.5523640819
 30
0.0
 11
8.7573968916
 21
13.5969585604
 31
0.0
  0
LINE
  5
13B
330
1F
100
AcDbEntity
  8
0
  6
Continuous
 62
     7
370
    25
100
AcDbLine
 10
6.5441666987
 20
11.5252299893
 30
0.0
 11
9.5141666987
 21
8.5552299893
 31
0.0
  0
SPLINE
  5
13C
330
1F
100
AcDbEntity
  8
0
  6
Continuous
 62
     7
370
    25
100
AcDbSpline
210
0.0
220
0.0
230
1.0
 70
     8
 71
     3
 72
    26
 73
    22
 74
     0
 42
0.00000001
 43
0.00000001
 40
0.0
 40
0.0
 40
0.0
 40
0.0
 40
0.0367526413874581
 40
0.0896225545983572
 40
0.1440246552525928
 40
0.196915681801885
 40
0.2513377791172628
 40
0.3042762434242784
 40
0.3587497415263052
 40
0.4116880067270234
 40
0.4661641873857562
 40
0.5190547972383561
 40
0.5734806031266386
 40
0.6263505202692822
 40
0.6807515690134235
 40
0.7336600125433875
 40
0.7881005146957355
 40
0.8410465963406808
 40
0.8955292073684703
 40
0.9484533212919976
 40
0.9999999999999999
 40
0.9999999999999999
 40
0.9999999999999999
 40
0.9999999999999999
 10
6.54417665942035
 20
11.9950119198323
 30
0.0
 10
6.544176722305563
 20
11.99501097517573
 30
0.0
 10
6.544176875653273
 20
11.99500867159883
 30
0.0
 10
6.544277867170583
 20
11.99278337650342
 30
0.0
 10
6.544452717371872
 20
11.98873397648527
 30
0.0
 10
6.544688108326476
 20
11.98282180724602
 30
0.0
 10
6.544949627186851
 20
11.97541180275975
 30
0.0
 10
6.545213228687055
 20
11.96655360370751
 30
0.0
 10
6.545444638358195
 20
11.95666200878815
 30
0.0
 10
6.545621498059607
 20
11.94583930176038
 30
0.0
 10
6.545720911114222
 20
11.93459057850778
 30
0.0
 10
6.545733334440595
 20
11.92303260924749
 30
0.0
 10
6.545657268394408
 20
11.91170278509317
 30
0.0
 10
6.54550011396983
 20
11.90071430787286
 30
0.0
 10
6.54528212680876
 20
11.89057289661334
 30
0.0
 10
6.545024208356575
 20
11.88138022256556
 30
0.0
 10
6.544759646867933
 20
11.87356380688586
 30
0.0
 10
6.544513337499764
 20
11.86719254293176
 30
0.0
 10
6.544319504496835
 20
11.86261749761605
 30
0.0
 10
6.544190134434907
 20
11.85973831633686
 30
0.0
 10
6.544175975319734
 20
11.85943163722272
 30
0.0
 10
6.544168989105288
 20
11.85928031942982
 30
0.0
  0
SPLINE
  5
13D
330
1F
100
AcDbEntity
  8
0
  6
Continuous
 62
     7
370
    25
100
AcDbSpline
210
0.0
220
0.0
230
1.0
 70
    11
 71
     3
 72
    44
 73
    40
 74
     0
 42
0.00000001
 43
0.00000001
 40
0.0
 40
0.0
 40
0.0
 40
0.0
 40
0.026828384317104
 40
0.0536568489742697
 40
0.0804843602019147
 40
0.1073119868157103
 40
0.1341573061540517
 40
0.1610025960821481
 40
0.1878597184739322
 40
0.2147167121645593
 40
0.2415545791584231
 40
0.2683924190851238
 40
0.2952100576824602
 40
0.3220278123640523
 40
0.3488557554504111
 40
0.3756837768927008
 40
0.4025365051125234
 40
0.4293891513265116
 40
0.4562425066235383
 40
0.4830957469051912
 40
0.509924521528015
 40
0.536753327896462
 40
0.5635707021997217
 40
0.5903882046885613
 40
0.6172251299283724
 40
0.6440620800005872
 40
0.6709190048091684
 40
0.6977758119438887
 40
0.7246219843421783
 40
0.7514680801573941
 40
0.7782895607010035
 40
0.8051111247872266
 40
0.8319324759059601
 40
0.8587539401325752
 40
0.8855999010418386
 40
0.9124458283078738
 40
0.9393028102145777
 40
0.9661596632562682
 40
0.9999999999999999
 40
0.9999999999999999
 40
0.9999999999999999
 40
0.9999999999999999
 10
8.711998111547224
 20
13.56922998928337
 30
0.0
 10
8.712167363728993
 20
13.57305049907676
 30
0.0
 10
8.712505868599374
 20
13.58069153010442
 30
0.0
 10
8.715144762028746
 20
13.59183403356188
 30
0.0
 10
8.719308872464854
 20
13.6023214632897
 30
0.0
 10
8.724966960789672
 20
13.61189148174532
 30
0.0
 10
8.731965055737007
 20
13.62022861052049
 30
0.0
 10
8.740057297936948
 20
13.62715142416295
 30
0.0
 10
8.74904009750293
 20
13.63239739755204
 30
0.0
 10
8.758618898065954
 20
13.63588629072057
 30
0.0
 10
8.768531213042914
 20
13.63744319077051
 30
0.0
 10
8.778483422066564
 20
13.63710427288412
 30
0.0
 10
8.788190186394097
 20
13.63480166465362
 30
0.0
 10
8.797398778382751
 20
13.63068016494553
 30
0.0
 10
8.80583087758055
 20
13.62478159814128
 30
0.0
 10
8.813296457854474
 20
13.61733842181649
 30
0.0
 10
8.819548200182377
 20
13.6085000706052
 30
0.0
 10
8.824470752263423
 20
13.59856637302836
 30
0.0
 10
8.827874137700935
 20
13.58778141308946
 30
0.0
 10
8.829730159104173
 20
13.57648285128775
 30
0.0
 10
8.829926896623885
 20
13.56497735912917
 30
0.0
 10
8.82852681504583
 20
13.55359532214582
 30
0.0
 10
8.825502575345453
 20
13.54266797738459
 30
0.0
 10
8.820996052300691
 20
13.53247752540743
 30
0.0
 10
8.815065356464029
 20
13.52334825897673
 30
0.0
 10
8.807918502697074
 20
13.51548932511554
 30
0.0
 10
8.799699838179425
 20
13.50918469871484
 30
0.0
 10
8.790671476453614
 20
13.50454904337545
 30
0.0
 10
8.781053772187382
 20
13.50178821320693
 30
0.0
 10
8.77113764167603
 20
13.50090309296859
 30
0.0
 10
8.761193868927181
 20
13.50199610154833
 30
0.0
 10
8.75150361689983
 20
13.50495464430428
 30
0.0
 10
8.742359379909006
 20
13.5097714435958
 30
0.0
 10
8.733998540259506
 20
13.5162394548322
 30
0.0
 10
8.726709511212642
 20
13.52424268819066
 30
0.0
 10
8.720650742805612
 20
13.53349997052902
 30
0.0
 10
8.7161086769888
 20
13.54379529181858
 30
0.0
 10
8.712722342430672
 20
13.55575190396524
 30
0.0
 10
8.712257354811522
 20
13.56440541895059
 30
0.0
 10
8.711998111547222
 20
13.56922998928337
 30
0.0
  0
SPLINE
  5
13E
330
1F
100
AcDbEntity
  8
0
  6
Continuous
 62
     7
370
    25
100
AcDbSpline
210
0.0
220
0.0
230
1.0
 70
     8
 71
     3
 72
    26
 73
    22
 74
     0
 42
0.00000001
 43
0.00000001
 40
0.0
 40
0.0
 40
0.0
 40
0.0
 40
0.0367526413874578
 40
0.089622554598356
 40
0.1440246552525944
 40
0.1969156818018855
 40
0.2513377791172648
 40
0.3042762434242748
 40
0.3587497415262998
 40
0.4116880067270206
 40
0.4661641873857563
 40
0.5190547972383514
 40
0.573480603126634
 40
0.6263505202692752
 40
0.6807515690134238
 40
0.7336600125433892
 40
0.7881005146957392
 40
0.8410465963406795
 40
0.8955292073684681
 40
0.9484533212919966
 40
0.9999999999999999
 40
0.9999999999999999
 40
0.9999999999999999
 40
0.9999999999999999
 10
6.54417665942036
 20
13.6370119198323
 30
0.0
 10
6.544176722305573
 20
13.63701097517573
 30
0.0
 10
6.544176875653283
 20
13.63700867159883
 30
0.0
 10
6.544277867170592
 20
13.63478337650343
 30
0.0
 10
6.544452717371887
 20
13.63073397648527
 30
0.0
 10
6.544688108326485
 20
13.62482180724602
 30
0.0
 10
6.544949627186861
 20
13.61741180275975
 30
0.0
 10
6.545213228687066
 20
13.60855360370751
 30
0.0
 10
6.545444638358205
 20
13.59866200878815
 30
0.0
 10
6.545621498059615
 20
13.58783930176039
 30
0.0
 10
6.545720911114236
 20
13.57659057850778
 30
0.0
 10
6.545733334440603
 20
13.56503260924749
 30
0.0
 10
6.545657268394422
 20
13.55370278509317
 30
0.0
 10
6.545500113969839
 20
13.54271430787286
 30
0.0
 10
6.545282126808772
 20
13.53257289661334
 30
0.0
 10
6.545024208356585
 20
13.52338022256556
 30
0.0
 10
6.544759646867943
 20
13.51556380688586
 30
0.0
 10
6.544513337499775
 20
13.50919254293177
 30
0.0
 10
6.544319504496845
 20
13.50461749761605
 30
0.0
 10
6.544190134434918
 20
13.50173831633686
 30
0.0
 10
6.544175975319747
 20
13.50143163722272
 30
0.0
 10
6.544168989105301
 20
13.50128031942982
 30
0.0
  0
LINE
  5
13F
330
1F
100
AcDbEntity
  8
0
  6
Continuous
 62
     7
370
    25
100
AcDbLine
 10
8.0291666987
 20
13.8192299893
 30
0.0
 11
6.5441666987
 21
13.8192299893
 31
0.0
  0
LINE
  5
140
330
1F
100
AcDbEntity
  8
0
  6
Continuous
 62
     7
370
    25
100
AcDbLine
 10
9.5141666987
 20
13.8192299893
 30
0.0
 11
8.0291666987
 21
13.8192299893
 31
0.0
  0
LINE
  5
141
330
1F
100
AcDbEntity
  8
0
  6
Continuous
 62
     7
370
    25
100
AcDbLine
 10
2.7381666987
 20
17.6859977709
 30
0.0
 11
2.7381666987
 21
17.6869043606
 31
0.0
  0
LINE
  5
142
330
1F
100
AcDbEntity
  8
0
  6
Continuous
 62
     7
370
    25
100
AcDbLine
 10
2.7381666987
 20
17.6244043606
 30
0.0
 11
2.7381666987
 21
17.6859977709
 31
0.0
  0
LINE
  5
143
330
1F
100
AcDbEntity
  8
0
  6
Continuous
 62
     7
370
    25
100
AcDbLine
 10
3.1131666987
 20
17.6859977709
 30
0.0
 11
3.1131666987
 21
17.6869043606
 31
0.0
  0
LINE
  5
144
330
1F
100
AcDbEntity
  8
0
  6
Continuous
 62
     7
370
    25
100
AcDbLine
 10
3.1131666987
 20
17.6244043606
 30
0.0
 11
3.1131666987
 21
17.6859977709
 31
0.0
  0
LINE
  5
145
330
1F
100
AcDbEntity
  8
0
  6
Continuous
 62
     7
370
    25
100
AcDbLine
 10
3.1756666987
 20
17.6859977709
 30
0.0
 11
3.1756666987
 21
17.6869043606
 31
0.0
  0
LINE
  5
146
330
1F
100
AcDbEntity
  8
0
  6
Continuous
 62
     7
370
    25
100
AcDbLine
 10
3.1756666987
 20
17.6244043606
 30
0.0
 11
3.1756666987
 21
17.6859977709
 31
0.0
  0
LINE
  5
147
330
1F
100
AcDbEntity
  8
0
  6
Continuous
 62
     7
370
    25
100
AcDbLine
 10
2.7381666987
 20
17.7598182414
 30
0.0
 11
2.7381666987
 21
17.7697173658
 31
0.0
  0
LINE
  5
148
330
1F
100
AcDbEntity
  8
0
  6
Continuous
 62
     7
370
    25
100
AcDbLine
 10
3.1131666987
 20
17.7697173658
 30
0.0
 11
3.1131666987
 21
17.7598182414
 31
0.0
  0
LINE
  5
149
330
1F
100
AcDbEntity
  8
0
  6
Continuous
 62
     7
370
    25
100
AcDbLine
 10
3.1756666987
 20
17.7697173658
 30
0.0
 11
3.1756666987
 21
17.7598182414
 31
0.0
  0
LINE
  5
14A
330
1F
100
AcDbEntity
  8
0
  6
Continuous
 62
     7
370
    25
100
AcDbLine
 10
3.1131666987
 20
17.7729418852
 30
0.0
 11
3.1131666987
 21
17.7697173658
 31
0.0
  0
LINE
  5
14B
330
1F
100
AcDbEntity
  8
0
  6
Continuous
 62
     7
370
    25
100
AcDbLine
 10
3.1131666987
 20
17.8322173658
 30
0.0
 11
3.1131666987
 21
17.7729418852
 31
0.0
  0
LINE
  5
14C
330
1F
100
AcDbEntity
  8
0
  6
Continuous
 62
     7
370
    25
100
AcDbLine
 10
2.7381666987
 20
17.7697173658
 30
0.0
 11
2.7381666987
 21
17.8322173658
 31
0.0
  0
LINE
  5
14D
330
1F
100
AcDbEntity
  8
0
  6
Continuous
 62
     7
370
    25
100
AcDbLine
 10
3.1756666987
 20
17.7729418852
 30
0.0
 11
3.1756666987
 21
17.7697173658
 31
0.0
  0
LINE
  5
14E
330
1F
100
AcDbEntity
  8
0
  6
Continuous
 62
     7
370
    25
100
AcDbLine
 10
3.1756666987
 20
17.8322173658
 30
0.0
 11
3.1756666987
 21
17.7729418852
 31
0.0
  0
LINE
  5
14F
330
1F
100
AcDbEntity
  8
0
  6
Continuous
 62
     7
370
    25
100
AcDbLine
 10
4.7016666987
 20
17.2088549893
 30
0.0
 11
4.7016666987
 21
18.2896049893
 31
0.0
  0
LINE
  5
150
330
1F
100
AcDbEntity
  8
0
  6
Continuous
 62
     7
370
    25
100
AcDbLine
 10
4.4516666987
 20
17.7492299893
 30
0.0
 11
4.4516666987
 21
18.1822426912
 31
0.0
  0
LINE
  5
151
330
1F
100
AcDbEntity
  8
0
  6
Continuous
 62
     7
370
    25
100
AcDbLine
 10
4.4516666987
 20
18.1822426912
 30
0.0
 11
4.7016666987
 21
18.1822426912
 31
0.0
  0
LINE
  5
152
330
1F
100
AcDbEntity
  8
0
  6
Continuous
 62
     7
370
    25
100
AcDbLine
 10
4.4516666987
 20
17.7492299893
 30
0.0
 11
4.7016666987
 21
17.7492299893
 31
0.0
  0
LINE
  5
153
330
1F
100
AcDbEntity
  8
0
  6
Continuous
 62
     7
370
    25
100
AcDbLine
 10
4.4516666987
 20
17.3162172874
 30
0.0
 11
4.4516666987
 21
17.7492299893
 31
0.0
  0
LINE
  5
154
330
1F
100
AcDbEntity
  8
0
  6
Continuous
 62
     7
370
    25
100
AcDbLine
 10
4.4516666987
 20
17.3162172874
 30
0.0
 11
4.7016666987
 21
17.3162172874
 31
0.0
  0
LINE
  5
155
330
1F
100
AcDbEntity
  8
0
  6
Continuous
 62
     7
370
    25
100
AcDbLine
 10
6.0601666987
 20
17.6893785818
 30
0.0
 11
6.0601666987
 21
17.5929799893
 31
0.0
  0
LINE
  5
156
330
1F
100
AcDbEntity
  8
0
  6
Continuous
 62
     7
370
    25
100
AcDbLine
 10
6.0601666987
 20
17.9054799893
 30
0.0
 11
6.0601666987
 21
17.6893785818
 31
0.0
  0
LINE
  5
157
330
1F
100
AcDbEntity
  8
0
  6
Continuous
 62
     7
370
    25
100
AcDbLine
 10
6.0791666987
 20
17.6966565129
 30
0.0
 11
6.0791666987
 21
17.6119799893
 31
0.0
  0
LINE
  5
158
330
1F
100
AcDbEntity
  8
0
  6
Continuous
 62
     7
370
    25
100
AcDbLine
 10
6.0791666987
 20
17.8864799893
 30
0.0
 11
6.0791666987
 21
17.6966565129
 31
0.0
  0
LINE
  5
159
330
1F
100
AcDbEntity
  8
0
  6
Continuous
 62
     7
370
    25
100
AcDbLine
 10
5.1313666987
 20
17.8198028101
 30
0.0
 11
5.1313666987
 21
17.6728299893
 31
0.0
  0
LINE
  5
15A
330
1F
100
AcDbEntity
  8
0
  6
Continuous
 62
     7
370
    25
100
AcDbLine
 10
5.1313666987
 20
17.8256299893
 30
0.0
 11
5.1313666987
 21
17.8198028101
 31
0.0
  0
LINE
  5
15B
330
1F
100
AcDbEntity
  8
0
  6
Continuous
 62
     7
370
    25
100
AcDbLine
 10
5.1443905589
 20
17.8369841513
 30
0.0
 11
5.1443905589
 21
17.6542299893
 31
0.0
  0
LINE
  5
15C
330
1F
100
AcDbEntity
  8
0
  6
Continuous
 62
     7
370
    25
100
AcDbLine
 10
5.1443905589
 20
17.8442299893
 30
0.0
 11
5.1443905589
 21
17.8369841513
 31
0.0
  0
LINE
  5
15D
330
1F
100
AcDbEntity
  8
0
  6
Continuous
 62
     7
370
    25
100
AcDbLine
 10
5.3605428385
 20
17.8369841513
 30
0.0
 11
5.3605428385
 21
17.6542299893
 31
0.0
  0
LINE
  5
15E
330
1F
100
AcDbEntity
  8
0
  6
Continuous
 62
     7
370
    25
100
AcDbLine
 10
5.3605428385
 20
17.8442299893
 30
0.0
 11
5.3605428385
 21
17.8369841513
 31
0.0
  0
LINE
  5
15F
330
1F
100
AcDbEntity
  8
0
  6
Continuous
 62
     7
370
    25
100
AcDbLine
 10
5.3563155589
 20
17.8369841513
 30
0.0
 11
5.3563155589
 21
17.6542299893
 31
0.0
  0
LINE
  5
160
330
1F
100
AcDbEntity
  8
0
  6
Continuous
 62
     7
370
    25
100
AcDbLine
 10
5.3563155589
 20
17.8442299893
 30
0.0
 11
5.3563155589
 21
17.8369841513
 31
0.0
  0
LINE
  5
161
330
1F
100
AcDbEntity
  8
0
  6
Continuous
 62
     7
370
    25
100
AcDbLine
 10
5.3302678385
 20
17.8369841513
 30
0.0
 11
5.3302678385
 21
17.6542299893
 31
0.0
  0
LINE
  5
162
330
1F
100
AcDbEntity
  8
0
  6
Continuous
 62
     7
370
    25
100
AcDbLine
 10
5.3302678385
 20
17.8442299893
 30
0.0
 11
5.3302678385
 21
17.8369841513
 31
0.0
  0
LINE
  5
163
330
1F
100
AcDbEntity
  8
0
  6
Continuous
 62
     7
370
    25
100
AcDbLine
 10
5.3432916987
 20
17.8198028101
 30
0.0
 11
5.3432916987
 21
17.6728299893
 31
0.0
  0
LINE
  5
164
330
1F
100
AcDbEntity
  8
0
  6
Continuous
 62
     7
370
    25
100
AcDbLine
 10
5.3432916987
 20
17.8256299893
 30
0.0
 11
5.3432916987
 21
17.8198028101
 31
0.0
  0
LINE
  5
165
330
1F
100
AcDbEntity
  8
0
  6
Continuous
 62
     7
370
    25
100
AcDbLine
 10
5.3735666987
 20
17.8198028101
 30
0.0
 11
5.3735666987
 21
17.6728299893
 31
0.0
  0
LINE
  5
166
330
1F
100
AcDbEntity
  8
0
  6
Continuous
 62
     7
370
    25
100
AcDbLine
 10
5.3735666987
 20
17.8256299893
 30
0.0
 11
5.3735666987
 21
17.8198028101
 31
0.0
  0
LINE
  5
167
330
1F
100
AcDbEntity
  8
0
  6
Continuous
 62
     7
370
    25
100
AcDbLine
 10
5.3865905589
 20
17.8369841513
 30
0.0
 11
5.3865905589
 21
17.6542299893
 31
0.0
  0
LINE
  5
168
330
1F
100
AcDbEntity
  8
0
  6
Continuous
 62
     7
370
    25
100
AcDbLine
 10
5.3865905589
 20
17.8442299893
 30
0.0
 11
5.3865905589
 21
17.8369841513
 31
0.0
  0
LINE
  5
169
330
1F
100
AcDbEntity
  8
0
  6
Continuous
 62
     7
370
    25
100
AcDbLine
 10
5.3260405589
 20
17.8369841513
 30
0.0
 11
5.3260405589
 21
17.6542299893
 31
0.0
  0
LINE
  5
16A
330
1F
100
AcDbEntity
  8
0
  6
Continuous
 62
     7
370
    25
100
AcDbLine
 10
5.3260405589
 20
17.8442299893
 30
0.0
 11
5.3260405589
 21
17.8369841513
 31
0.0
  0
LINE
  5
16B
330
1F
100
AcDbEntity
  8
0
  6
Continuous
 62
     7
370
    25
100
AcDbLine
 10
4.9972428385
 20
17.8369841513
 30
0.0
 11
4.9972428385
 21
17.6542299893
 31
0.0
  0
LINE
  5
16C
330
1F
100
AcDbEntity
  8
0
  6
Continuous
 62
     7
370
    25
100
AcDbLine
 10
4.9972428385
 20
17.8442299893
 30
0.0
 11
4.9972428385
 21
17.8369841513
 31
0.0
  0
LINE
  5
16D
330
1F
100
AcDbEntity
  8
0
  6
Continuous
 62
     7
370
    25
100
AcDbLine
 10
4.9930155589
 20
17.8369841513
 30
0.0
 11
4.9930155589
 21
17.6542299893
 31
0.0
  0
LINE
  5
16E
330
1F
100
AcDbEntity
  8
0
  6
Continuous
 62
     7
370
    25
100
AcDbLine
 10
4.9930155589
 20
17.8442299893
 30
0.0
 11
4.9930155589
 21
17.8369841513
 31
0.0
  0
LINE
  5
16F
330
1F
100
AcDbEntity
  8
0
  6
Continuous
 62
     7
370
    25
100
AcDbLine
 10
5.1183428385
 20
17.8369841513
 30
0.0
 11
5.1183428385
 21
17.6542299893
 31
0.0
  0
LINE
  5
170
330
1F
100
AcDbEntity
  8
0
  6
Continuous
 62
     7
370
    25
100
AcDbLine
 10
5.1183428385
 20
17.8442299893
 30
0.0
 11
5.1183428385
 21
17.8369841513
 31
0.0
  0
LINE
  5
171
330
1F
100
AcDbEntity
  8
0
  6
Continuous
 62
     7
370
    25
100
AcDbLine
 10
5.1141155589
 20
17.8369841513
 30
0.0
 11
5.1141155589
 21
17.6542299893
 31
0.0
  0
LINE
  5
172
330
1F
100
AcDbEntity
  8
0
  6
Continuous
 62
     7
370
    25
100
AcDbLine
 10
5.1141155589
 20
17.8442299893
 30
0.0
 11
5.1141155589
 21
17.8369841513
 31
0.0
  0
LINE
  5
173
330
1F
100
AcDbEntity
  8
0
  6
Continuous
 62
     7
370
    25
100
AcDbLine
 10
5.0880678385
 20
17.8369841513
 30
0.0
 11
5.0880678385
 21
17.6542299893
 31
0.0
  0
LINE
  5
174
330
1F
100
AcDbEntity
  8
0
  6
Continuous
 62
     7
370
    25
100
AcDbLine
 10
5.0880678385
 20
17.8442299893
 30
0.0
 11
5.0880678385
 21
17.8369841513
 31
0.0
  0
LINE
  5
175
330
1F
100
AcDbEntity
  8
0
  6
Continuous
 62
     7
370
    25
100
AcDbLine
 10
5.1010916987
 20
17.8198028101
 30
0.0
 11
5.1010916987
 21
17.6728299893
 31
0.0
  0
LINE
  5
176
330
1F
100
AcDbEntity
  8
0
  6
Continuous
 62
     7
370
    25
100
AcDbLine
 10
5.1010916987
 20
17.8256299893
 30
0.0
 11
5.1010916987
 21
17.8198028101
 31
0.0
  0
LINE
  5
177
330
1F
100
AcDbEntity
  8
0
  6
Continuous
 62
     7
370
    25
100
AcDbLine
 10
5.0577928385
 20
17.8369841513
 30
0.0
 11
5.0577928385
 21
17.6542299893
 31
0.0
  0
LINE
  5
178
330
1F
100
AcDbEntity
  8
0
  6
Continuous
 62
     7
370
    25
100
AcDbLine
 10
5.0577928385
 20
17.8442299893
 30
0.0
 11
5.0577928385
 21
17.8369841513
 31
0.0
  0
LINE
  5
179
330
1F
100
AcDbEntity
  8
0
  6
Continuous
 62
     7
370
    25
100
AcDbLine
 10
5.0708166987
 20
17.8198028101
 30
0.0
 11
5.0708166987
 21
17.6728299893
 31
0.0
  0
LINE
  5
17A
330
1F
100
AcDbEntity
  8
0
  6
Continuous
 62
     7
370
    25
100
AcDbLine
 10
5.0708166987
 20
17.8256299893
 30
0.0
 11
5.0708166987
 21
17.8198028101
 31
0.0
  0
LINE
  5
17B
330
1F
100
AcDbEntity
  8
0
  6
Continuous
 62
     7
370
    25
100
AcDbLine
 10
5.0838405589
 20
17.8369841513
 30
0.0
 11
5.0838405589
 21
17.6542299893
 31
0.0
  0
LINE
  5
17C
330
1F
100
AcDbEntity
  8
0
  6
Continuous
 62
     7
370
    25
100
AcDbLine
 10
5.0838405589
 20
17.8442299893
 30
0.0
 11
5.0838405589
 21
17.8369841513
 31
0.0
  0
LINE
  5
17D
330
1F
100
AcDbEntity
  8
0
  6
Continuous
 62
     7
370
    25
100
AcDbLine
 10
5.0535655589
 20
17.8369841513
 30
0.0
 11
5.0535655589
 21
17.6542299893
 31
0.0
  0
LINE
  5
17E
330
1F
100
AcDbEntity
  8
0
  6
Continuous
 62
     7
370
    25
100
AcDbLine
 10
5.0535655589
 20
17.8442299893
 30
0.0
 11
5.0535655589
 21
17.8369841513
 31
0.0
  0
LINE
  5
17F
330
1F
100
AcDbEntity
  8
0
  6
Continuous
 62
     7
370
    25
100
AcDbLine
 10
5.0275178385
 20
17.8369841513
 30
0.0
 11
5.0275178385
 21
17.6542299893
 31
0.0
  0
LINE
  5
180
330
1F
100
AcDbEntity
  8
0
  6
Continuous
 62
     7
370
    25
100
AcDbLine
 10
5.0275178385
 20
17.8442299893
 30
0.0
 11
5.0275178385
 21
17.8369841513
 31
0.0
  0
LINE
  5
181
330
1F
100
AcDbEntity
  8
0
  6
Continuous
 62
     7
370
    25
100
AcDbLine
 10
5.0405416987
 20
17.8198028101
 30
0.0
 11
5.0405416987
 21
17.6728299893
 31
0.0
  0
LINE
  5
182
330
1F
100
AcDbEntity
  8
0
  6
Continuous
 62
     7
370
    25
100
AcDbLine
 10
5.0405416987
 20
17.8256299893
 30
0.0
 11
5.0405416987
 21
17.8198028101
 31
0.0
  0
LINE
  5
183
330
1F
100
AcDbEntity
  8
0
  6
Continuous
 62
     7
370
    25
100
AcDbLine
 10
5.4513678385
 20
17.8369841513
 30
0.0
 11
5.4513678385
 21
17.6542299893
 31
0.0
  0
LINE
  5
184
330
1F
100
AcDbEntity
  8
0
  6
Continuous
 62
     7
370
    25
100
AcDbLine
 10
5.4513678385
 20
17.8442299893
 30
0.0
 11
5.4513678385
 21
17.8369841513
 31
0.0
  0
LINE
  5
185
330
1F
100
AcDbEntity
  8
0
  6
Continuous
 62
     7
370
    25
100
AcDbLine
 10
5.4471405589
 20
17.8369841513
 30
0.0
 11
5.4471405589
 21
17.6542299893
 31
0.0
  0
LINE
  5
186
330
1F
100
AcDbEntity
  8
0
  6
Continuous
 62
     7
370
    25
100
AcDbLine
 10
5.4471405589
 20
17.8442299893
 30
0.0
 11
5.4471405589
 21
17.8369841513
 31
0.0
  0
LINE
  5
187
330
1F
100
AcDbEntity
  8
0
  6
Continuous
 62
     7
370
    25
100
AcDbLine
 10
5.1486178385
 20
17.8369841513
 30
0.0
 11
5.1486178385
 21
17.6542299893
 31
0.0
  0
LINE
  5
188
330
1F
100
AcDbEntity
  8
0
  6
Continuous
 62
     7
370
    25
100
AcDbLine
 10
5.1486178385
 20
17.8442299893
 30
0.0
 11
5.1486178385
 21
17.8369841513
 31
0.0
  0
LINE
  5
189
330
1F
100
AcDbEntity
  8
0
  6
Continuous
 62
     7
370
    25
100
AcDbLine
 10
5.3908178385
 20
17.8369841513
 30
0.0
 11
5.3908178385
 21
17.6542299893
 31
0.0
  0
LINE
  5
18A
330
1F
100
AcDbEntity
  8
0
  6
Continuous
 62
     7
370
    25
100
AcDbLine
 10
5.3908178385
 20
17.8442299893
 30
0.0
 11
5.3908178385
 21
17.8369841513
 31
0.0
  0
LINE
  5
18B
330
1F
100
AcDbEntity
  8
0
  6
Continuous
 62
     7
370
    25
100
AcDbLine
 10
5.4038416987
 20
17.8198028101
 30
0.0
 11
5.4038416987
 21
17.6728299893
 31
0.0
  0
LINE
  5
18C
330
1F
100
AcDbEntity
  8
0
  6
Continuous
 62
     7
370
    25
100
AcDbLine
 10
5.4038416987
 20
17.8256299893
 30
0.0
 11
5.4038416987
 21
17.8198028101
 31
0.0
  0
LINE
  5
18D
330
1F
100
AcDbEntity
  8
0
  6
Continuous
 62
     7
370
    25
100
AcDbLine
 10
5.4168655589
 20
17.8369841513
 30
0.0
 11
5.4168655589
 21
17.6542299893
 31
0.0
  0
LINE
  5
18E
330
1F
100
AcDbEntity
  8
0
  6
Continuous
 62
     7
370
    25
100
AcDbLine
 10
5.4168655589
 20
17.8442299893
 30
0.0
 11
5.4168655589
 21
17.8369841513
 31
0.0
  0
LINE
  5
18F
330
1F
100
AcDbEntity
  8
0
  6
Continuous
 62
     7
370
    25
100
AcDbLine
 10
5.2999928385
 20
17.8369841513
 30
0.0
 11
5.2999928385
 21
17.6542299893
 31
0.0
  0
LINE
  5
190
330
1F
100
AcDbEntity
  8
0
  6
Continuous
 62
     7
370
    25
100
AcDbLine
 10
5.2999928385
 20
17.8442299893
 30
0.0
 11
5.2999928385
 21
17.8369841513
 31
0.0
  0
LINE
  5
191
330
1F
100
AcDbEntity
  8
0
  6
Continuous
 62
     7
370
    25
100
AcDbLine
 10
5.3130166987
 20
17.8198028101
 30
0.0
 11
5.3130166987
 21
17.6728299893
 31
0.0
  0
LINE
  5
192
330
1F
100
AcDbEntity
  8
0
  6
Continuous
 62
     7
370
    25
100
AcDbLine
 10
5.3130166987
 20
17.8256299893
 30
0.0
 11
5.3130166987
 21
17.8198028101
 31
0.0
  0
LINE
  5
193
330
1F
100
AcDbEntity
  8
0
  6
Continuous
 62
     7
370
    25
100
AcDbLine
 10
5.4210928385
 20
17.8369841513
 30
0.0
 11
5.4210928385
 21
17.6542299893
 31
0.0
  0
LINE
  5
194
330
1F
100
AcDbEntity
  8
0
  6
Continuous
 62
     7
370
    25
100
AcDbLine
 10
5.4210928385
 20
17.8442299893
 30
0.0
 11
5.4210928385
 21
17.8369841513
 31
0.0
  0
LINE
  5
195
330
1F
100
AcDbEntity
  8
0
  6
Continuous
 62
     7
370
    25
100
AcDbLine
 10
5.4341166987
 20
17.8198028101
 30
0.0
 11
5.4341166987
 21
17.6728299893
 31
0.0
  0
LINE
  5
196
330
1F
100
AcDbEntity
  8
0
  6
Continuous
 62
     7
370
    25
100
AcDbLine
 10
5.4341166987
 20
17.8256299893
 30
0.0
 11
5.4341166987
 21
17.8198028101
 31
0.0
  0
LINE
  5
197
330
1F
100
AcDbEntity
  8
0
  6
Continuous
 62
     7
370
    25
100
AcDbLine
 10
5.0102666987
 20
17.8198028101
 30
0.0
 11
5.0102666987
 21
17.6728299893
 31
0.0
  0
LINE
  5
198
330
1F
100
AcDbEntity
  8
0
  6
Continuous
 62
     7
370
    25
100
AcDbLine
 10
5.0102666987
 20
17.8256299893
 30
0.0
 11
5.0102666987
 21
17.8198028101
 31
0.0
  0
LINE
  5
199
330
1F
100
AcDbEntity
  8
0
  6
Continuous
 62
     7
370
    25
100
AcDbLine
 10
5.0232905589
 20
17.8369841513
 30
0.0
 11
5.0232905589
 21
17.6542299893
 31
0.0
  0
LINE
  5
19A
330
1F
100
AcDbEntity
  8
0
  6
Continuous
 62
     7
370
    25
100
AcDbLine
 10
5.0232905589
 20
17.8442299893
 30
0.0
 11
5.0232905589
 21
17.8369841513
 31
0.0
  0
LINE
  5
19B
330
1F
100
AcDbEntity
  8
0
  6
Continuous
 62
     7
370
    25
100
AcDbLine
 10
5.2394428385
 20
17.8369841513
 30
0.0
 11
5.2394428385
 21
17.6542299893
 31
0.0
  0
LINE
  5
19C
330
1F
100
AcDbEntity
  8
0
  6
Continuous
 62
     7
370
    25
100
AcDbLine
 10
5.2394428385
 20
17.8442299893
 30
0.0
 11
5.2394428385
 21
17.8369841513
 31
0.0
  0
LINE
  5
19D
330
1F
100
AcDbEntity
  8
0
  6
Continuous
 62
     7
370
    25
100
AcDbLine
 10
5.2524666987
 20
17.8198028101
 30
0.0
 11
5.2524666987
 21
17.6728299893
 31
0.0
  0
LINE
  5
19E
330
1F
100
AcDbEntity
  8
0
  6
Continuous
 62
     7
370
    25
100
AcDbLine
 10
5.2524666987
 20
17.8256299893
 30
0.0
 11
5.2524666987
 21
17.8198028101
 31
0.0
  0
LINE
  5
19F
330
1F
100
AcDbEntity
  8
0
  6
Continuous
 62
     7
370
    25
100
AcDbLine
 10
4.9669678385
 20
17.8369841513
 30
0.0
 11
4.9669678385
 21
17.6542299893
 31
0.0
  0
LINE
  5
1A0
330
1F
100
AcDbEntity
  8
0
  6
Continuous
 62
     7
370
    25
100
AcDbLine
 10
4.9669678385
 20
17.8442299893
 30
0.0
 11
4.9669678385
 21
17.8369841513
 31
0.0
  0
LINE
  5
1A1
330
1F
100
AcDbEntity
  8
0
  6
Continuous
 62
     7
370
    25
100
AcDbLine
 10
4.9799916987
 20
17.8198028101
 30
0.0
 11
4.9799916987
 21
17.6728299893
 31
0.0
  0
LINE
  5
1A2
330
1F
100
AcDbEntity
  8
0
  6
Continuous
 62
     7
370
    25
100
AcDbLine
 10
4.9799916987
 20
17.8256299893
 30
0.0
 11
4.9799916987
 21
17.8198028101
 31
0.0
  0
LINE
  5
1A3
330
1F
100
AcDbEntity
  8
0
  6
Continuous
 62
     7
370
    25
100
AcDbLine
 10
5.2352155589
 20
17.8369841513
 30
0.0
 11
5.2352155589
 21
17.6542299893
 31
0.0
  0
LINE
  5
1A4
330
1F
100
AcDbEntity
  8
0
  6
Continuous
 62
     7
370
    25
100
AcDbLine
 10
5.2352155589
 20
17.8442299893
 30
0.0
 11
5.2352155589
 21
17.8369841513
 31
0.0
  0
LINE
  5
1A5
330
1F
100
AcDbEntity
  8
0
  6
Continuous
 62
     7
370
    25
100
AcDbLine
 10
5.2091678385
 20
17.8369841513
 30
0.0
 11
5.2091678385
 21
17.6542299893
 31
0.0
  0
LINE
  5
1A6
330
1F
100
AcDbEntity
  8
0
  6
Continuous
 62
     7
370
    25
100
AcDbLine
 10
5.2091678385
 20
17.8442299893
 30
0.0
 11
5.2091678385
 21
17.8369841513
 31
0.0
  0
LINE
  5
1A7
330
1F
100
AcDbEntity
  8
0
  6
Continuous
 62
     7
370
    25
100
AcDbLine
 10
5.2221916987
 20
17.8198028101
 30
0.0
 11
5.2221916987
 21
17.6728299893
 31
0.0
  0
LINE
  5
1A8
330
1F
100
AcDbEntity
  8
0
  6
Continuous
 62
     7
370
    25
100
AcDbLine
 10
5.2221916987
 20
17.8256299893
 30
0.0
 11
5.2221916987
 21
17.8198028101
 31
0.0
  0
LINE
  5
1A9
330
1F
100
AcDbEntity
  8
0
  6
Continuous
 62
     7
370
    25
100
AcDbLine
 10
5.2049405589
 20
17.8369841513
 30
0.0
 11
5.2049405589
 21
17.6542299893
 31
0.0
  0
LINE
  5
1AA
330
1F
100
AcDbEntity
  8
0
  6
Continuous
 62
     7
370
    25
100
AcDbLine
 10
5.2049405589
 20
17.8442299893
 30
0.0
 11
5.2049405589
 21
17.8369841513
 31
0.0
  0
LINE
  5
1AB
330
1F
100
AcDbEntity
  8
0
  6
Continuous
 62
     7
370
    25
100
AcDbLine
 10
5.1788928385
 20
17.8369841513
 30
0.0
 11
5.1788928385
 21
17.6542299893
 31
0.0
  0
LINE
  5
1AC
330
1F
100
AcDbEntity
  8
0
  6
Continuous
 62
     7
370
    25
100
AcDbLine
 10
5.1788928385
 20
17.8442299893
 30
0.0
 11
5.1788928385
 21
17.8369841513
 31
0.0
  0
LINE
  5
1AD
330
1F
100
AcDbEntity
  8
0
  6
Continuous
 62
     7
370
    25
100
AcDbLine
 10
5.1919166987
 20
17.8198028101
 30
0.0
 11
5.1919166987
 21
17.6728299893
 31
0.0
  0
LINE
  5
1AE
330
1F
100
AcDbEntity
  8
0
  6
Continuous
 62
     7
370
    25
100
AcDbLine
 10
5.1919166987
 20
17.8256299893
 30
0.0
 11
5.1919166987
 21
17.8198028101
 31
0.0
  0
LINE
  5
1AF
330
1F
100
AcDbEntity
  8
0
  6
Continuous
 62
     7
370
    25
100
AcDbLine
 10
4.9194416987
 20
17.8198028101
 30
0.0
 11
4.9194416987
 21
17.6728299893
 31
0.0
  0
LINE
  5
1B0
330
1F
100
AcDbEntity
  8
0
  6
Continuous
 62
     7
370
    25
100
AcDbLine
 10
4.9194416987
 20
17.8256299893
 30
0.0
 11
4.9194416987
 21
17.8198028101
 31
0.0
  0
LINE
  5
1B1
330
1F
100
AcDbEntity
  8
0
  6
Continuous
 62
     7
370
    25
100
AcDbLine
 10
4.9324655589
 20
17.8369841513
 30
0.0
 11
4.9324655589
 21
17.6542299893
 31
0.0
  0
LINE
  5
1B2
330
1F
100
AcDbEntity
  8
0
  6
Continuous
 62
     7
370
    25
100
AcDbLine
 10
4.9324655589
 20
17.8442299893
 30
0.0
 11
4.9324655589
 21
17.8369841513
 31
0.0
  0
LINE
  5
1B3
330
1F
100
AcDbEntity
  8
0
  6
Continuous
 62
     7
370
    25
100
AcDbLine
 10
5.1616416987
 20
17.8198028101
 30
0.0
 11
5.1616416987
 21
17.6728299893
 31
0.0
  0
LINE
  5
1B4
330
1F
100
AcDbEntity
  8
0
  6
Continuous
 62
     7
370
    25
100
AcDbLine
 10
5.1616416987
 20
17.8256299893
 30
0.0
 11
5.1616416987
 21
17.8198028101
 31
0.0
  0
LINE
  5
1B5
330
1F
100
AcDbEntity
  8
0
  6
Continuous
 62
     7
370
    25
100
AcDbLine
 10
5.1746655589
 20
17.8369841513
 30
0.0
 11
5.1746655589
 21
17.6542299893
 31
0.0
  0
LINE
  5
1B6
330
1F
100
AcDbEntity
  8
0
  6
Continuous
 62
     7
370
    25
100
AcDbLine
 10
5.1746655589
 20
17.8442299893
 30
0.0
 11
5.1746655589
 21
17.8369841513
 31
0.0
  0
LINE
  5
1B7
330
1F
100
AcDbEntity
  8
0
  6
Continuous
 62
     7
370
    25
100
AcDbLine
 10
5.4816428385
 20
17.8369841513
 30
0.0
 11
5.4816428385
 21
17.6542299893
 31
0.0
  0
LINE
  5
1B8
330
1F
100
AcDbEntity
  8
0
  6
Continuous
 62
     7
370
    25
100
AcDbLine
 10
5.4816428385
 20
17.8442299893
 30
0.0
 11
5.4816428385
 21
17.8369841513
 31
0.0
  0
LINE
  5
1B9
330
1F
100
AcDbEntity
  8
0
  6
Continuous
 62
     7
370
    25
100
AcDbLine
 10
5.4946666987
 20
17.8198028101
 30
0.0
 11
5.4946666987
 21
17.6728299893
 31
0.0
  0
LINE
  5
1BA
330
1F
100
AcDbEntity
  8
0
  6
Continuous
 62
     7
370
    25
100
AcDbLine
 10
5.4946666987
 20
17.8256299893
 30
0.0
 11
5.4946666987
 21
17.8198028101
 31
0.0
  0
LINE
  5
1BB
330
1F
100
AcDbEntity
  8
0
  6
Continuous
 62
     7
370
    25
100
AcDbLine
 10
5.5076905589
 20
17.8369841513
 30
0.0
 11
5.5076905589
 21
17.6542299893
 31
0.0
  0
LINE
  5
1BC
330
1F
100
AcDbEntity
  8
0
  6
Continuous
 62
     7
370
    25
100
AcDbLine
 10
5.5076905589
 20
17.8442299893
 30
0.0
 11
5.5076905589
 21
17.8369841513
 31
0.0
  0
LINE
  5
1BD
330
1F
100
AcDbEntity
  8
0
  6
Continuous
 62
     7
370
    25
100
AcDbLine
 10
5.4774155589
 20
17.8369841513
 30
0.0
 11
5.4774155589
 21
17.6542299893
 31
0.0
  0
LINE
  5
1BE
330
1F
100
AcDbEntity
  8
0
  6
Continuous
 62
     7
370
    25
100
AcDbLine
 10
5.4774155589
 20
17.8442299893
 30
0.0
 11
5.4774155589
 21
17.8369841513
 31
0.0
  0
LINE
  5
1BF
330
1F
100
AcDbEntity
  8
0
  6
Continuous
 62
     7
370
    25
100
AcDbLine
 10
5.5119178385
 20
17.8369841513
 30
0.0
 11
5.5119178385
 21
17.6542299893
 31
0.0
  0
LINE
  5
1C0
330
1F
100
AcDbEntity
  8
0
  6
Continuous
 62
     7
370
    25
100
AcDbLine
 10
5.5119178385
 20
17.8442299893
 30
0.0
 11
5.5119178385
 21
17.8369841513
 31
0.0
  0
LINE
  5
1C1
330
1F
100
AcDbEntity
  8
0
  6
Continuous
 62
     7
370
    25
100
AcDbLine
 10
4.9627405589
 20
17.8369841513
 30
0.0
 11
4.9627405589
 21
17.6542299893
 31
0.0
  0
LINE
  5
1C2
330
1F
100
AcDbEntity
  8
0
  6
Continuous
 62
     7
370
    25
100
AcDbLine
 10
4.9627405589
 20
17.8442299893
 30
0.0
 11
4.9627405589
 21
17.8369841513
 31
0.0
  0
LINE
  5
1C3
330
1F
100
AcDbEntity
  8
0
  6
Continuous
 62
     7
370
    25
100
AcDbLine
 10
4.9366928385
 20
17.8369841513
 30
0.0
 11
4.9366928385
 21
17.6542299893
 31
0.0
  0
LINE
  5
1C4
330
1F
100
AcDbEntity
  8
0
  6
Continuous
 62
     7
370
    25
100
AcDbLine
 10
4.9366928385
 20
17.8442299893
 30
0.0
 11
4.9366928385
 21
17.8369841513
 31
0.0
  0
LINE
  5
1C5
330
1F
100
AcDbEntity
  8
0
  6
Continuous
 62
     7
370
    25
100
AcDbLine
 10
4.9497166987
 20
17.8198028101
 30
0.0
 11
4.9497166987
 21
17.6728299893
 31
0.0
  0
LINE
  5
1C6
330
1F
100
AcDbEntity
  8
0
  6
Continuous
 62
     7
370
    25
100
AcDbLine
 10
4.9497166987
 20
17.8256299893
 30
0.0
 11
4.9497166987
 21
17.8198028101
 31
0.0
  0
LINE
  5
1C7
330
1F
100
AcDbEntity
  8
0
  6
Continuous
 62
     7
370
    25
100
AcDbLine
 10
5.4643916987
 20
17.8198028101
 30
0.0
 11
5.4643916987
 21
17.6728299893
 31
0.0
  0
LINE
  5
1C8
330
1F
100
AcDbEntity
  8
0
  6
Continuous
 62
     7
370
    25
100
AcDbLine
 10
5.4643916987
 20
17.8256299893
 30
0.0
 11
5.4643916987
 21
17.8198028101
 31
0.0
  0
LINE
  5
1C9
330
1F
100
AcDbEntity
  8
0
  6
Continuous
 62
     7
370
    25
100
AcDbLine
 10
5.2697178385
 20
17.8369841513
 30
0.0
 11
5.2697178385
 21
17.6542299893
 31
0.0
  0
LINE
  5
1CA
330
1F
100
AcDbEntity
  8
0
  6
Continuous
 62
     7
370
    25
100
AcDbLine
 10
5.2697178385
 20
17.8442299893
 30
0.0
 11
5.2697178385
 21
17.8369841513
 31
0.0
  0
LINE
  5
1CB
330
1F
100
AcDbEntity
  8
0
  6
Continuous
 62
     7
370
    25
100
AcDbLine
 10
5.2654905589
 20
17.8369841513
 30
0.0
 11
5.2654905589
 21
17.6542299893
 31
0.0
  0
LINE
  5
1CC
330
1F
100
AcDbEntity
  8
0
  6
Continuous
 62
     7
370
    25
100
AcDbLine
 10
5.2654905589
 20
17.8442299893
 30
0.0
 11
5.2654905589
 21
17.8369841513
 31
0.0
  0
LINE
  5
1CD
330
1F
100
AcDbEntity
  8
0
  6
Continuous
 62
     7
370
    25
100
AcDbLine
 10
5.2827416987
 20
17.8198028101
 30
0.0
 11
5.2827416987
 21
17.6728299893
 31
0.0
  0
LINE
  5
1CE
330
1F
100
AcDbEntity
  8
0
  6
Continuous
 62
     7
370
    25
100
AcDbLine
 10
5.2827416987
 20
17.8256299893
 30
0.0
 11
5.2827416987
 21
17.8198028101
 31
0.0
  0
LINE
  5
1CF
330
1F
100
AcDbEntity
  8
0
  6
Continuous
 62
     7
370
    25
100
AcDbLine
 10
5.2957655589
 20
17.8369841513
 30
0.0
 11
5.2957655589
 21
17.6542299893
 31
0.0
  0
LINE
  5
1D0
330
1F
100
AcDbEntity
  8
0
  6
Continuous
 62
     7
370
    25
100
AcDbLine
 10
5.2957655589
 20
17.8442299893
 30
0.0
 11
5.2957655589
 21
17.8369841513
 31
0.0
  0
LINE
  5
1D1
330
1F
100
AcDbEntity
  8
0
  6
Continuous
 62
     7
370
    25
100
AcDbLine
 10
4.8891666987
 20
17.7199650451
 30
0.0
 11
4.8891666987
 21
17.6728299893
 31
0.0
  0
LINE
  5
1D2
330
1F
100
AcDbEntity
  8
0
  6
Continuous
 62
     7
370
    25
100
AcDbLine
 10
4.8891666987
 20
17.8256299893
 30
0.0
 11
4.8891666987
 21
17.7199650451
 31
0.0
  0
LINE
  5
1D3
330
1F
100
AcDbEntity
  8
0
  6
Continuous
 62
     7
370
    25
100
AcDbLine
 10
4.9069733484
 20
17.6550233396
 30
0.0
 11
4.9069733484
 21
17.843436639
 31
0.0
  0
LINE
  5
1D4
330
1F
100
AcDbEntity
  8
0
  6
Continuous
 62
     7
370
    25
100
AcDbLine
 10
5.8391666987
 20
15.2642299893
 30
0.0
 11
5.8391666987
 21
20.2342299893
 31
0.0
  0
LINE
  5
1D5
330
1F
100
AcDbEntity
  8
0
  6
Continuous
 62
     7
370
    25
100
AcDbLine
 10
5.8891666987
 20
20.1842299893
 30
0.0
 11
5.8891666987
 21
15.3142299893
 31
0.0
  0
LINE
  5
1D6
330
1F
100
AcDbEntity
  8
0
  6
Continuous
 62
     7
370
    25
100
AcDbLine
 10
5.5141666987
 20
15.2642299893
 30
0.0
 11
5.5141666987
 21
20.2342299893
 31
0.0
  0
SPLINE
  5
1D7
330
1F
100
AcDbEntity
  8
0
  6
Continuous
 62
     7
370
    25
100
AcDbSpline
210
0.0
220
0.0
230
1.0
 70
     8
 71
     3
 72
    46
 73
    42
 74
     0
 42
0.00000001
 43
0.00000001
 40
0.0
 40
0.0
 40
0.0
 40
0.0
 40
0.001410972623216
 40
0.0282450610005677
 40
0.0532518623453914
 40
0.0782590938934658
 40
0.1039748741927237
 40
0.1296913900001014
 40
0.1550567397611958
 40
0.1804227561630032
 40
0.2064597971893112
 40
0.232497274269843
 40
0.2590653745843144
 40
0.2856334287492672
 40
0.3129498423378158
 40
0.340265589795512
 40
0.3671779615466771
 40
0.3940893325808721
 40
0.421858783190885
 40
0.4496271844718147
 40
0.4753019685916254
 40
0.5009764537587235
 40
0.5274537525531805
 40
0.5539314248192698
 40
0.5787445098694914
 40
0.6035582686901317
 40
0.6290495403624498
 40
0.6545416280312373
 40
0.6801714176218511
 40
0.705801777051559
 40
0.7321079652857639
 40
0.7584142883170946
 40
0.7852735785354507
 40
0.8121324517030705
 40
0.8397804911053395
 40
0.8674276163047472
 40
0.8940749242346949
 40
0.9207213800568934
 40
0.9482218710948102
 40
0.9757217489090466
 40
1.0
 40
1.0
 40
1.0
 40
1.0
 10
6.544199068686758
 20
18.24913644574053
 30
0.0
 10
6.544189126655553
 20
18.24916606863426
 30
0.0
 10
6.543990105587925
 20
18.24975906415146
 30
0.0
 10
6.544699794234717
 20
18.24764557199559
 30
0.0
 10
6.546351493720677
 20
18.24271952304898
 30
0.0
 10
6.549098911081187
 20
18.23441275380167
 30
0.0
 10
6.55280662601207
 20
18.22301026665392
 30
0.0
 10
6.557411718085882
 20
18.20848267489215
 30
0.0
 10
6.562752142694685
 20
18.19110531750159
 30
0.0
 10
6.568727754084732
 20
18.1708922966523
 30
0.0
 10
6.575243361984763
 20
18.14779577264319
 30
0.0
 10
6.582186620880273
 20
18.12173515925706
 30
0.0
 10
6.589335811490193
 20
18.09299045282781
 30
0.0
 10
6.596569080789431
 20
18.06140811683339
 30
0.0
 10
6.603637262531687
 20
18.02727356745491
 30
0.0
 10
6.610296605944944
 20
17.99093032959699
 30
0.0
 10
6.616281334326493
 20
17.95294015818351
 30
0.0
 10
6.621489510206436
 20
17.91317934738548
 30
0.0
 10
6.625731289588945
 20
17.87166377562085
 30
0.0
 10
6.628765040025947
 20
17.82976541460051
 30
0.0
 10
6.630517963041719
 20
17.78832142928612
 30
0.0
 10
6.631077627529553
 20
17.74726148963927
 30
0.0
 10
6.630401317555184
 20
17.70578905127429
 30
0.0
 10
6.628536211897342
 20
17.66510452636792
 30
0.0
 10
6.625612391550289
 20
17.6259129895065
 30
0.0
 10
6.62178198232769
 20
17.58806566644117
 30
0.0
 10
6.617043310612201
 20
17.55098241564289
 30
0.0
 10
6.611510950722512
 20
17.51485421539455
 30
0.0
 10
6.605364151118027
 20
17.48024763927672
 30
0.0
 10
6.598714750871854
 20
17.44706644466614
 30
0.0
 10
6.591731404923212
 20
17.41563106826341
 30
0.0
 10
6.584545010719298
 20
17.38596428980791
 30
0.0
 10
6.577405453425273
 20
17.35859188184588
 30
0.0
 10
6.570436233599478
 20
17.33348730273513
 30
0.0
 10
6.56389721131171
 20
17.31113753534969
 30
0.0
 10
6.558053115231405
 20
17.29202286412341
 30
0.0
 10
6.553121224742426
 20
17.27642401909768
 30
0.0
 10
6.549131057960492
 20
17.2641414806394
 30
0.0
 10
6.546226244359288
 20
17.25535996064357
 30
0.0
 10
6.544461178768399
 20
17.25010527591272
 30
0.0
 10
6.544277334004054
 20
17.24955735415226
 30
0.0
 10
6.544191131017486
 20
17.24930043907324
 30
0.0
  0
LINE
  5
1D8
330
1F
100
AcDbEntity
  8
0
  6
Continuous
 62
     7
370
    25
100
AcDbLine
 10
9.5141666987
 20
18.9892299893
 30
0.0
 11
6.5441666987
 21
18.9892299893
 31
0.0
  0
LINE
  5
1D9
330
1F
100
AcDbEntity
  8
0
  6
Continuous
 62
     7
370
    25
100
AcDbLine
 10
6.5441666987
 20
13.8342299893
 30
0.0
 11
9.5141666987
 21
13.8342299893
 31
0.0
  0
LINE
  5
1DA
330
1F
100
AcDbEntity
  8
0
  6
Continuous
 62
     7
370
    25
100
AcDbLine
 10
6.5741666987
 20
19.0192299893
 30
0.0
 11
9.4841666987
 21
19.0192299893
 31
0.0
  0
LINE
  5
1DB
330
1F
100
AcDbEntity
  8
0
  6
Continuous
 62
     7
370
    25
100
AcDbLine
 10
4.7216666987
 20
18.3096049893
 30
0.0
 11
4.7216666987
 21
17.1888549893
 31
0.0
  0
LINE
  5
1DC
330
1F
100
AcDbEntity
  8
0
  6
Continuous
 62
     7
370
    25
100
AcDbLine
 10
5.8991666987
 20
17.5929799893
 30
0.0
 11
5.8991666987
 21
17.2542299893
 31
0.0
  0
LINE
  5
1DD
330
1F
100
AcDbEntity
  8
0
  6
Continuous
 62
     7
370
    25
100
AcDbLine
 10
5.8991666987
 20
18.2442299893
 30
0.0
 11
5.8991666987
 21
17.9054799893
 31
0.0
  0
DIMENSION
  5
1DE
330
1F
100
AcDbEntity
  8
0
  6
Continuous
 62
     7
370
    18
100
AcDbDimension
  2
_D
 10
5.8891666987
 20
21.4937578797
 30
0.0
 11
3.2438399428
 21
21.4937578797
 31
0.0
 70
   160
  1
<>
 71
     2
 42
-1.0
  3
SLDDIMSTYLE0
100
AcDbAlignedDimension
 13
5.5141666987
 23
20.2342299893
 33
0.0
 14
5.8891666987
 24
20.1842299893
 34
0.0
100
AcDbRotatedDimension
  0
DIMENSION
  5
1F3
330
1F
100
AcDbEntity
  8
0
  6
Continuous
 62
     7
370
    18
100
AcDbDimension
  2
_D_1
 10
9.5141666987
 20
22.9110807144
 30
0.0
 11
7.5141666987
 21
22.9110807144
 31
0.0
 70
   160
  1
<>
 71
     2
 42
-1.0
  3
SLDDIMSTYLE1
100
AcDbAlignedDimension
 13
5.5141666987
 23
20.2342299893
 33
0.0
 14
9.5141666987
 24
18.9892299893
 34
0.0
 50
0.0
100
AcDbRotatedDimension
  0
DIMENSION
  5
208
330
1F
100
AcDbEntity
  8
0
  6
Continuous
 62
     7
370
    18
100
AcDbDimension
  2
_D_2
 10
4.4516666987
 20
19.7078554846
 30
0.0
 11
2.2863865846
 21
19.7078554846
 31
0.0
 70
   160
  1
<>
 71
     2
 42
-1.0
  3
SLDDIMSTYLE2
100
AcDbAlignedDimension
 13
5.5141666987
 23
20.2342299893
 33
0.0
 14
4.4516666987
 24
18.1822426912
 34
0.0
100
AcDbRotatedDimension
  0
DIMENSION
  5
21C
330
1F
100
AcDbEntity
  8
0
  6
Continuous
 62
     7
370
    18
100
AcDbDimension
  2
_D_3
 10
11.3356690337
 20
13.8192299893
 30
0.0
 11
11.3356690337
 21
15.7842299893
 31
0.0
 70
   160
  1
<>
 71
     2
 42
-1.0
  3
SLDDIMSTYLE2
100
AcDbAlignedDimension
 13
4.7016666987
 23
17.7492299893
 33
0.0
 14
9.5141666987
 24
13.8192299893
 34
0.0
 50
90.0
100
AcDbRotatedDimension
  0
LINE
  5
230
330
1F
100
AcDbEntity
  8
0
  6
Continuous
 62
     7
370
    25
100
AcDbLine
 10
23.6407874992
 20
13.5439839793
 30
0.0
 11
23.6407874992
 21
9.6008646566
 31
0.0
  0
LINE
  5
231
330
1F
100
AcDbEntity
  8
0
  6
Continuous
 62
     7
370
    25
100
AcDbLine
 10
26.6107874992
 20
11.3156878458
 30
0.0
 11
26.6107874992
 21
13.5439839793
 31
0.0
  0
LINE
  5
232
330
1F
100
AcDbEntity
  8
0
  6
Continuous
 62
     7
370
    25
100
AcDbLine
 10
28.1925717374
 20
18.4155804785
 30
0.0
 11
28.5693126913
 21
18.6330684018
 31
0.0
  0
LINE
  5
233
330
1F
100
AcDbEntity
  8
0
  6
Continuous
 62
     7
370
    25
100
AcDbLine
 10
28.5756689782
 20
18.644820493
 30
0.0
 11
28.6100071495
 21
18.6646434973
 31
0.0
  0
LINE
  5
234
330
1F
100
AcDbEntity
  8
0
  6
Continuous
 62
     7
370
    25
100
AcDbLine
 10
28.6135068651
 20
18.6585811553
 30
0.0
 11
28.878671908
 21
18.8116576763
 31
0.0
  0
LINE
  5
235
330
1F
100
AcDbEntity
  8
0
  6
Continuous
 62
     7
370
    25
100
AcDbLine
 10
28.1768765495
 20
18.4439310278
 30
0.0
 11
28.6326777779
 21
18.7070594761
 31
0.0
  0
LINE
  5
236
330
1F
100
AcDbEntity
  8
0
  6
Continuous
 62
     7
370
    25
100
AcDbLine
 10
28.6014303175
 20
18.76118753
 30
0.0
 11
28.1460030749
 21
18.4982749791
 31
0.0
  0
LINE
  5
237
330
1F
100
AcDbEntity
  8
0
  6
Continuous
 62
     7
370
    25
100
AcDbLine
 10
28.6390839558
 20
18.7194177034
 30
0.0
 11
28.6731222564
 21
18.7390675961
 31
0.0
  0
LINE
  5
238
330
1F
100
AcDbEntity
  8
0
  6
Continuous
 62
     7
370
    25
100
AcDbLine
 10
28.6493741865
 20
18.780204917
 30
0.0
 11
28.6153358859
 21
18.7605550243
 31
0.0
  0
LINE
  5
239
330
1F
100
AcDbEntity
  8
0
  6
Continuous
 62
     7
370
    25
100
AcDbLine
 10
28.6768719517
 20
18.7325722296
 30
0.0
 11
28.9420369946
 21
18.8856487506
 31
0.0
  0
LINE
  5
23A
330
1F
100
AcDbEntity
  8
0
  6
Continuous
 62
     7
370
    25
100
AcDbLine
 10
28.9107895342
 20
18.9397768045
 30
0.0
 11
28.6456244913
 21
18.7867002835
 31
0.0
  0
LINE
  5
23B
330
1F
100
AcDbEntity
  8
0
  6
Continuous
 62
     7
370
    25
100
AcDbLine
 10
28.1160873573
 20
18.5492427975
 30
0.0
 11
28.5180715066
 21
18.7813033073
 31
0.0
  0
LINE
  5
23C
330
1F
100
AcDbEntity
  8
0
  6
Continuous
 62
     7
370
    25
100
AcDbLine
 10
28.4868240462
 20
18.8354313612
 30
0.0
 11
28.0836836795
 21
18.6027033813
 31
0.0
  0
LINE
  5
23D
330
1F
100
AcDbEntity
  8
0
  6
Continuous
 62
     7
370
    25
100
AcDbLine
 10
28.5245005377
 20
18.7940211282
 30
0.0
 11
28.5583659973
 21
18.813571242
 31
0.0
  0
LINE
  5
23E
330
1F
100
AcDbEntity
  8
0
  6
Continuous
 62
     7
370
    25
100
AcDbLine
 10
28.5349179031
 20
18.8541889336
 30
0.0
 11
28.5010524434
 21
18.8346388199
 31
0.0
  0
LINE
  5
23F
330
1F
100
AcDbEntity
  8
0
  6
Continuous
 62
     7
370
    25
100
AcDbLine
 10
28.5622656804
 20
18.8068160608
 30
0.0
 11
28.8274307233
 21
18.9598925818
 31
0.0
  0
LINE
  5
240
330
1F
100
AcDbEntity
  8
0
  6
Continuous
 62
     7
370
    25
100
AcDbLine
 10
28.7961832629
 20
19.0140206357
 30
0.0
 11
28.53101822
 21
18.8609441147
 31
0.0
  0
LINE
  5
241
330
1F
100
AcDbEntity
  8
0
  6
Continuous
 62
     7
370
    25
100
AcDbLine
 10
27.6450321839
 20
16.906167942
 30
0.0
 11
27.6450321839
 21
16.8906561879
 31
0.0
  0
LINE
  5
242
330
1F
100
AcDbEntity
  8
0
  6
Continuous
 62
     7
370
    25
100
AcDbLine
 10
27.7420668162
 20
16.722569062
 30
0.0
 11
27.7554996615
 21
16.7148119244
 31
0.0
  0
LINE
  5
243
330
1F
100
AcDbEntity
  8
0
  6
Continuous
 62
     7
370
    25
100
AcDbLine
 10
27.8336362694
 20
16.7070659235
 30
0.0
 11
27.954551529
 21
16.7768688171
 31
0.0
  0
LINE
  5
244
330
1F
100
AcDbEntity
  8
0
  6
Continuous
 62
     7
370
    25
100
AcDbLine
 10
27.798314227
 20
17.0475090866
 30
0.0
 11
27.6773989675
 21
16.977706193
 31
0.0
  0
LINE
  5
245
330
1F
100
AcDbEntity
  8
0
  6
Continuous
 62
     7
370
    25
100
AcDbLine
 10
28.6375626173
 20
17.2746687246
 30
0.0
 11
28.6375626173
 21
17.2892062178
 31
0.0
  0
LINE
  5
246
330
1F
100
AcDbEntity
  8
0
  6
Continuous
 62
     7
370
    25
100
AcDbLine
 10
24.9171909988
 20
18.6613433314
 30
0.0
 11
24.9171909988
 21
18.6212729672
 31
0.0
  0
LINE
  5
247
330
1F
100
AcDbEntity
  8
0
  6
Continuous
 62
     7
370
    25
100
AcDbLine
 10
26.6387161692
 20
15.6384307482
 30
0.0
 11
26.674065762
 21
15.6180172281
 31
0.0
  0
LINE
  5
248
330
1F
100
AcDbEntity
  8
0
  6
Continuous
 62
     7
370
    25
100
AcDbLine
 10
25.6617620286
 20
19.9317539936
 30
0.0
 11
25.4319523247
 21
19.7990876755
 31
0.0
  0
LINE
  5
249
330
1F
100
AcDbEntity
  8
0
  6
Continuous
 62
     7
370
    25
100
AcDbLine
 10
27.9167503753
 20
15.4948248294
 30
0.0
 11
28.1465600792
 21
15.6274911476
 31
0.0
  0
LINE
  5
24A
330
1F
100
AcDbEntity
  8
0
  6
Continuous
 62
     7
370
    25
100
AcDbLine
 10
26.6107874992
 20
17.0387003382
 30
0.0
 11
26.8794048295
 21
17.1937698222
 31
0.0
  0
SPLINE
  5
24B
330
1F
100
AcDbEntity
  8
0
  6
Continuous
 62
     7
370
    25
100
AcDbSpline
210
0.0
220
0.0
230
1.0
 70
     8
 71
     3
 72
    50
 73
    46
 74
     0
 42
0.00000001
 43
0.00000001
 40
0.0
 40
0.0
 40
0.0
 40
0.0
 40
0.0206973475871941
 40
0.044198618753992
 40
0.0677707042679465
 40
0.0914195816149133
 40
0.1151420684422761
 40
0.1389285151072428
 40
0.1627659383900644
 40
0.1866407198472814
 40
0.2105404346756581
 40
0.2344547873295402
 40
0.2583758638785161
 40
0.2822970333364719
 40
0.3062144739855382
 40
0.3301262228164646
 40
0.3540312972386737
 40
0.3779294123783523
 40
0.4018207654338463
 40
0.4257058777444663
 40
0.4495854828321053
 40
0.4734604493175109
 40
0.4973317294098138
 40
0.5212003256480687
 40
0.5450672703198357
 40
0.5689336133579492
 40
0.592800384925504
 40
0.6166683286573289
 40
0.6405385163139781
 40
0.6644120196030973
 40
0.6882899023845566
 40
0.7121732070469299
 40
0.7360629314872926
 40
0.7599599921045928
 40
0.783865166681679
 40
0.8077790090952146
 40
0.8317017256071726
 40
0.8556330005207072
 40
0.8795717583066125
 40
0.9035158520891694
 40
0.9274608275040136
 40
0.9513997545739065
 40
0.9753240122801446
 40
0.9992223955665743
 40
1.0
 40
1.0
 40
1.0
 40
1.0
 10
26.91281383472452
 20
17.21900584049935
 30
0.0
 10
26.91661539628937
 20
17.22278140713524
 30
0.0
 10
26.92473352686466
 20
17.23084402625185
 30
0.0
 10
26.93581626033011
 20
17.24497994939506
 30
0.0
 10
26.9463119486689
 20
17.26096659035586
 30
0.0
 10
26.9556000183617
 20
17.27835592493713
 30
0.0
 10
26.96367720062077
 20
17.29703863173809
 30
0.0
 10
26.97049959818868
 20
17.31695804318943
 30
0.0
 10
26.97604070822219
 20
17.33803352220715
 30
0.0
 10
26.98027710359981
 20
17.36018273193956
 30
0.0
 10
26.98319281222289
 20
17.38331754217529
 30
0.0
 10
26.98477805323991
 20
17.40734680396276
 30
0.0
 10
26.98502913859146
 20
17.43217651917263
 30
0.0
 10
26.98394803212672
 20
17.45771079924871
 30
0.0
 10
26.981541961582
 20
17.48385233267697
 30
0.0
 10
26.97782299319663
 20
17.51050294742394
 30
0.0
 10
26.97280778340857
 20
17.53756341545035
 30
0.0
 10
26.96651745145365
 20
17.56493343776319
 30
0.0
 10
26.95897747783493
 20
17.59251185292823
 30
0.0
 10
26.95021761644572
 20
17.6201968853129
 30
0.0
 10
26.94027180639561
 20
17.64788642912015
 30
0.0
 10
26.92917807413271
 20
17.67547836164334
 30
0.0
 10
26.91697842019649
 20
17.70287087832665
 30
0.0
 10
26.90371868754197
 20
17.72996284255159
 30
0.0
 10
26.88944841015342
 20
17.75665414379647
 30
0.0
 10
26.874220648367
 20
17.78284604739111
 30
0.0
 10
26.85809186669197
 20
17.80844145002771
 30
0.0
 10
26.84112166933424
 20
17.83334536282072
 30
0.0
 10
26.82337256272044
 20
17.85746527038783
 30
0.0
 10
26.80490963112281
 20
17.88071155153256
 30
0.0
 10
26.7858003581919
 20
17.9029976744579
 30
0.0
 10
26.76611436704438
 20
17.92424048711006
 30
0.0
 10
26.74592315637612
 20
17.94436048239365
 30
0.0
 10
26.72529983720919
 20
17.96328203974033
 30
0.0
 10
26.70431888231395
 20
17.9809336229736
 30
0.0
 10
26.68305588192029
 20
17.99724799898427
 30
0.0
 10
26.66158738018862
 20
18.01216223369325
 30
0.0
 10
26.63999057892882
 20
18.02561838644377
 30
0.0
 10
26.61834378396122
 20
18.0375614998962
 30
0.0
 10
26.59672466768408
 20
18.04794754403745
 30
0.0
 10
26.57521796116959
 20
18.05671401222477
 30
0.0
 10
26.55388768672929
 20
18.06389101538277
 30
0.0
 10
26.53288053099659
 20
18.06918958909196
 30
0.0
 10
26.51875075093239
 20
18.07213883948092
 30
0.0
 10
26.51177418655581
 20
18.07283140846234
 30
0.0
 10
26.51155433690072
 20
18.07285323310889
 30
0.0
  0
LINE
  5
24C
330
1F
100
AcDbEntity
  8
0
  6
Continuous
 62
     7
370
    25
100
AcDbLine
 10
26.1760116909
 20
18.371584486
 30
0.0
 11
26.1547950406
 21
18.3838365788
 31
0.0
  0
LINE
  5
24D
330
1F
100
AcDbEntity
  8
0
  6
Continuous
 62
     7
370
    25
100
AcDbLine
 10
24.0967799578
 20
18.3838365788
 30
0.0
 11
24.0755633075
 21
18.371584486
 31
0.0
  0
LINE
  5
24E
330
1F
100
AcDbEntity
  8
0
  6
Continuous
 62
     7
370
    25
100
AcDbLine
 10
23.6407874992
 20
17.7654999767
 30
0.0
 11
23.6407874992
 21
13.5562320915
 31
0.0
  0
LINE
  5
24F
330
1F
100
AcDbEntity
  8
0
  6
Continuous
 62
     7
370
    25
100
AcDbLine
 10
26.6107874992
 20
13.5562320915
 30
0.0
 11
26.6107874992
 21
17.7654999767
 31
0.0
  0
LINE
  5
250
330
1F
100
AcDbEntity
  8
0
  6
Continuous
 62
     7
370
    25
100
AcDbLine
 10
24.0755633075
 20
12.9501475822
 30
0.0
 11
24.0861716327
 21
12.9440215358
 31
0.0
  0
LINE
  5
251
330
1F
100
AcDbEntity
  8
0
  6
Continuous
 62
     7
370
    25
100
AcDbLine
 10
26.1654033658
 20
12.9440215358
 30
0.0
 11
26.1760116909
 21
12.9501475822
 31
0.0
  0
LWPOLYLINE
  5
252
330
1F
100
AcDbEntity
  8
0
  6
Continuous
 62
     7
370
    25
100
AcDbPolyline
 90
       35
 70
   128
 43
0.0
 10
25.5659569863
 20
12.4991358819
 10
25.5696334413
 20
12.5087381297
 10
25.5712837068
 20
12.5184442156
 10
25.5708515849
 20
12.5279236106
 10
25.568351791
 20
12.5368535052
 10
25.5638694526
 20
12.5449298025
 10
25.5575572104
 20
12.551877474
 10
25.5496300202
 20
12.5574599249
 10
25.5403578329
 20
12.5614870517
 10
25.5300564018
 20
12.5638217154
 10
25.5190765297
 20
12.5643844117
 10
25.5077921231
 20
12.5631559788
 10
25.4965874588
 20
12.5601782494
 10
25.4858440983
 20
12.5555526266
 10
25.4759278938
 20
12.5494366304
 10
25.4671765298
 20
12.5420385337
 10
25.4598880234
 20
12.5336102698
 10
25.4543105761
 20
12.5244388532
 10
25.4506341211
 20
12.5148366054
 10
25.4489838556
 20
12.5051305194
 10
25.4494159775
 20
12.4956511244
 10
25.4519157714
 20
12.4867212298
 10
25.4563981098
 20
12.4786449325
 10
25.462710352
 20
12.4716972611
 10
25.4706375422
 20
12.4661148101
 10
25.4799097295
 20
12.4620876833
 10
25.4902111606
 20
12.4597530197
 10
25.5011910327
 20
12.4591903233
 10
25.5124754393
 20
12.4604187562
 10
25.5236801036
 20
12.4633964856
 10
25.5344234641
 20
12.4680221084
 10
25.5443396686
 20
12.4741381046
 10
25.5530910326
 20
12.4815362013
 10
25.5603795389
 20
12.4899644652
 10
25.5659569863
 20
12.4991358819
  0
LINE
  5
253
330
1F
100
AcDbEntity
  8
0
  6
Continuous
 62
     7
370
    25
100
AcDbLine
 10
25.5057977749
 20
12.5477050597
 30
0.0
 11
25.4704822936
 21
12.5207737779
 31
0.0
  0
LINE
  5
254
330
1F
100
AcDbEntity
  8
0
  6
Continuous
 62
     7
370
    25
100
AcDbLine
 10
25.4748182999
 20
12.4848560856
 30
0.0
 11
25.4704822936
 21
12.5207737779
 31
0.0
  0
LINE
  5
255
330
1F
100
AcDbEntity
  8
0
  6
Continuous
 62
     7
370
    25
100
AcDbLine
 10
25.5144697875
 20
12.4758696753
 30
0.0
 11
25.4748182999
 21
12.4848560856
 31
0.0
  0
LINE
  5
256
330
1F
100
AcDbEntity
  8
0
  6
Continuous
 62
     7
370
    25
100
AcDbLine
 10
25.5144697875
 20
12.4758696753
 30
0.0
 11
25.5497852688
 21
12.5028009572
 31
0.0
  0
LINE
  5
257
330
1F
100
AcDbEntity
  8
0
  6
Continuous
 62
     7
370
    25
100
AcDbLine
 10
25.5454492625
 20
12.5387186494
 30
0.0
 11
25.5497852688
 21
12.5028009572
 31
0.0
  0
LINE
  5
258
330
1F
100
AcDbEntity
  8
0
  6
Continuous
 62
     7
370
    25
100
AcDbLine
 10
25.5454492625
 20
12.5387186494
 30
0.0
 11
25.5057977749
 21
12.5477050597
 31
0.0
  0
LINE
  5
259
330
1F
100
AcDbEntity
  8
0
  6
Continuous
 62
     7
370
    25
100
AcDbLine
 10
25.5316638772
 20
12.5418428986
 30
0.0
 11
25.5497852688
 21
12.5028009572
 31
0.0
  0
LINE
  5
25A
330
1F
100
AcDbEntity
  8
0
  6
Continuous
 62
     7
370
    25
100
AcDbLine
 10
25.4911760734
 20
12.5260552152
 30
0.0
 11
25.4805622622
 21
12.5284606751
 31
0.0
  0
LINE
  5
25B
330
1F
100
AcDbEntity
  8
0
  6
Continuous
 62
     7
370
    25
100
AcDbLine
 10
25.4911760734
 20
12.5260552152
 30
0.0
 11
25.5144697875
 21
12.4758696753
 31
0.0
  0
LINE
  5
25C
330
1F
100
AcDbEntity
  8
0
  6
Continuous
 62
     7
370
    25
100
AcDbLine
 10
25.4911760734
 20
12.5260552152
 30
0.0
 11
25.5164115861
 21
12.5452995999
 31
0.0
  0
LWPOLYLINE
  5
25D
330
1F
100
AcDbEntity
  8
0
  6
Continuous
 62
     7
370
    25
100
AcDbPolyline
 90
       87
 70
   128
 43
0.0
 10
26.6107496076
 20
13.5501080353
 10
26.6107874992
 20
13.5439839793
 10
26.6097490458
 20
13.511929546
 10
26.606635138
 20
13.4799199436
 10
26.6014501309
 20
13.4479999407
 10
26.5942012762
 20
13.4162141801
 10
26.584898712
 20
13.3846071171
 10
26.5735554488
 20
13.353222957
 10
26.5601873513
 20
13.3221055935
 10
26.5448131158
 20
13.291298547
 10
26.5274542447
 20
13.2608449039
 10
26.508135016
 20
13.2307872564
 10
26.4868824492
 20
13.2011676429
 10
26.4637262681
 20
13.172027489
 10
26.4386988586
 20
13.1434075498
 10
26.4118352238
 20
13.1153478531
 10
26.3831729351
 20
13.0878876427
 10
26.3527520791
 20
13.0610653243
 10
26.3206152022
 20
13.0349184113
 10
26.2868072507
 20
13.0094834725
 10
26.2513755081
 20
12.984796081
 10
26.2143695289
 20
12.9608907643
 10
26.1758410693
 20
12.9378009563
 10
26.1358440148
 20
12.91555895
 10
26.094434305
 20
12.8941958529
 10
26.051669855
 20
12.8737415433
 10
26.0076104748
 20
12.8542246283
 10
25.9623177854
 20
12.8356724042
 10
25.9158551328
 20
12.8181108178
 10
25.8682874992
 20
12.8015644307
 10
25.8196814122
 20
12.7860563845
 10
25.7701048518
 20
12.7716083685
 10
25.7196271553
 20
12.7582405897
 10
25.6683189204
 20
12.745971744
 10
25.6162519062
 20
12.7348189907
 10
25.5634989332
 20
12.7247979277
 10
25.5101337812
 20
12.7159225705
 10
25.4562310861
 20
12.708205332
 10
25.4018662359
 20
12.7016570056
 10
25.3471152645
 20
12.6962867496
 10
25.2920547462
 20
12.6921020748
 10
25.2367616882
 20
12.6891088339
 10
25.1813134227
 20
12.6873112132
 10
25.1257874992
 20
12.6867117268
 10
25.0702615757
 20
12.6873112132
 10
25.0148133102
 20
12.6891088339
 10
24.9595202522
 20
12.6921020748
 10
24.9044597339
 20
12.6962867496
 10
24.8497087626
 20
12.7016570056
 10
24.7953439123
 20
12.708205332
 10
24.7414412172
 20
12.7159225705
 10
24.6880760652
 20
12.7247979277
 10
24.6353230922
 20
12.7348189907
 10
24.583256078
 20
12.745971744
 10
24.5319478431
 20
12.7582405897
 10
24.4814701466
 20
12.7716083685
 10
24.4318935862
 20
12.7860563845
 10
24.3832874992
 20
12.8015644307
 10
24.3357198656
 20
12.8181108178
 10
24.289257213
 20
12.8356724042
 10
24.2439645236
 20
12.8542246283
 10
24.1999051435
 20
12.8737415433
 10
24.1571406935
 20
12.8941958529
 10
24.1157309836
 20
12.91555895
 10
24.0757339292
 20
12.9378009563
 10
24.0372054695
 20
12.9608907643
 10
24.0001994903
 20
12.984796081
 10
23.9647677478
 20
13.0094834725
 10
23.9309597963
 20
13.0349184113
 10
23.8988229194
 20
13.0610653243
 10
23.8684020634
 20
13.0878876427
 10
23.8397397746
 20
13.1153478531
 10
23.8128761399
 20
13.1434075498
 10
23.7878487304
 20
13.172027489
 10
23.7646925492
 20
13.2011676429
 10
23.7434399825
 20
13.2307872564
 10
23.7241207537
 20
13.2608449039
 10
23.7067618826
 20
13.291298547
 10
23.6913876472
 20
13.3221055935
 10
23.6780195496
 20
13.353222957
 10
23.6666762865
 20
13.3846071171
 10
23.6573737223
 20
13.4162141801
 10
23.6501248675
 20
13.4479999407
 10
23.6449398604
 20
13.4799199436
 10
23.6418259526
 20
13.511929546
 10
23.6407874992
 20
13.5439839793
 10
23.6408253908
 20
13.5501080353
  0
ELLIPSE
  5
25E
330
1F
100
AcDbEntity
  8
0
  6
Continuous
 62
     7
370
    25
100
AcDbEllipse
 10
25.1257874992
 20
10.4582762512
 30
0.0
 11
1.050096235004468
 21
1.818721496729959
 31
0.0
210
0.0
220
0.0
230
1.0
 40
0.5773346305
 41
2.356235122223401
 42
5.497827775813213
  0
SPLINE
  5
25F
330
1F
100
AcDbEntity
  8
0
  6
Continuous
 62
     7
370
    25
100
AcDbSpline
210
0.0
220
0.0
230
1.0
 70
    11
 71
     3
 72
    26
 73
    22
 74
     0
 42
0.00000001
 43
0.00000001
 40
0.0
 40
0.0
 40
0.0
 40
0.0
 40
0.0536503689453583
 40
0.1072993747806824
 40
0.1609837494484642
 40
0.21469119359812
 40
0.2683602334769252
 40
0.321989397831844
 40
0.3756393219208456
 40
0.4293383015439513
 40
0.4830381555496818
 40
0.536689199405256
 40
0.5903179741194513
 40
0.6439857350046768
 40
0.6976929120120763
 40
0.7513784439456073
 40
0.8050151129999645
 40
0.8586518917400225
 40
0.9123375339937024
 40
0.9660446892035216
 40
1.0
 40
1.0
 40
1.0
 40
1.0
 10
25.44404765756883
 20
12.50249589078917
 30
0.0
 10
25.444782259474
 20
12.50882836503929
 30
0.0
 10
25.44625144462012
 20
12.52149315264859
 30
0.0
 10
25.45768805833154
 20
12.53957989486271
 30
0.0
 10
25.47449016015209
 20
12.55448911450916
 30
0.0
 10
25.49540680144211
 20
12.56472272964982
 30
0.0
 10
25.51785409832211
 20
12.56916837844812
 30
0.0
 10
25.53933981905023
 20
12.56734879905147
 30
0.0
 10
25.55746885318269
 20
12.55941803555726
 30
0.0
 10
25.57025241159386
 20
12.54616499853456
 30
0.0
 10
25.57628168039613
 20
12.52898519800235
 30
0.0
 10
25.57490061567647
 20
12.50977381110982
 30
0.0
 10
25.56626996040584
 20
12.49070925898207
 30
0.0
 10
25.55132456882897
 20
12.47399835982328
 30
0.0
 10
25.53169026176469
 20
12.46162359856769
 30
0.0
 10
25.50954432714583
 20
12.45507470307914
 30
0.0
 10
25.48739031501153
 20
12.45511919214916
 30
0.0
 10
25.46769406220781
 20
12.46170612388066
 30
0.0
 10
25.45284406871596
 20
12.47402223338806
 30
0.0
 10
25.44511752291915
 20
12.48853288934976
 30
0.0
 10
25.44434636069789
 20
12.4985974635527
 30
0.0
 10
25.44404765756883
 20
12.50249589078917
 30
0.0
  0
LWPOLYLINE
  5
260
330
1F
100
AcDbEntity
  8
0
  6
Continuous
 62
     7
370
    25
100
AcDbPolyline
 90
        8
 70
   128
 43
0.0
 10
28.568729736
 20
18.6701430573
 10
28.5696284614
 20
18.6686032894
 10
28.5730463126
 20
18.6612641157
 10
28.5751449923
 20
18.6538478194
 10
28.5757814789
 20
18.6468598088
 10
28.5749123969
 20
18.6407763054
 10
28.5725969729
 20
18.6360118898
 10
28.5693126913
 20
18.6330684018
  0
LWPOLYLINE
  5
261
330
1F
100
AcDbEntity
  8
0
  6
Continuous
 62
     7
370
    25
100
AcDbPolyline
 90
        7
 70
   128
 43
0.0
 10
28.6094205675
 20
18.6936333743
 10
28.6118840511
 20
18.6889945231
 10
28.6141800403
 20
18.6823956642
 10
28.615027978
 20
18.6760855393
 10
28.6143525211
 20
18.6706248305
 10
28.612213687
 20
18.666498746
 10
28.6100071495
 20
18.6646434973
  0
LWPOLYLINE
  5
262
330
1F
100
AcDbEntity
  8
0
  6
Continuous
 62
     7
370
    25
100
AcDbPolyline
 90
       11
 70
   128
 43
0.0
 10
28.6129239098
 20
18.6956558108
 10
28.6138226352
 20
18.6941160429
 10
28.6172404864
 20
18.6867768692
 10
28.6193391661
 20
18.6793605729
 10
28.6199756527
 20
18.6723725623
 10
28.6191065708
 20
18.6662890589
 10
28.6167911467
 20
18.6615246433
 10
28.6131871729
 20
18.6584040025
 10
28.6085402542
 20
18.6571398032
 10
28.6031670705
 20
18.6578181983
 10
28.600151147
 20
18.6589537482
  0
LWPOLYLINE
  5
263
330
1F
100
AcDbEntity
  8
0
  6
Continuous
 62
     7
370
    25
100
AcDbPolyline
 90
        8
 70
   128
 43
0.0
 10
28.8780889528
 20
18.8487323318
 10
28.8789876781
 20
18.8471925638
 10
28.8824055294
 20
18.8398533901
 10
28.884504209
 20
18.8324370938
 10
28.8851406957
 20
18.8254490833
 10
28.8842716137
 20
18.8193655799
 10
28.8819561897
 20
18.8146011642
 10
28.878671908
 20
18.8116576763
  0
LWPOLYLINE
  5
264
330
1F
100
AcDbEntity
  8
0
  6
Continuous
 62
     7
370
    25
100
AcDbPolyline
 90
       12
 70
   128
 43
0.0
 10
28.6380170014
 20
18.7139520592
 10
28.6391114016
 20
18.7198605429
 10
28.6387026297
 20
18.7267410237
 10
28.6368185426
 20
18.7341246083
 10
28.6335875379
 20
18.7415081175
 10
28.6292298031
 20
18.7483883775
 10
28.6240423107
 20
18.7542965099
 10
28.6183785798
 20
18.7588298852
 10
28.6126245841
 20
18.7616795614
 10
28.6071724491
 20
18.7626513377
 10
28.6023937287
 20
18.7616789893
 10
28.6014303175
 20
18.76118753
  0
LWPOLYLINE
  5
265
330
1F
100
AcDbEntity
  8
0
  6
Continuous
 62
     7
370
    25
100
AcDbPolyline
 90
        3
 70
   128
 43
0.0
 10
28.6326777779
 20
18.7070594761
 10
28.6354940105
 20
18.7094182261
 10
28.6380170014
 20
18.7139520592
  0
LWPOLYLINE
  5
266
330
1F
100
AcDbEntity
  8
0
  6
Continuous
 62
     7
370
    25
100
AcDbPolyline
 90
       10
 70
   128
 43
0.0
 10
28.6771800663
 20
18.7443059592
 10
28.6780377274
 20
18.7495060759
 10
28.6774035673
 20
18.7556063036
 10
28.6753339338
 20
18.7620646103
 10
28.6720127229
 20
18.7683071471
 10
28.6677350388
 20
18.7737792373
 10
28.6628809725
 20
18.7779946615
 10
28.6578818292
 20
18.7805788609
 10
28.6531818046
 20
18.781302218
 10
28.6493741865
 20
18.780204917
  0
LWPOLYLINE
  5
267
330
1F
100
AcDbEntity
  8
0
  6
Continuous
 62
     7
370
    25
100
AcDbPolyline
 90
        3
 70
   128
 43
0.0
 10
28.6731222564
 20
18.7390675961
 10
28.6749067909
 20
18.7404680067
 10
28.6771800663
 20
18.7443059592
  0
LWPOLYLINE
  5
268
330
1F
100
AcDbEntity
  8
0
  6
Continuous
 62
     7
370
    25
100
AcDbPolyline
 90
       14
 70
   128
 43
0.0
 10
28.9107895342
 20
18.9397768045
 10
28.9117529455
 20
18.9402682637
 10
28.9165316659
 20
18.9412406122
 10
28.9219838009
 20
18.9402688358
 10
28.9277377965
 20
18.9374191597
 10
28.9334015275
 20
18.9328857844
 10
28.9385890199
 20
18.926977652
 10
28.9429467546
 20
18.920097392
 10
28.9461777594
 20
18.9127138827
 10
28.9480618464
 20
18.9053302981
 10
28.9484706184
 20
18.8984498173
 10
28.9473762182
 20
18.8925413337
 10
28.9448532273
 20
18.8880075006
 10
28.9420369946
 20
18.8856487506
  0
LWPOLYLINE
  5
269
330
1F
100
AcDbEntity
  8
0
  6
Continuous
 62
     7
370
    25
100
AcDbPolyline
 90
       14
 70
   128
 43
0.0
 10
28.6822111752
 20
18.7394648127
 10
28.6833055755
 20
18.7453732964
 10
28.6828968035
 20
18.7522537772
 10
28.6810127164
 20
18.7596373618
 10
28.6777817117
 20
18.767020871
 10
28.6734239769
 20
18.773901131
 10
28.6682364845
 20
18.7798092634
 10
28.6625727536
 20
18.7843426387
 10
28.6568187579
 20
18.7871923149
 10
28.6513666229
 20
18.7881640912
 10
28.6465879025
 20
18.7871917428
 10
28.6428082586
 20
18.7843415335
 10
28.6402852677
 20
18.7798077004
 10
28.6392183133
 20
18.7743420562
  0
ARC
  5
26A
330
1F
100
AcDbEntity
  8
0
  6
Continuous
 62
     7
370
    25
100
AcDbCircle
 10
28.670126949
 20
18.7439029568
 30
0.0
 40
0.0128734473131439
100
AcDbArc
 50
236.20469437
 51
339.8333549377
  0
LWPOLYLINE
  5
26B
330
1F
100
AcDbEntity
  8
0
  6
Continuous
 62
     7
370
    25
100
AcDbPolyline
 90
       14
 70
   128
 43
0.0
 10
28.5180715066
 20
18.7813033073
 10
28.5190593565
 20
18.7819507241
 10
28.5222647838
 20
18.7856384154
 10
28.5241197148
 20
18.790875045
 10
28.524497739
 20
18.7973037451
 10
28.5233730946
 20
18.8044864106
 10
28.5208224245
 20
18.8119335546
 10
28.5170195524
 20
18.8191376666
 10
28.5122236379
 20
18.8256077983
 10
28.5067615145
 20
18.8309030208
 10
28.5010054171
 20
18.8346624735
 10
28.495347614
 20
18.836629956
 10
28.4901736753
 20
18.8366713874
 10
28.4868240462
 20
18.8354313612
  0
LWPOLYLINE
  5
26C
330
1F
100
AcDbEntity
  8
0
  6
Continuous
 62
     7
370
    25
100
AcDbPolyline
 90
       12
 70
   128
 43
0.0
 10
28.5583659973
 20
18.813571242
 10
28.5609228456
 20
18.815905197
 10
28.562772164
 20
18.8201307387
 10
28.5631882421
 20
18.8255779705
 10
28.5621341096
 20
18.8317628818
 10
28.5597034307
 20
18.8381359161
 10
28.556112182
 20
18.8441308014
 10
28.5516794616
 20
18.8492148658
 10
28.5467991362
 20
18.8529363679
 10
28.5419048441
 20
18.8549646359
 10
28.5374314647
 20
18.8551194493
 10
28.5349179031
 20
18.8541889336
  0
LWPOLYLINE
  5
26D
330
1F
100
AcDbEntity
  8
0
  6
Continuous
 62
     7
370
    25
100
AcDbPolyline
 90
       20
 70
   128
 43
0.0
 10
28.5480372832
 20
18.8076086022
 10
28.5480843095
 20
18.8075849486
 10
28.5537421126
 20
18.8056174661
 10
28.5589160513
 20
18.8055760346
 10
28.5632535303
 20
18.8074634776
 10
28.5664589576
 20
18.8111511689
 10
28.5683138886
 20
18.8163877985
 10
28.5686919128
 20
18.8228164986
 10
28.5675672685
 20
18.8299991641
 10
28.5650165983
 20
18.8374463081
 10
28.5612137262
 20
18.8446504201
 10
28.5564178117
 20
18.8511205518
 10
28.5509556884
 20
18.8564157743
 10
28.5451995909
 20
18.860175227
 10
28.5395417878
 20
18.8621427095
 10
28.5343678491
 20
18.8621841409
 10
28.5300303701
 20
18.860296698
 10
28.5268249428
 20
18.8566090067
 10
28.5249700118
 20
18.8513723771
 10
28.5245891889
 20
18.8482262938
  0
LWPOLYLINE
  5
26E
330
1F
100
AcDbEntity
  8
0
  6
Continuous
 62
     7
370
    25
100
AcDbPolyline
 90
        9
 70
   128
 43
0.0
 10
28.8215828546
 20
19.0041970727
 10
28.8263787692
 20
18.9977269411
 10
28.8301816412
 20
18.9905228291
 10
28.8327323114
 20
18.9830756851
 10
28.8338569557
 20
18.9758930196
 10
28.8334789315
 20
18.9694643194
 10
28.8316240005
 20
18.9642276899
 10
28.8284185732
 20
18.9605399986
 10
28.8274307233
 20
18.9598925818
  0
ARC
  5
26F
330
1F
100
AcDbEntity
  8
0
  6
Continuous
 62
     7
370
    25
100
AcDbCircle
 10
28.8023931755
 20
18.9923287525
 30
0.0
 40
0.0225632624510798
100
AcDbArc
 50
31.735719258
 51
105.9752610292
  0
LWPOLYLINE
  5
270
330
1F
100
AcDbEntity
  8
0
  6
Continuous
 62
     7
370
    25
100
AcDbPolyline
 90
       52
 70
   128
 43
0.0
 10
27.8317307689
 20
16.825805778
 10
27.8264829016
 20
16.8412316238
 10
27.8199556116
 20
16.8565573985
 10
27.812247846
 20
16.8715507789
 10
27.8034764466
 20
16.8859844807
 10
27.7937743789
 20
16.8996397036
 10
27.7832887164
 20
16.9123094485
 10
27.772178411
 20
16.9238016548
 10
27.7606118837
 20
16.9339421125
 10
27.7487644711
 20
16.9425771026
 10
27.736815768
 20
16.9495757274
 10
27.7249469046
 20
16.9548318948
 10
27.7133378007
 20
16.9582659268
 10
27.7021644384
 20
16.959825767
 10
27.6915961947
 20
16.9594877696
 10
27.6817932732
 20
16.9572570585
 10
27.6729042764
 20
16.953167449
 10
27.6650639522
 20
16.9472809353
 10
27.6583911521
 20
16.9396867509
 10
27.6529870288
 20
16.9305000161
 10
27.6489335035
 20
16.9198599923
 10
27.6462920233
 20
16.9079279715
 10
27.6451026305
 20
16.8948848308
 10
27.645383355
 20
16.8809282911
 10
27.6471299413
 20
16.8662699193
 10
27.650315913
 20
16.8511319212
 10
27.654892974
 20
16.8357437736
 10
27.6607917406
 20
16.8203387451
 10
27.6679227937
 20
16.8051503602
 10
27.6761780337
 20
16.7904088593
 10
27.6854323195
 20
16.7763377086
 10
27.6955453657
 20
16.7631502123
 10
27.7063638688
 20
16.7510462795
 10
27.7177238313
 20
16.7402093935
 10
27.7294530478
 20
16.7308038303
 10
27.7413737152
 20
16.7229721688
 10
27.7533051284
 20
16.716833129
 10
27.7650664194
 20
16.7124797724
 10
27.7764792989
 20
16.7099780914
 10
27.7873707594
 20
16.7093660091
 10
27.7975756974
 20
16.710652804
 10
27.8069394165
 20
16.7138189695
 10
27.8153199722
 20
16.7188165098
 10
27.8225903238
 20
16.7255696673
 10
27.8286402602
 20
16.7339760711
 10
27.8333780706
 20
16.7439082885
 10
27.8367319345
 20
16.7552157574
 10
27.8386510109
 20
16.767727068
 10
27.8391062084
 20
16.7812525616
 10
27.8380906267
 20
16.7955872055
 10
27.8356196611
 20
16.8105137011
 10
27.8317307689
 20
16.825805778
  0
LWPOLYLINE
  5
271
330
1F
100
AcDbEntity
  8
0
  6
Continuous
 62
     7
370
    25
100
AcDbPolyline
 90
       25
 70
   128
 43
0.0
 10
27.8575761103
 20
16.8323400619
 10
27.8519728201
 20
16.8489262657
 10
27.8450651387
 20
16.8654240245
 10
27.8369464807
 20
16.8816102343
 10
27.827726637
 20
16.8972660044
 10
27.8175302903
 20
16.9121796174
 10
27.8064953285
 20
16.9261493922
 10
27.7947709807
 20
16.9389864116
 10
27.7825157985
 20
16.950517077
 10
27.7698955122
 20
16.9605854558
 10
27.7570807895
 20
16.9690553906
 10
27.7442449277
 20
16.9758123399
 10
27.7315615097
 20
16.9807649277
 10
27.7192020569
 20
16.9838461786
 10
27.7073337098
 20
16.9850144241
 10
27.6961169674
 20
16.9842538656
 10
27.6857035169
 20
16.9815747884
 10
27.6762341824
 20
16.9770134224
 10
27.6678370203
 20
16.9706314522
 10
27.6606255879
 20
16.9625151831
 10
27.6546974075
 20
16.9527743737
 10
27.6501326474
 20
16.9415407516
 10
27.6469930383
 20
16.9289662325
 10
27.645321038
 20
16.915220865
 10
27.6450321839
 20
16.906167942
  0
LWPOLYLINE
  5
272
330
1F
100
AcDbEntity
  8
0
  6
Continuous
 62
     7
370
    25
100
AcDbPolyline
 90
       18
 70
   128
 43
0.0
 10
27.7554996615
 20
16.7148119244
 10
27.7667903092
 20
16.7089597766
 10
27.7794737272
 20
16.7040071888
 10
27.79183318
 20
16.7009259379
 10
27.8037015271
 20
16.6997576924
 10
27.8149182695
 20
16.7005182509
 10
27.82533172
 20
16.7031973281
 10
27.8348010545
 20
16.7077586941
 10
27.8431982166
 20
16.7141406643
 10
27.850409649
 20
16.7222569334
 10
27.8563378294
 20
16.7319977428
 10
27.8609025895
 20
16.7432313649
 10
27.8640421986
 20
16.755805884
 10
27.8657141989
 20
16.7695512515
 10
27.8658959796
 20
16.7842815849
 10
27.8645850822
 20
16.7997976815
 10
27.8617992345
 20
16.8158897129
 10
27.8575761103
 20
16.8323400619
  0
LWPOLYLINE
  5
273
330
1F
100
AcDbEntity
  8
0
  6
Continuous
 62
     7
370
    25
100
AcDbPolyline
 90
       18
 70
   128
 43
0.0
 10
27.9784913699
 20
16.9021429554
 10
27.9728880796
 20
16.9187291593
 10
27.9659803983
 20
16.9352269181
 10
27.9578617403
 20
16.9514131279
 10
27.9486418966
 20
16.967068898
 10
27.9384455499
 20
16.981982511
 10
27.9274105881
 20
16.9959522858
 10
27.9156862403
 20
17.0087893052
 10
27.9034310581
 20
17.0203199706
 10
27.8908107718
 20
17.0303883494
 10
27.8779960491
 20
17.0388582842
 10
27.8651601873
 20
17.0456152335
 10
27.8524767692
 20
17.0505678212
 10
27.8401173165
 20
17.0536490722
 10
27.8282489694
 20
17.0548173177
 10
27.817032227
 20
17.0540567592
 10
27.8066187765
 20
17.051377682
 10
27.798314227
 20
17.0475090866
  0
ARC
  5
274
330
1F
100
AcDbEntity
  8
0
  6
Continuous
 62
     7
370
    25
100
AcDbCircle
 10
27.8817708159
 20
16.8557017005
 30
0.0
 40
0.1072923842601485
100
AcDbArc
 50
312.7140585349
 51
25.6484144939
  0
LINE
  5
275
330
1F
100
AcDbEntity
  8
0
  6
Continuous
 62
     7
370
    25
100
AcDbLine
 10
27.7176405359
 20
16.9168047325
 30
0.0
 11
27.6788159874
 21
16.8807420624
 31
0.0
  0
LINE
  5
276
330
1F
100
AcDbEntity
  8
0
  6
Continuous
 62
     7
370
    25
100
AcDbLine
 10
27.6788159874
 20
16.8807420624
 30
0.0
 11
27.7032580412
 21
16.7985675111
 31
0.0
  0
LINE
  5
277
330
1F
100
AcDbEntity
  8
0
  6
Continuous
 62
     7
370
    25
100
AcDbLine
 10
27.7665246434
 20
16.7524556299
 30
0.0
 11
27.7032580412
 21
16.7985675111
 31
0.0
  0
LINE
  5
278
330
1F
100
AcDbEntity
  8
0
  6
Continuous
 62
     7
370
    25
100
AcDbLine
 10
27.8053491918
 20
16.7885183
 30
0.0
 11
27.7665246434
 21
16.7524556299
 31
0.0
  0
LINE
  5
279
330
1F
100
AcDbEntity
  8
0
  6
Continuous
 62
     7
370
    25
100
AcDbLine
 10
27.8053491918
 20
16.7885183
 30
0.0
 11
27.780907138
 21
16.8706928513
 31
0.0
  0
LINE
  5
27A
330
1F
100
AcDbEntity
  8
0
  6
Continuous
 62
     7
370
    25
100
AcDbLine
 10
27.7176405359
 20
16.9168047325
 30
0.0
 11
27.780907138
 21
16.8706928513
 31
0.0
  0
ARC
  5
27B
330
1F
100
AcDbEntity
  8
0
  6
Continuous
 62
     7
370
    25
100
AcDbCircle
 10
27.8756911765
 20
16.9120669899
 30
0.0
 40
0.1261631661842498
100
AcDbArc
 50
196.4249715995
 51
232.2953872054
  0
LWPOLYLINE
  5
27C
330
1F
100
AcDbEntity
  8
0
  6
Continuous
 62
     7
370
    25
100
AcDbPolyline
 90
        3
 70
   128
 43
0.0
 10
27.7512151542
 20
16.8923338623
 10
27.7523504213
 20
16.8856390945
 10
27.7546766246
 20
16.8763931518
  0
LINE
  5
27D
330
1F
100
AcDbEntity
  8
0
  6
Continuous
 62
     7
370
    25
100
AcDbLine
 10
27.7280909901
 20
16.9091879159
 30
0.0
 11
27.6788159874
 21
16.8807420624
 31
0.0
  0
LINE
  5
27E
330
1F
100
AcDbEntity
  8
0
  6
Continuous
 62
     7
370
    25
100
AcDbLine
 10
27.7668976515
 20
16.8353058761
 30
0.0
 11
27.7032580412
 21
16.7985675111
 31
0.0
  0
LINE
  5
27F
330
1F
100
AcDbEntity
  8
0
  6
Continuous
 62
     7
370
    25
100
AcDbLine
 10
27.7982238646
 20
16.8124737567
 30
0.0
 11
27.7668976515
 21
16.8353058761
 31
0.0
  0
LINE
  5
280
330
1F
100
AcDbEntity
  8
0
  6
Continuous
 62
     7
370
    25
100
AcDbLine
 10
27.7495809249
 20
16.8935249708
 30
0.0
 11
27.7546766246
 21
16.8763931518
 31
0.0
  0
LINE
  5
281
330
1F
100
AcDbEntity
  8
0
  6
Continuous
 62
     7
370
    25
100
AcDbLine
 10
27.7546766246
 20
16.8763931518
 30
0.0
 11
27.7668976515
 21
16.8353058761
 31
0.0
  0
ARC
  5
282
330
1F
100
AcDbEntity
  8
0
  6
Continuous
 62
     7
370
    25
100
AcDbCircle
 10
28.4950195804
 20
17.2618284856
 30
0.0
 40
0.1216934849952431
100
AcDbArc
 50
353.9723660369
 51
27.6676839589
  0
ARC
  5
283
330
1F
100
AcDbEntity
  8
0
  6
Continuous
 62
     7
370
    25
100
AcDbCircle
 10
28.5021141541
 20
17.2660892683
 30
0.0
 40
0.1173442646077419
100
AcDbArc
 50
348.5954281925
 51
33.147818735
  0
LWPOLYLINE
  5
284
330
1F
100
AcDbEntity
  8
0
  6
Continuous
 62
     7
370
    25
100
AcDbPolyline
 90
       16
 70
   128
 43
0.0
 10
28.5907812447
 20
17.3751102239
 10
28.5940968657
 20
17.3718906696
 10
28.6031479098
 20
17.3618759458
 10
28.6114796713
 20
17.3507721898
 10
28.6189060325
 20
17.3388274413
 10
28.6252611007
 20
17.3263085263
 10
28.6304029141
 20
17.3134950965
 10
28.6342166132
 20
17.300673383
 10
28.6366170063
 20
17.2881298014
 10
28.6375504724
 20
17.2761445548
 10
28.6369961596
 20
17.2649853737
 10
28.6349664502
 20
17.2549015358
 10
28.6315066846
 20
17.2461182974
 10
28.6266941483
 20
17.2388318615
 10
28.6206363453
 20
17.233204995
 10
28.6190330364
 20
17.2321296729
  0
ARC
  5
285
330
1F
100
AcDbEntity
  8
0
  6
Continuous
 62
     7
370
    25
100
AcDbCircle
 10
28.5173933774
 20
17.2821186481
 30
0.0
 40
0.1207491840158755
100
AcDbArc
 50
16.0391400686
 51
53.0306232969
  0
ARC
  5
286
330
1F
100
AcDbEntity
  8
0
  6
Continuous
 62
     7
370
    25
100
AcDbCircle
 10
28.5463478946
 20
17.2883622242
 30
0.0
 40
0.0912186272473233
100
AcDbArc
 50
0.5301325717
 51
17.2951089912
  0
LWPOLYLINE
  5
287
330
1F
100
AcDbEntity
  8
0
  6
Continuous
 62
     7
370
    25
100
AcDbPolyline
 90
       56
 70
   128
 43
0.0
 10
28.4315117013
 20
16.6325691735
 10
28.430781911
 20
16.5745158355
 10
28.4285931463
 20
16.5173533174
 10
28.4249472253
 20
16.4611291009
 10
28.4198471765
 20
16.4058898886
 10
28.4132972361
 20
16.3516815648
 10
28.405302845
 20
16.2985491574
 10
28.3958706437
 20
16.2465368009
 10
28.3850084668
 20
16.1956876991
 10
28.3727253372
 20
16.1460440896
 10
28.3590314577
 20
16.0976472089
 10
28.3439382032
 20
16.0505372576
 10
28.3274581107
 20
16.0047533675
 10
28.3096048695
 20
15.9603335689
 10
28.2903933093
 20
15.917314759
 10
28.2698393881
 20
15.8757326712
 10
28.247960179
 20
15.8356218456
 10
28.2247738559
 20
15.7970156001
 10
28.2002996784
 20
15.7599460029
 10
28.174557976
 20
15.7244438458
 10
28.1475701309
 20
15.6905386185
 10
28.1193585606
 20
15.6582584843
 10
28.0899466988
 20
15.6276302567
 10
28.0593589766
 20
15.5986793769
 10
28.0276208014
 20
15.5714298928
 10
27.9947585365
 20
15.5459044393
 10
27.9607994788
 20
15.5221242188
 10
27.9257718365
 20
15.5001089844
 10
27.889704705
 20
15.4798770231
 10
27.8526280435
 20
15.4614451403
 10
27.8145726496
 20
15.4448286466
 10
27.7755701338
 20
15.4300413444
 10
27.7356528936
 20
15.4170955166
 10
27.6948540861
 20
15.4060019168
 10
27.6532076007
 20
15.3967697597
 10
27.6107480309
 20
15.3894067141
 10
27.5675106457
 20
15.3839188961
 10
27.5235313602
 20
15.380310864
 10
27.4788467054
 20
15.378585615
 10
27.4334937988
 20
15.378744582
 10
27.3875103124
 20
15.380787633
 10
27.3409344425
 20
15.3847130709
 10
27.2938048771
 20
15.3905176352
 10
27.2461607643
 20
15.3981965043
 10
27.1980416795
 20
15.4077432996
 10
27.1494875927
 20
15.4191500913
 10
27.1005388352
 20
15.4324074043
 10
27.0512360662
 20
15.4475042264
 10
27.001620239
 20
15.4644280175
 10
26.9517325667
 20
15.48316472
 10
26.9016144884
 20
15.5036987701
 10
26.8513076346
 20
15.5260131114
 10
26.8008537925
 20
15.5500892084
 10
26.7502948715
 20
15.5759070626
 10
26.6996728683
 20
15.6034452282
 10
26.674065762
 20
15.6180172281
  0
LWPOLYLINE
  5
288
330
1F
100
AcDbEntity
  8
0
  6
Continuous
 62
     7
370
    25
100
AcDbPolyline
 90
      110
 70
   128
 43
0.0
 10
24.9171909988
 20
18.6613433314
 10
24.9179207891
 20
18.7193966694
 10
24.9201095538
 20
18.7765591875
 10
24.9237554747
 20
18.832783404
 10
24.9288555236
 20
18.8880226163
 10
24.9354054639
 20
18.9422309401
 10
24.943399855
 20
18.9953633475
 10
24.9528320564
 20
19.047375704
 10
24.9636942332
 20
19.0982248058
 10
24.9759773628
 20
19.1478684153
 10
24.9896712423
 20
19.196265296
 10
25.0047644969
 20
19.2433752473
 10
25.0212445893
 20
19.2891591374
 10
25.0390978305
 20
19.333578936
 10
25.0583093908
 20
19.3765977459
 10
25.0788633119
 20
19.4181798337
 10
25.1007425211
 20
19.4582906593
 10
25.1239288442
 20
19.4968969048
 10
25.1484030216
 20
19.533966502
 10
25.174144724
 20
19.5694686591
 10
25.2011325691
 20
19.6033738864
 10
25.2293441394
 20
19.6356540206
 10
25.2587560012
 20
19.6662822482
 10
25.2893437235
 20
19.695233128
 10
25.3210818987
 20
19.7224826121
 10
25.3539441636
 20
19.7480080656
 10
25.3879032212
 20
19.7717882861
 10
25.4229308635
 20
19.7938035205
 10
25.458997995
 20
19.8140354818
 10
25.4960746565
 20
19.8324673646
 10
25.5341300505
 20
19.8490838583
 10
25.5731325662
 20
19.8638711605
 10
25.6130498064
 20
19.8768169883
 10
25.6538486139
 20
19.8879105881
 10
25.6954950993
 20
19.8971427452
 10
25.7379546691
 20
19.9045057908
 10
25.7811920543
 20
19.9099936088
 10
25.8251713399
 20
19.9136016409
 10
25.8698559946
 20
19.9153268899
 10
25.9152089013
 20
19.9151679229
 10
25.9611923876
 20
19.9131248719
 10
26.0077682575
 20
19.909199434
 10
26.0548978229
 20
19.9033948697
 10
26.1025419358
 20
19.8957160006
 10
26.1506610206
 20
19.8861692053
 10
26.1992151074
 20
19.8747624136
 10
26.2481638648
 20
19.8615051006
 10
26.2974666338
 20
19.8464082785
 10
26.3470824611
 20
19.8294844874
 10
26.3969701334
 20
19.8107477849
 10
26.4470882116
 20
19.7902137348
 10
26.4973950654
 20
19.7678993935
 10
26.5478489075
 20
19.7438232965
 10
26.5984078285
 20
19.7180054423
 10
26.6490298318
 20
19.6904672767
 10
26.6996728683
 20
19.661231674
 10
26.7502948715
 20
19.6303229187
 10
26.8008537925
 20
19.5977666852
 10
26.8513076346
 20
19.5635900162
 10
26.9016144884
 20
19.5278213004
 10
26.9517325667
 20
19.4904902491
 10
27.001620239
 20
19.4516278711
 10
27.0512360662
 20
19.4112664474
 10
27.1005388352
 20
19.3694395041
 10
27.1494875927
 20
19.3261817847
 10
27.1980416795
 20
19.281529221
 10
27.2461607643
 20
19.2355189036
 10
27.2938048771
 20
19.1881890509
 10
27.3409344425
 20
19.1395789772
 10
27.3875103124
 20
19.0897290604
 10
27.4334937988
 20
19.0386807082
 10
27.4788467054
 20
18.9864763237
 10
27.5235313602
 20
18.9331592705
 10
27.5675106457
 20
18.8787738361
 10
27.6107480309
 20
18.8233651957
 10
27.6532076007
 20
18.7669793743
 10
27.6948540861
 20
18.7096632087
 10
27.7356528936
 20
18.6514643084
 10
27.7755701338
 20
18.5924310161
 10
27.8145726496
 20
18.5326123677
 10
27.8526280435
 20
18.4720580514
 10
27.889704705
 20
18.4108183664
 10
27.9257718365
 20
18.3489441815
 10
27.9607994788
 20
18.2864868921
 10
27.9947585365
 20
18.2234983783
 10
28.0276208014
 20
18.1600309613
 10
28.0593589766
 20
18.0961373601
 10
28.0899466988
 20
18.0318706478
 10
28.1193585606
 20
17.9672842075
 10
28.1475701309
 20
17.9024316875
 10
28.174557976
 20
17.8373669576
 10
28.2002996784
 20
17.7721440635
 10
28.2247738559
 20
17.7068171825
 10
28.247960179
 20
17.6414405781
 10
28.2698393881
 20
17.5760685554
 10
28.2903933093
 20
17.5107554153
 10
28.3096048695
 20
17.4455554101
 10
28.3274581107
 20
17.380522698
 10
28.3439382032
 20
17.3157112982
 10
28.3590314577
 20
17.2511750461
 10
28.3727253372
 20
17.1869675486
 10
28.3850084668
 20
17.1231421396
 10
28.3958706437
 20
17.0597518353
 10
28.405302845
 20
16.9968492909
 10
28.4132972361
 20
16.9344867561
 10
28.4198471765
 20
16.8727160321
 10
28.4249472253
 20
16.8115884288
 10
28.4285931463
 20
16.7511547215
 10
28.430781911
 20
16.6914651094
 10
28.4315117013
 20
16.6325691735
  0
LWPOLYLINE
  5
289
330
1F
100
AcDbEntity
  8
0
  6
Continuous
 62
     7
370
    25
100
AcDbPolyline
 90
      109
 70
   128
 43
0.0
 10
28.3608010231
 20
16.6325691735
 10
28.3600726137
 20
16.6908181491
 10
28.3578880016
 20
16.7498588439
 10
28.3542490352
 20
16.8096413036
 10
28.3491587936
 20
16.8701149463
 10
28.3426215835
 20
16.9312286052
 10
28.3346429361
 20
16.9929305721
 10
28.3252296022
 20
17.0551686409
 10
28.3143895462
 20
17.1178901521
 10
28.3021319401
 20
17.1810420369
 10
28.2884671549
 20
17.2445708627
 10
28.2734067524
 20
17.3084228775
 10
28.2569634753
 20
17.3725440563
 10
28.2391512362
 20
17.4368801462
 10
28.2199851061
 20
17.5013767124
 10
28.1994813013
 20
17.5659791843
 10
28.1776571701
 20
17.6306329018
 10
28.154531178
 20
17.6952831614
 10
28.1301228919
 20
17.7598752626
 10
28.1044529635
 20
17.824354554
 10
28.0775431123
 20
17.8886664796
 10
28.0494161066
 20
17.9527566251
 10
28.0200957446
 20
18.016570764
 10
27.9896068345
 20
18.080054903
 10
27.9579751727
 20
18.1431553282
 10
27.9252275228
 20
18.2058186504
 10
27.8913915927
 20
18.2679918502
 10
27.856496011
 20
18.3296223228
 10
27.8205703026
 20
18.3906579226
 10
27.7836448645
 20
18.4510470075
 10
27.7457509391
 20
18.5107384823
 10
27.7069205886
 20
18.569681842
 10
27.6671866672
 20
18.6278272147
 10
27.6265827939
 20
18.6851254036
 10
27.5851433236
 20
18.7415279286
 10
27.5429033183
 20
18.7969870677
 10
27.499898517
 20
18.8514558968
 10
27.4561653064
 20
18.9048883299
 10
27.4117406889
 20
18.9572391577
 10
27.3666622523
 20
19.0084640864
 10
27.3209681373
 20
19.0585197744
 10
27.2746970059
 20
19.1073638698
 10
27.227888008
 20
19.1549550454
 10
27.1805807487
 20
19.2012530343
 10
27.1328152545
 20
19.246218664
 10
27.0846319401
 20
19.289813889
 10
27.0360715731
 20
19.3320018233
 10
26.9871752405
 20
19.3727467717
 10
26.9379843136
 20
19.41201426
 10
26.8885404127
 20
19.449771064
 10
26.8388853724
 20
19.4859852375
 10
26.7890612057
 20
19.5206261399
 10
26.7391100688
 20
19.5536644614
 10
26.6890742255
 20
19.5850722483
 10
26.638996011
 20
19.6148229266
 10
26.5889177964
 20
19.6428913241
 10
26.5388819531
 20
19.6692536922
 10
26.4889308163
 20
19.6938877257
 10
26.4391066495
 20
19.7167725818
 10
26.3894516092
 20
19.7378888975
 10
26.3400077083
 20
19.7572188064
 10
26.2908167814
 20
19.7747459534
 10
26.2419204488
 20
19.7904555088
 10
26.1933600818
 20
19.8043341808
 10
26.1451767674
 20
19.8163702267
 10
26.0974112733
 20
19.8265534626
 10
26.0501040139
 20
19.8348752726
 10
26.003295016
 20
19.8413286157
 10
25.9570238846
 20
19.8459080316
 10
25.9113297696
 20
19.8486096456
 10
25.866251333
 20
19.849431172
 10
25.8218267155
 20
19.8483719157
 10
25.7780935049
 20
19.8454327729
 10
25.7350887037
 20
19.8406162304
 10
25.6928486983
 20
19.8339263635
 10
25.651409228
 20
19.8253688324
 10
25.6108053547
 20
19.8149508778
 10
25.5710714334
 20
19.8026813142
 10
25.5322410828
 20
19.7885705229
 10
25.4943471575
 20
19.7726304431
 10
25.4574217193
 20
19.7548745616
 10
25.421496011
 20
19.7353179017
 10
25.3866004292
 20
19.7139770103
 10
25.3527644991
 20
19.6908699439
 10
25.3200168492
 20
19.6660162533
 10
25.2883851875
 20
19.6394369674
 10
25.2578962773
 20
19.6111545748
 10
25.2285759154
 20
19.5811930053
 10
25.2004489096
 20
19.5495776093
 10
25.1735390584
 20
19.5163351366
 10
25.14786913
 20
19.4814937136
 10
25.1234608439
 20
19.4450828198
 10
25.1003348518
 20
19.4071332623
 10
25.0785107206
 20
19.3676771502
 10
25.0580069159
 20
19.3267478674
 10
25.0388407857
 20
19.2843800442
 10
25.0210285466
 20
19.2406095278
 10
25.0045852695
 20
19.1954733526
 10
24.989524867
 20
19.1490097083
 10
24.9758600818
 20
19.1012579077
 10
24.9636024757
 20
19.0522583537
 10
24.9527624198
 20
19.0020525047
 10
24.9433490858
 20
18.95068284
 10
24.9353704384
 20
18.8981928233
 10
24.9288332283
 20
18.8446268665
 10
24.9237429867
 20
18.7900302917
 10
24.9201040203
 20
18.7344492931
 10
24.9179194082
 20
18.6779308977
 10
24.9171909988
 20
18.6205229258
  0
LWPOLYLINE
  5
28A
330
1F
100
AcDbEntity
  8
0
  6
Continuous
 62
     7
370
    25
100
AcDbPolyline
 90
       56
 70
   128
 43
0.0
 10
26.6107874992
 20
15.6548204507
 10
26.638996011
 20
15.6382691727
 10
26.6890742255
 20
15.6102007752
 10
26.7391100688
 20
15.5838384071
 10
26.7890612057
 20
15.5592043736
 10
26.8388853724
 20
15.5363195175
 10
26.8885404127
 20
15.5152032018
 10
26.9379843136
 20
15.4958732929
 10
26.9871752405
 20
15.4783461459
 10
27.0360715731
 20
15.4626365905
 10
27.0846319401
 20
15.4487579185
 10
27.1328152545
 20
15.4367218726
 10
27.1805807487
 20
15.4265386367
 10
27.227888008
 20
15.4182168267
 10
27.2746970059
 20
15.4117634836
 10
27.3209681373
 20
15.4071840678
 10
27.3666622523
 20
15.4044824537
 10
27.4117406889
 20
15.4036609273
 10
27.4561653064
 20
15.4047201836
 10
27.499898517
 20
15.4076593264
 10
27.5429033183
 20
15.4124758689
 10
27.5851433236
 20
15.4191657358
 10
27.6265827939
 20
15.4277232669
 10
27.6671866672
 20
15.4381412215
 10
27.7069205886
 20
15.4504107851
 10
27.7457509391
 20
15.4645215764
 10
27.7836448645
 20
15.4804616562
 10
27.8205703026
 20
15.4982175377
 10
27.856496011
 20
15.5177741976
 10
27.8913915927
 20
15.539115089
 10
27.9252275228
 20
15.5622221555
 10
27.9579751727
 20
15.587075846
 10
27.9896068345
 20
15.6136551319
 10
28.0200957446
 20
15.6419375245
 10
28.0494161066
 20
15.671899094
 10
28.0775431123
 20
15.70351449
 10
28.1044529635
 20
15.7367569627
 10
28.1301228919
 20
15.7715983857
 10
28.154531178
 20
15.8080092795
 10
28.1776571701
 20
15.845958837
 10
28.1994813013
 20
15.8854149491
 10
28.2199851061
 20
15.9263442319
 10
28.2391512362
 20
15.9687120551
 10
28.2569634753
 20
16.0124825715
 10
28.2734067524
 20
16.0576187467
 10
28.2884671549
 20
16.104082391
 10
28.3021319401
 20
16.1518341916
 10
28.3143895462
 20
16.2008337456
 10
28.3252296022
 20
16.2510395946
 10
28.3346429361
 20
16.3024092593
 10
28.3426215835
 20
16.354899276
 10
28.3491587936
 20
16.4084652328
 10
28.3542490352
 20
16.4630618076
 10
28.3578880016
 20
16.5186428062
 10
28.3600726137
 20
16.5751612016
 10
28.3608010231
 20
16.6325691735
  0
LWPOLYLINE
  5
28B
330
1F
100
AcDbEntity
  8
0
  6
Continuous
 62
     7
370
    25
100
AcDbPolyline
 90
       29
 70
   128
 43
0.0
 10
28.6613214051
 20
16.7652354917
 10
28.6605916149
 20
16.7071821537
 10
28.6584028502
 20
16.6500196355
 10
28.6547569292
 20
16.593795419
 10
28.6496568803
 20
16.5385562067
 10
28.64310694
 20
16.4843478829
 10
28.6351125489
 20
16.4312154756
 10
28.6256803475
 20
16.3792031191
 10
28.6148181707
 20
16.3283540172
 10
28.6025350411
 20
16.2787104078
 10
28.5888411616
 20
16.230313527
 10
28.573747907
 20
16.1832035758
 10
28.5572678146
 20
16.1374196857
 10
28.5394145734
 20
16.0929998871
 10
28.5202030132
 20
16.0499810772
 10
28.499649092
 20
16.0083989894
 10
28.4777698829
 20
15.9682881637
 10
28.4545835597
 20
15.9296819183
 10
28.4301093823
 20
15.8926123211
 10
28.4043676799
 20
15.8571101639
 10
28.3773798348
 20
15.8232049367
 10
28.3491682645
 20
15.7909248025
 10
28.3197564027
 20
15.7602965749
 10
28.2891686804
 20
15.7313456951
 10
28.2574305052
 20
15.704096211
 10
28.2245682403
 20
15.6785707574
 10
28.1906091827
 20
15.654790537
 10
28.1555815404
 20
15.6327753026
 10
28.1465600792
 20
15.6274911476
  0
LWPOLYLINE
  5
28C
330
1F
100
AcDbEntity
  8
0
  6
Continuous
 62
     7
370
    25
100
AcDbPolyline
 90
       83
 70
   128
 43
0.0
 10
25.6617620286
 20
19.9317539936
 10
25.6888076989
 20
19.9467018
 10
25.7258843604
 20
19.9651336827
 10
25.7639397543
 20
19.9817501764
 10
25.8029422701
 20
19.9965374787
 10
25.8428595103
 20
20.0094833064
 10
25.8836583178
 20
20.0205769063
 10
25.9253048032
 20
20.0298090633
 10
25.967764373
 20
20.0371721089
 10
26.0110017582
 20
20.042659927
 10
26.0549810438
 20
20.046267959
 10
26.0996656985
 20
20.0479932081
 10
26.1450186051
 20
20.0478342411
 10
26.1910020915
 20
20.0457911901
 10
26.2375779614
 20
20.0418657521
 10
26.2847075268
 20
20.0360611878
 10
26.3323516396
 20
20.0283823188
 10
26.3804707245
 20
20.0188355234
 10
26.4290248113
 20
20.0074287317
 10
26.4779735687
 20
19.9941714188
 10
26.5272763377
 20
19.9790745966
 10
26.576892165
 20
19.9621508055
 10
26.6267798373
 20
19.9434141031
 10
26.6768979155
 20
19.922880053
 10
26.7272047693
 20
19.9005657117
 10
26.7776586114
 20
19.8764896146
 10
26.8282175324
 20
19.8506717605
 10
26.8788395356
 20
19.8231335948
 10
26.9294825722
 20
19.7938979922
 10
26.9801045754
 20
19.7629892369
 10
27.0306634964
 20
19.7304330034
 10
27.0811173385
 20
19.6962563344
 10
27.1314241923
 20
19.6604876186
 10
27.1815422705
 20
19.6231565673
 10
27.2314299428
 20
19.5842941893
 10
27.2810457701
 20
19.5439327656
 10
27.3303485391
 20
19.5021058223
 10
27.3792972965
 20
19.4588481029
 10
27.4278513833
 20
19.4141955392
 10
27.4759704682
 20
19.3681852218
 10
27.523614581
 20
19.320855369
 10
27.5707441464
 20
19.2722452954
 10
27.6173200163
 20
19.2223953786
 10
27.6633035027
 20
19.1713470263
 10
27.7086564093
 20
19.1191426419
 10
27.753341064
 20
19.0658255886
 10
27.7973203496
 20
19.0114401542
 10
27.8405577348
 20
18.9560315139
 10
27.8830173046
 20
18.8996456925
 10
27.92466379
 20
18.8423295269
 10
27.9654625975
 20
18.7841306265
 10
28.0053798377
 20
18.7250973342
 10
28.0443823535
 20
18.6652786859
 10
28.0824377474
 20
18.6047243695
 10
28.1195144089
 20
18.5434846846
 10
28.1555815404
 20
18.4816104996
 10
28.1906091827
 20
18.4191532103
 10
28.2245682403
 20
18.3561646964
 10
28.2574305052
 20
18.2926972794
 10
28.2891686804
 20
18.2288036783
 10
28.3197564027
 20
18.164536966
 10
28.3491682645
 20
18.0999505256
 10
28.3773798348
 20
18.0350980057
 10
28.4043676799
 20
17.9700332758
 10
28.4301093823
 20
17.9048103817
 10
28.4545835597
 20
17.8394835007
 10
28.4777698829
 20
17.7741068963
 10
28.499649092
 20
17.7087348736
 10
28.5202030132
 20
17.6434217335
 10
28.5394145734
 20
17.5782217283
 10
28.5572678146
 20
17.5131890161
 10
28.573747907
 20
17.4483776163
 10
28.5888411616
 20
17.3838413643
 10
28.6025350411
 20
17.3196338668
 10
28.6148181707
 20
17.2558084578
 10
28.6256803475
 20
17.1924181535
 10
28.6351125489
 20
17.129515609
 10
28.64310694
 20
17.0671530742
 10
28.6496568803
 20
17.0053823503
 10
28.6547569292
 20
16.944254747
 10
28.6584028502
 20
16.8838210397
 10
28.6605916149
 20
16.8241314276
 10
28.6613214051
 20
16.7652354917
  0
ARC
  5
28D
330
1F
100
AcDbEntity
  8
0
  6
Continuous
 62
     7
370
    25
100
AcDbCircle
 10
26.7952656122
 20
17.3391869221
 30
0.0
 40
0.1680045857347235
100
AcDbArc
 50
300.0539348824
 51
313.8261299338
  0
LWPOLYLINE
  5
28E
330
1F
100
AcDbEntity
  8
0
  6
Continuous
 62
     7
370
    25
100
AcDbPolyline
 90
      168
 70
   128
 43
0.0
 10
24.0969471326
 20
17.1960592997
 10
24.1363750552
 20
17.1741386958
 10
24.1772033805
 20
17.1530897693
 10
24.2193743205
 20
17.1329423126
 10
24.262828187
 20
17.1137248422
 10
24.3075034759
 20
17.0954645583
 10
24.3533369544
 20
17.0781873062
 10
24.4002637502
 20
17.0619175401
 10
24.4482174437
 20
17.0466782879
 10
24.4971301619
 20
17.032491119
 10
24.5469326743
 20
17.0193761139
 10
24.5975544909
 20
17.0073518354
 10
24.6489239623
 20
16.9964353025
 10
24.7009683807
 20
16.9866419662
 10
24.7536140831
 20
16.9779856881
 10
24.8067865553
 20
16.97047872
 10
24.8604105377
 20
16.9641316873
 10
24.9144101315
 20
16.9589535734
 10
24.9687089063
 20
16.9549517075
 10
25.0232300083
 20
16.9521317536
 10
25.0778962689
 20
16.9504977032
 10
25.1326303143
 20
16.9500518691
 10
25.1873546744
 20
16.9507948822
 10
25.241991893
 20
16.9527256909
 10
25.2964646373
 20
16.9558415624
 10
25.3506958073
 20
16.9601380866
 10
25.4046086446
 20
16.9656091821
 10
25.4581268418
 20
16.9722471052
 10
25.5111746499
 20
16.9800424607
 10
25.5636769855
 20
16.9889842152
 10
25.6155595375
 20
16.9990597126
 10
25.666748872
 20
17.0102546921
 10
25.7171725361
 20
17.0225533085
 10
25.7667591608
 20
17.0359381546
 10
25.8154385619
 20
17.0503902854
 10
25.863141839
 20
17.0658892458
 10
25.9098014734
 20
17.0824130986
 10
25.9553514238
 20
17.0999384561
 10
25.9997272191
 20
17.1184405132
 10
26.0428660506
 20
17.1378930822
 10
26.0847068599
 20
17.1582686304
 10
26.125190426
 20
17.1795383182
 10
26.1642594491
 20
17.2016720409
 10
26.2018586313
 20
17.2246384707
 10
26.2379347551
 20
17.2484051012
 10
26.2724367589
 20
17.2729382932
 10
26.3053158088
 20
17.2982033229
 10
26.3365253683
 20
17.3241644305
 10
26.3660212637
 20
17.3507848708
 10
26.393761747
 20
17.3780269657
 10
26.4197075545
 20
17.4058521569
 10
26.4438219628
 20
17.4342210611
 10
26.4660708407
 20
17.4630935252
 10
26.4864226975
 20
17.4924286834
 10
26.5048487273
 20
17.5221850153
 10
26.5213228501
 20
17.5523204039
 10
26.5358217487
 20
17.582792196
 10
26.5483249015
 20
17.6135572622
 10
26.5588146116
 20
17.644572058
 10
26.5672760322
 20
17.6757926854
 10
26.5736971869
 20
17.7071749552
 10
26.5780689873
 20
17.7386744491
 10
26.5803852457
 20
17.7702465832
 10
26.5806426837
 20
17.8018466708
 10
26.5788409368
 20
17.8334299853
 10
26.5749825553
 20
17.8649518241
 10
26.5690730002
 20
17.8963675716
 10
26.5611206359
 20
17.9276327624
 10
26.5511367181
 20
17.958703144
 10
26.5391353778
 20
17.9895347398
 10
26.5251336016
 20
18.0200839111
 10
26.5091512076
 20
18.0503074189
 10
26.4912108168
 20
18.0801624854
 10
26.4713378221
 20
18.1096068539
 10
26.4495603514
 20
18.1385988493
 10
26.4259092282
 20
18.1670974366
 10
26.400417928
 20
18.1950622793
 10
26.3731225311
 20
18.2224537962
 10
26.3440616709
 20
18.2492332178
 10
26.3132764798
 20
18.2753626407
 10
26.2808105309
 20
18.3008050818
 10
26.246709776
 20
18.3255245299
 10
26.211022481
 20
18.3494859976
 10
26.1737991572
 20
18.3726555701
 10
26.1350924901
 20
18.3950004534
 10
26.0949572647
 20
18.4164890208
 10
26.0534502879
 20
18.4370908577
 10
26.0106303081
 20
18.4567768044
 10
25.9665579322
 20
18.4755189978
 10
25.9212955398
 20
18.4932909103
 10
25.8749071948
 20
18.5100673878
 10
25.8274585546
 20
18.5258246851
 10
25.7790167774
 20
18.5405404994
 10
25.7296504273
 20
18.5541940022
 10
25.6794293768
 20
18.5667658685
 10
25.628424708
 20
18.5782383042
 10
25.5767086125
 20
18.5885950713
 10
25.5243542886
 20
18.597821511
 10
25.471435838
 20
18.6059045643
 10
25.4180281608
 20
18.6128327906
 10
25.3642068496
 20
18.6185963837
 10
25.3100480825
 20
18.6231871859
 10
25.2556285151
 20
18.6265986994
 10
25.2010251723
 20
18.6288260956
 10
25.146315339
 20
18.629866222
 10
25.0915764508
 20
18.6297176062
 10
25.0368859846
 20
18.6283804587
 10
24.9823213485
 20
18.625856672
 10
24.9279597726
 20
18.6221498183
 10
24.8738781999
 20
18.6172651442
 10
24.8201531765
 20
18.6112095634
 10
24.7668607444
 20
18.6039916469
 10
24.7140763329
 20
18.5956216109
 10
24.6618746526
 20
18.5861113023
 10
24.610329589
 20
18.5754741817
 10
24.5595140984
 20
18.5637253049
 10
24.5095001046
 20
18.550881301
 10
24.4603583966
 20
18.5369603494
 10
24.4121585291
 20
18.5219821536
 10
24.3649687236
 20
18.5059679135
 10
24.318855772
 20
18.4889402955
 10
24.273884942
 20
18.4709234003
 10
24.2301198849
 20
18.4519427288
 10
24.1876225451
 20
18.432025146
 10
24.1464530728
 20
18.411198843
 10
24.106669739
 20
18.3894932971
 10
24.0683288523
 20
18.3669392302
 10
24.0314846802
 20
18.3435685649
 10
23.9961893713
 20
18.3194143798
 10
23.9624928822
 20
18.2945108625
 10
23.9304429066
 20
18.2688932611
 10
23.9000848076
 20
18.2425978345
 10
23.8714615537
 20
18.2156618009
 10
23.8446136579
 20
18.1881232852
 10
23.8195791204
 20
18.1600212652
 10
23.7963933748
 20
18.131395516
 10
23.7750892379
 20
18.1022865543
 10
23.7556968633
 20
18.0727355805
 10
23.7382436989
 20
18.0427844208
 10
23.7227544475
 20
18.0124754676
 10
23.7092510326
 20
17.9818516198
 10
23.6977525666
 20
17.9509562222
 10
23.6882753243
 20
17.9198330037
 10
23.6808327198
 20
17.8885260157
 10
23.6754352872
 20
17.8570795697
 10
23.672090666
 20
17.8255381748
 10
23.6708035901
 20
17.7939464741
 10
23.6715758812
 20
17.7623491823
 10
23.6744064462
 20
17.7307910218
 10
23.6792912788
 20
17.6993166596
 10
23.6862234651
 20
17.6679706441
 10
23.6951931932
 20
17.6367973421
 10
23.7061877677
 20
17.605840876
 10
23.7191916268
 20
17.5751450612
 10
23.7341863651
 20
17.5447533441
 10
23.7511507591
 20
17.5147087409
 10
23.7700607978
 20
17.4850537763
 10
23.790889716
 20
17.4558304236
 10
23.8136080327
 20
17.4270800452
 10
23.8381835928
 20
17.398843334
 10
23.8645816121
 20
17.371160256
 10
23.8927647274
 20
17.3440699934
 10
23.9226930486
 20
17.3176108895
 10
23.9543242153
 20
17.2918203941
 10
23.9876134574
 20
17.2667350109
 10
24.0225136576
 20
17.2423902455
 10
24.0589754185
 20
17.218820555
 10
24.0969471326
 20
17.1960592997
  0
LWPOLYLINE
  5
28F
330
1F
100
AcDbEntity
  8
0
  6
Continuous
 62
     7
370
    25
100
AcDbPolyline
 90
       43
 70
   128
 43
0.0
 10
24.0757339292
 20
17.1593169537
 10
24.0372054695
 20
17.1824067618
 10
24.0001994903
 20
17.2063120784
 10
23.9647677478
 20
17.2309994699
 10
23.9309597963
 20
17.2564344087
 10
23.8988229194
 20
17.2825813217
 10
23.8684020634
 20
17.3094036401
 10
23.8397397746
 20
17.3368638505
 10
23.8128761399
 20
17.3649235473
 10
23.7878487304
 20
17.3935434864
 10
23.7646925492
 20
17.4226836403
 10
23.7434399825
 20
17.4523032539
 10
23.7241207537
 20
17.4823609014
 10
23.7067618826
 20
17.5128145445
 10
23.6913876472
 20
17.543621591
 10
23.6780195496
 20
17.5747389545
 10
23.6666762865
 20
17.6061231145
 10
23.6573737223
 20
17.6377301775
 10
23.6501248675
 20
17.6695159381
 10
23.6449398604
 20
17.7014359411
 10
23.6418259526
 20
17.7334455434
 10
23.6407874992
 20
17.7654999767
 10
23.6418259526
 20
17.7975544101
 10
23.6449398604
 20
17.8295640124
 10
23.6501248675
 20
17.8614840154
 10
23.6573737223
 20
17.893269776
 10
23.6666762865
 20
17.924876839
 10
23.6780195496
 20
17.956260999
 10
23.6913876472
 20
17.9873783625
 10
23.7067618826
 20
18.018185409
 10
23.7241207537
 20
18.0486390521
 10
23.7434399825
 20
18.0786966996
 10
23.7646925492
 20
18.1083163132
 10
23.7878487304
 20
18.1374564671
 10
23.8128761399
 20
18.1660764062
 10
23.8397397746
 20
18.194136103
 10
23.8684020634
 20
18.2215963134
 10
23.8988229194
 20
18.2484186318
 10
23.9309597963
 20
18.2745655448
 10
23.9647677478
 20
18.3000004836
 10
24.0001994903
 20
18.3246878751
 10
24.0372054695
 20
18.3485931917
 10
24.0755633075
 20
18.371584486
  0
LWPOLYLINE
  5
290
330
1F
100
AcDbEntity
  8
0
  6
Continuous
 62
     7
370
    25
100
AcDbPolyline
 90
       85
 70
   128
 43
0.0
 10
26.1760116909
 20
18.371584486
 10
26.2143695289
 20
18.3485931917
 10
26.2513755081
 20
18.3246878751
 10
26.2868072507
 20
18.3000004836
 10
26.3206152022
 20
18.2745655448
 10
26.3527520791
 20
18.2484186318
 10
26.3831729351
 20
18.2215963134
 10
26.4118352238
 20
18.194136103
 10
26.4386988586
 20
18.1660764062
 10
26.4637262681
 20
18.1374564671
 10
26.4868824492
 20
18.1083163132
 10
26.508135016
 20
18.0786966996
 10
26.5274542447
 20
18.0486390521
 10
26.5448131158
 20
18.018185409
 10
26.5601873513
 20
17.9873783625
 10
26.5735554488
 20
17.956260999
 10
26.584898712
 20
17.924876839
 10
26.5942012762
 20
17.893269776
 10
26.6014501309
 20
17.8614840154
 10
26.606635138
 20
17.8295640124
 10
26.6097490458
 20
17.7975544101
 10
26.6107874992
 20
17.7654999767
 10
26.6097490458
 20
17.7334455434
 10
26.606635138
 20
17.7014359411
 10
26.6014501309
 20
17.6695159381
 10
26.5942012762
 20
17.6377301775
 10
26.584898712
 20
17.6061231145
 10
26.5735554488
 20
17.5747389545
 10
26.5601873513
 20
17.543621591
 10
26.5448131158
 20
17.5128145445
 10
26.5274542447
 20
17.4823609014
 10
26.508135016
 20
17.4523032539
 10
26.4868824492
 20
17.4226836403
 10
26.4637262681
 20
17.3935434864
 10
26.4386988586
 20
17.3649235473
 10
26.4118352238
 20
17.3368638505
 10
26.3831729351
 20
17.3094036401
 10
26.3527520791
 20
17.2825813217
 10
26.3206152022
 20
17.2564344087
 10
26.2868072507
 20
17.2309994699
 10
26.2513755081
 20
17.2063120784
 10
26.2143695289
 20
17.1824067618
 10
26.1758410693
 20
17.1593169537
 10
26.1358440148
 20
17.1370749474
 10
26.094434305
 20
17.1157118503
 10
26.051669855
 20
17.0952575407
 10
26.0076104748
 20
17.0757406258
 10
25.9623177854
 20
17.0571884016
 10
25.9158551328
 20
17.0396268153
 10
25.8682874992
 20
17.0230804282
 10
25.8196814122
 20
17.0075723819
 10
25.7701048518
 20
16.993124366
 10
25.7196271553
 20
16.9797565871
 10
25.6683189204
 20
16.9674877415
 10
25.6162519062
 20
16.9563349881
 10
25.5634989332
 20
16.9463139251
 10
25.5101337812
 20
16.9374385679
 10
25.4562310861
 20
16.9297213295
 10
25.4018662359
 20
16.9231730031
 10
25.3471152645
 20
16.9178027471
 10
25.2920547462
 20
16.9136180723
 10
25.2367616882
 20
16.9106248314
 10
25.1813134227
 20
16.9088272107
 10
25.1257874992
 20
16.9082277243
 10
25.0702615757
 20
16.9088272107
 10
25.0148133102
 20
16.9106248314
 10
24.9595202522
 20
16.9136180723
 10
24.9044597339
 20
16.9178027471
 10
24.8497087626
 20
16.9231730031
 10
24.7953439123
 20
16.9297213295
 10
24.7414412172
 20
16.9374385679
 10
24.6880760652
 20
16.9463139251
 10
24.6353230922
 20
16.9563349881
 10
24.583256078
 20
16.9674877415
 10
24.5319478431
 20
16.9797565871
 10
24.4814701466
 20
16.993124366
 10
24.4318935862
 20
17.0075723819
 10
24.3832874992
 20
17.0230804282
 10
24.3357198656
 20
17.0396268153
 10
24.289257213
 20
17.0571884016
 10
24.2439645236
 20
17.0757406258
 10
24.1999051435
 20
17.0952575407
 10
24.1571406935
 20
17.1157118503
 10
24.1157309836
 20
17.1370749474
 10
24.0757339292
 20
17.1593169537
  0
LWPOLYLINE
  5
291
330
1F
100
AcDbEntity
  8
0
  6
Continuous
 62
     7
370
    25
100
AcDbPolyline
 90
       85
 70
   128
 43
0.0
 10
23.6407874992
 20
13.5562320915
 10
23.6418259526
 20
13.5241776581
 10
23.6449398604
 20
13.4921680558
 10
23.6501248675
 20
13.4602480528
 10
23.6573737223
 20
13.4284622922
 10
23.6666762865
 20
13.3968552292
 10
23.6780195496
 20
13.3654710692
 10
23.6913876472
 20
13.3343537057
 10
23.7067618826
 20
13.3035466592
 10
23.7241207537
 20
13.2730930161
 10
23.7434399825
 20
13.2430353686
 10
23.7646925492
 20
13.213415755
 10
23.7878487304
 20
13.1842756011
 10
23.8128761399
 20
13.155655662
 10
23.8397397746
 20
13.1275959652
 10
23.8684020634
 20
13.1001357549
 10
23.8988229194
 20
13.0733134364
 10
23.9309597963
 20
13.0471665234
 10
23.9647677478
 20
13.0217315847
 10
24.0001994903
 20
12.9970441932
 10
24.0372054695
 20
12.9731388765
 10
24.0757339292
 20
12.9500490684
 10
24.1157309836
 20
12.9278070621
 10
24.1571406935
 20
12.9064439651
 10
24.1999051435
 20
12.8859896555
 10
24.2439645236
 20
12.8664727405
 10
24.289257213
 20
12.8479205164
 10
24.3357198656
 20
12.83035893
 10
24.3832874992
 20
12.8138125429
 10
24.4318935862
 20
12.7983044967
 10
24.4814701466
 20
12.7838564807
 10
24.5319478431
 20
12.7704887019
 10
24.583256078
 20
12.7582198562
 10
24.6353230922
 20
12.7470671029
 10
24.6880760652
 20
12.7370460399
 10
24.7414412172
 20
12.7281706827
 10
24.7953439123
 20
12.7204534442
 10
24.8497087626
 20
12.7139051178
 10
24.9044597339
 20
12.7085348618
 10
24.9595202522
 20
12.704350187
 10
25.0148133102
 20
12.7013569461
 10
25.0702615757
 20
12.6995593254
 10
25.1257874992
 20
12.698959839
 10
25.1813134227
 20
12.6995593254
 10
25.2367616882
 20
12.7013569461
 10
25.2920547462
 20
12.704350187
 10
25.3471152645
 20
12.7085348618
 10
25.4018662359
 20
12.7139051178
 10
25.4562310861
 20
12.7204534442
 10
25.5101337812
 20
12.7281706827
 10
25.5634989332
 20
12.7370460399
 10
25.6162519062
 20
12.7470671029
 10
25.6683189204
 20
12.7582198562
 10
25.7196271553
 20
12.7704887019
 10
25.7701048518
 20
12.7838564807
 10
25.8196814122
 20
12.7983044967
 10
25.8682874992
 20
12.8138125429
 10
25.9158551328
 20
12.83035893
 10
25.9623177854
 20
12.8479205164
 10
26.0076104748
 20
12.8664727405
 10
26.051669855
 20
12.8859896555
 10
26.094434305
 20
12.9064439651
 10
26.1358440148
 20
12.9278070621
 10
26.1758410693
 20
12.9500490684
 10
26.2143695289
 20
12.9731388765
 10
26.2513755081
 20
12.9970441932
 10
26.2868072507
 20
13.0217315847
 10
26.3206152022
 20
13.0471665234
 10
26.3527520791
 20
13.0733134364
 10
26.3831729351
 20
13.1001357549
 10
26.4118352238
 20
13.1275959652
 10
26.4386988586
 20
13.155655662
 10
26.4637262681
 20
13.1842756011
 10
26.4868824492
 20
13.213415755
 10
26.508135016
 20
13.2430353686
 10
26.5274542447
 20
13.2730930161
 10
26.5448131158
 20
13.3035466592
 10
26.5601873513
 20
13.3343537057
 10
26.5735554488
 20
13.3654710692
 10
26.584898712
 20
13.3968552292
 10
26.5942012762
 20
13.4284622922
 10
26.6014501309
 20
13.4602480528
 10
26.606635138
 20
13.4921680558
 10
26.6097490458
 20
13.5241776581
 10
26.6107874992
 20
13.5562320915
  0
LWPOLYLINE
  5
292
330
1F
100
AcDbEntity
  8
0
  6
Continuous
 62
     7
370
    25
100
AcDbPolyline
 90
       45
 70
   128
 43
0.0
 10
26.1654033658
 20
12.9440215358
 10
26.1652344676
 20
12.9439240171
 10
26.1256414237
 20
12.9219066775
 10
26.0846499938
 20
12.9007593693
 10
26.0423175079
 20
12.8805116689
 10
25.998703172
 20
12.8611918945
 10
25.9538679846
 20
12.8428270666
 10
25.9078746517
 20
12.82544287
 10
25.8607874992
 20
12.8090636181
 10
25.8126723828
 20
12.7937122188
 10
25.7635965957
 20
12.7794101424
 10
25.713628775
 20
12.7661773916
 10
25.662838805
 20
12.7540324737
 10
25.6112977203
 20
12.7429923744
 10
25.5590776056
 20
12.7330725343
 10
25.5062514955
 20
12.7242868271
 10
25.4528932721
 20
12.7166475406
 10
25.3990775617
 20
12.7101653589
 10
25.3448796305
 20
12.7048493479
 10
25.2903752791
 20
12.7007069426
 10
25.2356407368
 20
12.6977439364
 10
25.1807525548
 20
12.6959644735
 10
25.1257874992
 20
12.6953710425
 10
25.0708224436
 20
12.6959644735
 10
25.0159342616
 20
12.6977439364
 10
24.9611997193
 20
12.7007069426
 10
24.9066953679
 20
12.7048493479
 10
24.8524974367
 20
12.7101653589
 10
24.7986817263
 20
12.7166475406
 10
24.7453235029
 20
12.7242868271
 10
24.6924973928
 20
12.7330725343
 10
24.6402772781
 20
12.7429923744
 10
24.5887361934
 20
12.7540324737
 10
24.5379462235
 20
12.7661773916
 10
24.4879784027
 20
12.7794101424
 10
24.4389026157
 20
12.7937122188
 10
24.3907874992
 20
12.8090636181
 10
24.3437003467
 20
12.82544287
 10
24.2977070139
 20
12.8428270666
 10
24.2528718264
 20
12.8611918945
 10
24.2092574905
 20
12.8805116689
 10
24.1669250046
 20
12.9007593693
 10
24.1259335747
 20
12.9219066775
 10
24.0863405309
 20
12.9439240171
 10
24.0861716327
 20
12.9440215358
  0
LWPOLYLINE
  5
293
330
1F
100
AcDbEntity
  8
0
  6
Continuous
 62
     7
370
    25
100
AcDbPolyline
 90
       42
 70
   128
 43
0.0
 10
26.9116041279
 20
17.217980938
 10
26.9177368063
 20
17.2241488034
 10
26.9302160492
 20
17.2387977537
 10
26.9414441555
 20
17.2550559337
 10
26.9513740306
 20
17.2728551507
 10
26.9599640253
 20
17.2921207489
 10
26.9671781101
 20
17.3127719214
 10
26.9729860265
 20
17.3347220503
 10
26.9773634143
 20
17.3578790688
 10
26.980291913
 20
17.3821458486
 10
26.9817592396
 20
17.4074206063
 10
26.9817592396
 20
17.4335973307
 10
26.980291913
 20
17.4605662276
 10
26.9773634143
 20
17.48821418
 10
26.9729860265
 20
17.5164252229
 10
26.9671781101
 20
17.5450810294
 10
26.9599640253
 20
17.5740614069
 10
26.9513740306
 20
17.6032448017
 10
26.9414441555
 20
17.6325088086
 10
26.9302160492
 20
17.6617306842
 10
26.9177368063
 20
17.6907878616
 10
26.9040587692
 20
17.7195584651
 10
26.8892393082
 20
17.7479218206
 10
26.8733405814
 20
17.7757589625
 10
26.8564292734
 20
17.8029531321
 10
26.8385763163
 20
17.8293902676
 10
26.8198565915
 20
17.8549594825
 10
26.8003486161
 20
17.8795535305
 10
26.7801342133
 20
17.9030692557
 10
26.7592981692
 20
17.925408025
 10
26.7379278776
 20
17.9464761419
 10
26.7161129729
 20
17.9661852392
 10
26.6939449542
 20
17.9844526503
 10
26.6715168021
 20
18.0012017552
 10
26.648922588
 20
18.0163623023
 10
26.6262570799
 20
18.0298707032
 10
26.6036153448
 20
18.0416702987
 10
26.5810923499
 20
18.0517115975
 10
26.5587825646
 20
18.0599524826
 10
26.5367795639
 20
18.0663583891
 10
26.5151756359
 20
18.0709024482
 10
26.5131361956
 20
18.0712383261
  0
LINE
  5
294
330
1F
100
AcDbEntity
  8
0
  6
Continuous
 62
     7
370
    25
100
AcDbLine
 10
12.2980761702
 20
4.0514573356
 30
0.0
 11
12.2980761702
 21
4.3855076658
 31
0.0
  0
LINE
  5
295
330
1F
100
AcDbEntity
  8
0
  6
Continuous
 62
     7
370
    25
100
AcDbLine
 10
12.2980761702
 20
2.4094573356
 30
0.0
 11
12.2980761702
 21
3.9157257352
 31
0.0
  0
LINE
  5
296
330
1F
100
AcDbEntity
  8
0
  6
Continuous
 62
     7
370
    25
100
AcDbLine
 10
12.2980761702
 20
2.0915076658
 30
0.0
 11
12.2980761702
 21
2.2737257352
 31
0.0
  0
LINE
  5
297
330
1F
100
AcDbEntity
  8
0
  6
Continuous
 62
     7
370
    25
100
AcDbLine
 10
9.3280761702
 20
7.3555076658
 30
0.0
 11
9.3280761702
 21
2.0915076658
 31
0.0
  0
LINE
  5
298
330
1F
100
AcDbEntity
  8
0
  6
Continuous
 62
     7
370
    25
100
AcDbLine
 10
12.2980761702
 20
4.3855076658
 30
0.0
 11
9.3280761702
 21
7.3555076658
 31
0.0
  0
SPLINE
  5
299
330
1F
100
AcDbEntity
  8
0
  6
Continuous
 62
     7
370
    25
100
AcDbSpline
210
0.0
220
0.0
230
1.0
 70
     8
 71
     3
 72
    26
 73
    22
 74
     0
 42
0.00000001
 43
0.00000001
 40
0.0
 40
0.0
 40
0.0
 40
0.0
 40
0.0367526413874583
 40
0.0896225545983566
 40
0.1440246552525936
 40
0.196915681801885
 40
0.2513377791172635
 40
0.3042762434242772
 40
0.3587497415263061
 40
0.4116880067270244
 40
0.4661641873857571
 40
0.5190547972383558
 40
0.5734806031266395
 40
0.6263505202692793
 40
0.680751569013424
 40
0.7336600125433871
 40
0.7881005146957358
 40
0.8410465963406789
 40
0.8955292073684701
 40
0.9484533212919973
 40
1.0
 40
1.0
 40
1.0
 40
1.0
 10
12.29806620943542
 20
3.915725735208507
 30
0.0
 10
12.29806614655021
 20
3.915726679865083
 30
0.0
 10
12.29806599320249
 20
3.915728983441979
 30
0.0
 10
12.29796500168518
 20
3.917954278537385
 30
0.0
 10
12.29779015148389
 20
3.922003678555543
 30
0.0
 10
12.29755476052929
 20
3.927915847794794
 30
0.0
 10
12.29729324166892
 20
3.935325852281061
 30
0.0
 10
12.29702964016871
 20
3.944184051333297
 30
0.0
 10
12.29679823049757
 20
3.954075646252663
 30
0.0
 10
12.29662137079616
 20
3.964898353280427
 30
0.0
 10
12.29652195774154
 20
3.976147076533032
 30
0.0
 10
12.29650953441517
 20
3.987705045793324
 30
0.0
 10
12.29658560046136
 20
3.99903486994764
 30
0.0
 10
12.29674275488594
 20
4.010023347167952
 30
0.0
 10
12.29696074204701
 20
4.02016475842747
 30
0.0
 10
12.29721866049919
 20
4.029357432475253
 30
0.0
 10
12.29748322198783
 20
4.037173848154954
 30
0.0
 10
12.297729531356
 20
4.043545112109046
 30
0.0
 10
12.29792336435893
 20
4.048120157424766
 30
0.0
 10
12.29805273442086
 20
4.050999338703951
 30
0.0
 10
12.29806689353603
 20
4.051306017818092
 30
0.0
 10
12.29807387975048
 20
4.051457335610989
 30
0.0
  0
SPLINE
  5
29A
330
1F
100
AcDbEntity
  8
0
  6
Continuous
 62
     7
370
    25
100
AcDbSpline
210
0.0
220
0.0
230
1.0
 70
    11
 71
     3
 72
    56
 73
    52
 74
     0
 42
0.00000001
 43
0.00000001
 40
0.0
 40
0.0
 40
0.0
 40
0.0
 40
0.0312499999999995
 40
0.0312499999999995
 40
0.0624999999999991
 40
0.0624999999999991
 40
0.0937499999999986
 40
0.0937499999999986
 40
0.1249999999999982
 40
0.1249999999999982
 40
0.1874999999999972
 40
0.1874999999999972
 40
0.2499999999999962
 40
0.2499999999999962
 40
0.2812499999999962
 40
0.2812499999999962
 40
0.3124999999999961
 40
0.3124999999999961
 40
0.343749999999996
 40
0.343749999999996
 40
0.3749999999999959
 40
0.3749999999999959
 40
0.4062499999999959
 40
0.4062499999999959
 40
0.4374999999999958
 40
0.4374999999999958
 40
0.4687499999999957
 40
0.4687499999999957
 40
0.4999999999999957
 40
0.4999999999999957
 40
0.5624999999999953
 40
0.5624999999999953
 40
0.6249999999999949
 40
0.6249999999999949
 40
0.6562499999999948
 40
0.6562499999999948
 40
0.6874999999999947
 40
0.6874999999999947
 40
0.7187499999999946
 40
0.7187499999999946
 40
0.7499999999999944
 40
0.7499999999999944
 40
0.812499999999996
 40
0.812499999999996
 40
0.8437499999999968
 40
0.8437499999999968
 40
0.8749999999999976
 40
0.8749999999999976
 40
0.9374999999999988
 40
0.9374999999999988
 40
1.0
 40
1.0
 40
1.0
 40
1.0
 10
10.13024475730855
 20
2.341507665757432
 30
0.0
 10
10.13024475730855
 20
2.337014626697187
 30
0.0
 10
10.12985270034439
 20
2.332596786914806
 30
0.0
 10
10.12831776497022
 20
2.32390531911734
 30
0.0
 10
10.12715624467906
 20
2.319586638302442
 30
0.0
 10
10.12412793457665
 20
2.311351965618577
 30
0.0
 10
10.12227626399457
 20
2.307446457586077
 30
0.0
 10
10.11790874266134
 20
2.300055113153074
 30
0.0
 10
10.11537008344082
 20
2.296555985931129
 30
0.0
 10
10.10706856843135
 20
2.287147941567322
 30
0.0
 10
10.10039760500084
 20
2.282081843921582
 30
0.0
 10
10.08608232708874
 20
2.27529881415319
 30
0.0
 10
10.07828990931588
 20
2.273512414373724
 30
0.0
 10
10.06676649160798
 20
2.273505306004584
 30
0.0
 10
10.06287518935765
 20
2.273946677519375
 30
0.0
 10
10.05536096926521
 20
2.275681349620098
 30
0.0
 10
10.05171833104767
 20
2.276964851235041
 30
0.0
 10
10.04465999971915
 20
2.2803689683462
 30
0.0
 10
10.04125508064929
 20
2.282497773719871
 30
0.0
 10
10.03496697266385
 20
2.287419024810021
 30
0.0
 10
10.03204289939251
 20
2.290228447308311
 30
0.0
 10
10.02664605571328
 20
2.296572598928079
 30
0.0
 10
10.0242556678784
 20
2.300012348135545
 30
0.0
 10
10.02008323488284
 20
2.307375049896241
 30
0.0
 10
10.01828282379712
 20
2.311348087493971
 30
0.0
 10
10.01539721966685
 20
2.319587344747149
 30
0.0
 10
10.01431151271484
 20
2.323825961588018
 30
0.0
 10
10.01284281692978
 20
2.332538507813496
 30
0.0
 10
10.01246663966516
 20
2.337045496848488
 30
0.0
 10
10.01246263877644
 20
2.350359292144614
 30
0.0
 10
10.01396077599807
 20
2.359305580111672
 30
0.0
 10
10.01967977292685
 20
2.375676738124291
 30
0.0
 10
10.02396182285197
 20
2.38326868237421
 30
0.0
 10
10.03194596251844
 20
2.392682102556379
 30
0.0
 10
10.03492018969366
 20
2.395555560794204
 30
0.0
 10
10.04122849816551
 20
2.400500838059546
 30
0.0
 10
10.04456620478756
 20
2.402592106720081
 30
0.0
 10
10.05161496704412
 20
2.406009401479256
 30
0.0
 10
10.0553303915768
 20
2.407323490816164
 30
0.0
 10
10.06281942125972
 20
2.409059172642496
 30
0.0
 10
10.06663236218387
 20
2.409503111183882
 30
0.0
 10
10.07828575925671
 20
2.40951667132798
 30
0.0
 10
10.0859737241748
 20
2.407758982293773
 30
0.0
 10
10.09679594261401
 20
2.402644518075655
 30
0.0
 10
10.10022294812445
 20
2.400558263474003
 30
0.0
 10
10.10671683265198
 20
2.395634089086066
 30
0.0
 10
10.10980224209039
 20
2.392764935630052
 30
0.0
 10
10.11811459240698
 20
2.383357748539121
 30
0.0
 10
10.12260663783592
 20
2.37578010611895
 30
0.0
 10
10.12863751367325
 20
2.359420665105123
 30
0.0
 10
10.13024475730855
 20
2.350493743877922
 30
0.0
 10
10.13024475730855
 20
2.341507665757432
 30
0.0
  0
SPLINE
  5
29B
330
1F
100
AcDbEntity
  8
0
  6
Continuous
 62
     7
370
    25
100
AcDbSpline
210
0.0
220
0.0
230
1.0
 70
     8
 71
     3
 72
    26
 73
    22
 74
     0
 42
0.00000001
 43
0.00000001
 40
0.0
 40
0.0
 40
0.0
 40
0.0
 40
0.036752641387458
 40
0.0896225545983561
 40
0.1440246552525946
 40
0.1969156818018861
 40
0.2513377791172648
 40
0.3042762434242746
 40
0.3587497415262998
 40
0.4116880067270211
 40
0.4661641873857562
 40
0.5190547972383518
 40
0.5734806031266337
 40
0.6263505202692767
 40
0.6807515690134237
 40
0.7336600125433892
 40
0.7881005146957389
 40
0.8410465963406796
 40
0.8955292073684679
 40
0.9484533212919967
 40
1.0
 40
1.0
 40
1.0
 40
1.0
 10
12.29806620943542
 20
2.273725735208509
 30
0.0
 10
12.29806614655021
 20
2.273726679865085
 30
0.0
 10
12.29806599320249
 20
2.273728983441981
 30
0.0
 10
12.29796500168518
 20
2.275954278537387
 30
0.0
 10
12.29779015148389
 20
2.280003678555546
 30
0.0
 10
12.29755476052929
 20
2.285915847794795
 30
0.0
 10
12.29729324166892
 20
2.293325852281065
 30
0.0
 10
12.29702964016871
 20
2.302184051333298
 30
0.0
 10
12.29679823049757
 20
2.312075646252663
 30
0.0
 10
12.29662137079616
 20
2.322898353280427
 30
0.0
 10
12.29652195774154
 20
2.334147076533034
 30
0.0
 10
12.29650953441518
 20
2.345705045793325
 30
0.0
 10
12.29658560046136
 20
2.357034869947638
 30
0.0
 10
12.29674275488594
 20
2.368023347167953
 30
0.0
 10
12.29696074204701
 20
2.378164758427472
 30
0.0
 10
12.29721866049919
 20
2.387357432475254
 30
0.0
 10
12.29748322198783
 20
2.395173848154956
 30
0.0
 10
12.297729531356
 20
2.401545112109047
 30
0.0
 10
12.29792336435893
 20
2.406120157424765
 30
0.0
 10
12.29805273442086
 20
2.408999338703952
 30
0.0
 10
12.29806689353603
 20
2.409306017818094
 30
0.0
 10
12.29807387975048
 20
2.40945733561099
 30
0.0
  0
LINE
  5
29C
330
1F
100
AcDbEntity
  8
0
  6
Continuous
 62
     7
370
    25
100
AcDbLine
 10
10.8130761702
 20
2.0915076658
 30
0.0
 11
12.2980761702
 21
2.0915076658
 31
0.0
  0
LINE
  5
29D
330
1F
100
AcDbEntity
  8
0
  6
Continuous
 62
     7
370
    25
100
AcDbLine
 10
9.3280761702
 20
2.0915076658
 30
0.0
 11
10.8130761702
 21
2.0915076658
 31
0.0
  0
SPLINE
  5
29E
330
1F
100
AcDbEntity
  8
0
  6
Continuous
 62
     7
370
    25
100
AcDbSpline
210
0.0
220
0.0
230
1.0
 70
     8
 71
     3
 72
    22
 73
    18
 74
     0
 42
0.00000001
 43
0.00000001
 40
0.0
 40
0.0
 40
0.0
 40
0.0
 40
0.0438798423565518
 40
0.1127691620740516
 40
0.1816587066608764
 40
0.2506191240586554
 40
0.3195793063436392
 40
0.3885415660455435
 40
0.4575034955508287
 40
0.5263952393271747
 40
0.595287074004798
 40
0.6641460758972345
 40
0.7330054454355314
 40
0.8019205096300167
 40
0.8708356452935071
 40
0.9398081149217952
 40
1.0
 40
1.0
 40
1.0
 40
1.0
 10
10.09082237615062
 20
2.405285899726151
 30
0.0
 10
10.08885223450747
 20
2.404475759217172
 30
0.0
 10
10.08378906175359
 20
2.402393735639751
 30
0.0
 10
10.07644826093721
 20
2.397017710596363
 30
0.0
 10
10.0689697951017
 20
2.389634675894543
 30
0.0
 10
10.06273005848698
 20
2.380781863780281
 30
0.0
 10
10.05781151487758
 20
2.370852999312963
 30
0.0
 10
10.05441222026828
 20
2.360067137553121
 30
0.0
 10
10.05255779456092
 20
2.3487691421125
 30
0.0
 10
10.05236014789301
 20
2.337263893970278
 30
0.0
 10
10.0537567142345
 20
2.325882813567225
 30
0.0
 10
10.05677444291763
 20
2.314955411608369
 30
0.0
 10
10.06127367011663
 20
2.304767842125524
 30
0.0
 10
10.06719150744912
 20
2.295628026600454
 30
0.0
 10
10.07434217265017
 20
2.287805087469006
 30
0.0
 10
10.08215771545612
 20
2.281632332833092
 30
0.0
 10
10.08786234202353
 20
2.278969813988137
 30
0.0
 10
10.09052075523311
 20
2.27772905349583
 30
0.0
  0
INSERT
  5
29F
330
1F
100
AcDbEntity
  8
0
  6
Continuous
 62
     7
100
AcDbBlockReference
  2
Block1
 10
9.9919226016
 20
0.7701279199
 30
0.0
 41
0.5
 42
0.5
 43
0.5
  0
DIMENSION
  5
2A0
330
1F
100
AcDbEntity
  8
0
  6
Continuous
 62
     7
370
    18
100
AcDbDimension
  2
_D_4
 10
7.4383123906
 20
7.3555076658
 30
0.0
 11
7.4383123906
 21
4.7235076658
 31
0.0
 70
   160
  1
<>
 71
     2
 42
-1.0
  3
SLDDIMSTYLE2
100
AcDbAlignedDimension
 13
9.3280761702
 23
2.0915076658
 33
0.0
 14
9.3280761702
 24
7.3555076658
 34
0.0
 50
90.0
100
AcDbRotatedDimension
  0
LINE
  5
2B4
330
1F
100
AcDbEntity
  8
0
  6
Continuous
 62
     7
370
    25
100
AcDbLine
 10
18.9708243941
 20
4.0514573356
 30
0.0
 11
18.9708243941
 21
4.8855076658
 31
0.0
  0
LINE
  5
2B5
330
1F
100
AcDbEntity
  8
0
  6
Continuous
 62
     7
370
    25
100
AcDbLine
 10
18.9708243941
 20
2.4094573356
 30
0.0
 11
18.9708243941
 21
3.9157257352
 31
0.0
  0
LINE
  5
2B6
330
1F
100
AcDbEntity
  8
0
  6
Continuous
 62
     7
370
    25
100
AcDbLine
 10
18.9708243941
 20
2.0915076658
 30
0.0
 11
18.9708243941
 21
2.2737257352
 31
0.0
  0
LINE
  5
2B7
330
1F
100
AcDbEntity
  8
0
  6
Continuous
 62
     7
370
    25
100
AcDbLine
 10
16.0008243941
 20
4.8855076658
 30
0.0
 11
16.0008243941
 21
2.0915076658
 31
0.0
  0
ARC
  5
2B8
330
1F
100
AcDbEntity
  8
0
  6
Continuous
 62
     7
370
    25
100
AcDbCircle
 10
16.0308243941
 20
4.8855076658
 30
0.0
 40
0.0300000000000011
100
AcDbArc
 50
90.0
 51
180.0
  0
ARC
  5
2B9
330
1F
100
AcDbEntity
  8
0
  6
Continuous
 62
     7
370
    25
100
AcDbCircle
 10
18.9408243941
 20
4.8855076658
 30
0.0
 40
0.0300000000000011
100
AcDbArc
 50
0.0
 51
90.0
  0
LINE
  5
2BA
330
1F
100
AcDbEntity
  8
0
  6
Continuous
 62
     7
370
    25
100
AcDbLine
 10
17.4858243941
 20
2.0915076658
 30
0.0
 11
18.9708243941
 21
2.0915076658
 31
0.0
  0
LINE
  5
2BB
330
1F
100
AcDbEntity
  8
0
  6
Continuous
 62
     7
370
    25
100
AcDbLine
 10
16.0008243941
 20
2.0915076658
 30
0.0
 11
17.4858243941
 21
2.0915076658
 31
0.0
  0
SPLINE
  5
2BC
330
1F
100
AcDbEntity
  8
0
  6
Continuous
 62
     7
370
    25
100
AcDbSpline
210
0.0
220
0.0
230
1.0
 70
     8
 71
     3
 72
    26
 73
    22
 74
     0
 42
0.00000001
 43
0.00000001
 40
0.0
 40
0.0
 40
0.0
 40
0.0
 40
0.0367526413874517
 40
0.0896225545983505
 40
0.1440246552525915
 40
0.1969156818018782
 40
0.2513377791172558
 40
0.3042762434242698
 40
0.3587497415263018
 40
0.4116880067270237
 40
0.4661641873857602
 40
0.5190547972383608
 40
0.5734806031266516
 40
0.6263505202692857
 40
0.6807515690134266
 40
0.7336600125433909
 40
0.78810051469574
 40
0.8410465963406909
 40
0.8955292073684908
 40
0.9484533212920057
 40
1.0
 40
1.0
 40
1.0
 40
1.0
 10
18.97081443334438
 20
2.273725735208508
 30
0.0
 10
18.97081437045916
 20
2.273726679865085
 30
0.0
 10
18.97081421711146
 20
2.273728983441982
 30
0.0
 10
18.97071322559414
 20
2.275954278537384
 30
0.0
 10
18.97053837539286
 20
2.280003678555547
 30
0.0
 10
18.97030298443824
 20
2.285915847794791
 30
0.0
 10
18.97004146557788
 20
2.293325852281067
 30
0.0
 10
18.96977786407766
 20
2.302184051333295
 30
0.0
 10
18.96954645440654
 20
2.312075646252663
 30
0.0
 10
18.96936959470511
 20
2.322898353280427
 30
0.0
 10
18.96927018165051
 20
2.334147076533034
 30
0.0
 10
18.96925775832413
 20
2.345705045793327
 30
0.0
 10
18.96933382437032
 20
2.357034869947639
 30
0.0
 10
18.96949097879489
 20
2.368023347167955
 30
0.0
 10
18.96970896595597
 20
2.378164758427471
 30
0.0
 10
18.96996688440814
 20
2.387357432475254
 30
0.0
 10
18.9702314458968
 20
2.395173848154955
 30
0.0
 10
18.97047775526496
 20
2.401545112109048
 30
0.0
 10
18.9706715882679
 20
2.406120157424764
 30
0.0
 10
18.97080095832981
 20
2.408999338703951
 30
0.0
 10
18.97081511744499
 20
2.409306017818092
 30
0.0
 10
18.97082210365944
 20
2.409457335610989
 30
0.0
  0
SPLINE
  5
2BD
330
1F
100
AcDbEntity
  8
0
  6
Continuous
 62
     7
370
    25
100
AcDbSpline
210
0.0
220
0.0
230
1.0
 70
    11
 71
     3
 72
    56
 73
    52
 74
     0
 42
0.00000001
 43
0.00000001
 40
0.0
 40
0.0
 40
0.0
 40
0.0
 40
0.0312500000000002
 40
0.0312500000000002
 40
0.0625000000000005
 40
0.0625000000000005
 40
0.0937500000000007
 40
0.0937500000000007
 40
0.125000000000001
 40
0.125000000000001
 40
0.1875000000000015
 40
0.1875000000000015
 40
0.250000000000002
 40
0.250000000000002
 40
0.2812500000000017
 40
0.2812500000000017
 40
0.3125000000000015
 40
0.3125000000000015
 40
0.3437500000000012
 40
0.3437500000000012
 40
0.375000000000001
 40
0.375000000000001
 40
0.4062500000000007
 40
0.4062500000000007
 40
0.4375000000000005
 40
0.4375000000000005
 40
0.4687500000000002
 40
0.4687500000000002
 40
0.5
 40
0.5
 40
0.5624999999999997
 40
0.5624999999999997
 40
0.6249999999999994
 40
0.6249999999999994
 40
0.6562499999999996
 40
0.6562499999999996
 40
0.6874999999999998
 40
0.6874999999999998
 40
0.7187500000000001
 40
0.7187500000000001
 40
0.7500000000000003
 40
0.7500000000000003
 40
0.812499999999999
 40
0.812499999999999
 40
0.8437499999999989
 40
0.8437499999999989
 40
0.8749999999999987
 40
0.8749999999999987
 40
0.9374999999999993
 40
0.9374999999999993
 40
1.0
 40
1.0
 40
1.0
 40
1.0
 10
16.80299298121751
 20
2.34150766575743
 30
0.0
 10
16.80299298121751
 20
2.337014626697186
 30
0.0
 10
16.80260092425335
 20
2.332596786914805
 30
0.0
 10
16.80106598887918
 20
2.323905319117339
 30
0.0
 10
16.79990446858802
 20
2.319586638302438
 30
0.0
 10
16.79687615848561
 20
2.311351965618574
 30
0.0
 10
16.79502448790354
 20
2.307446457586074
 30
0.0
 10
16.7906569665703
 20
2.30005511315307
 30
0.0
 10
16.78811830734978
 20
2.296555985931124
 30
0.0
 10
16.77981679234031
 20
2.287147941567317
 30
0.0
 10
16.77314582890981
 20
2.282081843921576
 30
0.0
 10
16.75883055099771
 20
2.275298814153184
 30
0.0
 10
16.75103813322484
 20
2.273512414373715
 30
0.0
 10
16.73951471551695
 20
2.273505306004577
 30
0.0
 10
16.73562341326661
 20
2.273946677519367
 30
0.0
 10
16.72810919317417
 20
2.27568134962009
 30
0.0
 10
16.72446655495663
 20
2.276964851235034
 30
0.0
 10
16.71740822362811
 20
2.280368968346192
 30
0.0
 10
16.71400330455825
 20
2.282497773719864
 30
0.0
 10
16.70771519657282
 20
2.287419024810014
 30
0.0
 10
16.70479112330147
 20
2.290228447308304
 30
0.0
 10
16.69939427962225
 20
2.296572598928071
 30
0.0
 10
16.69700389178736
 20
2.300012348135538
 30
0.0
 10
16.6928314587918
 20
2.307375049896234
 30
0.0
 10
16.69103104770609
 20
2.311348087493964
 30
0.0
 10
16.68814544357582
 20
2.319587344747142
 30
0.0
 10
16.6870597366238
 20
2.323825961588011
 30
0.0
 10
16.68559104083874
 20
2.332538507813489
 30
0.0
 10
16.68521486357412
 20
2.33704549684848
 30
0.0
 10
16.68521086268541
 20
2.350359292144607
 30
0.0
 10
16.68670899990703
 20
2.359305580111664
 30
0.0
 10
16.69242799683582
 20
2.375676738124284
 30
0.0
 10
16.69671004676093
 20
2.383268682374202
 30
0.0
 10
16.70469418642741
 20
2.392682102556371
 30
0.0
 10
16.70766841360263
 20
2.395555560794195
 30
0.0
 10
16.71397672207447
 20
2.400500838059538
 30
0.0
 10
16.71731442869652
 20
2.402592106720074
 30
0.0
 10
16.72436319095308
 20
2.406009401479248
 30
0.0
 10
16.72807861548576
 20
2.407323490816155
 30
0.0
 10
16.73556764516868
 20
2.409059172642487
 30
0.0
 10
16.73938058609283
 20
2.409503111183874
 30
0.0
 10
16.75103398316567
 20
2.409516671327972
 30
0.0
 10
16.75872194808376
 20
2.407758982293766
 30
0.0
 10
16.76954416652297
 20
2.402644518075648
 30
0.0
 10
16.77297117203341
 20
2.400558263473997
 30
0.0
 10
16.77946505656094
 20
2.395634089086061
 30
0.0
 10
16.78255046599934
 20
2.392764935630048
 30
0.0
 10
16.79086281631594
 20
2.383357748539117
 30
0.0
 10
16.79535486174488
 20
2.375780106118946
 30
0.0
 10
16.8013857375822
 20
2.35942066510512
 30
0.0
 10
16.80299298121751
 20
2.350493743877919
 30
0.0
 10
16.80299298121751
 20
2.34150766575743
 30
0.0
  0
SPLINE
  5
2BE
330
1F
100
AcDbEntity
  8
0
  6
Continuous
 62
     7
370
    25
100
AcDbSpline
210
0.0
220
0.0
230
1.0
 70
     8
 71
     3
 72
    26
 73
    22
 74
     0
 42
0.00000001
 43
0.00000001
 40
0.0
 40
0.0
 40
0.0
 40
0.0
 40
0.0367526413874413
 40
0.0896225545983425
 40
0.1440246552525821
 40
0.1969156818018745
 40
0.2513377791172536
 40
0.3042762434242715
 40
0.3587497415263069
 40
0.4116880067270302
 40
0.4661641873857644
 40
0.5190547972383524
 40
0.5734806031266229
 40
0.6263505202692663
 40
0.6807515690134152
 40
0.7336600125433861
 40
0.7881005146957435
 40
0.8410465963406857
 40
0.895529207368478
 40
0.9484533212919984
 40
0.9999999999999999
 40
0.9999999999999999
 40
0.9999999999999999
 40
0.9999999999999999
 10
18.97081443334438
 20
3.915725735208513
 30
0.0
 10
18.97081437045916
 20
3.915726679865088
 30
0.0
 10
18.97081421711146
 20
3.915728983441981
 30
0.0
 10
18.97071322559414
 20
3.917954278537393
 30
0.0
 10
18.97053837539287
 20
3.92200367855555
 30
0.0
 10
18.97030298443824
 20
3.9279158477948
 30
0.0
 10
18.97004146557789
 20
3.935325852281069
 30
0.0
 10
18.96977786407766
 20
3.944184051333303
 30
0.0
 10
18.96954645440654
 20
3.954075646252668
 30
0.0
 10
18.96936959470511
 20
3.964898353280434
 30
0.0
 10
18.96927018165051
 20
3.976147076533039
 30
0.0
 10
18.96925775832413
 20
3.98770504579333
 30
0.0
 10
18.96933382437032
 20
3.999034869947641
 30
0.0
 10
18.96949097879489
 20
4.010023347167955
 30
0.0
 10
18.96970896595597
 20
4.020164758427474
 30
0.0
 10
18.96996688440814
 20
4.029357432475258
 30
0.0
 10
18.9702314458968
 20
4.037173848154957
 30
0.0
 10
18.97047775526496
 20
4.043545112109054
 30
0.0
 10
18.9706715882679
 20
4.048120157424768
 30
0.0
 10
18.97080095832981
 20
4.050999338703957
 30
0.0
 10
18.97081511744499
 20
4.051306017818098
 30
0.0
 10
18.97082210365944
 20
4.051457335610995
 30
0.0
  0
LINE
  5
2BF
330
1F
100
AcDbEntity
  8
0
  6
Continuous
 62
     7
370
    25
100
AcDbLine
 10
17.4858243941
 20
4.9155076658
 30
0.0
 11
18.9408243941
 21
4.9155076658
 31
0.0
  0
LINE
  5
2C0
330
1F
100
AcDbEntity
  8
0
  6
Continuous
 62
     7
370
    25
100
AcDbLine
 10
16.0308243941
 20
4.9155076658
 30
0.0
 11
17.4858243941
 21
4.9155076658
 31
0.0
  0
SPLINE
  5
2C1
330
1F
100
AcDbEntity
  8
0
  6
Continuous
 62
     7
370
    25
100
AcDbSpline
210
0.0
220
0.0
230
1.0
 70
     8
 71
     3
 72
    22
 73
    18
 74
     0
 42
0.00000001
 43
0.00000001
 40
0.0
 40
0.0
 40
0.0
 40
0.0
 40
0.0445874227744866
 40
0.1134257606846898
 40
0.182264323297802
 40
0.2511737062721648
 40
0.3200828543077301
 40
0.3889940782228174
 40
0.4579049721856475
 40
0.5267457323607511
 40
0.595586583369859
 40
0.6643946258918247
 40
0.7332030357875748
 40
0.802067099122453
 40
0.8709312338734457
 40
0.9398526601590199
 40
1.0
 40
1.0
 40
1.0
 40
1.0
 10
16.7636690623947
 20
2.405330128081176
 30
0.0
 10
16.76166541794454
 20
2.404506936125919
 30
0.0
 10
16.75656835510127
 20
2.402412821510081
 30
0.0
 10
16.74919612538242
 20
2.397018602017805
 30
0.0
 10
16.74171811543913
 20
2.389634436764965
 30
0.0
 10
16.7354782565469
 20
2.380781927882403
 30
0.0
 10
16.73055974571301
 20
2.37085298213625
 30
0.0
 10
16.72716044232122
 20
2.360067142155792
 30
0.0
 10
16.72530601896664
 20
2.348769140880612
 30
0.0
 10
16.72510837166892
 20
2.337263894300221
 30
0.0
 10
16.72650493817909
 20
2.325882813478859
 30
0.0
 10
16.72952266681705
 20
2.314955411632037
 30
0.0
 10
16.73402189402815
 20
2.304767842119174
 30
0.0
 10
16.7399397313574
 20
2.295628026602152
 30
0.0
 10
16.74709039655932
 20
2.287805087468547
 30
0.0
 10
16.75490593936503
 20
2.281632332833186
 30
0.0
 10
16.76061056593247
 20
2.278969813988163
 30
0.0
 10
16.76326897914207
 20
2.277729053495827
 30
0.0
  0
LINE
  5
2C2
330
1F
100
AcDbEntity
  8
0
  6
Continuous
 62
     7
370
    25
100
AcDbLine
 10
17.4858243941
 20
4.8855076658
 30
0.0
 11
16.0008243941
 21
4.8855076658
 31
0.0
  0
LINE
  5
2C3
330
1F
100
AcDbEntity
  8
0
  6
Continuous
 62
     7
370
    25
100
AcDbLine
 10
18.9708243941
 20
4.8855076658
 30
0.0
 11
17.4858243941
 21
4.8855076658
 31
0.0
  0
INSERT
  5
2C4
330
1F
100
AcDbEntity
  8
0
  6
Continuous
 62
     7
100
AcDbBlockReference
  2
Block2
 10
16.4952006015
 20
0.2228938098
 30
0.0
 41
0.5
 42
0.5
 43
0.5
  0
DIMENSION
  5
2C5
330
1F
100
AcDbEntity
  8
0
  6
Continuous
 62
     7
370
    18
100
AcDbDimension
  2
_D_5
 10
14.4965948876
 20
4.9155076658
 30
0.0
 11
14.4965948876
 21
3.5035076658
 31
0.0
 70
   160
  1
<>
 71
     2
 42
-1.0
  3
SLDDIMSTYLE0
100
AcDbAlignedDimension
 13
16.0008243941
 23
2.0915076658
 33
0.0
 14
16.0308243941
 24
4.9155076658
 34
0.0
 50
90.0
100
AcDbRotatedDimension
  0
LINE
  5
2D9
330
1F
100
AcDbEntity
  8
0
  6
Continuous
 62
     7
370
    25
100
AcDbLine
 10
24.9992877899
 20
2.4094839043
 30
0.0
 11
24.9992877899
 21
3.8855076658
 31
0.0
  0
LINE
  5
2DA
330
1F
100
AcDbEntity
  8
0
  6
Continuous
 62
     7
370
    25
100
AcDbLine
 10
24.9992877899
 20
2.0915076658
 30
0.0
 11
24.9992877899
 21
2.2735646076
 31
0.0
  0
LINE
  5
2DB
330
1F
100
AcDbEntity
  8
0
  6
Continuous
 62
     7
370
    25
100
AcDbLine
 10
22.0292877899
 20
3.8855076658
 30
0.0
 11
22.0292877899
 21
2.0915076658
 31
0.0
  0
ARC
  5
2DC
330
1F
100
AcDbEntity
  8
0
  6
Continuous
 62
     7
370
    25
100
AcDbCircle
 10
22.0592877899
 20
3.8855076658
 30
0.0
 40
0.0300000000000011
100
AcDbArc
 50
90.0
 51
180.0
  0
ARC
  5
2DD
330
1F
100
AcDbEntity
  8
0
  6
Continuous
 62
     7
370
    25
100
AcDbCircle
 10
24.9692877899
 20
3.8855076658
 30
0.0
 40
0.0300000000000011
100
AcDbArc
 50
0.0
 51
90.0
  0
LINE
  5
2DE
330
1F
100
AcDbEntity
  8
0
  6
Continuous
 62
     7
370
    25
100
AcDbLine
 10
23.5142877899
 20
2.0915076658
 30
0.0
 11
24.9992877899
 21
2.0915076658
 31
0.0
  0
LINE
  5
2DF
330
1F
100
AcDbEntity
  8
0
  6
Continuous
 62
     7
370
    25
100
AcDbLine
 10
22.0292877899
 20
2.0915076658
 30
0.0
 11
23.5142877899
 21
2.0915076658
 31
0.0
  0
SPLINE
  5
2E0
330
1F
100
AcDbEntity
  8
0
  6
Continuous
 62
     7
370
    25
100
AcDbSpline
210
0.0
220
0.0
230
1.0
 70
     8
 71
     3
 72
    45
 73
    41
 74
     0
 42
0.00000001
 43
0.00000001
 40
0.0
 40
0.0
 40
0.0
 40
0.0
 40
0.0095528775845872
 40
0.0367750308310216
 40
0.063208422882304
 40
0.0896418261220611
 40
0.116842616258764
 40
0.1440434238726189
 40
0.1704873454169116
 40
0.1969312801702869
 40
0.2241420524335316
 40
0.2513528303280068
 40
0.277820505335755
 40
0.3042881749612165
 40
0.3315247209226095
 40
0.3587612517862694
 40
0.3852288699275725
 40
0.41169647239902
 40
0.4389344084130578
 40
0.4661723321134781
 40
0.4926161064928505
 40
0.5190598794098794
 40
0.5462725757040936
 40
0.5734852817064249
 40
0.599918660114131
 40
0.6263520534735701
 40
0.6535522998141999
 40
0.6807525626224588
 40
0.707205198450329
 40
0.7336578423212223
 40
0.760877836016858
 40
0.7880978272954877
 40
0.8145693292249312
 40
0.8410408197143765
 40
0.8682819484407658
 40
0.8955230595577568
 40
0.9219836041062132
 40
0.9484441355731502
 40
0.9756748152320254
 40
1.0
 40
1.0
 40
1.0
 40
1.0
 10
24.99928517055383
 20
2.27356460764147
 30
0.0
 10
24.99928586391344
 20
2.273549383178701
 30
0.0
 10
24.99928853309042
 20
2.273490774651296
 30
0.0
 10
24.99927009835206
 20
2.27389444582568
 30
0.0
 10
24.9992306752514
 20
2.274762940425651
 30
0.0
 10
24.999169938912
 20
2.276125763952769
 30
0.0
 10
24.99909000306216
 20
2.27796145729812
 30
0.0
 10
24.9989933547874
 20
2.280256714114336
 30
0.0
 10
24.99888387282814
 20
2.282964384522242
 30
0.0
 10
24.99876405327538
 20
2.286077968496587
 30
0.0
 10
24.9986357133017
 20
2.28961890169129
 30
0.0
 10
24.9985037073128
 20
2.293534254868251
 30
0.0
 10
24.99837309287928
 20
2.297754267200618
 30
0.0
 10
24.99824617423609
 20
2.302279289012627
 30
0.0
 10
24.99812556830931
 20
2.307130025485618
 30
0.0
 10
24.99801593407612
 20
2.31222876941349
 30
0.0
 10
24.99792144301779
 20
2.31748715300611
 30
0.0
 10
24.99784315062276
 20
2.322912576422547
 30
0.0
 10
24.99778328700287
 20
2.328524475923405
 30
0.0
 10
24.99774422950007
 20
2.334228504005238
 30
0.0
 10
24.99772739331561
 20
2.33992787298335
 30
0.0
 10
24.99773209065225
 20
2.345636419258063
 30
0.0
 10
24.99775921026482
 20
2.351370618328664
 30
0.0
 10
24.99780777101428
 20
2.357032949661907
 30
0.0
 10
24.99787583266168
 20
2.362529744064055
 30
0.0
 10
24.99796129944132
 20
2.367879926446192
 30
0.0
 10
24.99806335513064
 20
2.373092648081597
 30
0.0
 10
24.99817815964701
 20
2.378079244037348
 30
0.0
 10
24.99830128893954
 20
2.382759417845225
 30
0.0
 10
24.99843015924635
 20
2.38715473371733
 30
0.0
 10
24.99856256131067
 20
2.391265057082723
 30
0.0
 10
24.9986934551362
 20
2.395018058664858
 30
0.0
 10
24.99881783545917
 20
2.398355583542232
 30
0.0
 10
24.99893372777948
 20
2.401299440248378
 30
0.0
 10
24.99903853014428
 20
2.403842532891264
 30
0.0
 10
24.99912811494029
 20
2.405935017075519
 30
0.0
 10
24.99919928941435
 20
2.407552031934301
 30
0.0
 10
24.99925088897372
 20
2.408698765185458
 30
0.0
 10
24.99928253591663
 20
2.409393832026115
 30
0.0
 10
24.9992853658414
 20
2.409455029807286
 30
0.0
 10
24.99928670106182
 20
2.409483904259319
 30
0.0
  0
SPLINE
  5
2E1
330
1F
100
AcDbEntity
  8
0
  6
Continuous
 62
     7
370
    25
100
AcDbSpline
210
0.0
220
0.0
230
1.0
 70
    11
 71
     3
 72
    56
 73
    52
 74
     0
 42
0.00000001
 43
0.00000001
 40
0.0
 40
0.0
 40
0.0
 40
0.0
 40
0.0312500000000002
 40
0.0312500000000002
 40
0.0625000000000004
 40
0.0625000000000004
 40
0.0937500000000005
 40
0.0937500000000005
 40
0.1250000000000007
 40
0.1250000000000007
 40
0.1875000000000011
 40
0.1875000000000011
 40
0.2500000000000014
 40
0.2500000000000014
 40
0.2812500000000011
 40
0.2812500000000011
 40
0.3125000000000008
 40
0.3125000000000008
 40
0.3437500000000005
 40
0.3437500000000005
 40
0.3750000000000002
 40
0.3750000000000002
 40
0.4062499999999998
 40
0.4062499999999998
 40
0.4374999999999995
 40
0.4374999999999995
 40
0.4687499999999992
 40
0.4687499999999992
 40
0.4999999999999989
 40
0.4999999999999989
 40
0.5624999999999984
 40
0.5624999999999984
 40
0.624999999999998
 40
0.624999999999998
 40
0.6562499999999978
 40
0.6562499999999978
 40
0.6874999999999976
 40
0.6874999999999976
 40
0.7187499999999972
 40
0.7187499999999972
 40
0.749999999999997
 40
0.749999999999997
 40
0.8124999999999972
 40
0.8124999999999972
 40
0.8437499999999973
 40
0.8437499999999973
 40
0.8749999999999973
 40
0.8749999999999973
 40
0.9374999999999988
 40
0.9374999999999988
 40
1.0
 40
1.0
 40
1.0
 40
1.0
 10
22.8314563770151
 20
2.341507665757431
 30
0.0
 10
22.8314563770151
 20
2.337014626697186
 30
0.0
 10
22.83106432005094
 20
2.332596786914805
 30
0.0
 10
22.82952938467677
 20
2.323905319117339
 30
0.0
 10
22.82836786438561
 20
2.31958663830244
 30
0.0
 10
22.8253395542832
 20
2.311351965618575
 30
0.0
 10
22.82348788370112
 20
2.307446457586075
 30
0.0
 10
22.81912036236789
 20
2.300055113153071
 30
0.0
 10
22.81658170314737
 20
2.296555985931126
 30
0.0
 10
22.8082801881379
 20
2.287147941567319
 30
0.0
 10
22.80160922470739
 20
2.282081843921578
 30
0.0
 10
22.78729394679529
 20
2.275298814153187
 30
0.0
 10
22.77950152902243
 20
2.273512414373719
 30
0.0
 10
22.76797811131453
 20
2.27350530600458
 30
0.0
 10
22.7640868090642
 20
2.27394667751937
 30
0.0
 10
22.75657258897176
 20
2.275681349620094
 30
0.0
 10
22.75292995075422
 20
2.276964851235037
 30
0.0
 10
22.7458716194257
 20
2.280368968346197
 30
0.0
 10
22.74246670035584
 20
2.282497773719868
 30
0.0
 10
22.7361785923704
 20
2.287419024810019
 30
0.0
 10
22.73325451909906
 20
2.290228447308309
 30
0.0
 10
22.72785767541983
 20
2.296572598928076
 30
0.0
 10
22.72546728758495
 20
2.300012348135543
 30
0.0
 10
22.72129485458939
 20
2.307375049896239
 30
0.0
 10
22.71949444350367
 20
2.31134808749397
 30
0.0
 10
22.7166088393734
 20
2.319587344747147
 30
0.0
 10
22.71552313242139
 20
2.323825961588016
 30
0.0
 10
22.71405443663633
 20
2.332538507813494
 30
0.0
 10
22.71367825937171
 20
2.337045496848486
 30
0.0
 10
22.713674258483
 20
2.350359292144612
 30
0.0
 10
22.71517239570462
 20
2.35930558011167
 30
0.0
 10
22.7208913926334
 20
2.37567673812429
 30
0.0
 10
22.72517344255852
 20
2.383268682374208
 30
0.0
 10
22.733157582225
 20
2.392682102556376
 30
0.0
 10
22.73613180940022
 20
2.3955555607942
 30
0.0
 10
22.74244011787206
 20
2.400500838059542
 30
0.0
 10
22.74577782449411
 20
2.402592106720078
 30
0.0
 10
22.75282658675068
 20
2.406009401479253
 30
0.0
 10
22.75654201128335
 20
2.407323490816159
 30
0.0
 10
22.76403104096627
 20
2.409059172642491
 30
0.0
 10
22.76784398189043
 20
2.409503111183878
 30
0.0
 10
22.77949737896326
 20
2.409516671327976
 30
0.0
 10
22.78718534388135
 20
2.407758982293768
 30
0.0
 10
22.79800756232056
 20
2.40264451807565
 30
0.0
 10
22.801434567831
 20
2.400558263474
 30
0.0
 10
22.80792845235853
 20
2.395634089086063
 30
0.0
 10
22.81101386179694
 20
2.392764935630051
 30
0.0
 10
22.81932621211353
 20
2.383357748539118
 30
0.0
 10
22.82381825754247
 20
2.375780106118948
 30
0.0
 10
22.8298491333798
 20
2.359420665105121
 30
0.0
 10
22.8314563770151
 20
2.350493743877921
 30
0.0
 10
22.8314563770151
 20
2.341507665757431
 30
0.0
  0
LINE
  5
2E2
330
1F
100
AcDbEntity
  8
0
  6
Continuous
 62
     7
370
    25
100
AcDbLine
 10
23.5142877899
 20
3.9155076658
 30
0.0
 11
24.9692877899
 21
3.9155076658
 31
0.0
  0
LINE
  5
2E3
330
1F
100
AcDbEntity
  8
0
  6
Continuous
 62
     7
370
    25
100
AcDbLine
 10
22.0592877899
 20
3.9155076658
 30
0.0
 11
23.5142877899
 21
3.9155076658
 31
0.0
  0
SPLINE
  5
2E4
330
1F
100
AcDbEntity
  8
0
  6
Continuous
 62
     7
370
    25
100
AcDbSpline
210
0.0
220
0.0
230
1.0
 70
     8
 71
     3
 72
    29
 73
    25
 74
     0
 42
0.00000001
 43
0.00000001
 40
0.0
 40
0.0
 40
0.0
 40
0.0
 40
0.04339028442033
 40
0.0892188609930846
 40
0.1351933551806856
 40
0.1810220870139698
 40
0.2268979270477766
 40
0.2729199844490303
 40
0.3187956621495854
 40
0.3646726902640487
 40
0.410696208479724
 40
0.4565730086102684
 40
0.5024031440632384
 40
0.5483795878584586
 40
0.59420978607409
 40
0.6400181852746191
 40
0.6859725407735001
 40
0.7317811938143396
 40
0.7776268903935162
 40
0.8236185703624701
 40
0.8694643162872733
 40
0.915348157408925
 40
0.9613783452687875
 40
1.0
 40
1.0
 40
1.0
 40
1.0
 10
22.79190983304751
 20
2.405448958176319
 30
0.0
 10
22.78998529353042
 20
2.40457258473978
 30
0.0
 10
22.78602806610166
 20
2.40277059056396
 30
0.0
 10
22.78044168420629
 20
2.399050728946599
 30
0.0
 10
22.77513625071813
 20
2.394613022129719
 30
0.0
 10
22.77029918630617
 20
2.389493574648337
 30
0.0
 10
22.76600029857424
 20
2.383756762715854
 30
0.0
 10
22.76227428077965
 20
2.377490416116517
 30
0.0
 10
22.75916385908225
 20
2.370773364215103
 30
0.0
 10
22.75672914647298
 20
2.363676942584708
 30
0.0
 10
22.75497540118628
 20
2.356304739458877
 30
0.0
 10
22.75392257766443
 20
2.348748278984649
 30
0.0
 10
22.75360752164067
 20
2.34110059746097
 30
0.0
 10
22.7540077269365
 20
2.333462255889134
 30
0.0
 10
22.75511846928368
 20
2.325923965911295
 30
0.0
 10
22.75695114266804
 20
2.318588534687497
 30
0.0
 10
22.75945911707178
 20
2.311541612749753
 30
0.0
 10
22.76261565295709
 20
2.304865034442149
 30
0.0
 10
22.7664060066518
 20
2.298659660544782
 30
0.0
 10
22.77076480612101
 20
2.292989901046823
 30
0.0
 10
22.77564061032722
 20
2.287916409171717
 30
0.0
 10
22.78100241707031
 20
2.283557002974942
 30
0.0
 10
22.78643046841598
 20
2.280032388667412
 30
0.0
 10
22.79019778470276
 20
2.278360200258301
 30
0.0
 10
22.79191658944981
 20
2.277597279081333
 30
0.0
  0
LINE
  5
2E5
330
1F
100
AcDbEntity
  8
0
  6
Continuous
 62
     7
370
    25
100
AcDbLine
 10
23.5142877899
 20
3.8855076658
 30
0.0
 11
22.0292877899
 21
3.8855076658
 31
0.0
  0
LINE
  5
2E6
330
1F
100
AcDbEntity
  8
0
  6
Continuous
 62
     7
370
    25
100
AcDbLine
 10
24.9992877899
 20
3.8855076658
 30
0.0
 11
23.5142877899
 21
3.8855076658
 31
0.0
  0
INSERT
  5
2E7
330
1F
100
AcDbEntity
  8
0
  6
Continuous
 62
     7
100
AcDbBlockReference
  2
Block3
 10
22.7719401865
 20
0.6306831998
 30
0.0
 41
0.5
 42
0.5
 43
0.5
  0
DIMENSION
  5
2E8
330
1F
100
AcDbEntity
  8
0
  6
Continuous
 62
     7
370
    18
100
AcDbDimension
  2
_D_6
 10
20.724138789
 20
3.9155076658
 30
0.0
 11
20.724138789
 21
3.0035076658
 31
0.0
 70
   160
  1
<>
 71
     2
 42
-1.0
  3
SLDDIMSTYLE0
100
AcDbAlignedDimension
 13
22.0292877899
 23
2.0915076658
 33
0.0
 14
22.2492877899
 24
3.9155076658
 34
0.0
 50
90.0
100
AcDbRotatedDimension
  0
LINE
  5
2FC
330
1F
100
AcDbEntity
  8
0
  6
CENTERX2
 62
     7
100
AcDbLine
 10
15.4292741709
 20
13.6802114379
 30
0.0
 11
15.4292741709
 21
13.0323275991
 31
0.0
  0
POINT
  5
2FD
330
1F
100
AcDbEntity
  8
0
  6
Continuous
 62
     7
100
AcDbPoint
 10
15.2576232492
 20
13.0323275991
 30
0.0
  0
LINE
  5
2FE
330
1F
100
AcDbEntity
  8
0
  6
Continuous
 62
     7
370
    25
100
AcDbLine
 10
17.456949159
 20
13.5137082218
 30
0.0
 11
17.4596049702
 21
13.5174641061
 31
0.0
  0
LINE
  5
2FF
330
1F
100
AcDbEntity
  8
0
  6
Continuous
 62
     7
370
    25
100
AcDbLine
 10
17.4596049702
 20
13.6209958725
 30
0.0
 11
17.456949159
 21
13.6247517568
 31
0.0
  0
LINE
  5
300
330
1F
100
AcDbEntity
  8
0
  6
Continuous
 62
     7
370
    25
100
AcDbLine
 10
14.8535613251
 20
13.6247517568
 30
0.0
 11
14.8509055139
 21
13.6209958725
 31
0.0
  0
LINE
  5
301
330
1F
100
AcDbEntity
  8
0
  6
Continuous
 62
     7
370
    25
100
AcDbLine
 10
14.8509055139
 20
13.5174641061
 30
0.0
 11
14.8535613251
 21
13.5137082218
 31
0.0
  0
LINE
  5
302
330
1F
100
AcDbEntity
  8
0
  6
Continuous
 62
     7
370
    25
100
AcDbLine
 10
14.670255242
 20
13.8192299893
 30
0.0
 11
14.670255242
 21
10.0402299893
 31
0.0
  0
LINE
  5
303
330
1F
100
AcDbEntity
  8
0
  6
Continuous
 62
     7
370
    25
100
AcDbLine
 10
17.640255242
 20
10.0402299893
 30
0.0
 11
17.640255242
 21
13.8192299893
 31
0.0
  0
LINE
  5
304
330
1F
100
AcDbEntity
  8
0
  6
Continuous
 62
     7
370
    25
100
AcDbLine
 10
17.640255242
 20
18.9892299893
 30
0.0
 11
17.610255242
 21
19.0192299893
 31
0.0
  0
LINE
  5
305
330
1F
100
AcDbEntity
  8
0
  6
Continuous
 62
     7
370
    25
100
AcDbLine
 10
14.700255242
 20
19.0192299893
 30
0.0
 11
14.670255242
 21
18.9892299893
 31
0.0
  0
LINE
  5
306
330
1F
100
AcDbEntity
  8
0
  6
Continuous
 62
     7
370
    25
100
AcDbLine
 10
14.670255242
 20
18.9892299893
 30
0.0
 11
14.670255242
 21
13.8342299893
 31
0.0
  0
LINE
  5
307
330
1F
100
AcDbEntity
  8
0
  6
Continuous
 62
     7
370
    25
100
AcDbLine
 10
17.640255242
 20
13.8342299893
 30
0.0
 11
17.640255242
 21
18.9892299893
 31
0.0
  0
LINE
  5
308
330
1F
100
AcDbEntity
  8
0
  6
Continuous
 62
     7
370
    25
100
AcDbLine
 10
14.670255242
 20
13.8342299893
 30
0.0
 11
14.685255242
 21
13.8192299893
 31
0.0
  0
LINE
  5
309
330
1F
100
AcDbEntity
  8
0
  6
Continuous
 62
     7
370
    25
100
AcDbLine
 10
17.625255242
 20
13.8192299893
 30
0.0
 11
17.640255242
 21
13.8342299893
 31
0.0
  0
LWPOLYLINE
  5
30A
330
1F
100
AcDbEntity
  8
0
  6
Continuous
 62
     7
370
    25
100
AcDbPolyline
 90
       42
 70
   128
 43
0.0
 10
17.4701991839
 20
13.5431609557
 10
17.4718502422
 20
13.5522884475
 10
17.4727852982
 20
13.5618130347
 10
17.472982435
 20
13.571511469
 10
17.4724370319
 20
13.5811564273
 10
17.4711618727
 20
13.5905218401
 10
17.4691868461
 20
13.5993881899
 10
17.466558245
 20
13.607547657
 10
17.4633376816
 20
13.6148089905
 10
17.4596006431
 20
13.6210019909
 10
17.4554347226
 20
13.6259814994
 10
17.4509375657
 20
13.6296308006
 10
17.446214582
 20
13.631864358
 10
17.4413764741
 20
13.6326298188
 10
17.4365366434
 20
13.6319092414
 10
17.4318085312
 20
13.6297195155
 10
17.4273029605
 20
13.6261119663
 10
17.4231255381
 20
13.6211711518
 10
17.4193741792
 20
13.6150128805
 10
17.4161368125
 20
13.607781497
 10
17.4134893192
 20
13.5996464988
 10
17.4114937541
 20
13.5907985634
 10
17.4101968918
 20
13.581445079
 10
17.4096291294
 20
13.5718052832
 10
17.409803775
 20
13.5621051246
 10
17.4107167349
 20
13.5525719669
 10
17.4123466102
 20
13.5434292591
 10
17.4146551979
 20
13.5348912986
 10
17.4175883867
 20
13.5271582078
 10
17.4210774252
 20
13.5204112439
 10
17.4250405333
 20
13.5148085501
 10
17.429384819
 20
13.5104814487
 10
17.4340084559
 20
13.5075313633
 10
17.4388030701
 20
13.5060274413
 10
17.4436562797
 20
13.5060049336
 10
17.4484543296
 20
13.5074643675
 10
17.4530847576
 20
13.5103715353
 10
17.4574390304
 20
13.5146582953
 10
17.4614150876
 20
13.5202241696
 10
17.4649197337
 20
13.5269386988
 10
17.4678708229
 20
13.5346445
 10
17.4701991839
 20
13.5431609557
  0
LINE
  5
30B
330
1F
100
AcDbEntity
  8
0
  6
Continuous
 62
     7
370
    25
100
AcDbLine
 10
17.4390584847
 20
13.6140390196
 30
0.0
 11
17.4207778464
 21
13.5877469476
 31
0.0
  0
LINE
  5
30C
330
1F
100
AcDbEntity
  8
0
  6
Continuous
 62
     7
370
    25
100
AcDbLine
 10
17.4230223284
 20
13.5429379172
 30
0.0
 11
17.4207778464
 21
13.5877469476
 31
0.0
  0
LINE
  5
30D
330
1F
100
AcDbEntity
  8
0
  6
Continuous
 62
     7
370
    25
100
AcDbLine
 10
17.4435474487
 20
13.5244209589
 30
0.0
 11
17.4230223284
 21
13.5429379172
 31
0.0
  0
LINE
  5
30E
330
1F
100
AcDbEntity
  8
0
  6
Continuous
 62
     7
370
    25
100
AcDbLine
 10
17.4435474487
 20
13.5244209589
 30
0.0
 11
17.461828087
 21
13.550713031
 31
0.0
  0
LINE
  5
30F
330
1F
100
AcDbEntity
  8
0
  6
Continuous
 62
     7
370
    25
100
AcDbLine
 10
17.459583605
 20
13.5955220613
 30
0.0
 11
17.461828087
 21
13.550713031
 31
0.0
  0
LINE
  5
310
330
1F
100
AcDbEntity
  8
0
  6
Continuous
 62
     7
370
    25
100
AcDbLine
 10
17.459583605
 20
13.5955220613
 30
0.0
 11
17.4390584847
 21
13.6140390196
 31
0.0
  0
LINE
  5
311
330
1F
100
AcDbEntity
  8
0
  6
Continuous
 62
     7
370
    25
100
AcDbLine
 10
17.4261838121
 20
13.5955220613
 30
0.0
 11
17.459583605
 21
13.5955220613
 31
0.0
  0
LINE
  5
312
330
1F
100
AcDbEntity
  8
0
  6
Continuous
 62
     7
370
    25
100
AcDbLine
 10
17.4226328733
 20
13.550713031
 30
0.0
 11
17.461828087
 21
13.550713031
 31
0.0
  0
LWPOLYLINE
  5
313
330
1F
100
AcDbEntity
  8
0
  6
Continuous
 62
     7
370
    25
100
AcDbPolyline
 90
       42
 70
   128
 43
0.0
 10
14.8736222153
 20
13.5064478121
 10
14.8783623042
 20
13.5085313936
 10
14.8828878125
 20
13.5120376987
 10
14.8870926664
 20
13.5168845426
 10
14.8908783075
 20
13.5229583194
 10
14.8941560037
 20
13.530116665
 10
14.8968489285
 20
13.5381917937
 10
14.898893962
 20
13.5469944314
 10
14.9002431704
 20
13.5563182518
 10
14.9008649295
 20
13.5659447123
 10
14.9007446656
 20
13.5756481769
 10
14.8998851977
 20
13.5852012047
 10
14.898306671
 20
13.5943798807
 10
14.8960460848
 20
13.6029690646
 10
14.8931564253
 20
13.6107674331
 10
14.8897054237
 20
13.6175921992
 10
14.8857739686
 20
13.623283396
 10
14.8814542099
 20
13.6277076268
 10
14.8768473991
 20
13.6307611914
 10
14.8720615159
 20
13.6323725167
 10
14.8672087375
 20
13.6325038347
 10
14.8624028087
 20
13.6311520674
 10
14.8577563766
 20
13.6283488991
 10
14.8533783495
 20
13.6241600336
 10
14.8493713446
 20
13.6186836544
 10
14.8458292829
 20
13.6120481233
 10
14.8428351871
 20
13.6044089714
 10
14.8404592364
 20
13.5959452539
 10
14.8387571211
 20
13.5868553533
 10
14.8377687372
 20
13.5773523291
 10
14.8375172517
 20
13.5676589241
 10
14.8380085592
 20
13.5580023436
 10
14.8392311438
 20
13.5486089296
 10
14.8411563492
 20
13.5396988557
 10
14.8437390502
 20
13.5314809666
 10
14.8469187105
 20
13.5241478826
 10
14.8506208015
 20
13.5178714849
 10
14.8547585494
 20
13.5127988871
 10
14.8592349689
 20
13.5090489864
 10
14.8639451365
 20
13.5067096775
 10
14.8687786498
 20
13.5058357917
 10
14.8736222153
 20
13.5064478121
  0
LINE
  5
314
330
1F
100
AcDbEntity
  8
0
  6
Continuous
 62
     7
370
    25
100
AcDbLine
 10
14.8869496026
 20
13.5969585604
 30
0.0
 11
14.8660717365
 21
13.6138244678
 31
0.0
  0
LINE
  5
315
330
1F
100
AcDbEntity
  8
0
  6
Continuous
 62
     7
370
    25
100
AcDbLine
 10
14.8483296514
 20
13.5860958967
 30
0.0
 11
14.8660717365
 21
13.6138244678
 31
0.0
  0
LINE
  5
316
330
1F
100
AcDbEntity
  8
0
  6
Continuous
 62
     7
370
    25
100
AcDbLine
 10
14.8514654322
 20
13.5415014182
 30
0.0
 11
14.8483296514
 21
13.5860958967
 31
0.0
  0
LINE
  5
317
330
1F
100
AcDbEntity
  8
0
  6
Continuous
 62
     7
370
    25
100
AcDbLine
 10
14.8514654322
 20
13.5415014182
 30
0.0
 11
14.8723432983
 21
13.5246355108
 31
0.0
  0
LINE
  5
318
330
1F
100
AcDbEntity
  8
0
  6
Continuous
 62
     7
370
    25
100
AcDbLine
 10
14.8900853835
 20
13.5523640819
 30
0.0
 11
14.8723432983
 21
13.5246355108
 31
0.0
  0
LINE
  5
319
330
1F
100
AcDbEntity
  8
0
  6
Continuous
 62
     7
370
    25
100
AcDbLine
 10
14.8900853835
 20
13.5523640819
 30
0.0
 11
14.8869496026
 21
13.5969585604
 31
0.0
  0
LINE
  5
31A
330
1F
100
AcDbEntity
  8
0
  6
Continuous
 62
     7
370
    25
100
AcDbLine
 10
14.8831349242
 20
13.5415014182
 30
0.0
 11
14.8514654322
 21
13.5415014182
 31
0.0
  0
LINE
  5
31B
330
1F
100
AcDbEntity
  8
0
  6
Continuous
 62
     7
370
    25
100
AcDbLine
 10
14.8877134401
 20
13.5860958967
 30
0.0
 11
14.8483296514
 21
13.5860958967
 31
0.0
  0
ARC
  5
31C
330
1F
100
AcDbEntity
  8
0
  6
Continuous
 62
     7
370
    25
100
AcDbCircle
 10
16.155255242
 20
10.0402299893
 30
0.0
 40
1.484999999999999
100
AcDbArc
 50
180.0
 51
0.0
  0
SPLINE
  5
31D
330
1F
100
AcDbEntity
  8
0
  6
Continuous
 62
     7
370
    25
100
AcDbSpline
210
0.0
220
0.0
230
1.0
 70
    11
 71
     3
 72
    44
 73
    40
 74
     0
 42
0.00000001
 43
0.00000001
 40
0.0
 40
0.0
 40
0.0
 40
0.0
 40
0.0268283843171027
 40
0.0536568489742663
 40
0.0804843602019145
 40
0.1073119868157108
 40
0.1341573061540514
 40
0.1610025960821461
 40
0.1878597184739342
 40
0.2147167121645658
 40
0.2415545791584257
 40
0.2683924190851231
 40
0.2952100576824622
 40
0.3220278123640576
 40
0.3488557554504154
 40
0.3756837768927047
 40
0.402536505112531
 40
0.4293891513265217
 40
0.4562425066235467
 40
0.4830957469051993
 40
0.509924521528022
 40
0.5367533278964678
 40
0.5635707021997269
 40
0.5903882046885676
 40
0.6172251299283796
 40
0.6440620800005948
 40
0.6709190048091713
 40
0.6977758119438867
 40
0.7246219843421811
 40
0.7514680801574017
 40
0.7782895607010054
 40
0.8051111247872242
 40
0.8319324759059583
 40
0.858753940132573
 40
0.8855999010418398
 40
0.9124458283078778
 40
0.9393028102145793
 40
0.9661596632562679
 40
1.0
 40
1.0
 40
1.0
 40
1.0
 10
17.40595394212772
 20
13.56922998928336
 30
0.0
 10
17.40605681776758
 20
13.57305049907676
 30
0.0
 10
17.40626256935538
 20
13.58069153010441
 30
0.0
 10
17.40786279588777
 20
13.59183403356188
 30
0.0
 10
17.41038158944558
 20
13.6023214632897
 30
0.0
 10
17.41379028258258
 20
13.61189148174532
 30
0.0
 10
17.41798416085339
 20
13.62022861052049
 30
0.0
 10
17.42280415659446
 20
13.62715142416295
 30
0.0
 10
17.42811486456326
 20
13.63239739755204
 30
0.0
 10
17.43373439130495
 20
13.63588629072057
 30
0.0
 10
17.43949802516672
 20
13.63744319077051
 30
0.0
 10
17.44523535179217
 20
13.63710427288412
 30
0.0
 10
17.45077886425824
 20
13.63480166465362
 30
0.0
 10
17.45599300313684
 20
13.63068016494553
 30
0.0
 10
17.46072576459085
 20
13.62478159814128
 30
0.0
 10
17.4648844293414
 20
13.61733842181649
 30
0.0
 10
17.46834266320687
 20
13.6085000706052
 30
0.0
 10
17.47105025267384
 20
13.59856637302836
 30
0.0
 10
17.47291460611715
 20
13.58778141308946
 30
0.0
 10
17.47392796901751
 20
13.57648285128775
 30
0.0
 10
17.47403579539286
 20
13.56497735912917
 30
0.0
 10
17.47327093749664
 20
13.55359532214582
 30
0.0
 10
17.47161631026205
 20
13.54266797738459
 30
0.0
 10
17.46914046022686
 20
13.53247752540743
 30
0.0
 10
17.46586493070381
 20
13.52334825897674
 30
0.0
 10
17.46189214642825
 20
13.51548932511554
 30
0.0
 10
17.45728785789089
 20
13.50918469871485
 30
0.0
 10
17.45218901278783
 20
13.50454904337545
 30
0.0
 10
17.44670741420672
 20
13.50178821320693
 30
0.0
 10
17.44100636733562
 20
13.50090309296859
 30
0.0
 10
17.43523580708552
 20
13.50199610154833
 30
0.0
 10
17.42956516847159
 20
13.50495464430428
 30
0.0
 10
17.42416858993994
 20
13.5097714435958
 30
0.0
 10
17.41919870183225
 20
13.5162394548322
 30
0.0
 10
17.41483676195908
 20
13.52424268819066
 30
0.0
 10
17.41119132138996
 20
13.53349997052902
 30
0.0
 10
17.408446840305
 20
13.54379529181859
 30
0.0
 10
17.4063938487702
 20
13.55575190396524
 30
0.0
 10
17.40611140963786
 20
13.56440541895059
 30
0.0
 10
17.40595394212772
 20
13.56922998928336
 30
0.0
  0
SPLINE
  5
31E
330
1F
100
AcDbEntity
  8
0
  6
Continuous
 62
     7
370
    25
100
AcDbSpline
210
0.0
220
0.0
230
1.0
 70
    11
 71
     3
 72
    44
 73
    40
 74
     0
 42
0.00000001
 43
0.00000001
 40
0.0
 40
0.0
 40
0.0
 40
0.0
 40
0.026828384317104
 40
0.0536568489742697
 40
0.0804843602019148
 40
0.1073119868157103
 40
0.1341573061540515
 40
0.1610025960821476
 40
0.1878597184739311
 40
0.2147167121645583
 40
0.2415545791584223
 40
0.2683924190851229
 40
0.2952100576824593
 40
0.3220278123640508
 40
0.3488557554504094
 40
0.3756837768926997
 40
0.4025365051125221
 40
0.4293891513265105
 40
0.4562425066235374
 40
0.4830957469051902
 40
0.5099245215280154
 40
0.536753327896461
 40
0.5635707021997206
 40
0.5903882046885603
 40
0.6172251299283714
 40
0.6440620800005864
 40
0.6709190048091673
 40
0.6977758119438875
 40
0.7246219843421773
 40
0.7514680801573937
 40
0.7782895607010029
 40
0.8051111247872256
 40
0.8319324759059599
 40
0.858753940132576
 40
0.8855999010418389
 40
0.9124458283078739
 40
0.939302810214578
 40
0.9661596632562682
 40
1.0
 40
1.0
 40
1.0
 40
1.0
 10
14.83655654195778
 20
13.56922998928337
 30
0.0
 10
14.83664394405617
 20
13.57305049907676
 30
0.0
 10
14.83681874851468
 20
13.58069153010442
 30
0.0
 10
14.83818899294534
 20
13.59183403356188
 30
0.0
 10
14.84036385667339
 20
13.6023214632897
 30
0.0
 10
14.84334656685168
 20
13.61189148174532
 30
0.0
 10
14.84707986631504
 20
13.62022861052049
 30
0.0
 10
14.85145604947035
 20
13.62715142416295
 30
0.0
 10
14.85639329877523
 20
13.63239739755204
 30
0.0
 10
14.86174521454259
 20
13.63588629072057
 30
0.0
 10
14.86738657997977
 20
13.6374431907705
 30
0.0
 10
14.87314965840539
 20
13.63710427288412
 30
0.0
 10
14.87887524246561
 20
13.63480166465362
 30
0.0
 10
14.88439671389895
 20
13.63068016494553
 30
0.0
 10
14.88953601521596
 20
13.62478159814128
 30
0.0
 10
14.89414945005729
 20
13.61733842181649
 30
0.0
 10
14.8980613176741
 20
13.6085000706052
 30
0.0
 10
14.90117224904744
 20
13.59856637302836
 30
0.0
 10
14.90333837865634
 20
13.58778141308946
 30
0.0
 10
14.90452637622595
 20
13.57648285128775
 30
0.0
 10
14.90465148285516
 20
13.56497735912917
 30
0.0
 10
14.90375618621966
 20
13.55359532214581
 30
0.0
 10
14.90182730387351
 20
13.54266797738459
 30
0.0
 10
14.89897347706489
 20
13.53247752540743
 30
0.0
 10
14.89525226959765
 20
13.52334825897673
 30
0.0
 10
14.89081912431014
 20
13.51548932511555
 30
0.0
 10
14.88579255686993
 20
13.50918469871484
 30
0.0
 10
14.88035266585785
 20
13.50454904337545
 30
0.0
 10
14.87465751057878
 20
13.50178821320693
 30
0.0
 10
14.86888436246083
 20
13.50090309296859
 30
0.0
 10
14.8632023633411
 20
13.50199610154832
 30
0.0
 10
14.85775963171946
 20
13.50495464430428
 30
0.0
 10
14.85271450571819
 20
13.50977144359579
 30
0.0
 10
14.8481728828667
 20
13.51623945483221
 30
0.0
 10
14.84427179396603
 20
13.52424268819066
 30
0.0
 10
14.84106858039199
 20
13.53349997052902
 30
0.0
 10
14.83869045379587
 20
13.54379529181858
 30
0.0
 10
14.83693113335937
 20
13.55575190396524
 30
0.0
 10
14.83669062944279
 20
13.5644054189506
 30
0.0
 10
14.83655654195778
 20
13.56922998928337
 30
0.0
  0
LINE
  5
31F
330
1F
100
AcDbEntity
  8
0
  6
Continuous
 62
     7
370
    25
100
AcDbLine
 10
17.640255242
 20
13.8192299893
 30
0.0
 11
14.670255242
 21
13.8192299893
 31
0.0
  0
CIRCLE
  5
320
330
1F
100
AcDbEntity
  8
0
  6
Continuous
 62
     7
370
    25
100
AcDbCircle
 10
14.405255242
 20
17.7492299893
 30
0.0
 40
0.1372500000000007
  0
CIRCLE
  5
321
330
1F
100
AcDbEntity
  8
0
  6
Continuous
 62
     7
370
    25
100
AcDbCircle
 10
14.405255242
 20
17.7492299893
 30
0.0
 40
0.1562500000000012
  0
LINE
  5
322
330
1F
100
AcDbEntity
  8
0
  6
Continuous
 62
     7
370
    25
100
AcDbLine
 10
14.3706889581
 20
17.8325870647
 30
0.0
 11
14.460161445
 21
17.820843807
 31
0.0
  0
LINE
  5
323
330
1F
100
AcDbEntity
  8
0
  6
Continuous
 62
     7
370
    25
100
AcDbLine
 10
14.439821526
 20
17.6658729139
 30
0.0
 11
14.4947277289
 21
17.7374867316
 31
0.0
  0
LINE
  5
324
330
1F
100
AcDbEntity
  8
0
  6
Continuous
 62
     7
370
    25
100
AcDbLine
 10
14.4947277289
 20
17.7374867316
 30
0.0
 11
14.460161445
 21
17.820843807
 31
0.0
  0
LINE
  5
325
330
1F
100
AcDbEntity
  8
0
  6
Continuous
 62
     7
370
    25
100
AcDbLine
 10
14.3157827552
 20
17.760973247
 30
0.0
 11
14.3706889581
 21
17.8325870647
 31
0.0
  0
LINE
  5
326
330
1F
100
AcDbEntity
  8
0
  6
Continuous
 62
     7
370
    25
100
AcDbLine
 10
14.439821526
 20
17.6658729139
 30
0.0
 11
14.3503490391
 21
17.6776161716
 31
0.0
  0
LINE
  5
327
330
1F
100
AcDbEntity
  8
0
  6
Continuous
 62
     7
370
    25
100
AcDbLine
 10
14.3157827552
 20
17.760973247
 30
0.0
 11
14.3503490391
 21
17.6776161716
 31
0.0
  0
ARC
  5
328
330
1F
100
AcDbEntity
  8
0
  6
Continuous
 62
     7
370
    25
100
AcDbCircle
 10
14.405255242
 20
17.7492299893
 30
0.0
 40
0.0781500000000005
100
AcDbArc
 50
82.5226735859
 51
142.5226735859
  0
ARC
  5
329
330
1F
100
AcDbEntity
  8
0
  6
Continuous
 62
     7
370
    25
100
AcDbCircle
 10
14.405255242
 20
17.7492299893
 30
0.0
 40
0.0781500000000015
100
AcDbArc
 50
142.5226735859
 51
202.5226735859
  0
ARC
  5
32A
330
1F
100
AcDbEntity
  8
0
  6
Continuous
 62
     7
370
    25
100
AcDbCircle
 10
14.405255242
 20
17.7492299893
 30
0.0
 40
0.0781500000000011
100
AcDbArc
 50
322.5226735859
 51
22.5226735859
  0
ARC
  5
32B
330
1F
100
AcDbEntity
  8
0
  6
Continuous
 62
     7
370
    25
100
AcDbCircle
 10
14.405255242
 20
17.7492299893
 30
0.0
 40
0.0781500000000005
100
AcDbArc
 50
22.5226735859
 51
82.5226735859
  0
ARC
  5
32C
330
1F
100
AcDbEntity
  8
0
  6
Continuous
 62
     7
370
    25
100
AcDbCircle
 10
14.405255242
 20
17.7492299893
 30
0.0
 40
0.0781500000000011
100
AcDbArc
 50
262.5226735859
 51
322.5226735859
  0
ARC
  5
32D
330
1F
100
AcDbEntity
  8
0
  6
Continuous
 62
     7
370
    25
100
AcDbCircle
 10
14.405255242
 20
17.7492299893
 30
0.0
 40
0.0781500000000015
100
AcDbArc
 50
202.5226735859
 51
262.5226735859
  0
CIRCLE
  5
32E
330
1F
100
AcDbEntity
  8
0
  6
Continuous
 62
     7
370
    25
100
AcDbCircle
 10
17.905255242
 20
17.7492299893
 30
0.0
 40
0.137250000000001
  0
CIRCLE
  5
32F
330
1F
100
AcDbEntity
  8
0
  6
Continuous
 62
     7
370
    25
100
AcDbCircle
 10
17.905255242
 20
17.7492299893
 30
0.0
 40
0.1562499999999985
  0
LINE
  5
330
330
1F
100
AcDbEntity
  8
0
  6
Continuous
 62
     7
370
    25
100
AcDbLine
 10
17.939821526
 20
17.6658729139
 30
0.0
 11
17.8503490391
 21
17.6776161716
 31
0.0
  0
LINE
  5
331
330
1F
100
AcDbEntity
  8
0
  6
Continuous
 62
     7
370
    25
100
AcDbLine
 10
17.8157827552
 20
17.760973247
 30
0.0
 11
17.8503490391
 21
17.6776161716
 31
0.0
  0
LINE
  5
332
330
1F
100
AcDbEntity
  8
0
  6
Continuous
 62
     7
370
    25
100
AcDbLine
 10
17.8706889581
 20
17.8325870647
 30
0.0
 11
17.960161445
 21
17.820843807
 31
0.0
  0
LINE
  5
333
330
1F
100
AcDbEntity
  8
0
  6
Continuous
 62
     7
370
    25
100
AcDbLine
 10
17.9947277289
 20
17.7374867316
 30
0.0
 11
17.960161445
 21
17.820843807
 31
0.0
  0
LINE
  5
334
330
1F
100
AcDbEntity
  8
0
  6
Continuous
 62
     7
370
    25
100
AcDbLine
 10
17.8706889581
 20
17.8325870647
 30
0.0
 11
17.8157827552
 21
17.760973247
 31
0.0
  0
LINE
  5
335
330
1F
100
AcDbEntity
  8
0
  6
Continuous
 62
     7
370
    25
100
AcDbLine
 10
17.9947277289
 20
17.7374867316
 30
0.0
 11
17.939821526
 21
17.6658729139
 31
0.0
  0
ARC
  5
336
330
1F
100
AcDbEntity
  8
0
  6
Continuous
 62
     7
370
    25
100
AcDbCircle
 10
17.905255242
 20
17.7492299893
 30
0.0
 40
0.078150000000004
100
AcDbArc
 50
202.5226735859
 51
262.5226735859
  0
ARC
  5
337
330
1F
100
AcDbEntity
  8
0
  6
Continuous
 62
     7
370
    25
100
AcDbCircle
 10
17.905255242
 20
17.7492299893
 30
0.0
 40
0.0781499999999988
100
AcDbArc
 50
22.5226735859
 51
82.5226735859
  0
ARC
  5
338
330
1F
100
AcDbEntity
  8
0
  6
Continuous
 62
     7
370
    25
100
AcDbCircle
 10
17.905255242
 20
17.7492299893
 30
0.0
 40
0.0781500000000047
100
AcDbArc
 50
262.5226735859
 51
322.5226735859
  0
ARC
  5
339
330
1F
100
AcDbEntity
  8
0
  6
Continuous
 62
     7
370
    25
100
AcDbCircle
 10
17.905255242
 20
17.7492299893
 30
0.0
 40
0.0781499999999982
100
AcDbArc
 50
142.5226735859
 51
202.5226735859
  0
ARC
  5
33A
330
1F
100
AcDbEntity
  8
0
  6
Continuous
 62
     7
370
    25
100
AcDbCircle
 10
17.905255242
 20
17.7492299893
 30
0.0
 40
0.0781500000000047
100
AcDbArc
 50
322.5226735859
 51
22.5226735859
  0
ARC
  5
33B
330
1F
100
AcDbEntity
  8
0
  6
Continuous
 62
     7
370
    25
100
AcDbCircle
 10
17.905255242
 20
17.7492299893
 30
0.0
 40
0.0781499999999982
100
AcDbArc
 50
82.5226735859
 51
142.5226735859
  0
ARC
  5
33C
330
1F
100
AcDbEntity
  8
0
  6
Continuous
 62
     7
370
    25
100
AcDbCircle
 10
16.155255242
 20
17.7492299893
 30
0.0
 40
2.435
100
AcDbArc
 50
0.0
 51
232.4208894423
  0
ARC
  5
33D
330
1F
100
AcDbEntity
  8
0
  6
Continuous
 62
     7
370
    25
100
AcDbCircle
 10
16.155255242
 20
17.7492299893
 30
0.0
 40
2.435000000000004
100
AcDbArc
 50
307.5791105577
 51
0.0
  0
ARC
  5
33E
330
1F
100
AcDbEntity
  8
0
  6
Continuous
 62
     7
370
    25
100
AcDbCircle
 10
16.155255242
 20
17.7492299893
 30
0.0
 40
2.485000000000002
100
AcDbArc
 50
306.6971677698
 51
0.0
  0
ARC
  5
33F
330
1F
100
AcDbEntity
  8
0
  6
Continuous
 62
     7
370
    25
100
AcDbCircle
 10
16.155255242
 20
17.7492299893
 30
0.0
 40
2.485
100
AcDbArc
 50
0.0
 51
233.3028322302
  0
LINE
  5
340
330
1F
100
AcDbEntity
  8
0
  6
Continuous
 62
     7
370
    25
100
AcDbLine
 10
16.155255242
 20
19.0192299893
 30
0.0
 11
17.610255242
 21
19.0192299893
 31
0.0
  0
LINE
  5
341
330
1F
100
AcDbEntity
  8
0
  6
Continuous
 62
     7
370
    25
100
AcDbLine
 10
14.700255242
 20
19.0192299893
 30
0.0
 11
16.155255242
 21
19.0192299893
 31
0.0
  0
LINE
  5
342
330
1F
100
AcDbEntity
  8
0
  6
Continuous
 62
     7
370
    25
100
AcDbLine
 10
16.155255242
 20
18.9892299893
 30
0.0
 11
14.670255242
 21
18.9892299893
 31
0.0
  0
LINE
  5
343
330
1F
100
AcDbEntity
  8
0
  6
Continuous
 62
     7
370
    25
100
AcDbLine
 10
17.640255242
 20
18.9892299893
 30
0.0
 11
16.155255242
 21
18.9892299893
 31
0.0
  0
LINE
  5
344
330
1F
100
AcDbEntity
  8
0
  6
Continuous
 62
     7
370
    25
100
AcDbLine
 10
14.670255242
 20
13.8342299893
 30
0.0
 11
17.640255242
 21
13.8342299893
 31
0.0
  0
DIMENSION
  5
345
330
1F
100
AcDbEntity
  8
0
  6
Continuous
 62
     7
370
    18
100
AcDbDimension
  2
_D_7
 10
20.3617318472
 20
13.8192299893
 30
0.0
 11
20.3617318472
 21
16.4192299893
 31
0.0
 70
   160
  1
<>
 71
     2
 42
-1.0
  3
SLDDIMSTYLE2
100
AcDbAlignedDimension
 13
17.610255242
 23
19.0192299893
 33
0.0
 14
17.640255242
 24
13.8192299893
 34
0.0
 50
90.0
100
AcDbRotatedDimension
  0
DIMENSION
  5
359
330
1F
100
AcDbEntity
  8
0
  6
Continuous
 62
     7
370
    18
100
AcDbDimension
  2
_D_8
 10
18.640255242
 20
23.6197421317
 30
0.0
 11
16.155255242
 21
23.6197421317
 31
0.0
 70
   160
  1
%%c<>
 71
     2
 42
-1.0
  3
SLDDIMSTYLE3
100
AcDbAlignedDimension
 13
13.670255242
 23
17.7492299893
 33
0.0
 14
18.640255242
 24
17.7492299893
 34
0.0
100
AcDbRotatedDimension
  0
DIMENSION
  5
36D
330
1F
100
AcDbEntity
  8
0
  6
Continuous
 62
     7
370
    18
100
AcDbDimension
  2
_D_9
 10
14.405255242
 20
21.6801855816
 30
0.0
 11
16.155255242
 21
21.6801855816
 31
0.0
 70
   160
  1
<>O.C.
 71
     2
 42
-1.0
  3
SLDDIMSTYLE0
100
AcDbAlignedDimension
 13
17.905255242
 23
17.7492299893
 33
0.0
 14
14.405255242
 24
17.7492299893
 34
0.0
100
AcDbRotatedDimension
  0
DIMENSION
  5
380
330
1F
100
AcDbEntity
  8
0
  6
Continuous
 62
     7
370
    18
100
AcDbDimension
  2
_D_10
 10
17.640255242
 20
7.3741276271
 30
0.0
 11
16.155255242
 21
7.3741276271
 31
0.0
 70
   160
  1
%%c<>
 71
     2
 42
-1.0
  3
SLDDIMSTYLE1
100
AcDbAlignedDimension
 13
14.670255242
 23
10.0402299893
 33
0.0
 14
17.640255242
 24
10.0402299893
 34
0.0
100
AcDbRotatedDimension
  0
ENDSEC
  0
SECTION
  2
OBJECTS
  0
DICTIONARY
  5
C
330
0
100
AcDbDictionary
281
     1
  3
ACAD_GROUP
350
D
  3
ACAD_LAYOUT
350
1A
  3
ACAD_MLINESTYLE
350
17
  3
ACAD_PLOTSETTINGS
350
19
  3
ACAD_PLOTSTYLENAME
350
E
  3
ACAD_SCALELIST
350
47
  3
DWGPROPS
350
393
  0
DICTIONARY
  5
D
102
{ACAD_REACTORS
330
C
102
}
330
C
100
AcDbDictionary
281
     1
  0
DICTIONARY
  5
1A
102
{ACAD_REACTORS
330
C
102
}
330
C
100
AcDbDictionary
281
     1
  3
Layout1
350
1E
  3
Layout2
350
26
  3
Model
350
22
  0
DICTIONARY
  5
17
102
{ACAD_REACTORS
330
C
102
}
330
C
100
AcDbDictionary
281
     1
  3
Standard
350
18
  0
DICTIONARY
  5
19
102
{ACAD_REACTORS
330
C
102
}
330
C
100
AcDbDictionary
281
     1
  0
ACDBDICTIONARYWDFLT
  5
E
102
{ACAD_REACTORS
330
C
102
}
330
C
100
AcDbDictionary
281
     1
  3
Normal
350
F
100
AcDbDictionaryWithDefault
340
F
  0
DICTIONARY
  5
47
102
{ACAD_REACTORS
330
C
102
}
330
C
100
AcDbDictionary
281
     1
  3
A0
350
48
  3
A1
350
49
  3
A2
350
4A
  3
A3
350
4B
  3
A4
350
4C
  3
A5
350
4D
  3
A6
350
4E
  3
A7
350
4F
  3
A8
350
50
  3
A9
350
51
  3
B1
350
52
  3
B2
350
53
  3
B3
350
54
  3
B4
350
55
  3
B5
350
56
  3
B6
350
57
  3
B7
350
58
  0
XRECORD
  5
393
102
{ACAD_REACTORS
330
C
102
}
330
C
100
AcDbXrecord
280
     1
  1
DWGPROPS COOKIE
  2

  3

  4

  6

  7

  8
shawnd
  9

300
=
301
=
302
=
303
=
304
=
305
=
306
=
307
=
308
=
309
=
 40
0.0
 41
2460860.704845371
 42
2460860.704846019
  1

 90
        0
  0
LAYOUT
  5
1E
102
{ACAD_REACTORS
330
1A
102
}
330
1A
100
AcDbPlotSettings
  1

  2
none_device
  4

  6

 40
0.0
 41
0.0
 42
0.0
 43
0.0
 44
0.0
 45
0.0
 46
0.0
 47
0.0
 48
0.0
 49
0.0
140
0.0
141
0.0
142
1.0
143
1.0
 70
   688
 72
     0
 73
     0
 74
     5
  7

 75
    16
147
1.0
148
0.0
149
0.0
100
AcDbLayout
  1
Layout1
 70
     1
 71
     1
 10
0.0
 20
0.0
 11
12.0
 21
9.0
 12
0.0
 22
0.0
 32
0.0
 14
1.0000000000E+20
 24
1.0000000000E+20
 34
1.0000000000E+20
 15
-1.0000000000E+20
 25
-1.0000000000E+20
 35
-1.0000000000E+20
146
0.0
 13
0.0
 23
0.0
 33
0.0
 16
1.0
 26
0.0
 36
0.0
 17
0.0
 27
1.0
 37
0.0
 76
     0
330
1B
  0
LAYOUT
  5
26
102
{ACAD_REACTORS
330
1A
102
}
330
1A
100
AcDbPlotSettings
  1

  2
none_device
  4

  6

 40
0.0
 41
0.0
 42
0.0
 43
0.0
 44
0.0
 45
0.0
 46
0.0
 47
0.0
 48
0.0
 49
0.0
140
0.0
141
0.0
142
1.0
143
1.0
 70
   688
 72
     0
 73
     0
 74
     5
  7

 75
    16
147
1.0
148
0.0
149
0.0
100
AcDbLayout
  1
Layout2
 70
     1
 71
     2
 10
0.0
 20
0.0
 11
0.0
 21
0.0
 12
0.0
 22
0.0
 32
0.0
 14
0.0
 24
0.0
 34
0.0
 15
0.0
 25
0.0
 35
0.0
146
0.0
 13
0.0
 23
0.0
 33
0.0
 16
1.0
 26
0.0
 36
0.0
 17
0.0
 27
1.0
 37
0.0
 76
     0
330
23
  0
LAYOUT
  5
22
102
{ACAD_REACTORS
330
1A
102
}
330
1A
100
AcDbPlotSettings
  1

  2
none_device
  4
Letter_(8.50_x_11.00_Inches)
  6

 40
6.35
 41
6.35
 42
6.35000508
 43
6.35000508
 44
215.9
 45
279.4
 46
0.0
 47
0.0
 48
0.0
 49
0.0
140
0.0
141
0.0
142
1.0
143
1.0
 70
  1712
 72
     0
 73
     0
 74
     0
  7

 75
     0
147
1.0
148
0.0
149
0.0
100
AcDbLayout
  1
Model
 70
     1
 71
     0
 10
0.0
 20
0.0
 11
33.0
 21
25.5
 12
0.0
 22
0.0
 32
0.0
 14
0.0
 24
0.0
 34
0.0
 15
33.0
 25
25.5
 35
0.0
146
0.0
 13
0.0
 23
0.0
 33
0.0
 16
1.0
 26
0.0
 36
0.0
 17
0.0
 27
1.0
 37
0.0
 76
     0
330
1F
331
29
  0
MLINESTYLE
  5
18
102
{ACAD_REACTORS
330
17
102
}
330
17
100
AcDbMlineStyle
  2
Standard
 70
     0
  3

 62
   256
 51
90.0
 52
90.0
 71
     2
 49
0.5
 62
   256
  6
BYLAYER
 49
-0.5
 62
   256
  6
BYLAYER
  0
ACDBPLACEHOLDER
  5
F
102
{ACAD_REACTORS
330
E
102
}
330
E
  0
SCALE
  5
48
102
{ACAD_REACTORS
330
47
102
}
330
47
100
AcDbScale
 70
     0
300
1:1
140
1.0
141
1.0
290
     1
  0
SCALE
  5
49
102
{ACAD_REACTORS
330
47
102
}
330
47
100
AcDbScale
 70
     0
300
1/128" = 1'-0"
140
0.0078125
141
12.0
290
     0
  0
SCALE
  5
4A
102
{ACAD_REACTORS
330
47
102
}
330
47
100
AcDbScale
 70
     0
300
1/64" = 1'-0"
140
0.015625
141
12.0
290
     0
  0
SCALE
  5
4B
102
{ACAD_REACTORS
330
47
102
}
330
47
100
AcDbScale
 70
     0
300
1/32" = 1'-0"
140
0.03125
141
12.0
290
     0
  0
SCALE
  5
4C
102
{ACAD_REACTORS
330
47
102
}
330
47
100
AcDbScale
 70
     0
300
1/16" = 1'-0"
140
0.0625
141
12.0
290
     0
  0
SCALE
  5
4D
102
{ACAD_REACTORS
330
47
102
}
330
47
100
AcDbScale
 70
     0
300
3/32" = 1'-0"
140
0.09375
141
12.0
290
     0
  0
SCALE
  5
4E
102
{ACAD_REACTORS
330
47
102
}
330
47
100
AcDbScale
 70
     0
300
1/8" = 1'-0"
140
0.125
141
12.0
290
     0
  0
SCALE
  5
4F
102
{ACAD_REACTORS
330
47
102
}
330
47
100
AcDbScale
 70
     0
300
3/16" = 1'-0"
140
0.1875
141
12.0
290
     0
  0
SCALE
  5
50
102
{ACAD_REACTORS
330
47
102
}
330
47
100
AcDbScale
 70
     0
300
1/4" = 1'-0"
140
0.25
141
12.0
290
     0
  0
SCALE
  5
51
102
{ACAD_REACTORS
330
47
102
}
330
47
100
AcDbScale
 70
     0
300
3/8" = 1'-0"
140
0.375
141
12.0
290
     0
  0
SCALE
  5
52
102
{ACAD_REACTORS
330
47
102
}
330
47
100
AcDbScale
 70
     0
300
1/2" = 1'-0"
140
0.5
141
12.0
290
     0
  0
SCALE
  5
53
102
{ACAD_REACTORS
330
47
102
}
330
47
100
AcDbScale
 70
     0
300
3/4" = 1'-0"
140
0.75
141
12.0
290
     0
  0
SCALE
  5
54
102
{ACAD_REACTORS
330
47
102
}
330
47
100
AcDbScale
 70
     0
300
1" = 1'-0"
140
1.0
141
12.0
290
     0
  0
SCALE
  5
55
102
{ACAD_REACTORS
330
47
102
}
330
47
100
AcDbScale
 70
     0
300
1-1/2" = 1'-0"
140
1.5
141
12.0
290
     0
  0
SCALE
  5
56
102
{ACAD_REACTORS
330
47
102
}
330
47
100
AcDbScale
 70
     0
300
3" = 1'-0"
140
3.0
141
12.0
290
     0
  0
SCALE
  5
57
102
{ACAD_REACTORS
330
47
102
}
330
47
100
AcDbScale
 70
     0
300
6" = 1'-0"
140
6.0
141
12.0
290
     0
  0
SCALE
  5
58
102
{ACAD_REACTORS
330
47
102
}
330
47
100
AcDbScale
 70
     0
300
1'-0" = 1'-0"
140
12.0
141
12.0
290
     0
  0
ENDSEC
  0
EOF
