  0
SECTION
  2
HEADER
  9
$ACADVER
  1
AC1015
  9
$ACADMAINTVER
 70
     6
  9
$DWGCODEPAGE
  3
ANSI_1252
  9
$INSBASE
 10
0.0
 20
0.0
 30
0.0
  9
$EXTMIN
 10
0.0
 20
0.0
 30
0.0
  9
$EXTMAX
 10
33.0
 20
25.5
 30
0.0
  9
$LIMMIN
 10
0.0
 20
0.0
  9
$LIMMAX
 10
33.0
 20
25.5
  9
$ORTHOMODE
 70
     0
  9
$REGENMODE
 70
     1
  9
$FILLMODE
 70
     1
  9
$QTEXTMODE
 70
     0
  9
$MIRRTEXT
 70
     1
  9
$LTSCALE
 40
3.0
  9
$ATTMODE
 70
     1
  9
$TEXTSIZE
 40
0.375
  9
$TRACEWID
 40
0.05
  9
$TEXTSTYLE
  7
STANDARD
  9
$CLAYER
  8
0
  9
$CELTYPE
  6
ByLayer
  9
$CECOLOR
 62
   256
  9
$CELTSCALE
 40
1.0
  9
$DISPSILH
 70
     0
  9
$DIMSCALE
 40
1.0
  9
$DIMASZ
 40
0.39
  9
$DIMEXO
 40
0.15
  9
$DIMDLI
 40
0.38
  9
$DIMRND
 40
0.0
  9
$DIMDLE
 40
0.0
  9
$DIMEXE
 40
0.375
  9
$DIMTP
 40
0.0
  9
$DIMTM
 40
0.0
  9
$DIMTXT
 40
0.375
  9
$DIMCEN
 40
0.09
  9
$DIMTSZ
 40
0.0
  9
$DIMTOL
 70
     0
  9
$DIMLIM
 70
     0
  9
$DIMTIH
 70
     1
  9
$DIMTOH
 70
     1
  9
$DIMSE1
 70
     0
  9
$DIMSE2
 70
     0
  9
$DIMTAD
 70
     0
  9
$DIMZIN
 70
     1
  9
$DIMBLK
  1

  9
$DIMASO
 70
     1
  9
$DIMSHO
 70
     1
  9
$DIMPOST
  1

  9
$DIMAPOST
  1

  9
$DIMALT
 70
     0
  9
$DIMALTD
 70
     2
  9
$DIMALTF
 40
25.4
  9
$DIMLFAC
 40
1.0
  9
$DIMTOFL
 70
     0
  9
$DIMTVP
 40
0.0
  9
$DIMTIX
 70
     0
  9
$DIMSOXD
 70
     0
  9
$DIMSAH
 70
     0
  9
$DIMBLK1
  1

  9
$DIMBLK2
  1

  9
$DIMSTYLE
  2
Standard
  9
$DIMCLRD
 70
     0
  9
$DIMCLRE
 70
     0
  9
$DIMCLRT
 70
     0
  9
$DIMTFAC
 40
1.0
  9
$DIMGAP
 40
0.18
  9
$DIMJUST
 70
     0
  9
$DIMSD1
 70
     0
  9
$DIMSD2
 70
     0
  9
$DIMTOLJ
 70
     1
  9
$DIMTZIN
 70
     1
  9
$DIMALTZ
 70
     0
  9
$DIMALTTZ
 70
     0
  9
$DIMUPT
 70
     0
  9
$DIMDEC
 70
     0
  9
$DIMTDEC
 70
     0
  9
$DIMALTU
 70
     2
  9
$DIMALTTD
 70
     2
  9
$DIMTXSTY
  7
STANDARD
  9
$DIMAUNIT
 70
     0
  9
$DIMADEC
 70
     0
  9
$DIMALTRND
 40
0.0
  9
$DIMAZIN
 70
     0
  9
$DIMDSEP
 70
    46
  9
$DIMATFIT
 70
     3
  9
$DIMFRAC
 70
     0
  9
$DIMLDRBLK
  1

  9
$DIMLUNIT
 70
     2
  9
$DIMLWD
 70
    -2
  9
$DIMLWE
 70
    -2
  9
$DIMTMOVE
 70
     0
  9
$LUNITS
 70
     2
  9
$LUPREC
 70
     6
  9
$SKETCHINC
 40
0.1
  9
$FILLETRAD
 40
0.0
  9
$AUNITS
 70
     0
  9
$AUPREC
 70
     2
  9
$MENU
  1
.
  9
$ELEVATION
 40
0.0
  9
$PELEVATION
 40
0.0
  9
$THICKNESS
 40
0.0
  9
$LIMCHECK
 70
     0
  9
$CHAMFERA
 40
0.0
  9
$CHAMFERB
 40
0.0
  9
$CHAMFERC
 40
0.0
  9
$CHAMFERD
 40
0.0
  9
$SKPOLY
 70
     0
  9
$TDCREATE
 40
2460464.81923816
  9
$TDUCREATE
 40
2460465.110904827
  9
$TDUPDATE
 40
2460464.819238762
  9
$TDUUPDATE
 40
2460465.110905429
  9
$TDINDWG
 40
0.0000000116
  9
$TDUSRTIMER
 40
0.0000000116
  9
$USRTIMER
 70
     1
  9
$ANGBASE
 50
0.0
  9
$ANGDIR
 70
     0
  9
$PDMODE
 70
     0
  9
$PDSIZE
 40
-1.0
  9
$PLINEWID
 40
0.0
  9
$SPLFRAME
 70
     0
  9
$SPLINETYPE
 70
     6
  9
$SPLINESEGS
 70
     8
  9
$HANDSEED
  5
21F
  9
$SURFTAB1
 70
     6
  9
$SURFTAB2
 70
     6
  9
$SURFTYPE
 70
     6
  9
$SURFU
 70
     6
  9
$SURFV
 70
     6
  9
$UCSBASE
  2

  9
$UCSNAME
  2

  9
$UCSORG
 10
0.0
 20
0.0
 30
0.0
  9
$UCSXDIR
 10
1.0
 20
0.0
 30
0.0
  9
$UCSYDIR
 10
0.0
 20
1.0
 30
0.0
  9
$UCSORTHOREF
  2

  9
$UCSORTHOVIEW
 70
     0
  9
$UCSORGTOP
 10
0.0
 20
0.0
 30
0.0
  9
$UCSORGBOTTOM
 10
0.0
 20
0.0
 30
0.0
  9
$UCSORGLEFT
 10
0.0
 20
0.0
 30
0.0
  9
$UCSORGRIGHT
 10
0.0
 20
0.0
 30
0.0
  9
$UCSORGFRONT
 10
0.0
 20
0.0
 30
0.0
  9
$UCSORGBACK
 10
0.0
 20
0.0
 30
0.0
  9
$PUCSBASE
  2

  9
$PUCSNAME
  2

  9
$PUCSORG
 10
0.0
 20
0.0
 30
0.0
  9
$PUCSXDIR
 10
1.0
 20
0.0
 30
0.0
  9
$PUCSYDIR
 10
0.0
 20
1.0
 30
0.0
  9
$PUCSORTHOREF
  2

  9
$PUCSORTHOVIEW
 70
     0
  9
$PUCSORGTOP
 10
0.0
 20
0.0
 30
0.0
  9
$PUCSORGBOTTOM
 10
0.0
 20
0.0
 30
0.0
  9
$PUCSORGLEFT
 10
0.0
 20
0.0
 30
0.0
  9
$PUCSORGRIGHT
 10
0.0
 20
0.0
 30
0.0
  9
$PUCSORGFRONT
 10
0.0
 20
0.0
 30
0.0
  9
$PUCSORGBACK
 10
0.0
 20
0.0
 30
0.0
  9
$USERI1
 70
     0
  9
$USERI2
 70
     0
  9
$USERI3
 70
     0
  9
$USERI4
 70
     0
  9
$USERI5
 70
     0
  9
$USERR1
 40
0.0
  9
$USERR2
 40
0.0
  9
$USERR3
 40
0.0
  9
$USERR4
 40
0.0
  9
$USERR5
 40
0.0
  9
$WORLDVIEW
 70
     1
  9
$SHADEDGE
 70
     3
  9
$SHADEDIF
 70
    70
  9
$TILEMODE
 70
     1
  9
$MAXACTVP
 70
    64
  9
$PINSBASE
 10
0.0
 20
0.0
 30
0.0
  9
$PLIMCHECK
 70
     0
  9
$PEXTMIN
 10
1.0000000000E+20
 20
1.0000000000E+20
 30
1.0000000000E+20
  9
$PEXTMAX
 10
-1.0000000000E+20
 20
-1.0000000000E+20
 30
-1.0000000000E+20
  9
$PLIMMIN
 10
0.0
 20
0.0
  9
$PLIMMAX
 10
12.0
 20
9.0
  9
$UNITMODE
 70
     0
  9
$VISRETAIN
 70
     1
  9
$PLINEGEN
 70
     0
  9
$PSLTSCALE
 70
     1
  9
$TREEDEPTH
 70
  3020
  9
$CMLSTYLE
  2
Standard
  9
$CMLJUST
 70
     0
  9
$CMLSCALE
 40
1.0
  9
$PROXYGRAPHICS
 70
     1
  9
$MEASUREMENT
 70
     0
  9
$CELWEIGHT
370
    -1
  9
$ENDCAPS
280
     0
  9
$JOINSTYLE
280
     0
  9
$LWDISPLAY
290
     1
  9
$INSUNITS
 70
     1
  9
$HYPERLINKBASE
  1

  9
$STYLESHEET
  1

  9
$XEDIT
290
     1
  9
$CEPSNTYPE
380
     0
  9
$PSTYLEMODE
290
     1
  9
$FINGERPRINTGUID
  2
{50261d2c-d3ec-4325-8c64-4bb36dd7864d}
  9
$VERSIONGUID
  2
{FAEB1C32-E019-11D5-929B-00C0DF256EC4}
  9
$EXTNAMES
290
     1
  9
$PSVPSCALE
 40
0.0
  9
$OLESTARTUP
290
     0
  0
ENDSEC
  0
SECTION
  2
CLASSES
  0
CLASS
  1
ACDBDICTIONARYWDFLT
  2
AcDbDictionaryWithDefault
  3
ObjectDBX Classes
 90
        0
280
     0
281
     0
  0
CLASS
  1
VISUALSTYLE
  2
AcDbVisualStyle
  3
ObjectDBX Classes
 90
     4095
280
     0
281
     0
  0
CLASS
  1
MATERIAL
  2
AcDbMaterial
  3
ObjectDBX Classes
 90
     1153
280
     0
281
     0
  0
CLASS
  1
SCALE
  2
AcDbScale
  3
ObjectDBX Classes
 90
     1153
280
     0
281
     0
  0
CLASS
  1
TABLESTYLE
  2
AcDbTableStyle
  3
ObjectDBX Classes
 90
     4095
280
     0
281
     0
  0
CLASS
  1
MLEADERSTYLE
  2
AcDbMLeaderStyle
  3
ACDB_MLEADERSTYLE_CLASS
 90
     4095
280
     0
281
     0
  0
CLASS
  1
SUN
  2
AcDbSun
  3
SCENEOE
 90
     1153
280
     0
281
     0
  0
CLASS
  1
ACDBPLACEHOLDER
  2
AcDbPlaceHolder
  3
ObjectDBX Classes
 90
        0
280
     0
281
     0
  0
CLASS
  1
LAYOUT
  2
AcDbLayout
  3
ObjectDBX Classes
 90
        0
280
     0
281
     0
  0
ENDSEC
  0
SECTION
  2
TABLES
  0
TABLE
  2
VPORT
  5
8
330
0
100
AcDbSymbolTable
 70
     1
  0
VPORT
  5
29
330
8
100
AcDbSymbolTableRecord
100
AcDbViewportTableRecord
  2
*Active
 70
     0
 10
0.0
 20
0.0
 11
1.0
 21
1.0
 12
16.5
 22
12.75
 13
0.0
 23
0.0
 14
0.5
 24
0.5
 15
0.5
 25
0.5
 16
0.0
 26
0.0
 36
1.0
 17
0.0
 27
0.0
 37
0.0
 40
25.5
 41
1.2941176471
 42
50.0
 43
0.0
 44
0.0
 50
0.0
 51
0.0
 71
     0
 72
  2000
 73
     1
 74
     3
 75
     0
 76
     0
 77
     0
 78
     0
281
     0
 65
     1
110
0.0
120
0.0
130
0.0
111
1.0
121
0.0
131
0.0
112
0.0
122
1.0
132
0.0
 79
     0
146
0.0
  0
ENDTAB
  0
TABLE
  2
LTYPE
  5
5
330
0
100
AcDbSymbolTable
 70
     6
  0
LTYPE
  5
14
330
5
100
AcDbSymbolTableRecord
100
AcDbLinetypeTableRecord
  2
ByBlock
 70
     0
  3

 72
    65
 73
     0
 40
0.0
  0
LTYPE
  5
15
330
5
100
AcDbSymbolTableRecord
100
AcDbLinetypeTableRecord
  2
ByLayer
 70
     0
  3

 72
    65
 73
     0
 40
0.0
  0
LTYPE
  5
16
330
5
100
AcDbSymbolTableRecord
100
AcDbLinetypeTableRecord
  2
Continuous
 70
     0
  3
Solid line
 72
    65
 73
     0
 40
0.0
  0
LTYPE
  5
5E
330
5
100
AcDbSymbolTableRecord
100
AcDbLinetypeTableRecord
  2
HIDDEN
 70
     0
  3
Hidden __ __ __ __ __ __ __ __ __ __ __ __ __ __
 72
    65
 73
     2
 40
0.075
 49
0.05
 74
     0
 49
-0.025
 74
     0
  0
LTYPE
  5
5F
330
5
100
AcDbSymbolTableRecord
100
AcDbLinetypeTableRecord
  2
PHANTOM
 70
     0
  3
Phantom ______  __  __  ______  __  __  ______
 72
    65
 73
     6
 40
0.5
 49
0.25
 74
     0
 49
-0.05
 74
     0
 49
0.05
 74
     0
 49
-0.05
 74
     0
 49
0.05
 74
     0
 49
-0.05
 74
     0
  0
LTYPE
  5
60
330
5
100
AcDbSymbolTableRecord
100
AcDbLinetypeTableRecord
  2
CENTER
 70
     0
  3
Center ____ _ ____ _ ____ _ ____ _ ____ _ ____
 72
    65
 73
     4
 40
0.4
 49
0.25
 74
     0
 49
-0.05
 74
     0
 49
0.05
 74
     0
 49
-0.05
 74
     0
  0
LTYPE
  5
61
330
5
100
AcDbSymbolTableRecord
100
AcDbLinetypeTableRecord
  2
CENTERX2
 70
     0
  3
Center (2x) ________  __  ________  __  _____
 72
    65
 73
     4
 40
0.8
 49
0.5
 74
     0
 49
-0.1
 74
     0
 49
0.1
 74
     0
 49
-0.1
 74
     0
  0
LTYPE
  5
62
330
5
100
AcDbSymbolTableRecord
100
AcDbLinetypeTableRecord
  2
DOT2
 70
     0
  3
Dot (.5x) ........................................
 72
    65
 73
     2
 40
0.025
 49
0.0
 74
     0
 49
-0.025
 74
     0
  0
ENDTAB
  0
TABLE
  2
LAYER
  5
2
330
0
100
AcDbSymbolTable
 70
    12
  0
LAYER
  5
10
330
2
100
AcDbSymbolTableRecord
100
AcDbLayerTableRecord
  2
0
 70
     0
 62
     7
  6
Continuous
370
    -3
390
F
  0
LAYER
  5
63
330
2
100
AcDbSymbolTableRecord
100
AcDbLayerTableRecord
  2
SLD-0
 70
     0
 62
     7
  6
Continuous
370
    -3
390
F
  0
LAYER
  5
64
330
2
100
AcDbSymbolTableRecord
100
AcDbLayerTableRecord
  2
DIM
 70
     0
 62
     7
  6
Continuous
370
    -3
390
F
  0
LAYER
  5
65
330
2
100
AcDbSymbolTableRecord
100
AcDbLayerTableRecord
  2
CEN
 70
     0
 62
     1
  6
CENTER
370
    -3
390
F
  0
LAYER
  5
66
330
2
100
AcDbSymbolTableRecord
100
AcDbLayerTableRecord
  2
HAT
 70
     0
 62
     4
  6
Continuous
370
    -3
390
F
  0
LAYER
  5
67
330
2
100
AcDbSymbolTableRecord
100
AcDbLayerTableRecord
  2
OBJ
 70
     0
 62
     5
  6
Continuous
370
    -3
390
F
  0
LAYER
  5
68
330
2
100
AcDbSymbolTableRecord
100
AcDbLayerTableRecord
  2
SLD-DEFPOINTS
 70
     0
 62
     7
  6
Continuous
370
    -3
390
F
  0
LAYER
  5
69
330
2
100
AcDbSymbolTableRecord
100
AcDbLayerTableRecord
  2
HID
 70
     0
 62
     4
  6
HIDDEN
370
    -3
390
F
  0
LAYER
  5
6A
330
2
100
AcDbSymbolTableRecord
100
AcDbLayerTableRecord
  2
NOTE
 70
     0
 62
     7
  6
Continuous
370
    -3
390
F
  0
LAYER
  5
6B
330
2
100
AcDbSymbolTableRecord
100
AcDbLayerTableRecord
  2
VP
 70
     0
 62
    -5
  6
Continuous
290
     0
370
    -3
390
F
  0
LAYER
  5
6C
330
2
100
AcDbSymbolTableRecord
100
AcDbLayerTableRecord
  2
TITLE
 70
     0
 62
     7
  6
Continuous
370
    -3
390
F
  0
LAYER
  5
6D
330
2
100
AcDbSymbolTableRecord
100
AcDbLayerTableRecord
  2
THICK_TITLE
 70
     0
 62
     7
  6
Continuous
370
   100
390
F
  0
ENDTAB
  0
TABLE
  2
STYLE
  5
3
330
0
100
AcDbSymbolTable
 70
     2
  0
STYLE
  5
11
330
3
100
AcDbSymbolTableRecord
100
AcDbTextStyleTableRecord
  2
STANDARD
 70
     0
 40
0.0
 41
1.0
 50
0.0
 71
     0
 42
0.375
  3
GOTHIC.TTF
  4

1001
ACAD
1000
CENTURY GOTHIC
1071
       34
  0
STYLE
  5
74
330
3
100
AcDbSymbolTableRecord
100
AcDbTextStyleTableRecord
  2
SLDTEXTSTYLE0
 70
     0
 40
0.0
 41
0.913
 50
0.0
 71
     0
 42
0.375
  3
GOTHIC.TTF
  4

1001
ACAD
1000
Century Gothic
1071
      290
  0
ENDTAB
  0
TABLE
  2
VIEW
  5
6
330
0
100
AcDbSymbolTable
 70
     0
  0
ENDTAB
  0
TABLE
  2
UCS
  5
7
330
0
100
AcDbSymbolTable
 70
     0
  0
ENDTAB
  0
TABLE
  2
APPID
  5
9
330
0
100
AcDbSymbolTable
 70
     1
  0
APPID
  5
12
330
9
100
AcDbSymbolTableRecord
100
AcDbRegAppTableRecord
  2
ACAD
 70
     0
  0
ENDTAB
  0
TABLE
  2
DIMSTYLE
  5
A
330
0
100
AcDbSymbolTable
 70
     6
100
AcDbDimStyleTable
  0
DIMSTYLE
105
27
330
A
100
AcDbSymbolTableRecord
100
AcDbDimStyleTableRecord
  2
Standard
 70
     0
178
     0
340
11
  0
DIMSTYLE
105
DA
102
{ACAD_REACTORS
330
D9
330
1A4
330
1C7
330
1E2
102
}
330
A
100
AcDbSymbolTableRecord
100
AcDbDimStyleTableRecord
  2
SLDDIMSTYLE0
 70
     0
 41
0.39
 44
0.0
 45
0.000000001
 78
    12
 79
     3
140
0.375
147
0.09375
148
0.000000001
170
     1
172
     1
173
     1
178
     0
271
     6
272
     0
276
     2
277
     5
284
    12
289
     0
340
74
  0
DIMSTYLE
105
F0
102
{ACAD_REACTORS
330
EF
330
127
102
}
330
A
100
AcDbSymbolTableRecord
100
AcDbDimStyleTableRecord
  2
SLDDIMSTYLE1
 70
     0
 41
0.39
 44
0.0
 45
0.000000001
 78
    12
 79
     3
140
0.375
147
0.09375
148
0.000000001
170
     1
172
     1
173
     1
178
     0
271
     0
272
     0
276
     2
277
     5
284
    12
289
     0
340
74
  0
DIMSTYLE
105
FE
102
{ACAD_REACTORS
330
FD
102
}
330
A
100
AcDbSymbolTableRecord
100
AcDbDimStyleTableRecord
  2
SLDDIMSTYLE2
 70
     0
 41
0.39
 44
0.0
 45
0.000000001
 78
    12
 79
     3
140
0.375
147
0.09375
148
0.000000001
170
     1
173
     1
178
     0
271
     0
272
     0
276
     2
277
     5
284
    12
340
74
  0
DIMSTYLE
105
113
102
{ACAD_REACTORS
330
112
330
181
102
}
330
A
100
AcDbSymbolTableRecord
100
AcDbDimStyleTableRecord
  2
SLDDIMSTYLE3
 70
     0
 41
0.39
 44
0.0
 45
0.000000001
 78
    12
 79
     3
140
0.375
147
0.09375
148
0.000000001
170
     1
173
     1
178
     0
271
     6
272
     0
276
     2
277
     5
284
    12
340
74
  0
DIMSTYLE
105
1F6
102
{ACAD_REACTORS
330
1F5
102
}
330
A
100
AcDbSymbolTableRecord
100
AcDbDimStyleTableRecord
  2
SLDDIMSTYLE4
 70
     0
 41
0.39
 44
0.0
 45
0.000000001
 78
    12
 79
     3
140
0.375
141
0.0
147
0.09375
148
0.000000001
170
     1
173
     1
178
     0
271
     0
272
     0
276
     2
277
     5
284
    12
340
74
  0
ENDTAB
  0
TABLE
  2
BLOCK_RECORD
  5
1
330
0
100
AcDbSymbolTable
 70
    19
  0
BLOCK_RECORD
  5
1F
330
1
100
AcDbSymbolTableRecord
100
AcDbBlockTableRecord
  2
*Model_Space
340
22
  0
BLOCK_RECORD
  5
1B
330
1
100
AcDbSymbolTableRecord
100
AcDbBlockTableRecord
  2
*Paper_Space
340
1E
  0
BLOCK_RECORD
  5
23
330
1
100
AcDbSymbolTableRecord
100
AcDbBlockTableRecord
  2
*Paper_Space0
340
26
  0
BLOCK_RECORD
  5
6E
330
1
100
AcDbSymbolTableRecord
100
AcDbBlockTableRecord
  2
Block1
340
0
102
{BLKREFS
331
180
102
}
  0
BLOCK_RECORD
  5
71
330
1
100
AcDbSymbolTableRecord
100
AcDbBlockTableRecord
  2
SW_NOTE_0
340
0
102
{BLKREFS
331
76
102
}
  0
BLOCK_RECORD
  5
77
330
1
100
AcDbSymbolTableRecord
100
AcDbBlockTableRecord
  2
Block2
340
0
102
{BLKREFS
331
1A3
102
}
  0
BLOCK_RECORD
  5
7A
330
1
100
AcDbSymbolTableRecord
100
AcDbBlockTableRecord
  2
SW_NOTE_0_1
340
0
102
{BLKREFS
331
7E
102
}
  0
BLOCK_RECORD
  5
7F
330
1
100
AcDbSymbolTableRecord
100
AcDbBlockTableRecord
  2
Block3
340
0
102
{BLKREFS
331
1C6
102
}
  0
BLOCK_RECORD
  5
82
330
1
100
AcDbSymbolTableRecord
100
AcDbBlockTableRecord
  2
SW_NOTE_0_2
340
0
102
{BLKREFS
331
86
102
}
  0
BLOCK_RECORD
  5
DB
330
1
100
AcDbSymbolTableRecord
100
AcDbBlockTableRecord
  2
_D
340
0
  0
BLOCK_RECORD
  5
F1
330
1
100
AcDbSymbolTableRecord
100
AcDbBlockTableRecord
  2
_D_1
340
0
  0
BLOCK_RECORD
  5
FF
330
1
100
AcDbSymbolTableRecord
100
AcDbBlockTableRecord
  2
_D_2
340
0
  0
BLOCK_RECORD
  5
114
330
1
100
AcDbSymbolTableRecord
100
AcDbBlockTableRecord
  2
_D_3
340
0
  0
BLOCK_RECORD
  5
128
330
1
100
AcDbSymbolTableRecord
100
AcDbBlockTableRecord
  2
_D_4
340
0
  0
BLOCK_RECORD
  5
182
330
1
100
AcDbSymbolTableRecord
100
AcDbBlockTableRecord
  2
_D_5
340
0
  0
BLOCK_RECORD
  5
1A5
330
1
100
AcDbSymbolTableRecord
100
AcDbBlockTableRecord
  2
_D_6
340
0
  0
BLOCK_RECORD
  5
1C8
330
1
100
AcDbSymbolTableRecord
100
AcDbBlockTableRecord
  2
_D_7
340
0
  0
BLOCK_RECORD
  5
1E3
330
1
100
AcDbSymbolTableRecord
100
AcDbBlockTableRecord
  2
_D_8
340
0
  0
BLOCK_RECORD
  5
1F7
330
1
100
AcDbSymbolTableRecord
100
AcDbBlockTableRecord
  2
_D_9
340
0
  0
BLOCK_RECORD
  5
206
330
1
100
AcDbSymbolTableRecord
100
AcDbBlockTableRecord
  2
SW_CENTERMARKSYMBOL_0
340
0
102
{BLKREFS
331
211
102
}
  0
BLOCK_RECORD
  5
212
330
1
100
AcDbSymbolTableRecord
100
AcDbBlockTableRecord
  2
SW_CENTERMARKSYMBOL_1
340
0
102
{BLKREFS
331
21D
102
}
  0
ENDTAB
  0
ENDSEC
  0
SECTION
  2
BLOCKS
  0
BLOCK
  5
20
330
1F
100
AcDbEntity
  8
0
100
AcDbBlockBegin
  2
*Model_Space
 70
     0
 10
0.0
 20
0.0
 30
0.0
  3
*Model_Space
  1

  0
ENDBLK
  5
21
330
1F
100
AcDbEntity
  8
0
100
AcDbBlockEnd
  0
BLOCK
  5
1C
330
1B
100
AcDbEntity
 67
     1
  8
0
100
AcDbBlockBegin
  2
*Paper_Space
 70
     0
 10
0.0
 20
0.0
 30
0.0
  3
*Paper_Space
  1

  0
ENDBLK
  5
1D
330
1B
100
AcDbEntity
 67
     1
  8
0
100
AcDbBlockEnd
  0
BLOCK
  5
24
330
23
100
AcDbEntity
  8
0
100
AcDbBlockBegin
  2
*Paper_Space0
 70
     0
 10
0.0
 20
0.0
 30
0.0
  3
*Paper_Space0
  1

  0
ENDBLK
  5
25
330
23
100
AcDbEntity
  8
0
100
AcDbBlockEnd
  0
BLOCK
  5
6F
330
6E
100
AcDbEntity
  8
0
100
AcDbBlockBegin
  2
Block1
 70
     0
 10
0.0
 20
0.0
 30
0.0
  3
Block1
  1

  0
INSERT
  5
76
330
6E
100
AcDbEntity
  8
0
  6
Continuous
 62
     7
370
     0
100
AcDbBlockReference
  2
SW_NOTE_0
 10
0.491683564
 20
-0.0521462902
 30
0.0
  0
ENDBLK
  5
70
330
6E
100
AcDbEntity
  8
0
100
AcDbBlockEnd
  0
BLOCK
  5
72
330
71
100
AcDbEntity
  8
0
100
AcDbBlockBegin
  2
SW_NOTE_0
 70
     0
 10
0.0
 20
0.0
 30
0.0
  3
SW_NOTE_0
  1

  0
MTEXT
  5
75
330
71
100
AcDbEntity
  8
0
  6
Continuous
 62
     0
370
     0
100
AcDbMText
 10
1.279296875
 20
0.7983398438
 30
0.0
 40
0.625
 41
0.0
 71
     2
 72
     1
  1
D CAP
  7
SLDTEXTSTYLE0
 73
     1
 44
1.0
  0
ENDBLK
  5
73
330
71
100
AcDbEntity
  8
0
100
AcDbBlockEnd
  0
BLOCK
  5
78
330
77
100
AcDbEntity
  8
0
100
AcDbBlockBegin
  2
Block2
 70
     0
 10
0.0
 20
0.0
 30
0.0
  3
Block2
  1

  0
INSERT
  5
7E
330
77
100
AcDbEntity
  8
0
  6
Continuous
 62
     7
370
     0
100
AcDbBlockReference
  2
SW_NOTE_0_1
 10
0.3337716653
 20
0.8525423419
 30
0.0
  0
ENDBLK
  5
79
330
77
100
AcDbEntity
  8
0
100
AcDbBlockEnd
  0
BLOCK
  5
7B
330
7A
100
AcDbEntity
  8
0
100
AcDbBlockBegin
  2
SW_NOTE_0_1
 70
     0
 10
0.0
 20
0.0
 30
0.0
  3
SW_NOTE_0_1
  1

  0
MTEXT
  5
7D
330
7A
100
AcDbEntity
  8
0
  6
Continuous
 62
     0
370
     0
100
AcDbMText
 10
1.201171875
 20
0.7983398438
 30
0.0
 40
0.625
 41
0.0
 71
     2
 72
     1
  1
E CAP
  7
SLDTEXTSTYLE0
 73
     1
 44
1.0
  0
ENDBLK
  5
7C
330
7A
100
AcDbEntity
  8
0
100
AcDbBlockEnd
  0
BLOCK
  5
80
330
7F
100
AcDbEntity
  8
0
100
AcDbBlockBegin
  2
Block3
 70
     0
 10
0.0
 20
0.0
 30
0.0
  3
Block3
  1

  0
INSERT
  5
86
330
7F
100
AcDbEntity
  8
0
  6
Continuous
 62
     7
370
     0
100
AcDbBlockReference
  2
SW_NOTE_0_2
 10
0.0339401496
 20
-0.0278239893
 30
0.0
  0
ENDBLK
  5
81
330
7F
100
AcDbEntity
  8
0
100
AcDbBlockEnd
  0
BLOCK
  5
83
330
82
100
AcDbEntity
  8
0
100
AcDbBlockBegin
  2
SW_NOTE_0_2
 70
     0
 10
0.0
 20
0.0
 30
0.0
  3
SW_NOTE_0_2
  1

  0
MTEXT
  5
85
330
82
100
AcDbEntity
  8
0
  6
Continuous
 62
     0
370
     0
100
AcDbMText
 10
1.30859375
 20
0.7983398438
 30
0.0
 40
0.625
 41
0.0
 71
     2
 72
     1
  1
C CAP
  7
SLDTEXTSTYLE0
 73
     1
 44
1.0
  0
ENDBLK
  5
84
330
82
100
AcDbEntity
  8
0
100
AcDbBlockEnd
  0
BLOCK
  5
DC
330
DB
100
AcDbEntity
  8
0
100
AcDbBlockBegin
  2
_D
 70
     0
 10
0.0
 20
0.0
 30
0.0
  3
_D
  1

  0
SOLID
  5
DE
330
DB
100
AcDbEntity
  8
0
  6
Continuous
 62
     7
370
    18
100
AcDbTrace
 10
14.0512881602
 20
23.6865338492
 30
0.0
 11
14.1112881602
 21
24.0765338492
 31
0.0
 12
13.9912881602
 22
24.0765338492
 32
0.0
 13
13.9912881602
 23
24.0765338492
 33
0.0
  0
SOLID
  5
DF
330
DB
100
AcDbEntity
  8
0
  6
Continuous
 62
     7
370
    18
100
AcDbTrace
 10
14.0512881602
 20
23.3115338492
 30
0.0
 11
13.9912881602
 21
22.9215338492
 31
0.0
 12
14.1112881602
 22
22.9215338492
 32
0.0
 13
14.1112881602
 23
22.9215338492
 33
0.0
  0
LINE
  5
E0
330
DB
100
AcDbEntity
  8
0
  6
Continuous
 62
     7
370
     0
100
AcDbLine
 10
15.3964767954
 20
24.3955903003
 30
0.0
 11
15.282218984
 21
24.3955903003
 31
0.0
  0
LINE
  5
E1
330
DB
100
AcDbEntity
  8
0
  6
Continuous
 62
     7
370
     0
100
AcDbLine
 10
15.282218984
 20
24.3955903003
 30
0.0
 11
15.282218984
 21
23.8002777824
 31
0.0
  0
LINE
  5
E2
330
DB
100
AcDbEntity
  8
0
  6
Continuous
 62
     7
370
     0
100
AcDbLine
 10
15.282218984
 20
23.8002777824
 30
0.0
 11
15.3964767954
 21
23.8002777824
 31
0.0
  0
LINE
  5
E3
330
DB
100
AcDbEntity
  8
0
  6
Continuous
 62
     7
370
     0
100
AcDbLine
 10
16.8881434935
 20
24.3955903003
 30
0.0
 11
17.0024013048
 21
24.3955903003
 31
0.0
  0
LINE
  5
E4
330
DB
100
AcDbEntity
  8
0
  6
Continuous
 62
     7
370
     0
100
AcDbLine
 10
17.0024013048
 20
24.3955903003
 30
0.0
 11
17.0024013048
 21
23.8002777824
 31
0.0
  0
LINE
  5
E5
330
DB
100
AcDbEntity
  8
0
  6
Continuous
 62
     7
370
     0
100
AcDbLine
 10
17.0024013048
 20
23.8002777824
 30
0.0
 11
16.8881434935
 21
23.8002777824
 31
0.0
  0
LINE
  5
E6
330
DB
100
AcDbEntity
  8
0
  6
Continuous
 62
     7
370
     0
100
AcDbLine
 10
13.3610519421
 20
23.6865338492
 30
0.0
 11
14.4262881602
 21
23.6865338492
 31
0.0
  0
LINE
  5
E7
330
DB
100
AcDbEntity
  8
0
  6
Continuous
 62
     7
370
     0
100
AcDbLine
 10
13.3110519421
 20
23.3115338492
 30
0.0
 11
14.4262881602
 21
23.3115338492
 31
0.0
  0
LINE
  5
E8
330
DB
100
AcDbEntity
  8
0
  6
Continuous
 62
     7
370
     0
100
AcDbLine
 10
14.8012881602
 20
24.3984549422
 30
0.0
 11
14.0512881602
 21
24.3984549422
 31
0.0
  0
LINE
  5
E9
330
DB
100
AcDbEntity
  8
0
  6
Continuous
 62
     7
370
     0
100
AcDbLine
 10
14.0512881602
 20
24.3984549422
 30
0.0
 11
14.0512881602
 21
23.6865338492
 31
0.0
  0
LINE
  5
EA
330
DB
100
AcDbEntity
  8
0
  6
Continuous
 62
     7
370
     0
100
AcDbLine
 10
14.0512881602
 20
23.3115338492
 30
0.0
 11
14.0512881602
 21
22.5615338492
 31
0.0
  0
MTEXT
  5
EB
330
DB
100
AcDbEntity
  8
0
  6
Continuous
 62
     7
370
    18
100
AcDbMText
 10
15.0294195056
 20
24.9564952867
 30
0.0
 40
0.375
 41
0.0
 71
     1
 72
     1
  1
 
  7
SLDTEXTSTYLE0
 73
     1
 44
1.0
  0
MTEXT
  5
EC
330
DB
100
AcDbEntity
  8
0
  6
Continuous
 62
     7
370
    18
100
AcDbMText
 10
15.6785080098
 20
24.9507660922
 30
0.0
 40
0.375
 41
0.0
 71
     1
 72
     1
  1
3/8"
  7
SLDTEXTSTYLE0
 73
     1
 44
1.0
  0
MTEXT
  5
ED
330
DB
100
AcDbEntity
  8
0
  6
Continuous
 62
     7
370
    18
100
AcDbMText
 10
15.3964767954
 20
24.2792817299
 30
0.0
 40
0.375
 41
0.0
 71
     1
 72
     1
  1
10mm
  7
SLDTEXTSTYLE0
 73
     1
 44
1.0
  0
MTEXT
  5
EE
330
DB
100
AcDbEntity
  8
0
  6
Continuous
 62
     7
370
    18
100
AcDbMText
 10
17.1166590337
 20
24.9564952867
 30
0.0
 40
0.375
 41
0.0
 71
     1
 72
     1
  1
 
  7
SLDTEXTSTYLE0
 73
     1
 44
1.0
  0
ENDBLK
  5
DD
330
DB
100
AcDbEntity
  8
0
100
AcDbBlockEnd
  0
BLOCK
  5
F2
330
F1
100
AcDbEntity
  8
0
100
AcDbBlockBegin
  2
_D_1
 70
     0
 10
0.0
 20
0.0
 30
0.0
  3
_D_1
  1

  0
SOLID
  5
F4
330
F1
100
AcDbEntity
  8
0
  6
Continuous
 62
     7
370
    18
100
AcDbTrace
 10
4.4327607219
 20
23.3115338492
 30
0.0
 11
4.4927607219
 21
23.7015338492
 31
0.0
 12
4.3727607219
 22
23.7015338492
 32
0.0
 13
4.3727607219
 23
23.7015338492
 33
0.0
  0
SOLID
  5
F5
330
F1
100
AcDbEntity
  8
0
  6
Continuous
 62
     7
370
    18
100
AcDbTrace
 10
4.4327607219
 20
20.3115338492
 30
0.0
 11
4.3727607219
 21
19.9215338492
 31
0.0
 12
4.4927607219
 22
19.9215338492
 32
0.0
 13
4.4927607219
 23
19.9215338492
 33
0.0
  0
LINE
  5
F6
330
F1
100
AcDbEntity
  8
0
  6
Continuous
 62
     7
370
     0
100
AcDbLine
 10
10.0760519421
 20
23.3115338492
 30
0.0
 11
4.0577607219
 21
23.3115338492
 31
0.0
  0
LINE
  5
F7
330
F1
100
AcDbEntity
  8
0
  6
Continuous
 62
     7
370
     0
100
AcDbLine
 10
10.0760519421
 20
20.3115338492
 30
0.0
 11
4.0577607219
 21
20.3115338492
 31
0.0
  0
LINE
  5
F8
330
F1
100
AcDbEntity
  8
0
  6
Continuous
 62
     7
370
     0
100
AcDbLine
 10
4.4327607219
 20
23.3115338492
 30
0.0
 11
4.4327607219
 21
24.0615338492
 31
0.0
  0
LINE
  5
F9
330
F1
100
AcDbEntity
  8
0
  6
Continuous
 62
     7
370
     0
100
AcDbLine
 10
4.4327607219
 20
20.3115338492
 30
0.0
 11
4.4327607219
 21
19.5615338492
 31
0.0
  0
MTEXT
  5
FA
330
F1
100
AcDbEntity
  8
0
  6
Continuous
 62
     7
370
    18
100
AcDbMText
 10
0.8895318136
 20
22.5881940831
 30
0.0
 40
0.375
 41
0.0
 71
     1
 72
     1
  1
SPECIFY PROJECTION LENGTH
  7
SLDTEXTSTYLE0
 73
     1
 44
1.0
  0
MTEXT
  5
FB
330
F1
100
AcDbEntity
  8
0
  6
Continuous
 62
     7
370
    18
100
AcDbMText
 10
3.7793753098
 20
21.9928815652
 30
0.0
 40
0.375
 41
0.0
 71
     1
 72
     1
  1
0"-48"
  7
SLDTEXTSTYLE0
 73
     1
 44
1.0
  0
MTEXT
  5
FC
330
F1
100
AcDbEntity
  8
0
  6
Continuous
 62
     7
370
    18
100
AcDbMText
 10
2.5439586815
 20
21.3975690473
 30
0.0
 40
0.375
 41
0.0
 71
     1
 72
     1
  1
[0mm-1219mm]
  7
SLDTEXTSTYLE0
 73
     1
 44
1.0
  0
ENDBLK
  5
F3
330
F1
100
AcDbEntity
  8
0
100
AcDbBlockEnd
  0
BLOCK
  5
100
330
FF
100
AcDbEntity
  8
0
100
AcDbBlockBegin
  2
_D_2
 70
     0
 10
0.0
 20
0.0
 30
0.0
  3
_D_2
  1

  0
SOLID
  5
102
330
FF
100
AcDbEntity
  8
0
  6
Continuous
 62
     7
370
    18
100
AcDbTrace
 10
4.4327607219
 20
20.3115338492
 30
0.0
 11
4.3727607219
 21
19.9215338492
 31
0.0
 12
4.4927607219
 22
19.9215338492
 32
0.0
 13
4.4927607219
 23
19.9215338492
 33
0.0
  0
SOLID
  5
103
330
FF
100
AcDbEntity
  8
0
  6
Continuous
 62
     7
370
    18
100
AcDbTrace
 10
4.4327607219
 20
12.2825338492
 30
0.0
 11
4.4927607219
 21
12.6725338492
 31
0.0
 12
4.3727607219
 22
12.6725338492
 32
0.0
 13
4.3727607219
 23
12.6725338492
 33
0.0
  0
LINE
  5
104
330
FF
100
AcDbEntity
  8
0
  6
Continuous
 62
     7
370
     0
100
AcDbLine
 10
3.5483857883
 20
16.2941692073
 30
0.0
 11
3.4341279769
 21
16.2941692073
 31
0.0
  0
LINE
  5
105
330
FF
100
AcDbEntity
  8
0
  6
Continuous
 62
     7
370
     0
100
AcDbLine
 10
3.4341279769
 20
16.2941692073
 30
0.0
 11
3.4341279769
 21
15.6988566894
 31
0.0
  0
LINE
  5
106
330
FF
100
AcDbEntity
  8
0
  6
Continuous
 62
     7
370
     0
100
AcDbLine
 10
3.4341279769
 20
15.6988566894
 30
0.0
 11
3.5483857883
 21
15.6988566894
 31
0.0
  0
LINE
  5
107
330
FF
100
AcDbEntity
  8
0
  6
Continuous
 62
     7
370
     0
100
AcDbLine
 10
5.3171357655
 20
16.2941692073
 30
0.0
 11
5.4313935768
 21
16.2941692073
 31
0.0
  0
LINE
  5
108
330
FF
100
AcDbEntity
  8
0
  6
Continuous
 62
     7
370
     0
100
AcDbLine
 10
5.4313935768
 20
16.2941692073
 30
0.0
 11
5.4313935768
 21
15.6988566894
 31
0.0
  0
LINE
  5
109
330
FF
100
AcDbEntity
  8
0
  6
Continuous
 62
     7
370
     0
100
AcDbLine
 10
5.4313935768
 20
15.6988566894
 30
0.0
 11
5.3171357655
 21
15.6988566894
 31
0.0
  0
LINE
  5
10A
330
FF
100
AcDbEntity
  8
0
  6
Continuous
 62
     7
370
     0
100
AcDbLine
 10
9.1210519421
 20
20.3115338492
 30
0.0
 11
4.0577607219
 21
20.3115338492
 31
0.0
  0
LINE
  5
10B
330
FF
100
AcDbEntity
  8
0
  6
Continuous
 62
     7
370
     0
100
AcDbLine
 10
9.1210519421
 20
12.2825338492
 30
0.0
 11
4.0577607219
 21
12.2825338492
 31
0.0
  0
LINE
  5
10C
330
FF
100
AcDbEntity
  8
0
  6
Continuous
 62
     7
370
     0
100
AcDbLine
 10
4.4327607219
 20
20.3115338492
 30
0.0
 11
4.4327607219
 21
16.971382764
 31
0.0
  0
LINE
  5
10D
330
FF
100
AcDbEntity
  8
0
  6
Continuous
 62
     7
370
     0
100
AcDbLine
 10
4.4327607219
 20
12.2825338492
 30
0.0
 11
4.4327607219
 21
15.6226849343
 31
0.0
  0
MTEXT
  5
10E
330
FF
100
AcDbEntity
  8
0
  6
Continuous
 62
     7
370
    18
100
AcDbMText
 10
3.1813284985
 20
16.8550741936
 30
0.0
 40
0.375
 41
0.0
 71
     1
 72
     1
  1
 
  7
SLDTEXTSTYLE0
 73
     1
 44
1.0
  0
MTEXT
  5
10F
330
FF
100
AcDbEntity
  8
0
  6
Continuous
 62
     7
370
    18
100
AcDbMText
 10
4.2168753321
 20
16.8493449992
 30
0.0
 40
0.375
 41
0.0
 71
     1
 72
     1
  1
8"
  7
SLDTEXTSTYLE0
 73
     1
 44
1.0
  0
MTEXT
  5
110
330
FF
100
AcDbEntity
  8
0
  6
Continuous
 62
     7
370
    18
100
AcDbMText
 10
3.5483857883
 20
16.1778606369
 30
0.0
 40
0.375
 41
0.0
 71
     1
 72
     1
  1
204mm
  7
SLDTEXTSTYLE0
 73
     1
 44
1.0
  0
MTEXT
  5
111
330
FF
100
AcDbEntity
  8
0
  6
Continuous
 62
     7
370
    18
100
AcDbMText
 10
5.5456513057
 20
16.8550741936
 30
0.0
 40
0.375
 41
0.0
 71
     1
 72
     1
  1
 
  7
SLDTEXTSTYLE0
 73
     1
 44
1.0
  0
ENDBLK
  5
101
330
FF
100
AcDbEntity
  8
0
100
AcDbBlockEnd
  0
BLOCK
  5
115
330
114
100
AcDbEntity
  8
0
100
AcDbBlockBegin
  2
_D_3
 70
     0
 10
0.0
 20
0.0
 30
0.0
  3
_D_3
  1

  0
SOLID
  5
117
330
114
100
AcDbEntity
  8
0
  6
Continuous
 62
     7
370
    18
100
AcDbTrace
 10
14.0512881602
 20
20.3115338492
 30
0.0
 11
13.9912881602
 21
19.9215338492
 31
0.0
 12
14.1112881602
 22
19.9215338492
 32
0.0
 13
14.1112881602
 23
19.9215338492
 33
0.0
  0
SOLID
  5
118
330
114
100
AcDbEntity
  8
0
  6
Continuous
 62
     7
370
    18
100
AcDbTrace
 10
14.0512881602
 20
15.1065338492
 30
0.0
 11
14.1112881602
 21
15.4965338492
 31
0.0
 12
13.9912881602
 22
15.4965338492
 32
0.0
 13
13.9912881602
 23
15.4965338492
 33
0.0
  0
LINE
  5
119
330
114
100
AcDbEntity
  8
0
  6
Continuous
 62
     7
370
     0
100
AcDbLine
 10
13.1669132266
 20
17.7061692073
 30
0.0
 11
13.0526554152
 21
17.7061692073
 31
0.0
  0
LINE
  5
11A
330
114
100
AcDbEntity
  8
0
  6
Continuous
 62
     7
370
     0
100
AcDbLine
 10
13.0526554152
 20
17.7061692073
 30
0.0
 11
13.0526554152
 21
17.1108566894
 31
0.0
  0
LINE
  5
11B
330
114
100
AcDbEntity
  8
0
  6
Continuous
 62
     7
370
     0
100
AcDbLine
 10
13.0526554152
 20
17.1108566894
 30
0.0
 11
13.1669132266
 21
17.1108566894
 31
0.0
  0
LINE
  5
11C
330
114
100
AcDbEntity
  8
0
  6
Continuous
 62
     7
370
     0
100
AcDbLine
 10
14.9356632038
 20
17.7061692073
 30
0.0
 11
15.0499210151
 21
17.7061692073
 31
0.0
  0
LINE
  5
11D
330
114
100
AcDbEntity
  8
0
  6
Continuous
 62
     7
370
     0
100
AcDbLine
 10
15.0499210151
 20
17.7061692073
 30
0.0
 11
15.0499210151
 21
17.1108566894
 31
0.0
  0
LINE
  5
11E
330
114
100
AcDbEntity
  8
0
  6
Continuous
 62
     7
370
     0
100
AcDbLine
 10
15.0499210151
 20
17.1108566894
 30
0.0
 11
14.9356632038
 21
17.1108566894
 31
0.0
  0
LINE
  5
11F
330
114
100
AcDbEntity
  8
0
  6
Continuous
 62
     7
370
     0
100
AcDbLine
 10
12.3310519421
 20
20.3115338492
 30
0.0
 11
14.4262881602
 21
20.3115338492
 31
0.0
  0
LINE
  5
120
330
114
100
AcDbEntity
  8
0
  6
Continuous
 62
     7
370
     0
100
AcDbLine
 10
12.3610519421
 20
15.1065338492
 30
0.0
 11
14.4262881602
 21
15.1065338492
 31
0.0
  0
LINE
  5
121
330
114
100
AcDbEntity
  8
0
  6
Continuous
 62
     7
370
     0
100
AcDbLine
 10
14.0512881602
 20
20.3115338492
 30
0.0
 11
14.0512881602
 21
18.383382764
 31
0.0
  0
LINE
  5
122
330
114
100
AcDbEntity
  8
0
  6
Continuous
 62
     7
370
     0
100
AcDbLine
 10
14.0512881602
 20
15.1065338492
 30
0.0
 11
14.0512881602
 21
17.0346849343
 31
0.0
  0
MTEXT
  5
123
330
114
100
AcDbEntity
  8
0
  6
Continuous
 62
     7
370
    18
100
AcDbMText
 10
12.7998559368
 20
18.2670741936
 30
0.0
 40
0.375
 41
0.0
 71
     1
 72
     1
  1
 
  7
SLDTEXTSTYLE0
 73
     1
 44
1.0
  0
MTEXT
  5
124
330
114
100
AcDbEntity
  8
0
  6
Continuous
 62
     7
370
    18
100
AcDbMText
 10
13.2411319267
 20
18.2613449992
 30
0.0
 40
0.375
 41
0.0
 71
     1
 72
     1
  1
5 3/16"
  7
SLDTEXTSTYLE0
 73
     1
 44
1.0
  0
MTEXT
  5
125
330
114
100
AcDbEntity
  8
0
  6
Continuous
 62
     7
370
    18
100
AcDbMText
 10
13.1669132266
 20
17.5898606369
 30
0.0
 40
0.375
 41
0.0
 71
     1
 72
     1
  1
132mm
  7
SLDTEXTSTYLE0
 73
     1
 44
1.0
  0
MTEXT
  5
126
330
114
100
AcDbEntity
  8
0
  6
Continuous
 62
     7
370
    18
100
AcDbMText
 10
15.164178744
 20
18.2670741936
 30
0.0
 40
0.375
 41
0.0
 71
     1
 72
     1
  1
 
  7
SLDTEXTSTYLE0
 73
     1
 44
1.0
  0
ENDBLK
  5
116
330
114
100
AcDbEntity
  8
0
100
AcDbBlockEnd
  0
BLOCK
  5
129
330
128
100
AcDbEntity
  8
0
100
AcDbBlockBegin
  2
_D_4
 70
     0
 10
0.0
 20
0.0
 30
0.0
  3
_D_4
  1

  0
SOLID
  5
12B
330
128
100
AcDbEntity
  8
0
  6
Continuous
 62
     7
370
    18
100
AcDbTrace
 10
9.2410519421
 20
11.101431487
 30
0.0
 11
8.8510519421
 21
11.161431487
 31
0.0
 12
8.8510519421
 22
11.041431487
 32
0.0
 13
8.8510519421
 23
11.041431487
 33
0.0
  0
SOLID
  5
12C
330
128
100
AcDbEntity
  8
0
  6
Continuous
 62
     7
370
    18
100
AcDbTrace
 10
12.2110519421
 20
11.101431487
 30
0.0
 11
12.6010519421
 21
11.041431487
 31
0.0
 12
12.6010519421
 22
11.161431487
 32
0.0
 13
12.6010519421
 23
11.161431487
 33
0.0
  0
LINE
  5
12D
330
128
100
AcDbEntity
  8
0
  6
Continuous
 62
     7
370
     0
100
AcDbLine
 10
9.9802186206
 20
11.101431432
 30
0.0
 11
9.8659608092
 21
11.101431432
 31
0.0
  0
LINE
  5
12E
330
128
100
AcDbEntity
  8
0
  6
Continuous
 62
     7
370
     0
100
AcDbLine
 10
9.8659608092
 20
11.101431432
 30
0.0
 11
9.8659608092
 21
10.5061189141
 31
0.0
  0
LINE
  5
12F
330
128
100
AcDbEntity
  8
0
  6
Continuous
 62
     7
370
     0
100
AcDbLine
 10
9.8659608092
 20
10.5061189141
 30
0.0
 11
9.9802186206
 21
10.5061189141
 31
0.0
  0
LINE
  5
130
330
128
100
AcDbEntity
  8
0
  6
Continuous
 62
     7
370
     0
100
AcDbLine
 10
11.4718853187
 20
11.101431432
 30
0.0
 11
11.58614313
 21
11.101431432
 31
0.0
  0
LINE
  5
131
330
128
100
AcDbEntity
  8
0
  6
Continuous
 62
     7
370
     0
100
AcDbLine
 10
11.58614313
 20
11.101431432
 30
0.0
 11
11.58614313
 21
10.5061189141
 31
0.0
  0
LINE
  5
132
330
128
100
AcDbEntity
  8
0
  6
Continuous
 62
     7
370
     0
100
AcDbLine
 10
11.58614313
 20
10.5061189141
 30
0.0
 11
11.4718853187
 21
10.5061189141
 31
0.0
  0
LINE
  5
133
330
128
100
AcDbEntity
  8
0
  6
Continuous
 62
     7
370
     0
100
AcDbLine
 10
9.2410519421
 20
12.1625338492
 30
0.0
 11
9.2410519421
 21
10.726431487
 31
0.0
  0
LINE
  5
134
330
128
100
AcDbEntity
  8
0
  6
Continuous
 62
     7
370
     0
100
AcDbLine
 10
12.2110519421
 20
12.1625338492
 30
0.0
 11
12.2110519421
 21
10.726431487
 31
0.0
  0
LINE
  5
135
330
128
100
AcDbEntity
  8
0
  6
Continuous
 62
     7
370
     0
100
AcDbLine
 10
9.2410519421
 20
11.101431487
 30
0.0
 11
8.4910519421
 21
11.101431487
 31
0.0
  0
LINE
  5
136
330
128
100
AcDbEntity
  8
0
  6
Continuous
 62
     7
370
     0
100
AcDbLine
 10
12.2110519421
 20
11.101431487
 30
0.0
 11
12.9610519421
 21
11.101431487
 31
0.0
  0
MTEXT
  5
137
330
128
100
AcDbEntity
  8
0
  6
Continuous
 62
     7
370
    18
100
AcDbMText
 10
10.2273931077
 20
11.6566072514
 30
0.0
 40
0.375
 41
0.0
 71
     1
 72
     1
  1
%%c
  7
SLDTEXTSTYLE0
 73
     1
 44
1.0
  0
MTEXT
  5
138
330
128
100
AcDbEntity
  8
0
  6
Continuous
 62
     7
370
    18
100
AcDbMText
 10
10.7929399694
 20
11.6566072514
 30
0.0
 40
0.375
 41
0.0
 71
     1
 72
     1
  1
3"
  7
SLDTEXTSTYLE0
 73
     1
 44
1.0
  0
MTEXT
  5
139
330
128
100
AcDbEntity
  8
0
  6
Continuous
 62
     7
370
    18
100
AcDbMText
 10
9.9802186206
 20
10.9851228616
 30
0.0
 40
0.375
 41
0.0
 71
     1
 72
     1
  1
75mm
  7
SLDTEXTSTYLE0
 73
     1
 44
1.0
  0
ENDBLK
  5
12A
330
128
100
AcDbEntity
  8
0
100
AcDbBlockEnd
  0
BLOCK
  5
183
330
182
100
AcDbEntity
  8
0
100
AcDbBlockBegin
  2
_D_5
 70
     0
 10
0.0
 20
0.0
 30
0.0
  3
_D_5
  1

  0
SOLID
  5
185
330
182
100
AcDbEntity
  8
0
  6
Continuous
 62
     7
370
    18
100
AcDbTrace
 10
6.3454677393
 20
2.5025846476
 30
0.0
 11
6.4054677393
 21
2.8925846476
 31
0.0
 12
6.2854677393
 22
2.8925846476
 32
0.0
 13
6.2854677393
 23
2.8925846476
 33
0.0
  0
SOLID
  5
186
330
182
100
AcDbEntity
  8
0
  6
Continuous
 62
     7
370
    18
100
AcDbTrace
 10
6.3454677393
 20
7.7665846476
 30
0.0
 11
6.2854677393
 21
7.3765846476
 31
0.0
 12
6.4054677393
 22
7.3765846476
 32
0.0
 13
6.4054677393
 23
7.3765846476
 33
0.0
  0
LINE
  5
187
330
182
100
AcDbEntity
  8
0
  6
Continuous
 62
     7
370
     0
100
AcDbLine
 10
5.4610928056
 20
5.1317200057
 30
0.0
 11
5.3468349943
 21
5.1317200057
 31
0.0
  0
LINE
  5
188
330
182
100
AcDbEntity
  8
0
  6
Continuous
 62
     7
370
     0
100
AcDbLine
 10
5.3468349943
 20
5.1317200057
 30
0.0
 11
5.3468349943
 21
4.5364074878
 31
0.0
  0
LINE
  5
189
330
182
100
AcDbEntity
  8
0
  6
Continuous
 62
     7
370
     0
100
AcDbLine
 10
5.3468349943
 20
4.5364074878
 30
0.0
 11
5.4610928056
 21
4.5364074878
 31
0.0
  0
LINE
  5
18A
330
182
100
AcDbEntity
  8
0
  6
Continuous
 62
     7
370
     0
100
AcDbLine
 10
7.2298427829
 20
5.1317200057
 30
0.0
 11
7.3441005942
 21
5.1317200057
 31
0.0
  0
LINE
  5
18B
330
182
100
AcDbEntity
  8
0
  6
Continuous
 62
     7
370
     0
100
AcDbLine
 10
7.3441005942
 20
5.1317200057
 30
0.0
 11
7.3441005942
 21
4.5364074878
 31
0.0
  0
LINE
  5
18C
330
182
100
AcDbEntity
  8
0
  6
Continuous
 62
     7
370
     0
100
AcDbLine
 10
7.3441005942
 20
4.5364074878
 30
0.0
 11
7.2298427829
 21
4.5364074878
 31
0.0
  0
LINE
  5
18D
330
182
100
AcDbEntity
  8
0
  6
Continuous
 62
     7
370
     0
100
AcDbLine
 10
8.0852315188
 20
2.5025846476
 30
0.0
 11
5.9704677393
 21
2.5025846476
 31
0.0
  0
LINE
  5
18E
330
182
100
AcDbEntity
  8
0
  6
Continuous
 62
     7
370
     0
100
AcDbLine
 10
8.0852315188
 20
7.7665846476
 30
0.0
 11
5.9704677393
 21
7.7665846476
 31
0.0
  0
LINE
  5
18F
330
182
100
AcDbEntity
  8
0
  6
Continuous
 62
     7
370
     0
100
AcDbLine
 10
6.3454677393
 20
2.5025846476
 30
0.0
 11
6.3454677393
 21
4.4602357327
 31
0.0
  0
LINE
  5
190
330
182
100
AcDbEntity
  8
0
  6
Continuous
 62
     7
370
     0
100
AcDbLine
 10
6.3454677393
 20
7.7665846476
 30
0.0
 11
6.3454677393
 21
5.8089335625
 31
0.0
  0
MTEXT
  5
191
330
182
100
AcDbEntity
  8
0
  6
Continuous
 62
     7
370
    18
100
AcDbMText
 10
5.0940355159
 20
5.6926249921
 30
0.0
 40
0.375
 41
0.0
 71
     1
 72
     1
  1
 
  7
SLDTEXTSTYLE0
 73
     1
 44
1.0
  0
MTEXT
  5
192
330
182
100
AcDbEntity
  8
0
  6
Continuous
 62
     7
370
    18
100
AcDbMText
 10
5.6738532003
 20
5.6868957976
 30
0.0
 40
0.375
 41
0.0
 71
     1
 72
     1
  1
5 1/4"
  7
SLDTEXTSTYLE0
 73
     1
 44
1.0
  0
MTEXT
  5
193
330
182
100
AcDbEntity
  8
0
  6
Continuous
 62
     7
370
    18
100
AcDbMText
 10
5.4610928056
 20
5.0154114353
 30
0.0
 40
0.375
 41
0.0
 71
     1
 72
     1
  1
134mm
  7
SLDTEXTSTYLE0
 73
     1
 44
1.0
  0
MTEXT
  5
194
330
182
100
AcDbEntity
  8
0
  6
Continuous
 62
     7
370
    18
100
AcDbMText
 10
7.4583583231
 20
5.6926249921
 30
0.0
 40
0.375
 41
0.0
 71
     1
 72
     1
  1
 
  7
SLDTEXTSTYLE0
 73
     1
 44
1.0
  0
ENDBLK
  5
184
330
182
100
AcDbEntity
  8
0
100
AcDbBlockEnd
  0
BLOCK
  5
1A6
330
1A5
100
AcDbEntity
  8
0
100
AcDbBlockBegin
  2
_D_6
 70
     0
 10
0.0
 20
0.0
 30
0.0
  3
_D_6
  1

  0
SOLID
  5
1A8
330
1A5
100
AcDbEntity
  8
0
  6
Continuous
 62
     7
370
    18
100
AcDbTrace
 10
13.4855537156
 20
2.5025846476
 30
0.0
 11
13.4255537156
 21
2.1125846476
 31
0.0
 12
13.5455537156
 22
2.1125846476
 32
0.0
 13
13.5455537156
 23
2.1125846476
 33
0.0
  0
SOLID
  5
1A9
330
1A5
100
AcDbEntity
  8
0
  6
Continuous
 62
     7
370
    18
100
AcDbTrace
 10
13.4855537156
 20
5.3265846476
 30
0.0
 11
13.5455537156
 21
5.7165846476
 31
0.0
 12
13.4255537156
 22
5.7165846476
 32
0.0
 13
13.4255537156
 23
5.7165846476
 33
0.0
  0
LINE
  5
1AA
330
1A5
100
AcDbEntity
  8
0
  6
Continuous
 62
     7
370
     0
100
AcDbLine
 10
12.7397204215
 20
3.9117200057
 30
0.0
 11
12.6254626102
 21
3.9117200057
 31
0.0
  0
LINE
  5
1AB
330
1A5
100
AcDbEntity
  8
0
  6
Continuous
 62
     7
370
     0
100
AcDbLine
 10
12.6254626102
 20
3.9117200057
 30
0.0
 11
12.6254626102
 21
3.3164074878
 31
0.0
  0
LINE
  5
1AC
330
1A5
100
AcDbEntity
  8
0
  6
Continuous
 62
     7
370
     0
100
AcDbLine
 10
12.6254626102
 20
3.3164074878
 30
0.0
 11
12.7397204215
 21
3.3164074878
 31
0.0
  0
LINE
  5
1AD
330
1A5
100
AcDbEntity
  8
0
  6
Continuous
 62
     7
370
     0
100
AcDbLine
 10
14.2313871196
 20
3.9117200057
 30
0.0
 11
14.345644931
 21
3.9117200057
 31
0.0
  0
LINE
  5
1AE
330
1A5
100
AcDbEntity
  8
0
  6
Continuous
 62
     7
370
     0
100
AcDbLine
 10
14.345644931
 20
3.9117200057
 30
0.0
 11
14.345644931
 21
3.3164074878
 31
0.0
  0
LINE
  5
1AF
330
1A5
100
AcDbEntity
  8
0
  6
Continuous
 62
     7
370
     0
100
AcDbLine
 10
14.345644931
 20
3.3164074878
 30
0.0
 11
14.2313871196
 21
3.3164074878
 31
0.0
  0
LINE
  5
1B0
330
1A5
100
AcDbEntity
  8
0
  6
Continuous
 62
     7
370
     0
100
AcDbLine
 10
15.2253174951
 20
2.5025846476
 30
0.0
 11
13.1105537156
 21
2.5025846476
 31
0.0
  0
LINE
  5
1B1
330
1A5
100
AcDbEntity
  8
0
  6
Continuous
 62
     7
370
     0
100
AcDbLine
 10
15.2553174951
 20
5.3265846476
 30
0.0
 11
13.1105537156
 21
5.3265846476
 31
0.0
  0
LINE
  5
1B2
330
1A5
100
AcDbEntity
  8
0
  6
Continuous
 62
     7
370
     0
100
AcDbLine
 10
13.4855537156
 20
2.5025846476
 30
0.0
 11
13.4855537156
 21
1.7525846476
 31
0.0
  0
LINE
  5
1B3
330
1A5
100
AcDbEntity
  8
0
  6
Continuous
 62
     7
370
     0
100
AcDbLine
 10
13.4855537156
 20
5.3265846476
 30
0.0
 11
13.4855537156
 21
6.0765846476
 31
0.0
  0
MTEXT
  5
1B4
330
1A5
100
AcDbEntity
  8
0
  6
Continuous
 62
     7
370
    18
100
AcDbMText
 10
12.3726631318
 20
4.4726249921
 30
0.0
 40
0.375
 41
0.0
 71
     1
 72
     1
  1
 
  7
SLDTEXTSTYLE0
 73
     1
 44
1.0
  0
MTEXT
  5
1B5
330
1A5
100
AcDbEntity
  8
0
  6
Continuous
 62
     7
370
    18
100
AcDbMText
 10
12.5368558425
 20
4.4668957976
 30
0.0
 40
0.375
 41
0.0
 71
     1
 72
     1
  1
2 13/16"
  7
SLDTEXTSTYLE0
 73
     1
 44
1.0
  0
MTEXT
  5
1B6
330
1A5
100
AcDbEntity
  8
0
  6
Continuous
 62
     7
370
    18
100
AcDbMText
 10
12.7397204215
 20
3.7954114353
 30
0.0
 40
0.375
 41
0.0
 71
     1
 72
     1
  1
72mm
  7
SLDTEXTSTYLE0
 73
     1
 44
1.0
  0
MTEXT
  5
1B7
330
1A5
100
AcDbEntity
  8
0
  6
Continuous
 62
     7
370
    18
100
AcDbMText
 10
14.4599026598
 20
4.4726249921
 30
0.0
 40
0.375
 41
0.0
 71
     1
 72
     1
  1
 
  7
SLDTEXTSTYLE0
 73
     1
 44
1.0
  0
ENDBLK
  5
1A7
330
1A5
100
AcDbEntity
  8
0
100
AcDbBlockEnd
  0
BLOCK
  5
1C9
330
1C8
100
AcDbEntity
  8
0
100
AcDbBlockBegin
  2
_D_7
 70
     0
 10
0.0
 20
0.0
 30
0.0
  3
_D_7
  1

  0
SOLID
  5
1CB
330
1C8
100
AcDbEntity
  8
0
  6
Continuous
 62
     7
370
    18
100
AcDbTrace
 10
19.9641442916
 20
2.5025846476
 30
0.0
 11
19.9041442916
 21
2.1125846476
 31
0.0
 12
20.0241442916
 22
2.1125846476
 32
0.0
 13
20.0241442916
 23
2.1125846476
 33
0.0
  0
SOLID
  5
1CC
330
1C8
100
AcDbEntity
  8
0
  6
Continuous
 62
     7
370
    18
100
AcDbTrace
 10
19.9641442916
 20
4.3265846476
 30
0.0
 11
20.0241442916
 21
4.7165846476
 31
0.0
 12
19.9041442916
 22
4.7165846476
 32
0.0
 13
19.9041442916
 23
4.7165846476
 33
0.0
  0
LINE
  5
1CD
330
1C8
100
AcDbEntity
  8
0
  6
Continuous
 62
     7
370
     0
100
AcDbLine
 10
19.2183109975
 20
3.4117200057
 30
0.0
 11
19.1040531862
 21
3.4117200057
 31
0.0
  0
LINE
  5
1CE
330
1C8
100
AcDbEntity
  8
0
  6
Continuous
 62
     7
370
     0
100
AcDbLine
 10
19.1040531862
 20
3.4117200057
 30
0.0
 11
19.1040531862
 21
2.8164074878
 31
0.0
  0
LINE
  5
1CF
330
1C8
100
AcDbEntity
  8
0
  6
Continuous
 62
     7
370
     0
100
AcDbLine
 10
19.1040531862
 20
2.8164074878
 30
0.0
 11
19.2183109975
 21
2.8164074878
 31
0.0
  0
LINE
  5
1D0
330
1C8
100
AcDbEntity
  8
0
  6
Continuous
 62
     7
370
     0
100
AcDbLine
 10
20.7099776957
 20
3.4117200057
 30
0.0
 11
20.824235507
 21
3.4117200057
 31
0.0
  0
LINE
  5
1D1
330
1C8
100
AcDbEntity
  8
0
  6
Continuous
 62
     7
370
     0
100
AcDbLine
 10
20.824235507
 20
3.4117200057
 30
0.0
 11
20.824235507
 21
2.8164074878
 31
0.0
  0
LINE
  5
1D2
330
1C8
100
AcDbEntity
  8
0
  6
Continuous
 62
     7
370
     0
100
AcDbLine
 10
20.824235507
 20
2.8164074878
 30
0.0
 11
20.7099776957
 21
2.8164074878
 31
0.0
  0
LINE
  5
1D3
330
1C8
100
AcDbEntity
  8
0
  6
Continuous
 62
     7
370
     0
100
AcDbLine
 10
21.7039080711
 20
2.5025846476
 30
0.0
 11
19.5891442916
 21
2.5025846476
 31
0.0
  0
LINE
  5
1D4
330
1C8
100
AcDbEntity
  8
0
  6
Continuous
 62
     7
370
     0
100
AcDbLine
 10
21.7339080711
 20
4.3265846476
 30
0.0
 11
19.5891442916
 21
4.3265846476
 31
0.0
  0
LINE
  5
1D5
330
1C8
100
AcDbEntity
  8
0
  6
Continuous
 62
     7
370
     0
100
AcDbLine
 10
19.9641442916
 20
2.5025846476
 30
0.0
 11
19.9641442916
 21
1.7525846476
 31
0.0
  0
LINE
  5
1D6
330
1C8
100
AcDbEntity
  8
0
  6
Continuous
 62
     7
370
     0
100
AcDbLine
 10
19.9641442916
 20
4.3265846476
 30
0.0
 11
19.9641442916
 21
5.0765846476
 31
0.0
  0
MTEXT
  5
1D7
330
1C8
100
AcDbEntity
  8
0
  6
Continuous
 62
     7
370
    18
100
AcDbMText
 10
18.8512537078
 20
3.9726249921
 30
0.0
 40
0.375
 41
0.0
 71
     1
 72
     1
  1
 
  7
SLDTEXTSTYLE0
 73
     1
 44
1.0
  0
MTEXT
  5
1D8
330
1C8
100
AcDbEntity
  8
0
  6
Continuous
 62
     7
370
    18
100
AcDbMText
 10
19.0154464185
 20
3.9668957976
 30
0.0
 40
0.375
 41
0.0
 71
     1
 72
     1
  1
1 13/16"
  7
SLDTEXTSTYLE0
 73
     1
 44
1.0
  0
MTEXT
  5
1D9
330
1C8
100
AcDbEntity
  8
0
  6
Continuous
 62
     7
370
    18
100
AcDbMText
 10
19.2183109975
 20
3.2954114353
 30
0.0
 40
0.375
 41
0.0
 71
     1
 72
     1
  1
46mm
  7
SLDTEXTSTYLE0
 73
     1
 44
1.0
  0
MTEXT
  5
1DA
330
1C8
100
AcDbEntity
  8
0
  6
Continuous
 62
     7
370
    18
100
AcDbMText
 10
20.9384932358
 20
3.9726249921
 30
0.0
 40
0.375
 41
0.0
 71
     1
 72
     1
  1
 
  7
SLDTEXTSTYLE0
 73
     1
 44
1.0
  0
ENDBLK
  5
1CA
330
1C8
100
AcDbEntity
  8
0
100
AcDbBlockEnd
  0
BLOCK
  5
1E4
330
1E3
100
AcDbEntity
  8
0
100
AcDbBlockBegin
  2
_D_8
 70
     0
 10
0.0
 20
0.0
 30
0.0
  3
_D_8
  1

  0
SOLID
  5
1E6
330
1E3
100
AcDbEntity
  8
SLD-0
100
AcDbTrace
 10
26.3218323857
 20
10.2490323978
 30
0.0
 11
25.9318323857
 21
10.3090323978
 31
0.0
 12
25.9318323857
 22
10.1890323978
 32
0.0
 13
25.9318323857
 23
10.1890323978
 33
0.0
  0
SOLID
  5
1E7
330
1E3
100
AcDbEntity
  8
SLD-0
100
AcDbTrace
 10
29.8218323857
 20
10.2490323978
 30
0.0
 11
30.2118323857
 21
10.1890323978
 31
0.0
 12
30.2118323857
 22
10.3090323978
 32
0.0
 13
30.2118323857
 23
10.3090323978
 33
0.0
  0
LINE
  5
1E8
330
1E3
100
AcDbEntity
  8
SLD-0
100
AcDbLine
 10
27.3259990641
 20
10.0065843911
 30
0.0
 11
27.2117412528
 21
10.0065843911
 31
0.0
  0
LINE
  5
1E9
330
1E3
100
AcDbEntity
  8
SLD-0
100
AcDbLine
 10
27.2117412528
 20
10.0065843911
 30
0.0
 11
27.2117412528
 21
9.4112718732
 31
0.0
  0
LINE
  5
1EA
330
1E3
100
AcDbEntity
  8
SLD-0
100
AcDbLine
 10
27.2117412528
 20
9.4112718732
 30
0.0
 11
27.3259990641
 21
9.4112718732
 31
0.0
  0
LINE
  5
1EB
330
1E3
100
AcDbEntity
  8
SLD-0
100
AcDbLine
 10
28.8176657622
 20
10.0065843911
 30
0.0
 11
28.9319235736
 21
10.0065843911
 31
0.0
  0
LINE
  5
1EC
330
1E3
100
AcDbEntity
  8
SLD-0
100
AcDbLine
 10
28.9319235736
 20
10.0065843911
 30
0.0
 11
28.9319235736
 21
9.4112718732
 31
0.0
  0
LINE
  5
1ED
330
1E3
100
AcDbEntity
  8
SLD-0
100
AcDbLine
 10
28.9319235736
 20
9.4112718732
 30
0.0
 11
28.8176657622
 21
9.4112718732
 31
0.0
  0
LINE
  5
1EE
330
1E3
100
AcDbEntity
  8
SLD-0
100
AcDbLine
 10
26.3218323857
 20
6.6068270051
 30
0.0
 11
26.3218323857
 21
10.6240323978
 31
0.0
  0
LINE
  5
1EF
330
1E3
100
AcDbEntity
  8
SLD-0
100
AcDbLine
 10
29.8218323857
 20
6.6068270051
 30
0.0
 11
29.8218323857
 21
10.6240323978
 31
0.0
  0
LINE
  5
1F0
330
1E3
100
AcDbEntity
  8
SLD-0
100
AcDbLine
 10
26.3218323857
 20
10.2490323978
 30
0.0
 11
25.5718323857
 21
10.2490323978
 31
0.0
  0
LINE
  5
1F1
330
1E3
100
AcDbEntity
  8
SLD-0
100
AcDbLine
 10
29.8218323857
 20
10.2490323978
 30
0.0
 11
30.5718323857
 21
10.2490323978
 31
0.0
  0
MTEXT
  5
1F2
330
1E3
100
AcDbEntity
  8
SLD-0
100
AcDbMText
 10
26.6858948161
 20
11.0466560796
 30
0.0
 40
0.375
 41
0.0
 71
     1
 72
     1
  1
ON CENTER
  7
SLDTEXTSTYLE0
 73
     1
 44
1.0
  0
MTEXT
  5
1F3
330
1E3
100
AcDbEntity
  8
SLD-0
100
AcDbMText
 10
27.4002178192
 20
10.561760183
 30
0.0
 40
0.375
 41
0.0
 71
     1
 72
     1
  1
3 1/2"
  7
SLDTEXTSTYLE0
 73
     1
 44
1.0
  0
MTEXT
  5
1F4
330
1E3
100
AcDbEntity
  8
SLD-0
100
AcDbMText
 10
27.3259990641
 20
9.8902758207
 30
0.0
 40
0.375
 41
0.0
 71
     1
 72
     1
  1
89mm
  7
SLDTEXTSTYLE0
 73
     1
 44
1.0
  0
ENDBLK
  5
1E5
330
1E3
100
AcDbEntity
  8
0
100
AcDbBlockEnd
  0
BLOCK
  5
1F8
330
1F7
100
AcDbEntity
  8
0
100
AcDbBlockBegin
  2
_D_9
 70
     0
 10
0.0
 20
0.0
 30
0.0
  3
_D_9
  1

  0
SOLID
  5
1FA
330
1F7
100
AcDbEntity
  8
SLD-0
100
AcDbTrace
 10
26.3146720344
 20
7.9969873563
 30
0.0
 11
26.0813267966
 21
8.3151854079
 31
0.0
 12
25.9964739829
 22
8.2303325941
 32
0.0
 13
25.9964739829
 23
8.2303325941
 33
0.0
  0
LINE
  5
1FB
330
1F7
100
AcDbEntity
  8
SLD-0
100
AcDbLine
 10
22.5056273908
 20
9.0587664001
 30
0.0
 11
22.3913695794
 21
9.0587664001
 31
0.0
  0
LINE
  5
1FC
330
1F7
100
AcDbEntity
  8
SLD-0
100
AcDbLine
 10
22.3913695794
 20
9.0587664001
 30
0.0
 11
22.3913695794
 21
8.4634538822
 31
0.0
  0
LINE
  5
1FD
330
1F7
100
AcDbEntity
  8
SLD-0
100
AcDbLine
 10
22.3913695794
 20
8.4634538822
 30
0.0
 11
22.5056273908
 21
8.4634538822
 31
0.0
  0
LINE
  5
1FE
330
1F7
100
AcDbEntity
  8
SLD-0
100
AcDbLine
 10
24.274377368
 20
9.0587664001
 30
0.0
 11
24.3886351794
 21
9.0587664001
 31
0.0
  0
LINE
  5
1FF
330
1F7
100
AcDbEntity
  8
SLD-0
100
AcDbLine
 10
24.3886351794
 20
9.0587664001
 30
0.0
 11
24.3886351794
 21
8.4634538822
 31
0.0
  0
LINE
  5
200
330
1F7
100
AcDbEntity
  8
SLD-0
100
AcDbLine
 10
24.3886351794
 20
8.4634538822
 30
0.0
 11
24.274377368
 21
8.4634538822
 31
0.0
  0
LINE
  5
201
330
1F7
100
AcDbEntity
  8
SLD-0
100
AcDbLine
 10
26.3146720344
 20
7.9969873563
 30
0.0
 11
25.2528929357
 21
9.058766455
 31
0.0
  0
LINE
  5
202
330
1F7
100
AcDbEntity
  8
SLD-0
100
AcDbLine
 10
25.2528929357
 20
9.058766455
 30
0.0
 11
24.5028929357
 21
9.058766455
 31
0.0
  0
MTEXT
  5
203
330
1F7
100
AcDbEntity
  8
SLD-0
100
AcDbMText
 10
22.8913435174
 20
9.6139422195
 30
0.0
 40
0.375
 41
0.0
 71
     1
 72
     1
  1
%%c
  7
SLDTEXTSTYLE0
 73
     1
 44
1.0
  0
MTEXT
  5
204
330
1F7
100
AcDbEntity
  8
SLD-0
100
AcDbMText
 10
23.4568903792
 20
9.6139422195
 30
0.0
 40
0.375
 41
0.0
 71
     1
 72
     1
  1
5"
  7
SLDTEXTSTYLE0
 73
     1
 44
1.0
  0
MTEXT
  5
205
330
1F7
100
AcDbEntity
  8
SLD-0
100
AcDbMText
 10
22.5056273908
 20
8.9424578297
 30
0.0
 40
0.375
 41
0.0
 71
     1
 72
     1
  1
126mm
  7
SLDTEXTSTYLE0
 73
     1
 44
1.0
  0
ENDBLK
  5
1F9
330
1F7
100
AcDbEntity
  8
0
100
AcDbBlockEnd
  0
BLOCK
  5
207
330
206
100
AcDbEntity
  8
0
100
AcDbBlockBegin
  2
SW_CENTERMARKSYMBOL_0
 70
     0
 10
0.0
 20
0.0
 30
0.0
  3
SW_CENTERMARKSYMBOL_0
  1

  0
LINE
  5
209
330
206
100
AcDbEntity
  8
SLD-0
 62
     0
100
AcDbLine
 10
0.0
 20
0.0
 30
0.0
 11
0.0
 21
0.1
 31
0.0
  0
LINE
  5
20A
330
206
100
AcDbEntity
  8
SLD-0
 62
     0
100
AcDbLine
 10
0.0
 20
0.0
 30
0.0
 11
-0.1
 21
0.0
 31
0.0
  0
LINE
  5
20B
330
206
100
AcDbEntity
  8
SLD-0
 62
     0
100
AcDbLine
 10
0.0
 20
0.0
 30
0.0
 11
0.0
 21
-0.1
 31
0.0
  0
LINE
  5
20C
330
206
100
AcDbEntity
  8
SLD-0
 62
     0
100
AcDbLine
 10
0.0
 20
0.0
 30
0.0
 11
0.1
 21
0.0
 31
0.0
  0
LINE
  5
20D
330
206
100
AcDbEntity
  8
SLD-0
 62
     0
100
AcDbLine
 10
0.0
 20
0.2
 30
0.0
 11
0.0
 21
0.217
 31
0.0
  0
LINE
  5
20E
330
206
100
AcDbEntity
  8
SLD-0
 62
     0
100
AcDbLine
 10
-0.2
 20
0.0
 30
0.0
 11
-0.217
 21
0.0
 31
0.0
  0
LINE
  5
20F
330
206
100
AcDbEntity
  8
SLD-0
 62
     0
100
AcDbLine
 10
0.0
 20
-0.2
 30
0.0
 11
0.0
 21
-0.217
 31
0.0
  0
LINE
  5
210
330
206
100
AcDbEntity
  8
SLD-0
 62
     0
100
AcDbLine
 10
0.2
 20
0.0
 30
0.0
 11
0.217
 21
0.0
 31
0.0
  0
ENDBLK
  5
208
330
206
100
AcDbEntity
  8
0
100
AcDbBlockEnd
  0
BLOCK
  5
213
330
212
100
AcDbEntity
  8
0
100
AcDbBlockBegin
  2
SW_CENTERMARKSYMBOL_1
 70
     0
 10
0.0
 20
0.0
 30
0.0
  3
SW_CENTERMARKSYMBOL_1
  1

  0
LINE
  5
215
330
212
100
AcDbEntity
  8
SLD-0
 62
     0
100
AcDbLine
 10
0.0
 20
0.0
 30
0.0
 11
0.0
 21
0.1
 31
0.0
  0
LINE
  5
216
330
212
100
AcDbEntity
  8
SLD-0
 62
     0
100
AcDbLine
 10
0.0
 20
0.0
 30
0.0
 11
-0.1
 21
0.0
 31
0.0
  0
LINE
  5
217
330
212
100
AcDbEntity
  8
SLD-0
 62
     0
100
AcDbLine
 10
0.0
 20
0.0
 30
0.0
 11
0.0
 21
-0.1
 31
0.0
  0
LINE
  5
218
330
212
100
AcDbEntity
  8
SLD-0
 62
     0
100
AcDbLine
 10
0.0
 20
0.0
 30
0.0
 11
0.1
 21
0.0
 31
0.0
  0
LINE
  5
219
330
212
100
AcDbEntity
  8
SLD-0
 62
     0
100
AcDbLine
 10
0.0
 20
0.2
 30
0.0
 11
0.0
 21
0.217
 31
0.0
  0
LINE
  5
21A
330
212
100
AcDbEntity
  8
SLD-0
 62
     0
100
AcDbLine
 10
-0.2
 20
0.0
 30
0.0
 11
-0.217
 21
0.0
 31
0.0
  0
LINE
  5
21B
330
212
100
AcDbEntity
  8
SLD-0
 62
     0
100
AcDbLine
 10
0.0
 20
-0.2
 30
0.0
 11
0.0
 21
-0.217
 31
0.0
  0
LINE
  5
21C
330
212
100
AcDbEntity
  8
SLD-0
 62
     0
100
AcDbLine
 10
0.2
 20
0.0
 30
0.0
 11
0.217
 21
0.0
 31
0.0
  0
ENDBLK
  5
214
330
212
100
AcDbEntity
  8
0
100
AcDbBlockEnd
  0
ENDSEC
  0
SECTION
  2
ENTITIES
  0
LINE
  5
87
330
1F
100
AcDbEntity
  8
0
  6
Continuous
 62
     7
370
    25
100
AcDbLine
 10
9.2410519421
 20
14.7885841793
 30
0.0
 11
9.2410519421
 21
12.3125338492
 31
0.0
  0
LINE
  5
88
330
1F
100
AcDbEntity
  8
0
  6
Continuous
 62
     7
370
    25
100
AcDbLine
 10
9.2410519421
 20
15.1065338492
 30
0.0
 11
9.2410519421
 21
14.9243157797
 31
0.0
  0
LINE
  5
89
330
1F
100
AcDbEntity
  8
0
  6
Continuous
 62
     7
370
    25
100
AcDbLine
 10
12.2110519421
 20
12.3125338492
 30
0.0
 11
12.2110519421
 21
15.1065338492
 31
0.0
  0
ARC
  5
8A
330
1F
100
AcDbEntity
  8
0
  6
Continuous
 62
     7
370
    25
100
AcDbCircle
 10
12.1810519421
 20
12.3125338492
 30
0.0
 40
0.0299999999999994
100
AcDbArc
 50
270.0
 51
0.0
  0
ARC
  5
8B
330
1F
100
AcDbEntity
  8
0
  6
Continuous
 62
     7
370
    25
100
AcDbCircle
 10
9.2710519421
 20
12.3125338492
 30
0.0
 40
0.0300000000000011
100
AcDbArc
 50
180.0
 51
270.0
  0
LINE
  5
8C
330
1F
100
AcDbEntity
  8
0
  6
Continuous
 62
     7
370
    25
100
AcDbLine
 10
11.2260519421
 20
20.3115338492
 30
0.0
 11
11.2260519421
 21
23.3115338492
 31
0.0
  0
LINE
  5
8D
330
1F
100
AcDbEntity
  8
0
  6
Continuous
 62
     7
370
    25
100
AcDbLine
 10
10.2260519421
 20
23.3115338492
 30
0.0
 11
10.2260519421
 21
20.3115338492
 31
0.0
  0
LINE
  5
8E
330
1F
100
AcDbEntity
  8
0
  6
Continuous
 62
     7
370
    25
100
AcDbLine
 10
10.2260519421
 20
23.9765338492
 30
0.0
 11
10.1578306359
 21
23.9371462596
 31
0.0
  0
LINE
  5
8F
330
1F
100
AcDbEntity
  8
0
  6
Continuous
 62
     7
370
    25
100
AcDbLine
 10
10.1578390499
 20
23.7259165809
 30
0.0
 11
10.2260519421
 21
23.6865338492
 31
0.0
  0
LINE
  5
90
330
1F
100
AcDbEntity
  8
0
  6
Continuous
 62
     7
370
    25
100
AcDbLine
 10
11.2260519421
 20
23.6865338492
 30
0.0
 11
11.2942648344
 21
23.7259165809
 31
0.0
  0
LINE
  5
91
330
1F
100
AcDbEntity
  8
0
  6
Continuous
 62
     7
370
    25
100
AcDbLine
 10
11.2942732484
 20
23.9371462596
 30
0.0
 11
11.2260519421
 21
23.9765338492
 31
0.0
  0
LINE
  5
92
330
1F
100
AcDbEntity
  8
0
  6
Continuous
 62
     7
370
    25
100
AcDbLine
 10
8.2410519421
 20
23.3615338492
 30
0.0
 11
8.2910519421
 21
23.3115338492
 31
0.0
  0
LINE
  5
93
330
1F
100
AcDbEntity
  8
0
  6
Continuous
 62
     7
370
    25
100
AcDbLine
 10
13.1610519421
 20
23.3115338492
 30
0.0
 11
13.2110519421
 21
23.3615338492
 31
0.0
  0
LINE
  5
94
330
1F
100
AcDbEntity
  8
0
  6
Continuous
 62
     7
370
    25
100
AcDbLine
 10
8.2410519421
 20
23.6865338492
 30
0.0
 11
8.2410519421
 21
23.3615338492
 31
0.0
  0
LINE
  5
95
330
1F
100
AcDbEntity
  8
0
  6
Continuous
 62
     7
370
    25
100
AcDbLine
 10
13.2110519421
 20
23.3615338492
 30
0.0
 11
13.2110519421
 21
23.6865338492
 31
0.0
  0
LINE
  5
96
330
1F
100
AcDbEntity
  8
0
  6
Continuous
 62
     7
370
    25
100
AcDbLine
 10
11.1114749594
 20
23.9861108319
 30
0.0
 11
11.0810519421
 21
24.0165338492
 31
0.0
  0
SPLINE
  5
97
330
1F
100
AcDbEntity
  8
0
  6
Continuous
 62
     7
370
    25
100
AcDbSpline
210
0.0
220
0.0
230
1.0
 70
     8
 71
     3
 72
     9
 73
     5
 74
     0
 42
0.00000001
 43
0.00000001
 40
0.0
 40
0.0
 40
0.0
 40
0.0
 40
0.2670881609040147
 40
0.9999999999999999
 40
0.9999999999999999
 40
0.9999999999999999
 40
0.9999999999999999
 10
11.09567624392837
 20
23.97653384917568
 30
0.0
 10
11.09705516709756
 20
23.97733145903484
 30
0.0
 10
11.10221796864042
 20
23.98031777582425
 30
0.0
 10
11.10738152454834
 20
23.98330295148303
 30
0.0
 10
11.11116595580508
 20
23.98549082206513
 30
0.0
  0
LINE
  5
98
330
1F
100
AcDbEntity
  8
0
  6
Continuous
 62
     7
370
    25
100
AcDbLine
 10
12.2110519421
 20
20.2815338492
 30
0.0
 11
12.1810519421
 21
20.3115338492
 31
0.0
  0
LINE
  5
99
330
1F
100
AcDbEntity
  8
0
  6
Continuous
 62
     7
370
    25
100
AcDbLine
 10
9.2710519421
 20
20.3115338492
 30
0.0
 11
9.2410519421
 21
20.2815338492
 31
0.0
  0
LINE
  5
9A
330
1F
100
AcDbEntity
  8
0
  6
Continuous
 62
     7
370
    25
100
AcDbLine
 10
9.2410519421
 20
20.2815338492
 30
0.0
 11
9.2410519421
 21
15.1215338492
 31
0.0
  0
LINE
  5
9B
330
1F
100
AcDbEntity
  8
0
  6
Continuous
 62
     7
370
    25
100
AcDbLine
 10
12.2110519421
 20
15.1215338492
 30
0.0
 11
12.2110519421
 21
20.2815338492
 31
0.0
  0
LINE
  5
9C
330
1F
100
AcDbEntity
  8
0
  6
Continuous
 62
     7
370
    25
100
AcDbLine
 10
9.2410519421
 20
15.1215338492
 30
0.0
 11
9.2560519421
 21
15.1065338492
 31
0.0
  0
LINE
  5
9D
330
1F
100
AcDbEntity
  8
0
  6
Continuous
 62
     7
370
    25
100
AcDbLine
 10
12.1960519421
 20
15.1065338492
 30
0.0
 11
12.2110519421
 21
15.1215338492
 31
0.0
  0
LWPOLYLINE
  5
9E
330
1F
100
AcDbEntity
  8
0
  6
Continuous
 62
     7
370
    25
100
AcDbPolyline
 90
       50
 70
   128
 43
0.0
 10
11.5234579527
 20
14.8565338492
 10
11.5230071752
 20
14.8646412612
 10
11.5216622441
 20
14.8726155498
 10
11.5194452434
 20
14.8803257773
 10
11.5163925761
 20
14.887645342
 10
11.512554367
 20
14.8944540568
 10
11.5079936392
 20
14.9006401229
 10
11.5027852798
 20
14.9061019652
 10
11.49701481
 20
14.9107499004
 10
11.4907769807
 20
14.9145076095
 10
11.4841742168
 20
14.9173133911
 10
11.4773149357
 20
14.9191211742
 10
11.4703117664
 20
14.9199012753
 10
11.4632797009
 20
14.9196408849
 10
11.4563342054
 20
14.9183442788
 10
11.4495893248
 20
14.9160327471
 10
11.4431558099
 20
14.9127442452
 10
11.4371392987
 20
14.9085327701
 10
11.4316385823
 20
14.9034674742
 10
11.4267439823
 20
14.8976315294
 10
11.4225358678
 20
14.8911207619
 10
11.4190833359
 20
14.8840420782
 10
11.4164430772
 20
14.8765117102
 10
11.4146584447
 20
14.8686533062
 10
11.4137587418
 20
14.8605959011
 10
11.4137587418
 20
14.8524717972
 10
11.4146584447
 20
14.8444143921
 10
11.4164430772
 20
14.8365559882
 10
11.4190833359
 20
14.8290256201
 10
11.4225358678
 20
14.8219469364
 10
11.4267439823
 20
14.8154361689
 10
11.4316385823
 20
14.8096002242
 10
11.4371392987
 20
14.8045349282
 10
11.4431558099
 20
14.8003234532
 10
11.4495893248
 20
14.7970349512
 10
11.4563342054
 20
14.7947234195
 10
11.4632797009
 20
14.7934268134
 10
11.4703117664
 20
14.7931664231
 10
11.4773149357
 20
14.7939465241
 10
11.4841742168
 20
14.7957543073
 10
11.4907769807
 20
14.7985600889
 10
11.49701481
 20
14.802317798
 10
11.5027852798
 20
14.8069657332
 10
11.5079936392
 20
14.8124275755
 10
11.512554367
 20
14.8186136415
 10
11.5163925761
 20
14.8254223564
 10
11.5194452434
 20
14.8327419211
 10
11.5216622441
 20
14.8404521486
 10
11.5230071752
 20
14.8484264371
 10
11.5234579527
 20
14.8565338492
  0
LINE
  5
9F
330
1F
100
AcDbEntity
  8
0
  6
Continuous
 62
     7
370
    25
100
AcDbLine
 10
11.4490519421
 20
14.8955338492
 30
0.0
 11
11.4295519421
 21
14.8565338492
 31
0.0
  0
LINE
  5
A0
330
1F
100
AcDbEntity
  8
0
  6
Continuous
 62
     7
370
    25
100
AcDbLine
 10
11.4490519421
 20
14.8175338492
 30
0.0
 11
11.4295519421
 21
14.8565338492
 31
0.0
  0
LINE
  5
A1
330
1F
100
AcDbEntity
  8
0
  6
Continuous
 62
     7
370
    25
100
AcDbLine
 10
11.4880519421
 20
14.8175338492
 30
0.0
 11
11.4490519421
 21
14.8175338492
 31
0.0
  0
LINE
  5
A2
330
1F
100
AcDbEntity
  8
0
  6
Continuous
 62
     7
370
    25
100
AcDbLine
 10
11.4880519421
 20
14.8175338492
 30
0.0
 11
11.5075519421
 21
14.8565338492
 31
0.0
  0
LINE
  5
A3
330
1F
100
AcDbEntity
  8
0
  6
Continuous
 62
     7
370
    25
100
AcDbLine
 10
11.4880519421
 20
14.8955338492
 30
0.0
 11
11.5075519421
 21
14.8565338492
 31
0.0
  0
LINE
  5
A4
330
1F
100
AcDbEntity
  8
0
  6
Continuous
 62
     7
370
    25
100
AcDbLine
 10
11.4880519421
 20
14.8955338492
 30
0.0
 11
11.4490519421
 21
14.8955338492
 31
0.0
  0
LINE
  5
A5
330
1F
100
AcDbEntity
  8
0
  6
Continuous
 62
     7
370
    25
100
AcDbLine
 10
11.4625519421
 20
14.8565338492
 30
0.0
 11
11.5075519421
 21
14.8565338492
 31
0.0
  0
LINE
  5
A6
330
1F
100
AcDbEntity
  8
0
  6
Continuous
 62
     7
370
    25
100
AcDbLine
 10
11.4460519421
 20
14.8895338492
 30
0.0
 11
11.4625519421
 21
14.8565338492
 31
0.0
  0
LINE
  5
A7
330
1F
100
AcDbEntity
  8
0
  6
Continuous
 62
     7
370
    25
100
AcDbLine
 10
11.4460519421
 20
14.8235338492
 30
0.0
 11
11.4625519421
 21
14.8565338492
 31
0.0
  0
LINE
  5
A8
330
1F
100
AcDbEntity
  8
0
  6
Continuous
 62
     7
370
    25
100
AcDbLine
 10
9.2410519421
 20
14.8565338492
 30
0.0
 11
9.2410519421
 21
14.9199338492
 31
0.0
  0
LINE
  5
A9
330
1F
100
AcDbEntity
  8
0
  6
Continuous
 62
     7
370
    25
100
AcDbLine
 10
9.2410519421
 20
14.7931338492
 30
0.0
 11
9.2410519421
 21
14.8565338492
 31
0.0
  0
LINE
  5
AA
330
1F
100
AcDbEntity
  8
0
  6
Continuous
 62
     7
370
    25
100
AcDbLine
 10
10.7260519421
 20
15.1065338492
 30
0.0
 11
9.2410519421
 21
15.1065338492
 31
0.0
  0
LINE
  5
AB
330
1F
100
AcDbEntity
  8
0
  6
Continuous
 62
     7
370
    25
100
AcDbLine
 10
12.2110519421
 20
15.1065338492
 30
0.0
 11
10.7260519421
 21
15.1065338492
 31
0.0
  0
SPLINE
  5
AC
330
1F
100
AcDbEntity
  8
0
  6
Continuous
 62
     7
370
    25
100
AcDbSpline
210
0.0
220
0.0
230
1.0
 70
     8
 71
     3
 72
    26
 73
    22
 74
     0
 42
0.00000001
 43
0.00000001
 40
0.0
 40
0.0
 40
0.0
 40
0.0
 40
0.0367526413874568
 40
0.0896225545983546
 40
0.1440246552525938
 40
0.1969156818018858
 40
0.2513377791172675
 40
0.3042762434242768
 40
0.3587497415262987
 40
0.4116880067270225
 40
0.4661641873857557
 40
0.519054797238356
 40
0.5734806031266388
 40
0.6263505202692777
 40
0.680751569013424
 40
0.7336600125433892
 40
0.7881005146957396
 40
0.8410465963406812
 40
0.8955292073684706
 40
0.9484533212919986
 40
1.0
 40
1.0
 40
1.0
 40
1.0
 10
9.241061902877258
 20
14.92431577972461
 30
0.0
 10
9.24106196576247
 20
14.92431483506803
 30
0.0
 10
9.241062119110175
 20
14.92431253149113
 30
0.0
 10
9.241163110627497
 20
14.92208723639573
 30
0.0
 10
9.241337960828778
 20
14.91803783637757
 30
0.0
 10
9.241573351783389
 20
14.91212566713832
 30
0.0
 10
9.241834870643752
 20
14.90471566265205
 30
0.0
 10
9.24209847214397
 20
14.89585746359982
 30
0.0
 10
9.242329881815097
 20
14.88596586868045
 30
0.0
 10
9.242506741516518
 20
14.87514316165269
 30
0.0
 10
9.242606154571128
 20
14.86389443840008
 30
0.0
 10
9.242618577897508
 20
14.85233646913979
 30
0.0
 10
9.242542511851314
 20
14.84100664498547
 30
0.0
 10
9.242385357426743
 20
14.83001816776516
 30
0.0
 10
9.242167370265665
 20
14.81987675650565
 30
0.0
 10
9.241909451813488
 20
14.81068408245786
 30
0.0
 10
9.241644890324837
 20
14.80286766677816
 30
0.0
 10
9.241398580956679
 20
14.79649640282407
 30
0.0
 10
9.24120474795374
 20
14.79192135750835
 30
0.0
 10
9.24107537789182
 20
14.78904217622916
 30
0.0
 10
9.241061218776643
 20
14.78873549711502
 30
0.0
 10
9.241054232562195
 20
14.78858417932213
 30
0.0
  0
SPLINE
  5
AD
330
1F
100
AcDbEntity
  8
0
  6
Continuous
 62
     7
370
    25
100
AcDbSpline
210
0.0
220
0.0
230
1.0
 70
    11
 71
     3
 72
    44
 73
    40
 74
     0
 42
0.00000001
 43
0.00000001
 40
0.0
 40
0.0
 40
0.0
 40
0.0
 40
0.0268283843171039
 40
0.053656848974267
 40
0.080484360201912
 40
0.1073119868157075
 40
0.1341573061540498
 40
0.1610025960821473
 40
0.1878597184739332
 40
0.2147167121645616
 40
0.2415545791584236
 40
0.2683924190851231
 40
0.2952100576824613
 40
0.3220278123640561
 40
0.3488557554504137
 40
0.3756837768927027
 40
0.4025365051125282
 40
0.4293891513265166
 40
0.4562425066235438
 40
0.4830957469051962
 40
0.5099245215280188
 40
0.5367533278964641
 40
0.5635707021997245
 40
0.5903882046885641
 40
0.6172251299283746
 40
0.6440620800005903
 40
0.6709190048091703
 40
0.6977758119438886
 40
0.7246219843421807
 40
0.7514680801574001
 40
0.7782895607010047
 40
0.8051111247872249
 40
0.8319324759059588
 40
0.8587539401325736
 40
0.8855999010418377
 40
0.9124458283078737
 40
0.9393028102145777
 40
0.9661596632562657
 40
1.0
 40
1.0
 40
1.0
 40
1.0
 10
11.40888335500412
 20
14.85653384917569
 30
0.0
 10
11.40905260718589
 20
14.86035435896908
 30
0.0
 10
11.40939111205627
 20
14.86799538999674
 30
0.0
 10
11.41203000548564
 20
14.8791378934542
 30
0.0
 10
11.41619411592175
 20
14.88962532318202
 30
0.0
 10
11.42185220424657
 20
14.89919534163764
 30
0.0
 10
11.4288502991939
 20
14.90753247041281
 30
0.0
 10
11.43694254139385
 20
14.91445528405527
 30
0.0
 10
11.44592534095982
 20
14.91970125744436
 30
0.0
 10
11.45550414152285
 20
14.92319015061289
 30
0.0
 10
11.46541645649981
 20
14.92474705066282
 30
0.0
 10
11.47536866552346
 20
14.92440813277644
 30
0.0
 10
11.48507542985099
 20
14.92210552454594
 30
0.0
 10
11.49428402183965
 20
14.91798402483785
 30
0.0
 10
11.50271612103745
 20
14.9120854580336
 30
0.0
 10
11.51018170131137
 20
14.90464228170881
 30
0.0
 10
11.51643344363928
 20
14.89580393049752
 30
0.0
 10
11.52135599572032
 20
14.88587023292068
 30
0.0
 10
11.52475938115784
 20
14.87508527298178
 30
0.0
 10
11.52661540256107
 20
14.86378671118007
 30
0.0
 10
11.52681214008078
 20
14.85228121902149
 30
0.0
 10
11.52541205850273
 20
14.84089918203813
 30
0.0
 10
11.52238781880235
 20
14.82997183727691
 30
0.0
 10
11.51788129575759
 20
14.81978138529975
 30
0.0
 10
11.51195059992093
 20
14.81065211886905
 30
0.0
 10
11.50480374615397
 20
14.80279318500786
 30
0.0
 10
11.49658508163632
 20
14.79648855860716
 30
0.0
 10
11.48755671991051
 20
14.79185290326777
 30
0.0
 10
11.47793901564428
 20
14.78909207309924
 30
0.0
 10
11.46802288513293
 20
14.78820695286091
 30
0.0
 10
11.45807911238408
 20
14.78929996144065
 30
0.0
 10
11.44838886035673
 20
14.7922585041966
 30
0.0
 10
11.43924462336591
 20
14.79707530348811
 30
0.0
 10
11.4308837837164
 20
14.80354331472452
 30
0.0
 10
11.42359475466954
 20
14.81154654808298
 30
0.0
 10
11.41753598626251
 20
14.82080383042134
 30
0.0
 10
11.4129939204457
 20
14.8310991517109
 30
0.0
 10
11.40960758588757
 20
14.84305576385756
 30
0.0
 10
11.40914259826842
 20
14.85170927884291
 30
0.0
 10
11.40888335500412
 20
14.85653384917569
 30
0.0
  0
LINE
  5
AE
330
1F
100
AcDbEntity
  8
0
  6
Continuous
 62
     7
370
    25
100
AcDbLine
 10
10.7260519421
 20
12.2825338492
 30
0.0
 11
9.2710519421
 21
12.2825338492
 31
0.0
  0
LINE
  5
AF
330
1F
100
AcDbEntity
  8
0
  6
Continuous
 62
     7
370
    25
100
AcDbLine
 10
12.1810519421
 20
12.2825338492
 30
0.0
 11
10.7260519421
 21
12.2825338492
 31
0.0
  0
SPLINE
  5
B0
330
1F
100
AcDbEntity
  8
0
  6
Continuous
 62
     7
370
    25
100
AcDbSpline
210
0.0
220
0.0
230
1.0
 70
     8
 71
     3
 72
    14
 73
    10
 74
     0
 42
0.00000001
 43
0.00000001
 40
0.0
 40
0.0
 40
0.0
 40
0.0
 40
0.0700594683430312
 40
0.2236113743167449
 40
0.3772663813459385
 40
0.53084313047371
 40
0.6871946755395205
 40
0.8436170999013182
 40
1.0
 40
1.0
 40
1.0
 40
1.0
 10
10.3004262043619
 20
23.6865338491757
 30
0.0
 10
10.30401779955526
 20
23.68658290043092
 30
0.0
 10
10.31548122564417
 20
23.686739459121
 30
0.0
 10
10.33480671807656
 20
23.68865554445603
 30
0.0
 10
10.35831920437212
 20
23.69312924286254
 30
0.0
 10
10.38183721497231
 20
23.69976654725969
 30
0.0
 10
10.40531176785045
 20
23.70845391739533
 30
0.0
 10
10.42874184477868
 20
23.71886634554838
 30
0.0
 10
10.44418845318061
 20
23.72708382656331
 30
0.0
 10
10.45191078150973
 20
23.7311920479142
 30
0.0
  0
SPLINE
  5
B1
330
1F
100
AcDbEntity
  8
0
  6
Continuous
 62
     7
370
    25
100
AcDbSpline
210
0.0
220
0.0
230
1.0
 70
     8
 71
     3
 72
    13
 73
     9
 74
     0
 42
0.00000001
 43
0.00000001
 40
0.0
 40
0.0
 40
0.0
 40
0.0
 40
0.1651136683228366
 40
0.3302740818382005
 40
0.4953484348340001
 40
0.6635403061289927
 40
0.8318392863965769
 40
1.0
 40
1.0
 40
1.0
 40
1.0
 10
10.14894162721404
 20
23.7311920479142
 30
0.0
 10
10.15709612391196
 20
23.72686199297875
 30
0.0
 10
10.17340742592055
 20
23.71820065722964
 30
0.0
 10
10.19816423821424
 20
23.70736023948043
 30
0.0
 10
10.22328139646876
 20
23.69833717789135
 30
0.0
 10
10.2487647082719
 20
23.69169622990511
 30
0.0
 10
10.27455451663143
 20
23.68736831731965
 30
0.0
 10
10.29180467141071
 20
23.68681192900855
 30
0.0
 10
10.3004262043619
 20
23.6865338491757
 30
0.0
  0
LINE
  5
B2
330
1F
100
AcDbEntity
  8
0
  6
Continuous
 62
     7
370
    25
100
AcDbLine
 10
10.1489416272
 20
23.7311920479
 30
0.0
 11
10.1489416272
 21
23.9318756504
 31
0.0
  0
SPLINE
  5
B3
330
1F
100
AcDbEntity
  8
0
  6
Continuous
 62
     7
370
    25
100
AcDbSpline
210
0.0
220
0.0
230
1.0
 70
     8
 71
     3
 72
    14
 73
    10
 74
     0
 42
0.00000001
 43
0.00000001
 40
0.0
 40
0.0
 40
0.0
 40
0.0
 40
0.0700594683431634
 40
0.2236113743168547
 40
0.3772663813460267
 40
0.530843130473777
 40
0.6871946755395649
 40
0.8436170999013403
 40
1.0
 40
1.0
 40
1.0
 40
1.0
 10
10.30042620436189
 20
23.97653384917568
 30
0.0
 10
10.2968346091685
 20
23.97648479792046
 30
0.0
 10
10.28537118307955
 20
23.97632823923037
 30
0.0
 10
10.26604569064719
 20
23.97441215389534
 30
0.0
 10
10.24253320435165
 20
23.96993845548882
 30
0.0
 10
10.21901519375147
 20
23.96330115109166
 30
0.0
 10
10.19554064087332
 20
23.95461378095603
 30
0.0
 10
10.17211056394508
 20
23.94420135280298
 30
0.0
 10
10.15666395554315
 20
23.93598387178805
 30
0.0
 10
10.14894162721403
 20
23.93187565043717
 30
0.0
  0
SPLINE
  5
B4
330
1F
100
AcDbEntity
  8
0
  6
Continuous
 62
     7
370
    25
100
AcDbSpline
210
0.0
220
0.0
230
1.0
 70
     8
 71
     3
 72
    13
 73
     9
 74
     0
 42
0.00000001
 43
0.00000001
 40
0.0
 40
0.0
 40
0.0
 40
0.0
 40
0.1651136683228393
 40
0.3302740818382063
 40
0.4953484348340097
 40
0.6635403061290001
 40
0.8318392863965811
 40
1.0
 40
1.0
 40
1.0
 40
1.0
 10
10.45191078150974
 20
23.93187565043716
 30
0.0
 10
10.44375628481181
 20
23.9362057053726
 30
0.0
 10
10.42744498280323
 20
23.94486704112172
 30
0.0
 10
10.40268817050954
 20
23.95570745887092
 30
0.0
 10
10.37757101225503
 20
23.96473052045999
 30
0.0
 10
10.35208770045188
 20
23.97137146844625
 30
0.0
 10
10.32629789209236
 20
23.97569938103172
 30
0.0
 10
10.30904773731307
 20
23.97625576934282
 30
0.0
 10
10.30042620436189
 20
23.97653384917568
 30
0.0
  0
LINE
  5
B5
330
1F
100
AcDbEntity
  8
0
  6
Continuous
 62
     7
370
    25
100
AcDbLine
 10
10.4519107815
 20
23.7311920479
 30
0.0
 11
10.4519107815
 21
23.9318756504
 31
0.0
  0
SPLINE
  5
B6
330
1F
100
AcDbEntity
  8
0
  6
Continuous
 62
     7
370
    25
100
AcDbSpline
210
0.0
220
0.0
230
1.0
 70
     8
 71
     3
 72
    13
 73
     9
 74
     0
 42
0.00000001
 43
0.00000001
 40
0.0
 40
0.0
 40
0.0
 40
0.0
 40
0.1340639533585045
 40
0.2683986920353426
 40
0.4503878036883607
 40
0.632394487841015
 40
0.8161890522589675
 40
1.0
 40
1.0
 40
1.0
 40
1.0
 10
10.74046593897262
 20
23.97653384917567
 30
0.0
 10
10.72737352453681
 20
23.97636158797046
 30
0.0
 10
10.70116225131887
 20
23.97601671762308
 30
0.0
 10
10.65726938575781
 20
23.97293163151462
 30
0.0
 10
10.60892229436885
 20
23.96719715558154
 30
0.0
 10
10.55621239647678
 20
23.95795768737852
 30
0.0
 10
10.50380198162622
 20
23.94628262837546
 30
0.0
 10
10.4692083621343
 20
23.93667811910014
 30
0.0
 10
10.45191078150974
 20
23.93187565043716
 30
0.0
  0
LINE
  5
B7
330
1F
100
AcDbEntity
  8
0
  6
Continuous
 62
     7
370
    25
100
AcDbLine
 10
10.3004262044
 20
23.9765338492
 30
0.0
 11
10.740465939
 21
23.9765338492
 31
0.0
  0
SPLINE
  5
B8
330
1F
100
AcDbEntity
  8
0
  6
Continuous
 62
     7
370
    25
100
AcDbSpline
210
0.0
220
0.0
230
1.0
 70
     8
 71
     3
 72
    13
 73
     9
 74
     0
 42
0.00000001
 43
0.00000001
 40
0.0
 40
0.0
 40
0.0
 40
0.0
 40
0.182122326043937
 40
0.3642288879412257
 40
0.5479241752806953
 40
0.7316012145425987
 40
0.865667395768876
 40
1.0
 40
1.0
 40
1.0
 40
1.0
 10
10.45191078150973
 20
23.7311920479142
 30
0.0
 10
10.46904896334934
 20
23.72643210257846
 30
0.0
 10
10.50332384358158
 20
23.71691262391841
 30
0.0
 10
10.55556528793012
 20
23.70524052797764
 30
0.0
 10
10.60843133750457
 20
23.69593421925915
 30
0.0
 10
10.65707885572098
 20
23.69015060005519
 30
0.0
 10
10.70113599761603
 20
23.68705225947586
 30
0.0
 10
10.72734728574129
 20
23.68670676692549
 30
0.0
 10
10.7404659389726
 20
23.68653384917567
 30
0.0
  0
SPLINE
  5
B9
330
1F
100
AcDbEntity
  8
0
  6
Continuous
 62
     7
370
    25
100
AcDbSpline
210
0.0
220
0.0
230
1.0
 70
     8
 71
     3
 72
    13
 73
     9
 74
     0
 42
0.00000001
 43
0.00000001
 40
0.0
 40
0.0
 40
0.0
 40
0.0
 40
0.1844547401728166
 40
0.368919663932563
 40
0.555856735399164
 40
0.7428140837711804
 40
0.8713544660556898
 40
1.0
 40
1.0
 40
1.0
 40
1.0
 10
10.7404659389726
 20
23.68653384917567
 30
0.0
 10
10.75848024872822
 20
23.68686390682155
 30
0.0
 10
10.79450986279397
 20
23.68752404033551
 30
0.0
 10
10.84858870511272
 20
23.6927235861595
 30
0.0
 10
10.90252580811585
 20
23.70083681222724
 30
0.0
 10
10.95060298802523
 20
23.71072408134627
 30
0.0
 10
10.99274640483662
 20
23.72100026785364
 30
0.0
 10
11.01692623722352
 20
23.72779386202978
 30
0.0
 10
11.02902109643552
 20
23.73119204791417
 30
0.0
  0
SPLINE
  5
BA
330
1F
100
AcDbEntity
  8
0
  6
Continuous
 62
     7
370
    25
100
AcDbSpline
210
0.0
220
0.0
230
1.0
 70
     8
 71
     3
 72
    13
 73
     9
 74
     0
 42
0.00000001
 43
0.00000001
 40
0.0
 40
0.0
 40
0.0
 40
0.0
 40
0.1285441491499806
 40
0.2571860380802227
 40
0.4417649409756619
 40
0.6263245695091852
 40
0.8131677003096431
 40
0.9999999999999999
 40
0.9999999999999999
 40
0.9999999999999999
 40
0.9999999999999999
 10
11.02902109643552
 20
23.93187565043715
 30
0.0
 10
11.01693579676184
 20
23.93527122392602
 30
0.0
 10
10.9927560082406
 20
23.94206495276072
 30
0.0
 10
10.95083833613442
 20
23.95228647221998
 30
0.0
 10
10.9032098889104
 20
23.96209589984369
 30
0.0
 10
10.84951186224504
 20
23.97022986052198
 30
0.0
 10
10.79520666995321
 20
23.97551772465076
 30
0.0
 10
10.75871249670079
 20
23.97619514754581
 30
0.0
 10
10.74046593897262
 20
23.97653384917567
 30
0.0
  0
LINE
  5
BB
330
1F
100
AcDbEntity
  8
0
  6
Continuous
 62
     7
370
    25
100
AcDbLine
 10
11.0290210964
 20
23.7311920479
 30
0.0
 11
11.0290210964
 21
23.9318756504
 31
0.0
  0
SPLINE
  5
BC
330
1F
100
AcDbEntity
  8
0
  6
Continuous
 62
     7
370
    25
100
AcDbSpline
210
0.0
220
0.0
230
1.0
 70
     8
 71
     3
 72
    14
 73
    10
 74
     0
 42
0.00000001
 43
0.00000001
 40
0.0
 40
0.0
 40
0.0
 40
0.0
 40
0.0700594683433661
 40
0.2236113743170244
 40
0.3772663813461627
 40
0.5308431304738797
 40
0.6871946755396334
 40
0.8436170999013742
 40
1.0
 40
1.0
 40
1.0
 40
1.0
 10
11.16609167675058
 20
23.97653384917568
 30
0.0
 10
11.16284182751389
 20
23.97648479792046
 30
0.0
 10
11.15246916452736
 20
23.97632823923036
 30
0.0
 10
11.13498252323056
 20
23.97441215389533
 30
0.0
 10
11.11370728715135
 20
23.9699384554888
 30
0.0
 10
11.09242705241382
 20
23.96330115109165
 30
0.0
 10
11.07118614032742
 20
23.95461378095601
 30
0.0
 10
11.04998547223405
 20
23.94420135280296
 30
0.0
 10
11.0360086330243
 20
23.93598387178804
 30
0.0
 10
11.02902109643552
 20
23.93187565043715
 30
0.0
  0
LINE
  5
BD
330
1F
100
AcDbEntity
  8
0
  6
Continuous
 62
     7
370
    25
100
AcDbLine
 10
10.740465939
 20
23.9765338492
 30
0.0
 11
11.1660916768
 21
23.9765338492
 31
0.0
  0
SPLINE
  5
BE
330
1F
100
AcDbEntity
  8
0
  6
Continuous
 62
     7
370
    25
100
AcDbSpline
210
0.0
220
0.0
230
1.0
 70
     8
 71
     3
 72
    13
 73
     9
 74
     0
 42
0.00000001
 43
0.00000001
 40
0.0
 40
0.0
 40
0.0
 40
0.0
 40
0.1651136683228384
 40
0.3302740818382044
 40
0.4953484348340075
 40
0.6635403061289985
 40
0.8318392863965802
 40
1.0
 40
1.0
 40
1.0
 40
1.0
 10
11.02902109643552
 20
23.73119204791417
 30
0.0
 10
11.03639967989007
 20
23.72686199297873
 30
0.0
 10
11.05115893574374
 20
23.71820065722961
 30
0.0
 10
11.07356009823657
 20
23.70736023948043
 30
0.0
 10
11.09628731920277
 20
23.69833717789135
 30
0.0
 10
11.119345853629
 20
23.6916962299051
 30
0.0
 10
11.14268172098007
 20
23.68736831731963
 30
0.0
 10
11.1582904962801
 20
23.68681192900853
 30
0.0
 10
11.16609167675058
 20
23.68653384917568
 30
0.0
  0
SPLINE
  5
BF
330
1F
100
AcDbEntity
  8
0
  6
Continuous
 62
     7
370
    25
100
AcDbSpline
210
0.0
220
0.0
230
1.0
 70
     8
 71
     3
 72
    14
 73
    10
 74
     0
 42
0.00000001
 43
0.00000001
 40
0.0
 40
0.0
 40
0.0
 40
0.0
 40
0.070059468342969
 40
0.2236113743166917
 40
0.3772663813458935
 40
0.530843130473672
 40
0.6871946755394951
 40
0.8436170999013052
 40
1.0
 40
1.0
 40
1.0
 40
1.0
 10
11.16609167675058
 20
23.68653384917568
 30
0.0
 10
11.16934152598725
 20
23.68658290043091
 30
0.0
 10
11.17971418897376
 20
23.68673945912102
 30
0.0
 10
11.19720083027054
 20
23.68865554445602
 30
0.0
 10
11.21847606634976
 20
23.69312924286254
 30
0.0
 10
11.2397563010873
 20
23.69976654725968
 30
0.0
 10
11.2609972131737
 20
23.70845391739532
 30
0.0
 10
11.28219788126708
 20
23.71886634554837
 30
0.0
 10
11.29617472047683
 20
23.7270838265633
 30
0.0
 10
11.30316225706561
 20
23.73119204791419
 30
0.0
  0
SPLINE
  5
C0
330
1F
100
AcDbEntity
  8
0
  6
Continuous
 62
     7
370
    25
100
AcDbSpline
210
0.0
220
0.0
230
1.0
 70
     8
 71
     3
 72
    13
 73
     9
 74
     0
 42
0.00000001
 43
0.00000001
 40
0.0
 40
0.0
 40
0.0
 40
0.0
 40
0.1651136683228396
 40
0.3302740818382072
 40
0.4953484348340113
 40
0.6635403061290013
 40
0.8318392863965819
 40
0.9999999999999999
 40
0.9999999999999999
 40
0.9999999999999999
 40
0.9999999999999999
 10
11.30316225706562
 20
23.93187565043717
 30
0.0
 10
11.29578367361108
 20
23.9362057053726
 30
0.0
 10
11.2810244177574
 20
23.94486704112172
 30
0.0
 10
11.25862325526458
 20
23.95570745887092
 30
0.0
 10
11.23589603429838
 20
23.96473052045999
 30
0.0
 10
11.21283749987215
 20
23.97137146844625
 30
0.0
 10
11.18950163252109
 20
23.97569938103172
 30
0.0
 10
11.17389285722106
 20
23.97625576934282
 30
0.0
 10
11.16609167675058
 20
23.97653384917568
 30
0.0
  0
LINE
  5
C1
330
1F
100
AcDbEntity
  8
0
  6
Continuous
 62
     7
370
    25
100
AcDbLine
 10
11.3031622571
 20
23.7311920479
 30
0.0
 11
11.3031622571
 21
23.9318756504
 31
0.0
  0
LINE
  5
C2
330
1F
100
AcDbEntity
  8
0
  6
Continuous
 62
     7
370
    25
100
AcDbLine
 10
10.1489416272
 20
23.9318756504
 30
0.0
 11
10.1579210725
 21
23.9369896189
 31
0.0
  0
LINE
  5
C3
330
1F
100
AcDbEntity
  8
0
  6
Continuous
 62
     7
370
    25
100
AcDbLine
 10
10.2260519421
 20
23.9765338492
 30
0.0
 11
10.3004262044
 21
23.9765338492
 31
0.0
  0
LINE
  5
C4
330
1F
100
AcDbEntity
  8
0
  6
Continuous
 62
     7
370
    25
100
AcDbLine
 10
10.1579211935
 20
23.7260588578
 30
0.0
 11
10.1489416272
 21
23.7311920479
 31
0.0
  0
LINE
  5
C5
330
1F
100
AcDbEntity
  8
0
  6
Continuous
 62
     7
370
    25
100
AcDbLine
 10
11.1660916768
 20
23.9765338492
 30
0.0
 11
11.2260519421
 21
23.9765338492
 31
0.0
  0
LINE
  5
C6
330
1F
100
AcDbEntity
  8
0
  6
Continuous
 62
     7
370
    25
100
AcDbLine
 10
8.2410519421
 20
23.3615338492
 30
0.0
 11
13.2110519421
 21
23.3615338492
 31
0.0
  0
LINE
  5
C7
330
1F
100
AcDbEntity
  8
0
  6
Continuous
 62
     7
370
    25
100
AcDbLine
 10
13.1610519421
 20
23.3115338492
 30
0.0
 11
8.2910519421
 21
23.3115338492
 31
0.0
  0
LINE
  5
C8
330
1F
100
AcDbEntity
  8
0
  6
Continuous
 62
     7
370
    25
100
AcDbLine
 10
8.2410519421
 20
23.6865338492
 30
0.0
 11
13.2110519421
 21
23.6865338492
 31
0.0
  0
SPLINE
  5
C9
330
1F
100
AcDbEntity
  8
0
  6
Continuous
 62
     7
370
    25
100
AcDbSpline
210
0.0
220
0.0
230
1.0
 70
     8
 71
     3
 72
    24
 73
    20
 74
     0
 42
0.00000001
 43
0.00000001
 40
0.0
 40
0.0
 40
0.0
 40
0.0
 40
0.0215373380263697
 40
0.0878035850534497
 40
0.1540698319111691
 40
0.2179554769463914
 40
0.2818411218471547
 40
0.3476012125991585
 40
0.4133612692283239
 40
0.4768845595669089
 40
0.5404078497538952
 40
0.6057995060422551
 40
0.6711911621606258
 40
0.7343451224670168
 40
0.7974980166540209
 40
0.8625139488417272
 40
0.9275298808632141
 40
0.9902092196752958
 40
1.0
 40
1.0
 40
1.0
 40
1.0
 10
10.82569224415545
 20
23.97653384917568
 30
0.0
 10
10.8292633660789
 20
23.97660197944188
 30
0.0
 10
10.84382214335947
 20
23.97687973343427
 30
0.0
 10
10.86854179074626
 20
23.97737058913494
 30
0.0
 10
10.89915884152317
 20
23.97799271447924
 30
0.0
 10
10.9280595723652
 20
23.97860200900608
 30
0.0
 10
10.95545098475019
 20
23.97919462056252
 30
0.0
 10
10.98139870993299
 20
23.97979380192989
 30
0.0
 10
11.00538439183477
 20
23.98040911479277
 30
0.0
 10
11.02704077699946
 20
23.98102486908344
 30
0.0
 10
11.04651230399431
 20
23.98164379394351
 30
0.0
 10
11.06381437842466
 20
23.98226802173409
 30
0.0
 10
11.07858982333289
 20
23.98288760399748
 30
0.0
 10
11.090650962
 20
23.98348550147291
 30
0.0
 10
11.10010317258481
 20
23.98407657555491
 30
0.0
 10
11.10696850042301
 20
23.984687343609
 30
0.0
 10
11.11074771577562
 20
23.98530735306956
 30
0.0
 10
11.11212641960696
 20
23.98575389122196
 30
0.0
 10
11.1114736816114
 20
23.98598953319934
 30
0.0
 10
11.11138549610267
 20
23.98602136864909
 30
0.0
  0
SPLINE
  5
CA
330
1F
100
AcDbEntity
  8
0
  6
Continuous
 62
     7
370
    25
100
AcDbSpline
210
0.0
220
0.0
230
1.0
 70
     8
 71
     3
 72
    25
 73
    21
 74
     0
 42
0.00000001
 43
0.00000001
 40
0.0
 40
0.0
 40
0.0
 40
0.0
 40
0.0546765114861881
 40
0.1095484206790164
 40
0.1644203107563444
 40
0.2190967960827852
 40
0.2737621420001346
 40
0.328620653640166
 40
0.383486971370677
 40
0.438162999287262
 40
0.49327472590974
 40
0.5485691186697789
 40
0.6038634968115553
 40
0.6589752034339678
 40
0.7161645963791593
 40
0.7735549681644479
 40
0.830955149872979
 40
0.8881579665690569
 40
0.952419914748794
 40
0.9999999999999999
 40
0.9999999999999999
 40
0.9999999999999999
 40
0.9999999999999999
 10
10.9265559570683
 20
24.01653384917569
 30
0.0
 10
10.91844164208108
 20
24.01577920988892
 30
0.0
 10
10.90218401394095
 20
24.01426723445741
 30
0.0
 10
10.87591232798012
 20
24.01196116436608
 30
0.0
 10
10.84852437051503
 20
24.00965079001833
 30
0.0
 10
10.8200861162565
 20
24.00734619423672
 30
0.0
 10
10.79077733032102
 20
24.00508299594663
 30
0.0
 10
10.7607926379426
 20
24.00286509280735
 30
0.0
 10
10.73038705450779
 20
24.00067422074754
 30
0.0
 10
10.69972038726173
 20
23.99850004279052
 30
0.0
 10
10.66897406495573
 20
23.99630501016497
 30
0.0
 10
10.63831949295091
 20
23.99408057047927
 30
0.0
 10
10.60806619233235
 20
23.99185662489863
 30
0.0
 10
10.57807258390067
 20
23.98961507378636
 30
0.0
 10
10.54856233650378
 20
23.98739246322173
 30
0.0
 10
10.5197390926
 20
23.98519006980293
 30
0.0
 10
10.49214497401541
 20
23.98301002827487
 30
0.0
 10
10.46500879701979
 20
23.98074697057698
 30
0.0
 10
10.44079302864403
 20
23.97858358647519
 30
0.0
 10
10.42644836576106
 20
23.97714560039477
 30
0.0
 10
10.42034582754771
 20
23.97653384917568
 30
0.0
  0
LINE
  5
CB
330
1F
100
AcDbEntity
  8
0
  6
Continuous
 62
     7
370
    25
100
AcDbLine
 10
10.9265559571
 20
24.0165338492
 30
0.0
 11
11.0810519421
 21
24.0165338492
 31
0.0
  0
SPLINE
  5
CC
330
1F
100
AcDbEntity
  8
0
  6
Continuous
 62
     7
370
    25
100
AcDbSpline
210
0.0
220
0.0
230
1.0
 70
    24
 71
     3
 72
    13
 73
     9
 74
     0
 42
0.00000001
 43
0.00000001
 40
0.0
 40
0.0
 40
0.0
 40
0.0
 40
0.1540214452287711
 40
0.308042864133581
 40
0.4665389816775304
 40
0.6250351245244128
 40
0.8115562299851726
 40
1.0
 40
1.0
 40
1.0
 40
1.0
 10
10.74764222470553
 20
24.01653384917569
 30
0.0
 10
10.7573047037081
 20
24.01653384917569
 30
0.0
 10
10.77662966006182
 20
24.01653384917569
 30
0.0
 10
10.80567465012277
 20
24.01653384917569
 30
0.0
 10
10.83457699370713
 20
24.01653384917569
 30
0.0
 10
10.8647542796905
 20
24.01653384917568
 30
0.0
 10
10.8958054915207
 20
24.01653384917569
 30
0.0
 10
10.9162708226386
 20
24.01653384917569
 30
0.0
 10
10.92655595706771
 20
24.01653384917569
 30
0.0
  0
SPLINE
  5
CD
330
1F
100
AcDbEntity
  8
0
  6
Continuous
 62
     7
370
    25
100
AcDbSpline
210
0.0
220
0.0
230
1.0
 70
    24
 71
     3
 72
    11
 73
     7
 74
     0
 42
0.00000001
 43
0.00000001
 40
0.0
 40
0.0
 40
0.0
 40
0.0
 40
0.2971477612659487
 40
0.5952092478948109
 40
0.8954734219784057
 40
1.0
 40
1.0
 40
1.0
 40
1.0
 10
10.39105194213984
 20
24.00065967947013
 30
0.0
 10
10.39105194213984
 20
23.99916713654749
 30
0.0
 10
10.39105194213985
 20
23.99617746115283
 30
0.0
 10
10.39105194213981
 20
23.98899971578323
 30
0.0
 10
10.39105194213993
 20
23.98228274948201
 30
0.0
 10
10.39105194213988
 20
23.97771368901396
 30
0.0
 10
10.39105194213987
 20
23.97653384917568
 30
0.0
  0
SPLINE
  5
CE
330
1F
100
AcDbEntity
  8
0
  6
Continuous
 62
     7
370
    25
100
AcDbSpline
210
0.0
220
0.0
230
1.0
 70
     8
 71
     3
 72
    23
 73
    19
 74
     0
 42
0.00000001
 43
0.00000001
 40
0.0
 40
0.0
 40
0.0
 40
0.0
 40
0.052576194004409
 40
0.1052633259753869
 40
0.1584084928373443
 40
0.2242011365427935
 40
0.2901944654060535
 40
0.3561073732995379
 40
0.4216608019552786
 40
0.4865847560144235
 40
0.5513000787509335
 40
0.6167006437881567
 40
0.6825390505776595
 40
0.7485381313146993
 40
0.8144166331185985
 40
0.8798963715692512
 40
0.9447091908293652
 40
1.0
 40
1.0
 40
1.0
 40
1.0
 10
10.74764222470553
 20
24.01653384917568
 30
0.0
 10
10.73920108608941
 20
24.01626185708703
 30
0.0
 10
10.72230099770193
 20
24.01571729899505
 30
0.0
 10
10.69685702134657
 20
24.01489736475442
 30
0.0
 10
10.66947369474539
 20
24.01398793810352
 30
0.0
 10
10.64035055912855
 20
24.01299632439099
 30
0.0
 10
10.60994789743558
 20
24.01192925036971
 30
0.0
 10
10.58056793909328
 20
24.01086649676161
 30
0.0
 10
10.55257301511237
 20
24.00981981658373
 30
0.0
 10
10.52619056015205
 20
24.00880396276521
 30
0.0
 10
10.50147759815435
 20
24.007800965393
 30
0.0
 10
10.47851712333953
 20
24.00676019498755
 30
0.0
 10
10.4574955613753
 20
24.0057014012708
 30
0.0
 10
10.43871052762816
 20
24.00463390158384
 30
0.0
 10
10.4223860854894
 20
24.00357311118652
 30
0.0
 10
10.40876274502861
 20
24.00252890523455
 30
0.0
 10
10.39820300512847
 20
24.00157011890054
 30
0.0
 10
10.39330622081975
 20
24.00094668353318
 30
0.0
 10
10.39105194115892
 20
24.00065967933207
 30
0.0
  0
SPLINE
  5
CF
330
1F
100
AcDbEntity
  8
0
  6
Continuous
 62
     7
370
    25
100
AcDbSpline
210
0.0
220
0.0
230
1.0
 70
    24
 71
     3
 72
    14
 73
    10
 74
     0
 42
0.00000001
 43
0.00000001
 40
0.0
 40
0.0
 40
0.0
 40
0.0
 40
0.0211238238230173
 40
0.1786763021463297
 40
0.3362287410084404
 40
0.4985390789456898
 40
0.6608494302211358
 40
0.8297100025184341
 40
1.0
 40
1.0
 40
1.0
 40
1.0
 10
10.56326270467291
 20
24.01653384917568
 30
0.0
 10
10.56447770225801
 20
24.01653384917568
 30
0.0
 10
10.57475478454393
 20
24.01653384917568
 30
0.0
 10
10.59453765607713
 20
24.01653384917569
 30
0.0
 10
10.62341004213754
 20
24.01653384917569
 30
0.0
 10
10.6532035305854
 20
24.01653384917569
 30
0.0
 10
10.68409728544494
 20
24.01653384917568
 30
0.0
 10
10.71570264533325
 20
24.01653384917569
 30
0.0
 10
10.73696582545426
 20
24.01653384917568
 30
0.0
 10
10.74764222470553
 20
24.01653384917568
 30
0.0
  0
SPLINE
  5
D0
330
1F
100
AcDbEntity
  8
0
  6
Continuous
 62
     7
370
    25
100
AcDbSpline
210
0.0
220
0.0
230
1.0
 70
    24
 71
     3
 72
     9
 73
     5
 74
     0
 42
0.00000001
 43
0.00000001
 40
0.0
 40
0.0
 40
0.0
 40
0.0
 40
0.4996804558867284
 40
1.0
 40
1.0
 40
1.0
 40
1.0
 10
10.39105194213984
 20
24.01136031642737
 30
0.0
 10
10.39105194213984
 20
24.00934073993124
 30
0.0
 10
10.39105194213984
 20
24.00529900391309
 30
0.0
 10
10.39105194213984
 20
24.00220677968582
 30
0.0
 10
10.39105194213984
 20
24.00065967947013
 30
0.0
  0
SPLINE
  5
D1
330
1F
100
AcDbEntity
  8
0
  6
Continuous
 62
     7
370
    25
100
AcDbSpline
210
0.0
220
0.0
230
1.0
 70
     8
 71
     3
 72
    17
 73
    13
 74
     0
 42
0.00000001
 43
0.00000001
 40
0.0
 40
0.0
 40
0.0
 40
0.0
 40
0.0914738027983831
 40
0.1829476054707874
 40
0.2760432789569005
 40
0.3691389522968295
 40
0.4851503197132078
 40
0.6011616867770899
 40
0.7205500715519356
 40
0.8399364840526495
 40
0.9198330801384955
 40
1.0
 40
1.0
 40
1.0
 40
1.0
 10
10.39105194213984
 20
24.01136031642737
 30
0.0
 10
10.39420934143525
 20
24.01151551553124
 30
0.0
 10
10.40052414002173
 20
24.01182591373877
 30
0.0
 10
10.41182078200448
 20
24.01230282697886
 30
0.0
 10
10.42444526449083
 20
24.01278636419975
 30
0.0
 10
10.43964213430233
 20
24.01331537374869
 30
0.0
 10
10.45764124597316
 20
24.01388447053917
 30
0.0
 10
10.47893468292222
 20
24.01449686317986
 30
0.0
 10
10.50217085475154
 20
24.0151018165321
 30
0.0
 10
10.52448693079378
 20
24.01563846376258
 30
0.0
 10
10.54494647568618
 20
24.01611594506223
 30
0.0
 10
10.55715042478462
 20
24.01639439105307
 30
0.0
 10
10.56326270467288
 20
24.01653384917568
 30
0.0
  0
LINE
  5
D2
330
1F
100
AcDbEntity
  8
0
  6
Continuous
 62
     7
370
    25
100
AcDbLine
 10
10.3910519421
 20
24.0113603164
 30
0.0
 11
10.3910519421
 21
24.0165338492
 31
0.0
  0
LINE
  5
D3
330
1F
100
AcDbEntity
  8
0
  6
Continuous
 62
     7
370
    25
100
AcDbLine
 10
10.3910519421
 20
24.0165338492
 30
0.0
 11
10.5632627047
 21
24.0165338492
 31
0.0
  0
LINE
  5
D4
330
1F
100
AcDbEntity
  8
0
  6
Continuous
 62
     7
370
    25
100
AcDbLine
 10
12.2110519421
 20
20.2815338492
 30
0.0
 11
9.2410519421
 21
20.2815338492
 31
0.0
  0
LINE
  5
D5
330
1F
100
AcDbEntity
  8
0
  6
Continuous
 62
     7
370
    25
100
AcDbLine
 10
9.2710519421
 20
20.3115338492
 30
0.0
 11
12.1810519421
 21
20.3115338492
 31
0.0
  0
LINE
  5
D6
330
1F
100
AcDbEntity
  8
0
  6
Continuous
 62
     7
370
    25
100
AcDbLine
 10
9.2410519421
 20
15.1215338492
 30
0.0
 11
12.2110519421
 21
15.1215338492
 31
0.0
  0
LINE
  5
D7
330
1F
100
AcDbEntity
  8
0
  6
Continuous
 62
     7
370
    25
100
AcDbLine
 10
10.7260519421
 20
12.3125338492
 30
0.0
 11
12.2110519421
 21
12.3125338492
 31
0.0
  0
LINE
  5
D8
330
1F
100
AcDbEntity
  8
0
  6
Continuous
 62
     7
370
    25
100
AcDbLine
 10
9.2410519421
 20
12.3125338492
 30
0.0
 11
10.7260519421
 21
12.3125338492
 31
0.0
  0
DIMENSION
  5
D9
330
1F
100
AcDbEntity
  8
0
  6
Continuous
 62
     7
370
    18
100
AcDbDimension
  2
_D
 10
14.0512881602
 20
23.3115338492
 30
0.0
 11
14.0512881602
 21
24.3984549422
 31
0.0
 70
   160
  1
<>
 71
     2
 42
-1.0
  3
SLDDIMSTYLE0
100
AcDbAlignedDimension
 13
13.2110519421
 23
23.6865338492
 33
0.0
 14
13.1610519421
 24
23.3115338492
 34
0.0
 50
90.0
100
AcDbRotatedDimension
  0
DIMENSION
  5
EF
330
1F
100
AcDbEntity
  8
0
  6
Continuous
 62
     7
370
    18
100
AcDbDimension
  2
_D_1
 10
4.4327607219
 20
20.3115338492
 30
0.0
 11
4.4327607219
 21
21.8115338492
 31
0.0
 70
   160
  1
SPECIFY PROJECTION LENGTH\P0"-48"\P[0mm-1219mm]
 71
     2
 42
-1.0
  3
SLDDIMSTYLE1
100
AcDbAlignedDimension
 13
10.2260519421
 23
23.3115338492
 33
0.0
 14
10.2260519421
 24
20.3115338492
 34
0.0
 50
90.0
100
AcDbRotatedDimension
  0
DIMENSION
  5
FD
330
1F
100
AcDbEntity
  8
0
  6
Continuous
 62
     7
370
    18
100
AcDbDimension
  2
_D_2
 10
4.4327607219
 20
12.2825338492
 30
0.0
 11
4.4327607219
 21
16.2970338492
 31
0.0
 70
   160
  1
<>
 71
     2
 42
-1.0
  3
SLDDIMSTYLE2
100
AcDbAlignedDimension
 13
9.2710519421
 23
20.3115338492
 33
0.0
 14
9.2710519421
 24
12.2825338492
 34
0.0
 50
90.0
100
AcDbRotatedDimension
  0
DIMENSION
  5
112
330
1F
100
AcDbEntity
  8
0
  6
Continuous
 62
     7
370
    18
100
AcDbDimension
  2
_D_3
 10
14.0512881602
 20
15.1065338492
 30
0.0
 11
14.0512881602
 21
17.7090338492
 31
0.0
 70
   160
  1
<>
 71
     2
 42
-1.0
  3
SLDDIMSTYLE3
100
AcDbAlignedDimension
 13
12.1810519421
 23
20.3115338492
 33
0.0
 14
12.2110519421
 24
15.1065338492
 34
0.0
 50
90.0
100
AcDbRotatedDimension
  0
DIMENSION
  5
127
330
1F
100
AcDbEntity
  8
0
  6
Continuous
 62
     7
370
    18
100
AcDbDimension
  2
_D_4
 10
12.2110519421
 20
11.101431487
 30
0.0
 11
10.7260519421
 21
11.101431487
 31
0.0
 70
   160
  1
%%c<>
 71
     2
 42
-1.0
  3
SLDDIMSTYLE1
100
AcDbAlignedDimension
 13
9.2410519421
 23
12.3125338492
 33
0.0
 14
12.2110519421
 24
12.3125338492
 34
0.0
100
AcDbRotatedDimension
  0
LINE
  5
13A
330
1F
100
AcDbEntity
  8
0
  6
Continuous
 62
     7
370
    25
100
AcDbLine
 10
23.9412697959
 20
15.4982731729
 30
0.0
 11
23.9396739438
 21
15.4967375811
 31
0.0
  0
LINE
  5
13B
330
1F
100
AcDbEntity
  8
0
  6
Continuous
 62
     7
370
    25
100
AcDbLine
 10
23.9371669592
 20
15.3700311177
 30
0.0
 11
23.9380128383
 21
15.3691501351
 31
0.0
  0
SPLINE
  5
13C
330
1F
100
AcDbEntity
  8
0
  6
Continuous
 62
     7
370
    25
100
AcDbSpline
210
0.0
220
0.0
230
1.0
 70
     8
 71
     3
 72
    24
 73
    20
 74
     0
 42
0.00000001
 43
0.00000001
 40
0.0
 40
0.0
 40
0.0
 40
0.0
 40
0.0055369474070886
 40
0.0678675536614141
 40
0.1302232208549652
 40
0.1926370303226453
 40
0.2551389796095661
 40
0.317754606153189
 40
0.3805039721013742
 40
0.4434010733606895
 40
0.5064536921026251
 40
0.5696636670376162
 40
0.6330275156581663
 40
0.6965373132005227
 40
0.7601817184311891
 40
0.8239470377308798
 40
0.8878182342095666
 40
0.9517798130736391
 40
1.0
 40
1.0
 40
1.0
 40
1.0
 10
23.93796233573759
 20
13.20267433111148
 30
0.0
 10
23.9379793908293
 20
13.20199077363966
 30
0.0
 10
23.93818843875169
 20
13.19361226288478
 30
0.0
 10
23.93979281986047
 20
13.17755678072103
 30
0.0
 10
23.94286797442016
 20
13.15453870273809
 30
0.0
 10
23.94735532837678
 20
13.13158645300585
 30
0.0
 10
23.95308021755454
 20
13.10871367592702
 30
0.0
 10
23.96008671200221
 20
13.08593771419006
 30
0.0
 10
23.96835967931176
 20
13.06327588941791
 30
0.0
 10
23.97789894676023
 20
13.04074670497965
 30
0.0
 10
23.98869892899543
 20
13.01836958962499
 30
0.0
 10
24.00075363120396
 20
12.99616487378522
 30
0.0
 10
24.0140551417259
 20
12.97415365553637
 30
0.0
 10
24.02859313765138
 20
12.95235733612627
 30
0.0
 10
24.04435742263925
 20
12.93079821369403
 30
0.0
 10
24.06132785691425
 20
12.90949597034344
 30
0.0
 10
24.0795123486006
 20
12.88847955608222
 30
0.0
 10
24.09721485086816
 20
12.86945111156732
 30
0.0
 10
24.1092098733185
 20
12.85754556326022
 30
0.0
 10
24.11436581127923
 20
12.85242808484665
 30
0.0
  0
SPLINE
  5
13D
330
1F
100
AcDbEntity
  8
0
  6
Continuous
 62
     7
370
    25
100
AcDbSpline
210
0.0
220
0.0
230
1.0
 70
     8
 71
     3
 72
    97
 73
    93
 74
     0
 42
0.00000001
 43
0.00000001
 40
0.0
 40
0.0
 40
0.0
 40
0.0
 40
0.0059594450243116
 40
0.017236194060387
 40
0.0285173509972523
 40
0.039804228746971
 40
0.0510950748400441
 40
0.0623883967948267
 40
0.0736829461213353
 40
0.0849775228893043
 40
0.0962712410741332
 40
0.1075635021574158
 40
0.1188538497440309
 40
0.1301419474334097
 40
0.1414275589210111
 40
0.1527105304922531
 40
0.1639907758822468
 40
0.1752682633629024
 40
0.1865430048577605
 40
0.1978150468581164
 40
0.20908446291025
 40
0.2203513474533919
 40
0.2316158108059929
 40
0.2428779751192516
 40
0.2541379711392958
 40
0.2653959356411973
 40
0.2766520094181661
 40
0.2879063357273723
 40
0.299159059109813
 40
0.3104103245154157
 40
0.3216602766762899
 40
0.3329090596809573
 40
0.3441568167107967
 40
0.3554036899066916
 40
0.3666498203396789
 40
0.3778953480639808
 40
0.3891404122345592
 40
0.4003851512743277
 40
0.411629703078524
 40
0.4228742052454346
 40
0.4341187764412277
 40
0.4453635274281198
 40
0.4566085962996861
 40
0.4678541217782314
 40
0.479100243449449
 40
0.490347101975215
 40
0.5015948392720223
 40
0.512843598642766
 40
0.5240935248472963
 40
0.5353447640943408
 40
0.546597463933549
 40
0.5578517730221153
 40
0.5691078407346236
 40
0.580365816578129
 40
0.5916258493662631
 40
0.6028880860963269
 40
0.6141526704617912
 40
0.6254197409188325
 40
0.6366894282096927
 40
0.6479618522275395
 40
0.659237118086897
 40
0.6705153112416742
 40
0.6817964914691685
 40
0.6930806855156842
 40
0.7043678781787298
 40
0.7156580015872773
 40
0.726950922439435
 40
0.7382464269757835
 40
0.7495442035165306
 40
0.7608438224878474
 40
0.7721447140259039
 40
0.783446079331938
 40
0.7947467034262307
 40
0.806045367520372
 40
0.8173406050328256
 40
0.8286306840077595
 40
0.8399135990351619
 40
0.851187077434873
 40
0.8624486051680472
 40
0.8736954780687312
 40
0.8849248832582632
 40
0.8961340136934515
 40
0.9073202155121397
 40
0.9184811632559294
 40
0.929615052642041
 40
0.940720795219683
 40
0.9517981951651501
 40
0.9628480868233735
 40
0.973872413182427
 40
0.9848742303661404
 40
0.9958576307621482
 40
1.0
 40
1.0
 40
1.0
 40
1.0
 10
24.11436581127923
 20
12.85242808484665
 30
0.0
 10
24.11806515598546
 20
12.84885527808031
 30
0.0
 10
24.12876457900096
 20
12.83852183419187
 30
0.0
 10
24.14732364654295
 20
12.82170268304165
 30
0.0
 10
24.17038860147294
 20
12.80210178677627
 30
0.0
 10
24.19455529548051
 20
12.78288938935156
 30
0.0
 10
24.21978296147682
 20
12.76407429582859
 30
0.0
 10
24.24605260708266
 20
12.74567416519367
 30
0.0
 10
24.27333778930591
 20
12.72770397947945
 30
0.0
 10
24.30161315602896
 20
12.71017863912906
 30
0.0
 10
24.33085231068158
 20
12.69311225122606
 30
0.0
 10
24.36102860379889
 20
12.67651828851653
 30
0.0
 10
24.39211489923847
 20
12.66040965132057
 30
0.0
 10
24.4240835195718
 20
12.64479877454826
 30
0.0
 10
24.45690623542383
 20
12.62969764759964
 30
0.0
 10
24.49055426903628
 20
12.61511783225927
 30
0.0
 10
24.52499829459303
 20
12.60107047359153
 30
0.0
 10
24.56020844116405
 20
12.58756630626409
 30
0.0
 10
24.59615429744884
 20
12.57461565673956
 30
0.0
 10
24.63280491896525
 20
12.56222844224256
 30
0.0
 10
24.67012883770084
 20
12.55041416718309
 30
0.0
 10
24.70809407424598
 20
12.53918191766234
 30
0.0
 10
24.74666815231532
 20
12.52854035458424
 30
0.0
 10
24.78581811552278
 20
12.51849770581297
 30
0.0
 10
24.82551054624485
 20
12.50906175773878
 30
0.0
 10
24.86571158639425
 20
12.50023984654732
 30
0.0
 10
24.90638695992325
 20
12.4920388494307
 30
0.0
 10
24.94750199688001
 20
12.48446517593053
 30
0.0
 10
24.98902165884949
 20
12.47752475956366
 30
0.0
 10
25.03091056562089
 20
12.47122304984889
 30
0.0
 10
25.07313302293494
 20
12.46556500482726
 30
0.0
 10
25.11565305117579
 20
12.46055508414715
 30
0.0
 10
25.15843441488353
 20
12.45619724276923
 30
0.0
 10
25.20144065297328
 20
12.45249492533306
 30
0.0
 10
25.24463510955627
 20
12.44945106121716
 30
0.0
 10
25.28798096526642
 20
12.44706806031625
 30
0.0
 10
25.33144126900265
 20
12.44534780955379
 30
0.0
 10
25.37497897000375
 20
12.44429167014278
 30
0.0
 10
25.41855695017574
 20
12.44390047560513
 30
0.0
 10
25.46213803220544
 20
12.44417453040317
 30
0.0
 10
25.50568500179942
 20
12.44511360722243
 30
0.0
 10
25.54916067556269
 20
12.44671694566192
 30
0.0
 10
25.5925279583356
 20
12.44898325517844
 30
0.0
 10
25.63574988591492
 20
12.45191071996065
 30
0.0
 10
25.67878962262137
 20
12.45549700084683
 30
0.0
 10
25.72161049341812
 20
12.45973923877453
 30
0.0
 10
25.76417601571905
 20
12.46463405901041
 30
0.0
 10
25.80644993080157
 20
12.47017757615617
 30
0.0
 10
25.84839623473817
 20
12.47636539992314
 30
0.0
 10
25.88997920875399
 20
12.48319264166406
 30
0.0
 10
25.9311634489095
 20
12.49065392164444
 30
0.0
 10
25.97191389499855
 20
12.4987433770285
 30
0.0
 10
26.01219585854118
 20
12.50745467054418
 30
0.0
 10
26.05197504973867
 20
12.51678099977875
 30
0.0
 10
26.09121760324551
 20
12.52671510703914
 30
0.0
 10
26.12989010259836
 20
12.53724928968941
 30
0.0
 10
26.16795960312814
 20
12.54837541084962
 30
0.0
 10
26.20539365316655
 20
12.56008491030548
 30
0.0
 10
26.24216031334575
 20
12.57236881543426
 30
0.0
 10
26.27822817378001
 20
12.58521775189829
 30
0.0
 10
26.31356636891384
 20
12.5986219537914
 30
0.0
 10
26.3481445898259
 20
12.612571272844
 30
0.0
 10
26.38193309379674
 20
12.62705518619802
 30
0.0
 10
26.41490271098669
 20
12.6420628021534
 30
0.0
 10
26.4470248481384
 20
12.65758286316382
 30
0.0
 10
26.47827148932455
 20
12.67360374522417
 30
0.0
 10
26.5086151939211
 20
12.69011345265312
 30
0.0
 10
26.5380290922136
 20
12.70709960714265
 30
0.0
 10
26.56648687935654
 20
12.72454942984264
 30
0.0
 10
26.59396280881977
 20
12.74244971520288
 30
0.0
 10
26.62043163688347
 20
12.76078676063961
 30
0.0
 10
26.6458684622035
 20
12.77954619123183
 30
0.0
 10
26.67024893348194
 20
12.7987130039575
 30
0.0
 10
26.69354931711062
 20
12.8182715308387
 30
0.0
 10
26.71574666680856
 20
12.8382054957275
 30
0.0
 10
26.73681871673418
 20
12.85849781230782
 30
0.0
 10
26.75674396686231
 20
12.87913050602511
 30
0.0
 10
26.77550179895375
 20
12.90008464600925
 30
0.0
 10
26.79307262520397
 20
12.92134029759554
 30
0.0
 10
26.80943806758996
 20
12.94287650797739
 30
0.0
 10
26.82458116364348
 20
12.96467133814677
 30
0.0
 10
26.83848657894016
 20
12.98670195320876
 30
0.0
 10
26.8511408357535
 20
13.00894477855745
 30
0.0
 10
26.86253243035607
 20
13.03137572546424
 30
0.0
 10
26.87265219868251
 20
13.05397047023978
 30
0.0
 10
26.88149246930461
 20
13.07670479896093
 30
0.0
 10
26.88905032427931
 20
13.099554878206
 30
0.0
 10
26.89531510805422
 20
13.12249783323838
 30
0.0
 10
26.90031400955186
 20
13.14551105109536
 30
0.0
 10
26.90394118829017
 20
13.16857592724943
 30
0.0
 10
26.90604280702999
 20
13.1868811631627
 30
0.0
 10
26.9064869374282
 20
13.19749869167832
 30
0.0
 10
26.90660856774147
 20
13.20040642626438
 30
0.0
  0
LINE
  5
13E
330
1F
100
AcDbEntity
  8
0
  6
Continuous
 62
     7
370
    25
100
AcDbLine
 10
23.9373945508
 20
15.3697940812
 30
0.0
 11
23.9373945508
 21
13.2233891706
 31
0.0
  0
LINE
  5
13F
330
1F
100
AcDbEntity
  8
0
  6
Continuous
 62
     7
370
    25
100
AcDbLine
 10
23.9373945508
 20
15.6183146088
 30
0.0
 11
23.9373945508
 21
15.4672465495
 31
0.0
  0
LINE
  5
140
330
1F
100
AcDbEntity
  8
0
  6
Continuous
 62
     7
370
    25
100
AcDbLine
 10
26.9073945508
 20
13.2233891706
 30
0.0
 11
26.9073945508
 21
15.6183146088
 31
0.0
  0
LINE
  5
141
330
1F
100
AcDbEntity
  8
0
  6
Continuous
 62
     7
370
    25
100
AcDbLine
 10
25.9223945508
 20
20.7836139188
 30
0.0
 11
25.9223945508
 21
22.651372311
 31
0.0
  0
LINE
  5
142
330
1F
100
AcDbEntity
  8
0
  6
Continuous
 62
     7
370
    25
100
AcDbLine
 10
24.9223945508
 20
22.651372311
 30
0.0
 11
24.9223945508
 21
20.7836139188
 31
0.0
  0
LINE
  5
143
330
1F
100
AcDbEntity
  8
0
  6
Continuous
 62
     7
370
    25
100
AcDbLine
 10
23.4360003284
 20
21.9252074262
 30
0.0
 11
23.475968019
 21
21.897822366
 31
0.0
  0
LINE
  5
144
330
1F
100
AcDbEntity
  8
0
  6
Continuous
 62
     7
370
    25
100
AcDbLine
 10
27.3688210827
 20
21.897822366
 30
0.0
 11
27.4087887733
 21
21.9252074262
 31
0.0
  0
LINE
  5
145
330
1F
100
AcDbEntity
  8
0
  6
Continuous
 62
     7
370
    25
100
AcDbLine
 10
22.9373945508
 20
22.9728100488
 30
0.0
 11
22.9373945508
 21
22.6942306761
 31
0.0
  0
LINE
  5
146
330
1F
100
AcDbEntity
  8
0
  6
Continuous
 62
     7
370
    25
100
AcDbLine
 10
27.9073945508
 20
22.6942306761
 30
0.0
 11
27.9073945508
 21
22.9728100488
 31
0.0
  0
LINE
  5
147
330
1F
100
AcDbEntity
  8
0
  6
Continuous
 62
     7
370
    25
100
AcDbLine
 10
23.9373945508
 20
20.0541553899
 30
0.0
 11
23.9373945508
 21
15.6311721183
 31
0.0
  0
LINE
  5
148
330
1F
100
AcDbEntity
  8
0
  6
Continuous
 62
     7
370
    25
100
AcDbLine
 10
26.9073945508
 20
15.6311721183
 30
0.0
 11
26.9073945508
 21
20.0541553899
 31
0.0
  0
LINE
  5
149
330
1F
100
AcDbEntity
  8
0
  6
Continuous
 62
     7
370
    25
100
AcDbLine
 10
26.6094349614
 20
20.5137125432
 30
0.0
 11
26.5854543471
 21
20.5301435793
 31
0.0
  0
LINE
  5
14A
330
1F
100
AcDbEntity
  8
0
  6
Continuous
 62
     7
370
    25
100
AcDbLine
 10
24.2593347546
 20
20.5301435793
 30
0.0
 11
24.2353541402
 21
20.5137125432
 31
0.0
  0
LWPOLYLINE
  5
14B
330
1F
100
AcDbEntity
  8
0
  6
Continuous
 62
     7
370
    25
100
AcDbPolyline
 90
       42
 70
   128
 43
0.0
 10
23.9409229071
 20
15.4660123364
 10
23.9408943841
 20
15.4739255691
 10
23.9408094838
 20
15.4808885182
 10
23.9406701961
 20
15.4867379779
 10
23.9404797859
 20
15.491336842
 10
23.9402427161
 20
15.4945773169
 10
23.9399645435
 20
15.4963834486
 10
23.9396517883
 20
15.4967129031
 10
23.9393117811
 20
15.495557958
 10
23.9389524914
 20
15.4929456844
 10
23.9385823407
 20
15.4889373118
 10
23.9382100049
 20
15.483626793
 10
23.9378442114
 20
15.477138602
 10
23.937493534
 20
15.4696248166
 10
23.9371661923
 20
15.4612615535
 10
23.9368698589
 20
15.4522448406
 10
23.9366114796
 20
15.4427860218
 10
23.9363971105
 20
15.433106804
 10
23.9362317765
 20
15.4234340597
 10
23.9361193526
 20
15.41399451
 10
23.9360624741
 20
15.4050094098
 10
23.9360624741
 20
15.3966893624
 10
23.9361193526
 20
15.3892293824
 10
23.9362317765
 20
15.3828043257
 10
23.9363971105
 20
15.3775647899
 10
23.9366114796
 20
15.3736335855
 10
23.9368698589
 20
15.3711028565
 10
23.9371661923
 20
15.3700319211
 10
23.937493534
 20
15.370445881
 10
23.9378442114
 20
15.3723350335
 10
23.9382100049
 20
15.3756550983
 10
23.9385823407
 20
15.380328256
 10
23.9389524914
 20
15.3862449717
 10
23.9393117811
 20
15.3932665627
 10
23.9396517883
 20
15.4012284487
 10
23.9399645435
 20
15.4099440099
 10
23.9402427161
 20
15.4192089609
 10
23.9404797859
 20
15.4288061393
 10
23.9406701961
 20
15.4385105951
 10
23.9408094838
 20
15.4480948642
 10
23.9408943841
 20
15.4573342995
 10
23.9409229071
 20
15.4660123364
  0
LINE
  5
14C
330
1F
100
AcDbEntity
  8
0
  6
Continuous
 62
     7
370
    25
100
AcDbLine
 10
23.9376247547
 20
15.4552241259
 30
0.0
 11
23.9367603894
 21
15.4102062116
 31
0.0
  0
LINE
  5
14D
330
1F
100
AcDbEntity
  8
0
  6
Continuous
 62
     7
370
    25
100
AcDbLine
 10
23.9376247547
 20
15.3883650765
 30
0.0
 11
23.9367603894
 21
15.4102062116
 31
0.0
  0
LINE
  5
14E
330
1F
100
AcDbEntity
  8
0
  6
Continuous
 62
     7
370
    25
100
AcDbLine
 10
23.9393534852
 20
15.4115418556
 30
0.0
 11
23.9376247547
 21
15.3883650765
 31
0.0
  0
LINE
  5
14F
330
1F
100
AcDbEntity
  8
0
  6
Continuous
 62
     7
370
    25
100
AcDbLine
 10
23.9393534852
 20
15.4115418556
 30
0.0
 11
23.9402178505
 21
15.4565597699
 31
0.0
  0
LINE
  5
150
330
1F
100
AcDbEntity
  8
0
  6
Continuous
 62
     7
370
    25
100
AcDbLine
 10
23.9393534852
 20
15.4784009051
 30
0.0
 11
23.9402178505
 21
15.4565597699
 31
0.0
  0
LINE
  5
151
330
1F
100
AcDbEntity
  8
0
  6
Continuous
 62
     7
370
    25
100
AcDbLine
 10
23.9393534852
 20
15.4784009051
 30
0.0
 11
23.9376247547
 21
15.4552241259
 31
0.0
  0
LINE
  5
152
330
1F
100
AcDbEntity
  8
0
  6
Continuous
 62
     7
370
    25
100
AcDbLine
 10
23.9392501866
 20
15.4101569491
 30
0.0
 11
23.9367603894
 21
15.4102062116
 31
0.0
  0
LINE
  5
153
330
1F
100
AcDbEntity
  8
0
  6
Continuous
 62
     7
370
    25
100
AcDbLine
 10
23.9401912305
 20
15.4551733462
 30
0.0
 11
23.9376247547
 21
15.4552241259
 31
0.0
  0
LWPOLYLINE
  5
154
330
1F
100
AcDbEntity
  8
0
  6
Continuous
 62
     7
370
    25
100
AcDbPolyline
 90
       42
 70
   128
 43
0.0
 10
26.2033454854
 20
16.0012620436
 10
26.2115019923
 20
15.9976379155
 10
26.2197103894
 20
15.9952696592
 10
26.2277782788
 20
15.9942127849
 10
26.2355165562
 20
15.9944920646
 10
26.2427438429
 20
15.9961009523
 10
26.2492907373
 20
15.9990017371
 10
26.2550037858
 20
16.003126427
 10
26.2597490794
 20
16.0083783428
 10
26.2634153924
 20
16.014634384
 10
26.2659167896
 20
16.0217479143
 10
26.2671946404
 20
16.0295521986
 10
26.2672189929
 20
16.0378643111
 10
26.2659892764
 20
16.0464894229
 10
26.2635343144
 20
16.0552253687
 10
26.2599116492
 20
16.0638673853
 10
26.2552061929
 20
16.0722129113
 10
26.2495282374
 20
16.0800663345
 10
26.2430108693
 20
16.0872435773
 10
26.23580685
 20
16.0935764113
 10
26.2280850358
 20
16.0989164002
 10
26.2200264193
 20
16.1031383792
 10
26.2118198877
 20
16.1061433887
 10
26.2036577952
 20
16.1078609938
 10
26.1957314543
 20
16.1082509353
 10
26.1882266518
 20
16.1073040733
 10
26.1813192937
 20
16.1050426014
 10
26.1751712827
 20
16.1015195266
 10
26.1699267231
 20
16.0968174269
 10
26.1657085428
 20
16.0910465154
 10
26.1626156124
 20
16.0843420575
 10
26.1607204276
 20
16.0768611998
 10
26.1600674099
 20
16.0687792875
 10
26.1606718654
 20
16.0602857536
 10
26.1625196264
 20
16.0515796795
 10
26.1655673827
 20
16.042865128
 10
26.1697436976
 20
16.034346361
 10
26.1749506818
 20
16.026223051
 10
26.181066288
 20
16.0186856016
 10
26.1879471716
 20
16.0119106842
 10
26.1954320505
 20
16.0060570972
 10
26.2033454854
 20
16.0012620436
  0
LINE
  5
155
330
1F
100
AcDbEntity
  8
0
  6
Continuous
 62
     7
370
    25
100
AcDbLine
 10
26.2497779784
 20
16.0519962906
 30
0.0
 11
26.2210819192
 21
16.086701965
 31
0.0
  0
LINE
  5
156
330
1F
100
AcDbEntity
  8
0
  6
Continuous
 62
     7
370
    25
100
AcDbLine
 10
26.1850197617
 20
16.0859236814
 30
0.0
 11
26.2210819192
 21
16.086701965
 31
0.0
  0
LINE
  5
157
330
1F
100
AcDbEntity
  8
0
  6
Continuous
 62
     7
370
    25
100
AcDbLine
 10
26.1776536632
 20
16.0504397235
 30
0.0
 11
26.1850197617
 21
16.0859236814
 31
0.0
  0
LINE
  5
158
330
1F
100
AcDbEntity
  8
0
  6
Continuous
 62
     7
370
    25
100
AcDbLine
 10
26.1776536632
 20
16.0504397235
 30
0.0
 11
26.2063497223
 21
16.015734049
 31
0.0
  0
LINE
  5
159
330
1F
100
AcDbEntity
  8
0
  6
Continuous
 62
     7
370
    25
100
AcDbLine
 10
26.2424118799
 20
16.0165123326
 30
0.0
 11
26.2063497223
 21
16.015734049
 31
0.0
  0
LINE
  5
15A
330
1F
100
AcDbEntity
  8
0
  6
Continuous
 62
     7
370
    25
100
AcDbLine
 10
26.2424118799
 20
16.0165123326
 30
0.0
 11
26.2497779784
 21
16.0519962906
 31
0.0
  0
LINE
  5
15B
330
1F
100
AcDbEntity
  8
0
  6
Continuous
 62
     7
370
    25
100
AcDbLine
 10
26.1778396248
 20
16.0513355374
 30
0.0
 11
26.2210819192
 21
16.086701965
 31
0.0
  0
LINE
  5
15C
330
1F
100
AcDbEntity
  8
0
  6
Continuous
 62
     7
370
    25
100
AcDbLine
 10
26.2059828669
 20
16.0161777324
 30
0.0
 11
26.2497779784
 21
16.0519962906
 31
0.0
  0
LWPOLYLINE
  5
15D
330
1F
100
AcDbEntity
  8
0
  6
Continuous
 62
     7
370
    25
100
AcDbPolyline
 90
      202
 70
   128
 43
0.0
 10
24.1353292319
 20
12.848173145
 10
24.1571671147
 20
12.8276256442
 10
24.1802412319
 20
12.8074397121
 10
24.2045290383
 20
12.7876350723
 10
24.2300068026
 20
12.7682310753
 10
24.2566496308
 20
12.7492466807
 10
24.2844314906
 20
12.7307004378
 10
24.3133252369
 20
12.7126104677
 10
24.3433026379
 20
12.694994446
 10
24.3743344033
 20
12.677869585
 10
24.4063902122
 20
12.6612526172
 10
24.4394387436
 20
12.6451597787
 10
24.4734477061
 20
12.6296067935
 10
24.5083838702
 20
12.6146088584
 10
24.5442131002
 20
12.6001806275
 10
24.580900388
 20
12.5863361984
 10
24.6184098869
 20
12.5730890983
 10
24.656704947
 20
12.5604522708
 10
24.6957481508
 20
12.5484380632
 10
24.7355013498
 20
12.5370582142
 10
24.7759257016
 20
12.526323843
 10
24.8169817084
 20
12.516245438
 10
24.8586292548
 20
12.5068328467
 10
24.9008276477
 20
12.4980952659
 10
24.9435356557
 20
12.4900412329
 10
24.9867115495
 20
12.4826786174
 10
25.0303131425
 20
12.4760146131
 10
25.0742978322
 20
12.4700557314
 10
25.118622642
 20
12.4648077945
 10
25.1632442627
 20
12.4602759303
 10
25.2081190953
 20
12.4564645666
 10
25.2532032931
 20
12.4533774276
 10
25.2984528051
 20
12.4510175296
 10
25.3438234187
 20
12.4493871784
 10
25.389270803
 20
12.448487967
 10
25.4347505519
 20
12.4483207741
 10
25.480218228
 20
12.448885763
 10
25.5256294055
 20
12.4501823816
 10
25.5709397138
 20
12.4522093631
 10
25.6161048809
 20
12.4549647269
 10
25.6610807765
 20
12.4584457807
 10
25.7058234554
 20
12.4626491234
 10
25.7502892003
 20
12.4675706479
 10
25.7944345643
 20
12.4732055453
 10
25.8382164137
 20
12.4795483101
 10
25.8815919698
 20
12.4865927447
 10
25.9245188511
 20
12.4943319661
 10
25.9669551144
 20
12.5027584125
 10
26.0088592959
 20
12.5118638505
 10
26.0501904515
 20
12.5216393833
 10
26.0909081974
 20
12.5320754594
 10
26.1309727487
 20
12.5431618819
 10
26.170344959
 20
12.5548878184
 10
26.2089863583
 20
12.5672418116
 10
26.2468591908
 20
12.5802117906
 10
26.2839264514
 20
12.5937850828
 10
26.3201519222
 20
12.6079484258
 10
26.355500208
 20
12.6226879808
 10
26.3899367704
 20
12.6379893461
 10
26.423427962
 20
12.6538375709
 10
26.4559410591
 20
12.6702171702
 10
26.4874442936
 20
12.6871121396
 10
26.5179068843
 20
12.7045059714
 10
26.5472990664
 20
12.7223816704
 10
26.5755921215
 20
12.7407217704
 10
26.6027584047
 20
12.7595083517
 10
26.6287713723
 20
12.7787230581
 10
26.6536056075
 20
12.7983471152
 10
26.6772368451
 20
12.8183613487
 10
26.6996419954
 20
12.838746203
 10
26.7207991666
 20
12.8594817603
 10
26.7406876864
 20
12.8805477603
 10
26.759288122
 20
12.9019236196
 10
26.7765822992
 20
12.9235884523
 10
26.7925533202
 20
12.94552109
 10
26.8071855798
 20
12.9677001026
 10
26.8204647812
 20
12.9901038193
 10
26.8323779494
 20
13.0127103499
 10
26.8429134443
 20
13.0354976058
 10
26.8520609717
 20
13.0584433219
 10
26.8598115938
 20
13.0815250783
 10
26.8661577376
 20
13.1047203223
 10
26.8710932023
 20
13.12800639
 10
26.8746131656
 20
13.151360529
 10
26.8767141882
 20
13.1747599203
 10
26.8773942171
 20
13.1981817008
 10
26.876652588
 20
13.2216029854
 10
26.8744900255
 20
13.2450008895
 10
26.8709086425
 20
13.2683525514
 10
26.8659119384
 20
13.2916351544
 10
26.8595047955
 20
13.3148259496
 10
26.851693474
 20
13.3379022776
 10
26.8424856062
 20
13.3608415907
 10
26.831890189
 20
13.3836214755
 10
26.8199175751
 20
13.4062196739
 10
26.8065794627
 20
13.4286141057
 10
26.7918888842
 20
13.4507828896
 10
26.7758601937
 20
13.4727043648
 10
26.7585090524
 20
13.4943571121
 10
26.739852414
 20
13.515719975
 10
26.7199085075
 20
13.5367720802
 10
26.6986968198
 20
13.557492858
 10
26.6762380767
 20
13.5778620623
 10
26.652554222
 20
13.5978597908
 10
26.6276683971
 20
13.6174665041
 10
26.6016049173
 20
13.6366630446
 10
26.5743892491
 20
13.6554306557
 10
26.5460479844
 20
13.6737509999
 10
26.5166088149
 20
13.6916061767
 10
26.4861005054
 20
13.7089787399
 10
26.4545528649
 20
13.7258517153
 10
26.4219967182
 20
13.7422086163
 10
26.3884638755
 20
13.7580334611
 10
26.3539871011
 20
13.7733107872
 10
26.3186000817
 20
13.7880256676
 10
26.2823373936
 20
13.8021637244
 10
26.2452344684
 20
13.8157111437
 10
26.2073275588
 20
13.8286546885
 10
26.1686537031
 20
13.8409817117
 10
26.1292506889
 20
13.8526801689
 10
26.0891570164
 20
13.8637386297
 10
26.0484118603
 20
13.874146289
 10
26.0070550323
 20
13.8838929777
 10
25.9651269414
 20
13.8929691723
 10
25.922668555
 20
13.9013660048
 10
25.8797213584
 20
13.9090752707
 10
25.8363273147
 20
13.9160894374
 10
25.7925288236
 20
13.9224016514
 10
25.74836868
 20
13.9280057451
 10
25.703890032
 20
13.932896243
 10
25.659136339
 20
13.9370683666
 10
25.6141513293
 20
13.9405180393
 10
25.5689789569
 20
13.9432418905
 10
25.5236633591
 20
13.9452372588
 10
25.4782488131
 20
13.9465021946
 10
25.4327796927
 20
13.9470354619
 10
25.3873004252
 20
13.9468365396
 10
25.3418554476
 20
13.9459056221
 10
25.2964891635
 20
13.9442436191
 10
25.2512458997
 20
13.9418521544
 10
25.2061698627
 20
13.9387335646
 10
25.1613050954
 20
13.934890897
 10
25.1166954348
 20
13.9303279061
 10
25.0723844681
 20
13.9250490504
 10
25.0284154909
 20
13.9190594876
 10
24.9848314646
 20
13.9123650703
 10
24.9416749746
 20
13.9049723393
 10
24.8989881884
 20
13.896888518
 10
24.8568128146
 20
13.888121505
 10
24.8151900622
 20
13.8786798664
 10
24.7741605999
 20
13.8685728274
 10
24.7337645173
 20
13.8578102635
 10
24.6940412845
 20
13.8464026907
 10
24.6550297147
 20
13.8343612551
 10
24.6167679254
 20
13.8216977222
 10
24.5792933016
 20
13.8084244653
 10
24.5426424593
 20
13.7945544536
 10
24.5068512093
 20
13.7801012393
 10
24.4719545228
 20
13.7650789442
 10
24.4379864968
 20
13.7495022466
 10
24.404980321
 20
13.7333863661
 10
24.3729682451
 20
13.7167470494
 10
24.3419815478
 20
13.6996005545
 10
24.3120505055
 20
13.6819636348
 10
24.2832043636
 20
13.6638535233
 10
24.255471307
 20
13.645287915
 10
24.2288784334
 20
13.6262849501
 10
24.2034517263
 20
13.6068631961
 10
24.1792160297
 20
13.5870416297
 10
24.1561950239
 20
13.5668396183
 10
24.1344112024
 20
13.5462769009
 10
24.1138858499
 20
13.525373569
 10
24.0946390214
 20
13.5041500471
 10
24.0766895225
 20
13.4826270722
 10
24.0600548916
 20
13.4608256741
 10
24.0447513821
 20
13.4387671547
 10
24.0307939468
 20
13.4164730669
 10
24.0181962233
 20
13.3939651941
 10
24.0069705206
 20
13.3712655283
 10
23.9971278072
 20
13.348396249
 10
23.9886777003
 20
13.3253797014
 10
23.9816284564
 20
13.3022383746
 10
23.975986963
 20
13.2789948798
 10
23.9717587326
 20
13.2556719277
 10
23.9689478963
 20
13.2322923069
 10
23.9675572007
 20
13.2088788611
 10
23.9675880046
 20
13.1854544675
 10
23.9690402778
 20
13.1620420135
 10
23.9719126014
 20
13.1386643751
 10
23.9762021688
 20
13.1153443943
 10
23.9819047889
 20
13.0921048566
 10
23.9890148895
 20
13.0689684691
 10
23.9975255237
 20
13.0459578379
 10
24.0074283757
 20
13.0230954465
 10
24.0187137697
 20
13.0004036332
 10
24.0313706788
 20
12.97790457
 10
24.0453867363
 20
12.9556202403
 10
24.0607482471
 20
12.9335724178
 10
24.0774402018
 20
12.9117826451
 10
24.0954462909
 20
12.8902722126
 10
24.1147489211
 20
12.8690621379
 10
24.1353292319
 20
12.848173145
  0
ARC
  5
15E
330
1F
100
AcDbEntity
  8
0
  6
Continuous
 62
     7
370
    25
100
AcDbCircle
 10
24.3315710356
 20
13.2233892894
 30
0.0
 40
0.3941763920100413
100
AcDbArc
 50
177.0287213527
 51
182.8530233301
  0
ARC
  5
15F
330
1F
100
AcDbEntity
  8
0
  6
Continuous
 62
     7
370
    25
100
AcDbCircle
 10
26.5131654555
 20
13.2233891201
 30
0.0
 40
0.3942289541667662
100
AcDbArc
 50
356.8342939863
 51
3.118977874
  0
LWPOLYLINE
  5
160
330
1F
100
AcDbEntity
  8
0
  6
Continuous
 62
     7
370
    25
100
AcDbPolyline
 90
      104
 70
   128
 43
0.0
 10
26.9073945508
 20
15.6183146088
 10
26.9073724893
 20
15.6224836311
 10
26.9064107371
 20
15.6461503026
 10
26.904027404
 20
15.6697903095
 10
26.9002247728
 20
15.6933810064
 10
26.8950064863
 20
15.716899795
 10
26.8883775432
 20
15.7403241461
 10
26.8803442935
 20
15.7636316208
 10
26.8709144326
 20
15.7867998922
 10
26.8600969935
 20
15.8098067668
 10
26.8479023386
 20
15.8326302057
 10
26.8343421495
 20
15.8552483456
 10
26.8194294159
 20
15.87763952
 10
26.8031784231
 20
15.8997822797
 10
26.7856047384
 20
15.9216554135
 10
26.7667251961
 20
15.9432379687
 10
26.7465578815
 20
15.9645092705
 10
26.7251221134
 20
15.9854489428
 10
26.7024384258
 20
16.0060369266
 10
26.6785285479
 20
16.0262535003
 10
26.6534153838
 20
16.0460792978
 10
26.62712299
 20
16.0654953274
 10
26.5996765528
 20
16.08448299
 10
26.5711023639
 20
16.1030240967
 10
26.5414277953
 20
16.1211008864
 10
26.5106812731
 20
16.138696043
 10
26.4788922503
 20
16.1557927115
 10
26.4460911785
 20
16.1723745145
 10
26.4123094788
 20
16.1884255679
 10
26.3775795115
 20
16.2039304959
 10
26.3419345456
 20
16.2188744458
 10
26.3054087264
 20
16.2332431025
 10
26.2680370429
 20
16.2470227019
 10
26.2298552945
 20
16.2602000439
 10
26.1909000567
 20
16.2727625058
 10
26.1512086457
 20
16.2846980535
 10
26.1108190831
 20
16.2959952537
 10
26.0697700592
 20
16.3066432845
 10
26.028100896
 20
16.3166319457
 10
25.9858515095
 20
16.3259516691
 10
25.9430623717
 20
16.3345935269
 10
25.8997744715
 20
16.3425492408
 10
25.8560292756
 20
16.34981119
 10
25.8118686887
 20
16.3563724178
 10
25.7673350135
 20
16.3622266393
 10
25.7224709101
 20
16.3673682464
 10
25.6773193551
 20
16.3717923138
 10
25.6319236004
 20
16.3754946036
 10
25.5863271319
 20
16.3784715694
 10
25.5405736277
 20
16.3807203592
 10
25.4947069165
 20
16.3822388191
 10
25.4487709352
 20
16.3830254943
 10
25.4028096872
 20
16.3830796314
 10
25.3568672001
 20
16.3824011785
 10
25.3109874835
 20
16.3809907854
 10
25.2652144869
 20
16.3788498033
 10
25.2195920575
 20
16.375980283
 10
25.1741638984
 20
16.3723849733
 10
25.1289735264
 20
16.3680673183
 10
25.0840642307
 20
16.363031454
 10
25.0394790312
 20
16.3572822044
 10
24.9952606373
 20
16.3508250768
 10
24.951451407
 20
16.3436662568
 10
24.9080933065
 20
16.3358126019
 10
24.8652278697
 20
16.3272716354
 10
24.8228961586
 20
16.3180515389
 10
24.781138724
 20
16.3081611446
 10
24.7399955664
 20
16.2976099268
 10
24.6995060982
 20
16.2864079929
 10
24.6597091052
 20
16.2745660734
 10
24.6206427101
 20
16.262095512
 10
24.5823443358
 20
16.2490082548
 10
24.5448506694
 20
16.2353168383
 10
24.508197627
 20
16.2210343779
 10
24.4724203197
 20
16.2061745552
 10
24.4375530196
 20
16.1907516048
 10
24.4036291271
 20
16.1747803009
 10
24.3706811387
 20
16.1582759427
 10
24.3387406163
 20
16.1412543403
 10
24.3078381567
 20
16.1237317992
 10
24.2780033622
 20
16.1057251046
 10
24.2492648123
 20
16.0872515058
 10
24.2216500365
 20
16.068328699
 10
24.1951854879
 20
16.0489748111
 10
24.1698965175
 20
16.0292083815
 10
24.1458073504
 20
16.0090483452
 10
24.1229410623
 20
15.988514014
 10
24.1013195574
 20
15.9676250583
 10
24.0809635475
 20
15.9464014883
 10
24.0618925324
 20
15.9248636345
 10
24.0441247806
 20
15.9030321288
 10
24.0276773123
 20
15.8809278842
 10
24.0125658832
 20
15.8585720748
 10
23.9988049687
 20
15.835986116
 10
23.986407751
 20
15.8131916436
 10
23.9753861056
 20
15.7902104929
 10
23.9657505905
 20
15.7670646783
 10
23.9575104359
 20
15.7437763718
 10
23.9506735351
 20
15.7203678819
 10
23.9452464375
 20
15.6968616324
 10
23.9412343419
 20
15.6732801404
 10
23.9386410914
 20
15.6496459953
 10
23.9374691704
 20
15.6259818371
 10
23.9373945508
 20
15.6183146088
  0
SPLINE
  5
161
330
1F
100
AcDbEntity
  8
0
  6
Continuous
 62
     7
370
    25
100
AcDbSpline
210
0.0
220
0.0
230
1.0
 70
     8
 71
     3
 72
    34
 73
    30
 74
     0
 42
0.00000001
 43
0.00000001
 40
0.0
 40
0.0
 40
0.0
 40
0.0
 40
0.0359735380377549
 40
0.073599424421008
 40
0.1123181091166435
 40
0.1499169008273787
 40
0.1886053178664963
 40
0.2262191244687716
 40
0.2649217622669481
 40
0.3025693045472926
 40
0.3413084963580112
 40
0.3789558970425919
 40
0.4176969965714266
 40
0.4553105068370641
 40
0.4940157820116153
 40
0.5316145765184338
 40
0.5703022454846673
 40
0.6079284382890143
 40
0.6466441648098614
 40
0.6842971242109276
 40
0.7230427967396379
 40
0.7606801336489744
 40
0.7994109234168993
 40
0.8370146742918333
 40
0.8757090247105122
 40
0.9133135924939094
 40
0.9520067710134066
 40
0.9896452556975213
 40
1.0
 40
1.0
 40
1.0
 40
1.0
 10
23.93773724026138
 20
15.47444830940376
 30
0.0
 10
23.93781532404997
 20
15.47723522486686
 30
0.0
 10
23.93797507819732
 20
15.482937065308
 30
0.0
 10
23.93833880214414
 20
15.48994990586438
 30
0.0
 10
23.93879248328272
 20
15.49556862312223
 30
0.0
 10
23.93933112042404
 20
15.49943678997962
 30
0.0
 10
23.93991859883138
 20
15.50141206061335
 30
0.0
 10
23.94053451580121
 20
15.50146591123043
 30
0.0
 10
23.94113109292663
 20
15.49959774206806
 30
0.0
 10
23.94167968208412
 20
15.49582455422361
 30
0.0
 10
23.94213307780123
 20
15.49031920723542
 30
0.0
 10
23.94246647228735
 20
15.48313933624935
 30
0.0
 10
23.94264970058506
 20
15.47461997991639
 30
0.0
 10
23.94267241361302
 20
15.46485070495555
 30
0.0
 10
23.94253272264735
 20
15.45428688931815
 30
0.0
 10
23.94223873349141
 20
15.4430349731505
 30
0.0
 10
23.94181701584112
 20
15.43161282272561
 30
0.0
 10
23.94129053172107
 20
15.42013525672939
 30
0.0
 10
23.94070466511183
 20
15.40912963328246
 30
0.0
 10
23.94008826232255
 20
15.39871120907789
 30
0.0
 10
23.93949018963303
 20
15.38936383797508
 30
0.0
 10
23.93893356901724
 20
15.38118568767277
 30
0.0
 10
23.93845472637575
 20
15.37455825775599
 30
0.0
 10
23.93806187114801
 20
15.36954407801196
 30
0.0
 10
23.93776931812675
 20
15.36638630912189
 30
0.0
 10
23.93756764941603
 20
15.36506763588233
 30
0.0
 10
23.93745305945299
 20
15.36582802719302
 30
0.0
 10
23.93740724638381
 20
15.36745816037207
 30
0.0
 10
23.93740404845439
 20
15.36937199090659
 30
0.0
 10
23.93740335848744
 20
15.36978490802514
 30
0.0
  0
SPLINE
  5
162
330
1F
100
AcDbEntity
  8
0
  6
Continuous
 62
     7
370
    25
100
AcDbSpline
210
0.0
220
0.0
230
1.0
 70
    11
 71
     3
 72
    44
 73
    40
 74
     0
 42
0.00000001
 43
0.00000001
 40
0.0
 40
0.0
 40
0.0
 40
0.0
 40
0.026828384317104
 40
0.053656848974267
 40
0.0804843602019121
 40
0.1073119868157075
 40
0.1341573061540496
 40
0.1610025960821471
 40
0.1878597184739329
 40
0.2147167121645617
 40
0.2415545791584239
 40
0.2683924190851235
 40
0.2952100576824617
 40
0.322027812364056
 40
0.3488557554504131
 40
0.3756837768927007
 40
0.4025365051125264
 40
0.4293891513265172
 40
0.456242506623542
 40
0.4830957469051945
 40
0.5099245215280197
 40
0.5367533278964651
 40
0.5635707021997256
 40
0.5903882046885653
 40
0.6172251299283759
 40
0.6440620800005916
 40
0.6709190048091703
 40
0.6977758119438884
 40
0.7246219843421808
 40
0.7514680801573995
 40
0.7782895607010044
 40
0.805111124787225
 40
0.8319324759059592
 40
0.8587539401325756
 40
0.8855999010418375
 40
0.9124458283078734
 40
0.9393028102145776
 40
0.9661596632562656
 40
0.9999999999999999
 40
0.9999999999999999
 40
0.9999999999999999
 40
0.9999999999999999
 10
26.15534461380938
 20
16.0692018259789
 30
0.0
 10
26.15551038606308
 20
16.07242831350153
 30
0.0
 10
26.1558419310669
 20
16.07888129820879
 30
0.0
 10
26.15842627872962
 20
16.08767490590165
 30
0.0
 10
26.16250383161467
 20
16.09546274634944
 30
0.0
 10
26.16804324974655
 20
16.1020189091418
 30
0.0
 10
26.17489287332588
 20
16.107105488581
 30
0.0
 10
26.1828111587834
 20
16.11062726522603
 30
0.0
 10
26.1915978070915
 20
16.11240534443023
 30
0.0
 10
26.20096409895709
 20
16.11245211668136
 30
0.0
 10
26.21065254806996
 20
16.11068728591337
 30
0.0
 10
26.2203761895293
 20
16.10723399263194
 30
0.0
 10
26.22985600653232
 20
16.10212163772284
 30
0.0
 10
26.23884585382768
 20
16.09556508626018
 30
0.0
 10
26.24707445134573
 20
16.08769733025208
 30
0.0
 10
26.25435742920702
 20
16.07879533631806
 30
0.0
 10
26.260454395451
 20
16.06908251060459
 30
0.0
 10
26.26525389736005
 20
16.05886927807228
 30
0.0
 10
26.26857162124812
 20
16.04844265721157
 30
0.0
 10
26.27038066998454
 20
16.03810979076447
 30
0.0
 10
26.27057245992286
 20
16.02817938219036
 30
0.0
 10
26.26920777879828
 20
16.01891152551999
 30
0.0
 10
26.26625981378261
 20
16.01059747130079
 30
0.0
 10
26.26186616458072
 20
16.00342039445819
 30
0.0
 10
26.25608268916447
 20
15.99762749353158
 30
0.0
 10
26.24911128196109
 20
15.99331392984013
 30
0.0
 10
26.24109163419745
 20
15.99065926837046
 30
0.0
 10
26.23227875262653
 20
15.98966392346062
 30
0.0
 10
26.22288676194586
 20
15.99041864329285
 30
0.0
 10
26.21319955895936
 20
15.99282720025631
 30
0.0
 10
26.20348123509967
 20
15.99688498047692
 30
0.0
 10
26.19400706014047
 20
16.00241368214765
 30
0.0
 10
26.18506323455043
 20
16.00931979410179
 30
0.0
 10
26.1768829004896
 20
16.01736665009918
 30
0.0
 10
26.16974899832238
 20
16.02637860112548
 30
0.0
 10
26.16381766008526
 20
16.03608199078917
 30
0.0
 10
26.15937023322038
 20
16.0462205285096
 30
0.0
 10
26.15605393113092
 20
16.05744174643692
 30
0.0
 10
26.15559851866495
 20
16.06499222724658
 30
0.0
 10
26.15534461380938
 20
16.0692018259789
 30
0.0
  0
LWPOLYLINE
  5
163
330
1F
100
AcDbEntity
  8
0
  6
Continuous
 62
     7
370
    25
100
AcDbPolyline
 90
      198
 70
   128
 43
0.0
 10
24.186192638
 20
12.8619850404
 10
24.2076057681
 20
12.8418523663
 10
24.2302545362
 20
12.8220816209
 10
24.2541159047
 20
12.8026929143
 10
24.2791656028
 20
12.7837059679
 10
24.3053781509
 20
12.7651400945
 10
24.3327268865
 20
12.7470141787
 10
24.3611839916
 20
12.7293466574
 10
24.3907205205
 20
12.7121555014
 10
24.4213064299
 20
12.695458197
 10
24.4529106089
 20
12.6792717279
 10
24.4855009108
 20
12.6636125585
 10
24.5190441862
 20
12.6484966167
 10
24.5535063159
 20
12.6339392778
 10
24.5888522464
 20
12.6199553491
 10
24.6250460251
 20
12.6065590544
 10
24.6620508371
 20
12.5937640201
 10
24.6998290425
 20
12.5815832606
 10
24.7383422145
 20
12.5700291659
 10
24.7775511792
 20
12.5591134884
 10
24.8174160546
 20
12.548847331
 10
24.8578962916
 20
12.539241136
 10
24.8989507152
 20
12.5303046747
 10
24.9405375664
 20
12.5220470368
 10
24.9826145446
 20
12.5144766216
 10
25.0251388507
 20
12.5076011295
 10
25.0680672305
 20
12.5014275541
 10
25.1113560189
 20
12.4959621748
 10
25.1549611841
 20
12.4912105508
 10
25.1988383725
 20
12.4871775153
 10
25.242942954
 20
12.4838671705
 10
25.287230067
 20
12.4812828837
 10
25.3316546643
 20
12.4794272834
 10
25.3761715588
 20
12.4783022571
 10
25.4207354696
 20
12.4779089491
 10
25.465301068
 20
12.4782477595
 10
25.5098230234
 20
12.4793183437
 10
25.5542560499
 20
12.4811196127
 10
25.5985549517
 20
12.4836497343
 10
25.6426746698
 20
12.486906135
 10
25.6865703271
 20
12.4908855025
 10
25.7301972746
 20
12.495583789
 10
25.7735111366
 20
12.5009962158
 10
25.816467856
 20
12.5071172775
 10
25.8590237386
 20
12.5139407479
 10
25.9011354982
 20
12.5214596865
 10
25.9427603004
 20
12.5296664454
 10
25.9838558059
 20
12.5385526768
 10
26.0243802139
 20
12.548109342
 10
26.0642923044
 20
12.5583267204
 10
26.1035514805
 20
12.5691944193
 10
26.142117809
 20
12.5807013843
 10
26.1799520618
 20
12.5928359111
 10
26.2170157553
 20
12.6055856568
 10
26.2532711897
 20
12.6189376529
 10
26.2886814873
 20
12.6328783183
 10
26.32321063
 20
12.647393473
 10
26.3568234961
 20
12.6624683527
 10
26.3894858959
 20
12.6780876239
 10
26.4211646063
 20
12.6942353991
 10
26.451827405
 20
12.7108952535
 10
26.4814431028
 20
12.7280502413
 10
26.5099815759
 20
12.7456829131
 10
26.5374137959
 20
12.7637753335
 10
26.5637118598
 20
12.7823090997
 10
26.5888490182
 20
12.8012653597
 10
26.6127997026
 20
12.820624832
 10
26.635539551
 20
12.8403678249
 10
26.6570454335
 20
12.8604742565
 10
26.6772954751
 20
12.8809236753
 10
26.6962690781
 20
12.9016952808
 10
26.7139469434
 20
12.9227679451
 10
26.7303110896
 20
12.9441202337
 10
26.7453448717
 20
12.9657304279
 10
26.759032998
 20
12.9875765467
 10
26.7713615454
 20
13.009636369
 10
26.7823179737
 20
13.0318874562
 10
26.7918911386
 20
13.0543071756
 10
26.8000713024
 20
13.0768727225
 10
26.8068501447
 20
13.0995611441
 10
26.8122207703
 20
13.1223493626
 10
26.8161777163
 20
13.1452141987
 10
26.818716958
 20
13.168132395
 10
26.8198359124
 20
13.1910806402
 10
26.8195334415
 20
13.2140355921
 10
26.8178098529
 20
13.2369739017
 10
26.8146668997
 20
13.259872237
 10
26.8101077789
 20
13.2827073068
 10
26.8041371278
 20
13.305455884
 10
26.7967610196
 20
13.3280948296
 10
26.7879869569
 20
13.3506011162
 10
26.7778238645
 20
13.3729518512
 10
26.7662820797
 20
13.3951243002
 10
26.7533733426
 20
13.4170959103
 10
26.7391107833
 20
13.4388443327
 10
26.7235089093
 20
13.4603474457
 10
26.7065835902
 20
13.4815833773
 10
26.6883520417
 20
13.502530527
 10
26.6688328084
 20
13.5231675881
 10
26.6480457444
 20
13.5434735694
 10
26.6260119936
 20
13.5634278164
 10
26.602753968
 20
13.5830100323
 10
26.5782953246
 20
13.602200299
 10
26.552660942
 20
13.6209790966
 10
26.5258768945
 20
13.6393273243
 10
26.4979704258
 20
13.6572263188
 10
26.4689699213
 20
13.6746578739
 10
26.4389048792
 20
13.6916042589
 10
26.4078058807
 20
13.7080482365
 10
26.3757045585
 20
13.7239730807
 10
26.3426335647
 20
13.7393625931
 10
26.3086265381
 20
13.7542011202
 10
26.2737180692
 20
13.7684735688
 10
26.2379436658
 20
13.7821654215
 10
26.2013397161
 20
13.7952627513
 10
26.1639434524
 20
13.8077522363
 10
26.1257929127
 20
13.8196211726
 10
26.0869269023
 20
13.8308574874
 10
26.0473849544
 20
13.8414497518
 10
26.0072072895
 20
13.8513871915
 10
25.9664347749
 20
13.8606596987
 10
25.9251088827
 20
13.8692578416
 10
25.8832716482
 20
13.8771728746
 10
25.8409656267
 20
13.8843967467
 10
25.7982338503
 20
13.8909221102
 10
25.7551197841
 20
13.8967423277
 10
25.7116672822
 20
13.901851479
 10
25.6679205428
 20
13.9062443673
 10
25.6239240636
 20
13.9099165243
 10
25.5797225959
 20
13.9128642149
 10
25.5353611001
 20
13.9150844408
 10
25.4908846989
 20
13.9165749436
 10
25.4463386321
 20
13.9173342073
 10
25.4017682102
 20
13.9173614596
 10
25.3572187687
 20
13.9166566726
 10
25.3127356215
 20
13.9152205634
 10
25.2683640154
 20
13.9130545927
 10
25.2241490833
 20
13.9101609637
 10
25.1801357992
 20
13.9065426195
 10
25.1363689317
 20
13.9022032407
 10
25.0928929988
 20
13.8971472411
 10
25.0497522226
 20
13.8913797635
 10
25.0069904843
 20
13.8849066744
 10
24.9646512796
 20
13.8777345579
 10
24.9227776743
 20
13.8698707093
 10
24.8814122608
 20
13.8613231273
 10
24.8405971143
 20
13.8521005063
 10
24.8003737504
 20
13.8422122272
 10
24.7607830831
 20
13.8316683479
 10
24.7218653822
 20
13.8204795932
 10
24.6836602336
 20
13.8086573441
 10
24.6462064981
 20
13.7962136256
 10
24.6095422722
 20
13.7831610949
 10
24.5737048493
 20
13.7695130288
 10
24.5387306821
 20
13.7552833094
 10
24.5046553449
 20
13.7404864107
 10
24.4715134979
 20
13.7251373836
 10
24.4393388517
 20
13.7092518405
 10
24.4081641331
 20
13.6928459396
 10
24.3780210521
 20
13.6759363684
 10
24.3489402689
 20
13.6585403267
 10
24.3209513635
 20
13.640675509
 10
24.2940828051
 20
13.6223600869
 10
24.2683619234
 20
13.6036126899
 10
24.2438148808
 20
13.5844523875
 10
24.2204666456
 20
13.5648986685
 10
24.1983409668
 20
13.5449714225
 10
24.1774603497
 20
13.5246909186
 10
24.1578460334
 20
13.5040777854
 10
24.1395179688
 20
13.4831529898
 10
24.1224947985
 20
13.4619378158
 10
24.1067938379
 20
13.4404538426
 10
24.0924310574
 20
13.4187229229
 10
24.0794210663
 20
13.3967671607
 10
24.0677770978
 20
13.3746088884
 10
24.0575109959
 20
13.3522706447
 10
24.0486332027
 20
13.3297751512
 10
24.0411527485
 20
13.3071452895
 10
24.035077242
 20
13.2844040778
 10
24.0304128631
 20
13.2615746477
 10
24.0271643562
 20
13.2386802204
 10
24.0253350255
 20
13.2157440832
 10
24.0249267319
 20
13.1927895659
 10
24.0259398905
 20
13.1698400171
 10
24.0283734708
 20
13.1469187801
 10
24.0322249975
 20
13.1240491696
 10
24.037490553
 20
13.1012544477
 10
24.0441647813
 20
13.0785578003
 10
24.0522408936
 20
13.0559823136
 10
24.0617106753
 20
13.0335509506
 10
24.072564494
 20
13.0112865276
 10
24.0847913096
 20
12.9892116912
 10
24.0983786855
 20
12.967348895
 10
24.1133128011
 20
12.9457203772
 10
24.1295784659
 20
12.9243481373
 10
24.1471591352
 20
12.9032539145
 10
24.1660369265
 20
12.882459165
 10
24.186192638
 20
12.8619850404
  0
LWPOLYLINE
  5
164
330
1F
100
AcDbEntity
  8
0
  6
Continuous
 62
     7
370
    25
100
AcDbPolyline
 90
       60
 70
   128
 43
0.0
 10
24.2996525051
 20
13.6262578019
 10
24.3189122072
 20
13.6131882796
 10
24.3468186759
 20
13.5952892851
 10
24.3758191804
 20
13.57785773
 10
24.4058842224
 20
13.560911345
 10
24.4369832209
 20
13.5444673673
 10
24.4690845432
 20
13.5285425232
 10
24.502155537
 20
13.5131530107
 10
24.5361625636
 20
13.4983144836
 10
24.5710710324
 20
13.4840420351
 10
24.6068454359
 20
13.4703501824
 10
24.6434493856
 20
13.4572528525
 10
24.6808456493
 20
13.4447633675
 10
24.718996189
 20
13.4328944313
 10
24.7578621993
 20
13.4216581164
 10
24.7974041472
 20
13.4110658521
 10
24.8375818121
 20
13.4011284123
 10
24.8783543268
 20
13.3918559052
 10
24.919680219
 20
13.3832577623
 10
24.9615174534
 20
13.3753427293
 10
25.0038234749
 20
13.3681188571
 10
25.0465552514
 20
13.3615934936
 10
25.0896693175
 20
13.3557732762
 10
25.1331218195
 20
13.3506641249
 10
25.1768685588
 20
13.3462712366
 10
25.2208650381
 20
13.3425990795
 10
25.2650665057
 20
13.3396513889
 10
25.3094280016
 20
13.337431163
 10
25.3539044028
 20
13.3359406602
 10
25.3984504696
 20
13.3351813965
 10
25.4430208915
 20
13.3351541443
 10
25.487570333
 20
13.3358589312
 10
25.5320534801
 20
13.3372950404
 10
25.5764250863
 20
13.3394610111
 10
25.6206400183
 20
13.3423546402
 10
25.6646533024
 20
13.3459729844
 10
25.70842017
 20
13.3503123632
 10
25.7518961029
 20
13.3553683627
 10
25.7950368791
 20
13.3611358403
 10
25.8377986173
 20
13.3676089294
 10
25.880137822
 20
13.3747810459
 10
25.9220114273
 20
13.3826448946
 10
25.9633768409
 20
13.3911924765
 10
26.0041919874
 20
13.4004150975
 10
26.0444153512
 20
13.4103033767
 10
26.0840060186
 20
13.420847256
 10
26.1229237194
 20
13.4320360106
 10
26.161128868
 20
13.4438582598
 10
26.1985826036
 20
13.4563019783
 10
26.2352468295
 20
13.4693545089
 10
26.2710842523
 20
13.4830025751
 10
26.3060584195
 20
13.4972322944
 10
26.3401337568
 20
13.5120291931
 10
26.3732756038
 20
13.5273782202
 10
26.40545025
 20
13.5432637633
 10
26.4366249685
 20
13.5596696642
 10
26.4667680496
 20
13.5765792354
 10
26.4958488328
 20
13.5939752772
 10
26.5238377382
 20
13.6118400948
 10
26.5451365965
 20
13.6262578019
  0
LWPOLYLINE
  5
165
330
1F
100
AcDbEntity
  8
0
  6
Continuous
 62
     7
370
    25
100
AcDbPolyline
 90
       59
 70
   128
 43
0.0
 10
26.4582159668
 20
13.6808447201
 10
26.4493011457
 20
13.6743792861
 10
26.4239057117
 20
13.6568265078
 10
26.3973797234
 20
13.6397230281
 10
26.3697531244
 20
13.6230881542
 10
26.3410571012
 20
13.6069406644
 10
26.3113240471
 20
13.5912987868
 10
26.2805875263
 20
13.5761801786
 10
26.2488822356
 20
13.5616019064
 10
26.2162439655
 20
13.547580427
 10
26.1827095597
 20
13.5341315684
 10
26.1483168734
 20
13.5212705124
 10
26.1131047308
 20
13.5090117772
 10
26.077112881
 20
13.497369201
 10
26.0403819534
 20
13.4863559265
 10
26.0029534117
 20
13.4759843861
 10
25.9648695069
 20
13.4662662875
 10
25.9261732301
 20
13.4572126012
 10
25.8869082635
 20
13.4488335474
 10
25.8471189313
 20
13.4411385846
 10
25.8068501496
 20
13.4341363994
 10
25.7661473757
 20
13.4278348962
 10
25.725056557
 20
13.4222411884
 10
25.6836240788
 20
13.4173615905
 10
25.6418967119
 20
13.4132016108
 10
25.5999215604
 20
13.4097659452
 10
25.5577460078
 20
13.4070584722
 10
25.5154176639
 20
13.4050822481
 10
25.472984311
 20
13.4038395036
 10
25.4304938499
 20
13.4033316417
 10
25.3879942459
 20
13.4035592357
 10
25.3455334747
 20
13.4045220287
 10
25.303159468
 20
13.4062189338
 10
25.2609200596
 20
13.4086480354
 10
25.2188629314
 20
13.4118065916
 10
25.1770355597
 20
13.4156910366
 10
25.135485161
 20
13.4202969857
 10
25.0942586396
 20
13.4256192393
 10
25.053402534
 20
13.4316517895
 10
25.0129629644
 20
13.4383878265
 10
24.972985581
 20
13.4458197461
 10
24.9335155123
 20
13.4539391591
 10
24.894597314
 20
13.4627368997
 10
24.8562749188
 20
13.4722030366
 10
24.8185915869
 20
13.482326884
 10
24.7815898571
 20
13.4930970137
 10
24.7453114987
 20
13.5045012677
 10
24.7097974646
 20
13.5165267725
 10
24.6750878445
 20
13.5291599529
 10
24.6412218206
 20
13.5423865482
 10
24.6082376223
 20
13.5561916274
 10
24.5761724838
 20
13.5705596067
 10
24.5450626019
 20
13.5854742668
 10
24.5149430948
 20
13.6009187714
 10
24.485847963
 20
13.616875686
 10
24.4578100504
 20
13.6333269975
 10
24.4308610075
 20
13.650254135
 10
24.4050312559
 20
13.6676379903
 10
24.3865731349
 20
13.6808447201
  0
LWPOLYLINE
  5
166
330
1F
100
AcDbEntity
  8
0
  6
Continuous
 62
     7
370
    25
100
AcDbPolyline
 90
       53
 70
   128
 43
0.0
 10
26.386479439
 20
13.718740638
 10
26.3697531244
 20
13.7088048843
 10
26.3410571012
 20
13.6926573945
 10
26.3113240471
 20
13.6770155168
 10
26.2805875263
 20
13.6618969086
 10
26.2488822356
 20
13.6473186365
 10
26.2162439655
 20
13.6332971571
 10
26.1827095597
 20
13.6198482985
 10
26.1483168734
 20
13.6069872425
 10
26.1131047308
 20
13.5947285073
 10
26.077112881
 20
13.5830859311
 10
26.0403819534
 20
13.5720726566
 10
26.0029534117
 20
13.5617011161
 10
25.9648695069
 20
13.5519830176
 10
25.9261732301
 20
13.5429293313
 10
25.8869082635
 20
13.5345502774
 10
25.8471189313
 20
13.5268553147
 10
25.8068501496
 20
13.5198531295
 10
25.7661473757
 20
13.5135516263
 10
25.725056557
 20
13.5079579185
 10
25.6836240788
 20
13.5030783206
 10
25.6418967119
 20
13.4989183409
 10
25.5999215604
 20
13.4954826753
 10
25.5577460078
 20
13.4927752023
 10
25.5154176639
 20
13.4907989781
 10
25.472984311
 20
13.4895562337
 10
25.4304938499
 20
13.4890483718
 10
25.3879942459
 20
13.4892759658
 10
25.3455334747
 20
13.4902387588
 10
25.303159468
 20
13.4919356639
 10
25.2609200596
 20
13.4943647655
 10
25.2188629314
 20
13.4975233216
 10
25.1770355597
 20
13.5014077667
 10
25.135485161
 20
13.5060137158
 10
25.0942586396
 20
13.5113359694
 10
25.053402534
 20
13.5173685196
 10
25.0129629644
 20
13.5241045565
 10
24.972985581
 20
13.5315364762
 10
24.9335155123
 20
13.5396558891
 10
24.894597314
 20
13.5484536297
 10
24.8562749188
 20
13.5579197667
 10
24.8185915869
 20
13.5680436141
 10
24.7815898571
 20
13.5788137438
 10
24.7453114987
 20
13.5902179978
 10
24.7097974646
 20
13.6022435026
 10
24.6750878445
 20
13.614876683
 10
24.6412218206
 20
13.6281032783
 10
24.6082376223
 20
13.6419083574
 10
24.5761724838
 20
13.6562763368
 10
24.5450626019
 20
13.6711909969
 10
24.5149430948
 20
13.6866355015
 10
24.485847963
 20
13.702592416
 10
24.4583096626
 20
13.718740638
  0
ARC
  5
167
330
1F
100
AcDbEntity
  8
0
  6
Continuous
 62
     7
370
    25
100
AcDbCircle
 10
25.753925199
 20
22.6443394379
 30
0.0
 40
0.168616084110126
100
AcDbArc
 50
2.3904651533
 51
48.9379569995
  0
LWPOLYLINE
  5
168
330
1F
100
AcDbEntity
  8
0
  6
Continuous
 62
     7
370
    25
100
AcDbPolyline
 90
       51
 70
   128
 43
0.0
 10
24.9223945508
 20
22.651372311
 10
24.9225504384
 20
22.6578023138
 10
24.9239411553
 20
22.6716114886
 10
24.9267690423
 20
22.6853623085
 10
24.9310259461
 20
22.6990151265
 10
24.9366995927
 20
22.7125305779
 10
24.9437736236
 20
22.7258696943
 10
24.9522276425
 20
22.7389940153
 10
24.9620372744
 20
22.7518657003
 10
24.9731742355
 20
22.7644476369
 10
24.985606415
 20
22.776703548
 10
24.9992979678
 20
22.7885980967
 10
25.0142094175
 20
22.800096988
 10
25.0302977707
 20
22.8111670675
 10
25.0475166404
 20
22.8217764173
 10
25.0658163801
 20
22.831894448
 10
25.0851442271
 20
22.8414919867
 10
25.105444454
 20
22.8505413611
 10
25.1266585301
 20
22.8590164796
 10
25.1487252897
 20
22.8668929062
 10
25.1715811086
 20
22.8741479311
 10
25.1951600876
 20
22.8807606362
 10
25.2193942424
 20
22.8867119555
 10
25.2442136996
 20
22.8919847296
 10
25.2695468983
 20
22.8965637558
 10
25.2953207964
 20
22.9004358316
 10
25.3214610811
 20
22.9035897928
 10
25.347892383
 20
22.9060165457
 10
25.374538494
 20
22.9077090933
 10
25.4013225864
 20
22.9086625557
 10
25.4281674347
 20
22.9088741836
 10
25.4549956383
 20
22.9083433671
 10
25.4817298445
 20
22.9070716364
 10
25.5082929717
 20
22.9050626584
 10
25.5346084316
 20
22.9023222254
 10
25.5606003497
 20
22.8988582389
 10
25.5861937848
 20
22.8946806864
 10
25.6113149442
 20
22.8898016128
 10
25.6358913973
 20
22.8842350859
 10
25.6598522837
 20
22.8779971553
 10
25.683128518
 20
22.8711058066
 10
25.7056529887
 20
22.8635809093
 10
25.7273607521
 20
22.8554441597
 10
25.7481892189
 20
22.8467190182
 10
25.7680783354
 20
22.8374306415
 10
25.786970756
 20
22.8276058105
 10
25.8048120091
 20
22.8172728527
 10
25.8215506536
 20
22.8064615607
 10
25.8371384278
 20
22.7952031062
 10
25.851530388
 20
22.7835299503
 10
25.8646850384
 20
22.7714757497
  0
LWPOLYLINE
  5
169
330
1F
100
AcDbEntity
  8
0
  6
Continuous
 62
     7
370
    25
100
AcDbPolyline
 90
      105
 70
   128
 43
0.0
 10
24.2634237496
 20
23.8263789893
 10
24.3213626416
 20
23.8416164196
 10
24.380056126
 20
23.8560674891
 10
24.439463977
 20
23.8697222936
 10
24.4995454795
 20
23.8825714749
 10
24.5602594567
 20
23.8946062268
 10
24.6215642982
 20
23.9058183012
 10
24.6834179887
 20
23.916200014
 10
24.7457781369
 20
23.9257442501
 10
24.8086020042
 20
23.9344444683
 10
24.8718465342
 20
23.9422947058
 10
24.9354683824
 20
23.9492895827
 10
24.9994239454
 20
23.9554243048
 10
25.0636693913
 20
23.9606946679
 10
25.1281606896
 20
23.9650970598
 10
25.192853641
 20
23.9686284633
 10
25.2577039083
 20
23.9712864583
 10
25.3226670464
 20
23.973069223
 10
25.3876985327
 20
23.9739755356
 10
25.4527537979
 20
23.9740047751
 10
25.5177882564
 20
23.9731569213
 10
25.5827573368
 20
23.9714325554
 10
25.6476165126
 20
23.968832859
 10
25.7123213325
 20
23.9653596141
 10
25.7768274511
 20
23.9610152008
 10
25.8410906591
 20
23.9558025967
 10
25.9050669136
 20
23.9497253742
 10
25.9687123686
 20
23.9427876984
 10
26.0319834047
 20
23.9349943239
 10
26.0948366591
 20
23.926350592
 10
26.1572290552
 20
23.9168624267
 10
26.2191178324
 20
23.9065363306
 10
26.2804605753
 20
23.8953793809
 10
26.3412152427
 20
23.8833992237
 10
26.4013401962
 20
23.8706040699
 10
26.4607942292
 20
23.8570026885
 10
26.519536595
 20
23.8426044012
 10
26.5775270345
 20
23.827419076
 10
26.6347258038
 20
23.81145712
 10
26.6910937018
 20
23.7947294729
 10
26.7465920969
 20
23.7772475988
 10
26.801182953
 20
23.759023479
 10
26.8548288565
 20
23.7400696034
 10
26.9074930411
 20
23.7203989621
 10
26.9591394133
 20
23.7000250363
 10
27.0097325774
 20
23.6789617892
 10
27.0592378592
 20
23.6572236567
 10
27.1076213305
 20
23.6348255369
 10
27.1548498314
 20
23.6117827803
 10
27.2008909941
 20
23.5881111793
 10
27.2457132641
 20
23.5638269573
 10
27.2892859226
 20
23.5389467575
 10
27.331579107
 20
23.5134876314
 10
27.3725638316
 20
23.4874670276
 10
27.4122120076
 20
23.4609027792
 10
27.4504964622
 20
23.433813092
 10
27.487390957
 20
23.4062165319
 10
27.5228702064
 20
23.3781320124
 10
27.5569098947
 20
23.349578781
 10
27.5894866928
 20
23.3205764067
 10
27.6205782742
 20
23.2911447664
 10
27.6501633303
 20
23.261304031
 10
27.678221585
 20
23.2310746518
 10
27.7047338085
 20
23.2004773466
 10
27.7296818306
 20
23.1695330852
 10
27.7530485533
 20
23.1382630753
 10
27.7748179622
 20
23.1066887477
 10
27.7949751376
 20
23.074831742
 10
27.8135062648
 20
23.0427138913
 10
27.8303986434
 20
23.0103572077
 10
27.8456406963
 20
22.9777838667
 10
27.8592219773
 20
22.9450161925
 10
27.8711331786
 20
22.9120766424
 10
27.8813661367
 20
22.8789877916
 10
27.8899138385
 20
22.8457723175
 10
27.8967704258
 20
22.8124529844
 10
27.9019311995
 20
22.7790526275
 10
27.9053926227
 20
22.745594138
 10
27.907152323
 20
22.7121004464
 10
27.9072090944
 20
22.6785945079
 10
27.9055628981
 20
22.6450992856
 10
27.9022148622
 20
22.6116377355
 10
27.8971672814
 20
22.5782327904
 10
27.8904236149
 20
22.5449073445
 10
27.8819884846
 20
22.5116842374
 10
27.8718676715
 20
22.4785862385
 10
27.8600681119
 20
22.4456360315
 10
27.8465978925
 20
22.4128561989
 10
27.8314662453
 20
22.3802692063
 10
27.8146835407
 20
22.3478973871
 10
27.7962612807
 20
22.3157629276
 10
27.776212091
 20
22.2838878509
 10
27.7545497124
 20
22.2522940026
 10
27.7312889911
 20
22.2210030358
 10
27.7064458689
 20
22.1900363954
 10
27.680037372
 20
22.1594153047
 10
27.6520815995
 20
22.1291607497
 10
27.6225977108
 20
22.0992934654
 10
27.5916059128
 20
22.0698339214
 10
27.5591274457
 20
22.0408023077
 10
27.5251845687
 20
22.0122185211
 10
27.4898005443
 20
21.9841021517
 10
27.4529996232
 20
21.9564724688
 10
27.4148070268
 20
21.9293484086
 10
27.4087887733
 20
21.9252074262
  0
LWPOLYLINE
  5
16A
330
1F
100
AcDbEntity
  8
0
  6
Continuous
 62
     7
370
    25
100
AcDbPolyline
 90
       68
 70
   128
 43
0.0
 10
23.4360003284
 20
21.9252074262
 10
23.432577094
 20
21.927558573
 10
23.3942926395
 20
21.9546482601
 10
23.3573981447
 20
21.9822448202
 10
23.3219188953
 20
22.0103293398
 10
23.287879207
 20
22.0388825711
 10
23.2553024088
 20
22.0678849454
 10
23.2242108274
 20
22.0973165857
 10
23.1946257713
 20
22.1271573211
 10
23.1665675167
 20
22.1573867003
 10
23.1400552932
 20
22.1879840055
 10
23.115107271
 20
22.2189282669
 10
23.0917405483
 20
22.2501982768
 10
23.0699711394
 20
22.2817726044
 10
23.0498139641
 20
22.3136296101
 10
23.0312828369
 20
22.3457474608
 10
23.0143904583
 20
22.3781041445
 10
22.9991484054
 20
22.4106774854
 10
22.9855671243
 20
22.4434451596
 10
22.9736559231
 20
22.4763847097
 10
22.963422965
 20
22.5094735605
 10
22.9548752632
 20
22.5426890346
 10
22.9480186758
 20
22.5760083678
 10
22.9428579021
 20
22.6094087246
 10
22.939396479
 20
22.6428672142
 10
22.9376367787
 20
22.6763609057
 10
22.9375800072
 20
22.7098668442
 10
22.9392262036
 20
22.7433620665
 10
22.9425742394
 20
22.7768236166
 10
22.9476218203
 20
22.8102285617
 10
22.9543654867
 20
22.8435540076
 10
22.962800617
 20
22.8767771147
 10
22.9729214301
 20
22.9098751136
 10
22.9847209898
 20
22.9428253206
 10
22.9981912091
 20
22.9756051532
 10
23.0133228563
 20
23.0081921459
 10
23.030105561
 20
23.040563965
 10
23.048527821
 20
23.0726984246
 10
23.0685770106
 20
23.1045735012
 10
23.0902393893
 20
23.1361673495
 10
23.1135001106
 20
23.1674583164
 10
23.1383432328
 20
23.1984249567
 10
23.1647517297
 20
23.2290460474
 10
23.1927075022
 20
23.2593006024
 10
23.2221913908
 20
23.2891678867
 10
23.2531831888
 20
23.3186274307
 10
23.2856616559
 20
23.3476590444
 10
23.319604533
 20
23.376242831
 10
23.3549885573
 20
23.4043592004
 10
23.3917894785
 20
23.4319888833
 10
23.4299820749
 20
23.4591129435
 10
23.4695401713
 20
23.4857127916
 10
23.5104366565
 20
23.5117701975
 10
23.5526435022
 20
23.5372673025
 10
23.5961317819
 20
23.5621866324
 10
23.6408716908
 20
23.5865111086
 10
23.6868325665
 20
23.6102240604
 10
23.7339829097
 20
23.6333092361
 10
23.7822904059
 20
23.6557508142
 10
23.8317219476
 20
23.6775334145
 10
23.8822436568
 20
23.6986421082
 10
23.9338209085
 20
23.7190624284
 10
23.9864183542
 20
23.7387803802
 10
24.0399999463
 20
23.7577824498
 10
24.0945289626
 20
23.7760556141
 10
24.1499680316
 20
23.7935873496
 10
24.2062791582
 20
23.810365641
 10
24.2634237496
 20
23.8263789893
  0
LWPOLYLINE
  5
16B
330
1F
100
AcDbEntity
  8
0
  6
Continuous
 62
     7
370
    25
100
AcDbPolyline
 90
       95
 70
   128
 43
0.0
 10
24.2867430816
 20
23.7607409801
 10
24.2307482808
 20
23.745049832
 10
24.1755701749
 20
23.728609132
 10
24.1212465801
 20
23.7114301477
 10
24.0678147271
 20
23.6935246527
 10
24.0153112355
 20
23.6749049185
 10
23.9637720884
 20
23.6555837062
 10
23.9132326084
 20
23.6355742576
 10
23.8637274326
 20
23.6148902861
 10
23.8152904893
 20
23.5935459675
 10
23.767954975
 20
23.5715559302
 10
23.7217533308
 20
23.548935245
 10
23.6767172212
 20
23.525699415
 10
23.6328775116
 20
23.5018643648
 10
23.5902642477
 20
23.4774464299
 10
23.5489066343
 20
23.4524623451
 10
23.5088330159
 20
23.4269292331
 10
23.4700708571
 20
23.4008645932
 10
23.4326467234
 20
23.3742862887
 10
23.3965862634
 20
23.3472125351
 10
23.3619141913
 20
23.3196618874
 10
23.3286542695
 20
23.2916532273
 10
23.2968292927
 20
23.2632057507
 10
23.2664610721
 20
23.234338954
 10
23.2375704207
 20
23.2050726211
 10
23.2101771386
 20
23.1754268097
 10
23.1842999997
 20
23.1454218375
 10
23.1599567391
 20
23.1150782684
 10
23.1371640404
 20
23.0844168984
 10
23.1159375245
 20
23.0534587413
 10
23.0962917391
 20
23.0222250143
 10
23.0782401483
 20
22.9907371233
 10
23.0617951238
 20
22.9590166486
 10
23.0469679363
 20
22.9270853299
 10
23.0337687476
 20
22.8949650512
 10
23.0222066036
 20
22.8626778263
 10
23.0122894286
 20
22.8302457831
 10
23.0040240192
 20
22.7976911489
 10
22.9974160402
 20
22.7650362352
 10
22.9924700203
 20
22.7323034218
 10
22.9891893494
 20
22.6995151423
 10
22.9875762757
 20
22.6666938682
 10
22.9876319049
 20
22.6338620934
 10
22.9893561987
 20
22.6010423192
 10
22.9927479755
 20
22.5682570387
 10
22.9978049108
 20
22.5355287212
 10
23.0045235386
 20
22.5028797971
 10
23.0128992544
 20
22.4703326424
 10
23.022926318
 20
22.4379095633
 10
23.0345978573
 20
22.4056327808
 10
23.0479058731
 20
22.373524416
 10
23.0628412449
 20
22.3416064742
 10
23.0793937366
 20
22.3099008305
 10
23.097552004
 20
22.2784292142
 10
23.1173036024
 20
22.2472131945
 10
23.1386349951
 20
22.2162741653
 10
23.1615315624
 20
22.1856333306
 10
23.1859776123
 20
22.1553116902
 10
23.2119563906
 20
22.1253300249
 10
23.2394500928
 20
22.0957088828
 10
23.2684398762
 20
22.0664685645
 10
23.2989058725
 20
22.0376291101
 10
23.3308272018
 20
22.0092102847
 10
23.3641819869
 20
21.981231565
 10
23.3989473681
 20
21.9537121263
 10
23.435099519
 20
21.926670829
 10
23.4726136626
 20
21.900126206
 10
23.5114640886
 20
21.8740964495
 10
23.5516241709
 20
21.848599399
 10
23.5930663857
 20
21.823652529
 10
23.6357623308
 20
21.7992729368
 10
23.6796827443
 20
21.7754773309
 10
23.7247975254
 20
21.7522820198
 10
23.7710757547
 20
21.7297029001
 10
23.8184857154
 20
21.7077554467
 10
23.8669949152
 20
21.6864547011
 10
23.9165701081
 20
21.6658152619
 10
23.9671773179
 20
21.6458512742
 10
24.018781861
 20
21.6265764204
 10
24.07134837
 20
21.6080039105
 10
24.1248408186
 20
21.5901464733
 10
24.1792225457
 20
21.5730163472
 10
24.2344562808
 20
21.5566252724
 10
24.2905041695
 20
21.5409844825
 10
24.3473277993
 20
21.526104697
 10
24.4048882261
 20
21.5119961137
 10
24.463146001
 20
21.498668402
 10
24.5220611969
 20
21.4861306959
 10
24.5815934363
 20
21.4743915882
 10
24.6417019188
 20
21.4634591243
 10
24.702345449
 20
21.4533407968
 10
24.7634824649
 20
21.4440435402
 10
24.8250710662
 20
21.4355737265
 10
24.8870690432
 20
21.4279371604
 10
24.9223945508
 20
21.423978657
  0
LWPOLYLINE
  5
16C
330
1F
100
AcDbEntity
  8
0
  6
Continuous
 62
     7
370
    25
100
AcDbPolyline
 90
      133
 70
   128
 43
0.0
 10
25.9223945508
 20
21.423978657
 10
25.9618651425
 20
21.4284202335
 10
26.0238371468
 20
21.4361125187
 10
26.0853969524
 20
21.4446376821
 10
26.1465023692
 20
21.4539898813
 10
26.2071115187
 20
21.4641627065
 10
26.2671828624
 20
21.4751491859
 10
26.3266752304
 20
21.4869417898
 10
26.3855478496
 20
21.4995324363
 10
26.4437603716
 20
21.5129124963
 10
26.5012729005
 20
21.5270727997
 10
26.5580460201
 20
21.5420036419
 10
26.6140408208
 20
21.55769479
 10
26.6692189268
 20
21.57413549
 10
26.7235425216
 20
21.5913144744
 10
26.7769743746
 20
21.6092199694
 10
26.8294778662
 20
21.6278397035
 10
26.8810170132
 20
21.6471609158
 10
26.9315564933
 20
21.6671703645
 10
26.9810616691
 20
21.6878543359
 10
27.0294986123
 20
21.7091986545
 10
27.0768341267
 20
21.7311886918
 10
27.1230357709
 20
21.753809377
 10
27.1680718805
 20
21.7770452071
 10
27.21191159
 20
21.8008802572
 10
27.254524854
 20
21.8252981921
 10
27.2958824674
 20
21.850282277
 10
27.3359560857
 20
21.8758153889
 10
27.3747182446
 20
21.9018800288
 10
27.4121423783
 20
21.9284583333
 10
27.4482028382
 20
21.9555320869
 10
27.4828749104
 20
21.9830827347
 10
27.5161348322
 20
22.0110913947
 10
27.547959809
 20
22.0395388713
 10
27.5783280295
 20
22.068405668
 10
27.607218681
 20
22.0976720009
 10
27.6346119631
 20
22.1273178123
 10
27.6604891019
 20
22.1573227845
 10
27.6848323625
 20
22.1876663536
 10
27.7076250613
 20
22.2183277236
 10
27.7288515771
 20
22.2492858807
 10
27.7484973626
 20
22.2805196078
 10
27.7665489534
 20
22.3120074987
 10
27.7829939778
 20
22.3437279734
 10
27.7978211653
 20
22.3756592921
 10
27.8110203541
 20
22.4077795708
 10
27.8225824981
 20
22.4400667958
 10
27.8324996731
 20
22.472498839
 10
27.8407650825
 20
22.5050534731
 10
27.8473730615
 20
22.5377083869
 10
27.8523190813
 20
22.5704412002
 10
27.8555997523
 20
22.6032294797
 10
27.857212826
 20
22.6360507539
 10
27.8571571968
 20
22.6688825287
 10
27.8554329029
 20
22.7017023029
 10
27.8520411261
 20
22.7344875834
 10
27.8469841909
 20
22.7672159008
 10
27.8402655631
 20
22.7998648249
 10
27.8318898472
 20
22.8324119796
 10
27.8218627836
 20
22.8648350587
 10
27.8101912444
 20
22.8971118412
 10
27.7968832286
 20
22.929220206
 10
27.7819478568
 20
22.9611381478
 10
27.7653953651
 20
22.9928437916
 10
27.7472370976
 20
23.0243154078
 10
27.7274854992
 20
23.0555314275
 10
27.7061541066
 20
23.0864704567
 10
27.6832575393
 20
23.1171112914
 10
27.6588114894
 20
23.1474329318
 10
27.6328327111
 20
23.1774145971
 10
27.6053390088
 20
23.2070357393
 10
27.5763492255
 20
23.2362760575
 10
27.5458832292
 20
23.2651155119
 10
27.5139618999
 20
23.2935343374
 10
27.4806071147
 20
23.3215130571
 10
27.4458417335
 20
23.3490324958
 10
27.4096895827
 20
23.376073793
 10
27.3721754391
 20
23.4026184161
 10
27.3333250131
 20
23.4286481726
 10
27.2931649308
 20
23.454145223
 10
27.2517227159
 20
23.479092093
 10
27.2090267709
 20
23.5034716852
 10
27.1651063574
 20
23.5272672911
 10
27.1199915763
 20
23.5504626023
 10
27.073713347
 20
23.5730417219
 10
27.0263033862
 20
23.5949891753
 10
26.9777941865
 20
23.6162899209
 10
26.9282189935
 20
23.6369293602
 10
26.8776117837
 20
23.6568933478
 10
26.8260072407
 20
23.6761682016
 10
26.7734407317
 20
23.6947407115
 10
26.7199482831
 20
23.7125981488
 10
26.6655665559
 20
23.7297282749
 10
26.6103328208
 20
23.7461193497
 10
26.5542849322
 20
23.7617601395
 10
26.4974613024
 20
23.776639925
 10
26.4399008755
 20
23.7907485083
 10
26.3816431007
 20
23.8040762201
 10
26.3227279048
 20
23.8166139262
 10
26.2631956654
 20
23.8283530338
 10
26.2030871829
 20
23.8392854977
 10
26.1424436527
 20
23.8494038252
 10
26.0813066368
 20
23.8587010818
 10
26.0197180354
 20
23.8671708955
 10
25.9577200584
 20
23.8748074616
 10
25.8953551961
 20
23.8816055464
 10
25.8326661901
 20
23.8875604908
 10
25.7696960044
 20
23.8926682135
 10
25.7064877957
 20
23.896925214
 10
25.6430848836
 20
23.9003285748
 10
25.5795307214
 20
23.9028759634
 10
25.515868866
 20
23.9045656338
 10
25.4521429479
 20
23.9053964282
 10
25.3883966417
 20
23.9053677771
 10
25.324673636
 20
23.9044797001
 10
25.2610176034
 20
23.9027328059
 10
25.1974721704
 20
23.9001282917
 10
25.134080888
 20
23.8966679425
 10
25.0708872014
 20
23.89235413
 10
25.0079344204
 20
23.8871898105
 10
24.9452656896
 20
23.8811785233
 10
24.8829239591
 20
23.8743243885
 10
24.8209519549
 20
23.8666321034
 10
24.7593921493
 20
23.8581069399
 10
24.6982867325
 20
23.8487547408
 10
24.6376775829
 20
23.8385819156
 10
24.5776062393
 20
23.8275954362
 10
24.5181138713
 20
23.8158028322
 10
24.4592412521
 20
23.8032121858
 10
24.4010287301
 20
23.7898321258
 10
24.3435162012
 20
23.7756718223
 10
24.2867430816
 20
23.7607409801
 10
24.2867430816
 20
23.7607409801
  0
LWPOLYLINE
  5
16D
330
1F
100
AcDbEntity
  8
0
  6
Continuous
 62
     7
370
    25
100
AcDbPolyline
 90
       80
 70
   128
 43
0.0
 10
24.2634237496
 20
24.104958362
 10
24.3213626416
 20
24.1201957923
 10
24.380056126
 20
24.1346468618
 10
24.439463977
 20
24.1483016663
 10
24.4995454795
 20
24.1611508476
 10
24.5602594567
 20
24.1731855995
 10
24.6215642982
 20
24.184397674
 10
24.6834179887
 20
24.1947793868
 10
24.7457781369
 20
24.2043236228
 10
24.8086020042
 20
24.213023841
 10
24.8718465342
 20
24.2208740786
 10
24.9354683824
 20
24.2278689554
 10
24.9994239454
 20
24.2340036776
 10
25.0636693913
 20
24.2392740406
 10
25.1281606896
 20
24.2436764325
 10
25.192853641
 20
24.247207836
 10
25.2577039083
 20
24.249865831
 10
25.3226670464
 20
24.2516485957
 10
25.3876985327
 20
24.2525549084
 10
25.4527537979
 20
24.2525841478
 10
25.5177882564
 20
24.251736294
 10
25.5827573368
 20
24.2500119281
 10
25.6476165126
 20
24.2474122318
 10
25.7123213325
 20
24.2439389868
 10
25.7768274511
 20
24.2395945735
 10
25.8410906591
 20
24.2343819694
 10
25.9050669136
 20
24.2283047469
 10
25.9687123686
 20
24.2213670711
 10
26.0319834047
 20
24.2135736966
 10
26.0948366591
 20
24.2049299648
 10
26.1572290552
 20
24.1954417994
 10
26.2191178324
 20
24.1851157034
 10
26.2804605753
 20
24.1739587536
 10
26.3412152427
 20
24.1619785965
 10
26.4013401962
 20
24.1491834426
 10
26.4607942292
 20
24.1355820612
 10
26.519536595
 20
24.121183774
 10
26.5775270345
 20
24.1059984487
 10
26.6347258038
 20
24.0900364927
 10
26.6910937018
 20
24.0733088456
 10
26.7465920969
 20
24.0558269715
 10
26.801182953
 20
24.0376028517
 10
26.8548288565
 20
24.0186489762
 10
26.9074930411
 20
23.9989783348
 10
26.9591394133
 20
23.978604409
 10
27.0097325774
 20
23.957541162
 10
27.0592378592
 20
23.9358030294
 10
27.1076213305
 20
23.9134049096
 10
27.1548498314
 20
23.890362153
 10
27.2008909941
 20
23.8666905521
 10
27.2457132641
 20
23.8424063301
 10
27.2892859226
 20
23.8175261302
 10
27.331579107
 20
23.7920670042
 10
27.3725638316
 20
23.7660464003
 10
27.4122120076
 20
23.7394821519
 10
27.4504964622
 20
23.7123924647
 10
27.487390957
 20
23.6847959047
 10
27.5228702064
 20
23.6567113851
 10
27.5569098947
 20
23.6281581537
 10
27.5894866928
 20
23.5991557795
 10
27.6205782742
 20
23.5697241391
 10
27.6501633303
 20
23.5398834037
 10
27.678221585
 20
23.5096540245
 10
27.7047338085
 20
23.4790567193
 10
27.7296818306
 20
23.4481124579
 10
27.7530485533
 20
23.416842448
 10
27.7748179622
 20
23.3852681204
 10
27.7949751376
 20
23.3534111147
 10
27.8135062648
 20
23.321293264
 10
27.8303986434
 20
23.2889365804
 10
27.8456406963
 20
23.2563632394
 10
27.8592219773
 20
23.2235955652
 10
27.8711331786
 20
23.1906560151
 10
27.8813661367
 20
23.1575671643
 10
27.8899138385
 20
23.1243516903
 10
27.8967704258
 20
23.0910323571
 10
27.9019311995
 20
23.0576320002
 10
27.9053926227
 20
23.0241735107
 10
27.907152323
 20
22.9906798192
 10
27.9073945508
 20
22.9728100488
  0
LWPOLYLINE
  5
16E
330
1F
100
AcDbEntity
  8
0
  6
Continuous
 62
     7
370
    25
100
AcDbPolyline
 90
       43
 70
   128
 43
0.0
 10
22.9373945508
 20
22.9728100488
 10
22.9375800072
 20
22.988446217
 10
22.9392262036
 20
23.0219414393
 10
22.9425742394
 20
23.0554029894
 10
22.9476218203
 20
23.0888079344
 10
22.9543654867
 20
23.1221333803
 10
22.962800617
 20
23.1553564874
 10
22.9729214301
 20
23.1884544863
 10
22.9847209898
 20
23.2214046933
 10
22.9981912091
 20
23.254184526
 10
23.0133228563
 20
23.2867715186
 10
23.030105561
 20
23.3191433377
 10
23.048527821
 20
23.3512777973
 10
23.0685770106
 20
23.383152874
 10
23.0902393893
 20
23.4147467222
 10
23.1135001106
 20
23.4460376891
 10
23.1383432328
 20
23.4770043294
 10
23.1647517297
 20
23.5076254201
 10
23.1927075022
 20
23.5378799751
 10
23.2221913908
 20
23.5677472594
 10
23.2531831888
 20
23.5972068035
 10
23.2856616559
 20
23.6262384172
 10
23.319604533
 20
23.6548222037
 10
23.3549885573
 20
23.6829385732
 10
23.3917894785
 20
23.710568256
 10
23.4299820749
 20
23.7376923162
 10
23.4695401713
 20
23.7642921644
 10
23.5104366565
 20
23.7903495702
 10
23.5526435022
 20
23.8158466753
 10
23.5961317819
 20
23.8407660051
 10
23.6408716908
 20
23.8650904814
 10
23.6868325665
 20
23.8888034332
 10
23.7339829097
 20
23.9118886088
 10
23.7822904059
 20
23.934330187
 10
23.8317219476
 20
23.9561127872
 10
23.8822436568
 20
23.9772214809
 10
23.9338209085
 20
23.9976418012
 10
23.9864183542
 20
24.0173597529
 10
24.0399999463
 20
24.0363618225
 10
24.0945289626
 20
24.0546349868
 10
24.1499680316
 20
24.0721667224
 10
24.2062791582
 20
24.0889450137
 10
24.2634237496
 20
24.104958362
  0
LWPOLYLINE
  5
16F
330
1F
100
AcDbEntity
  8
0
  6
Continuous
 62
     7
370
    25
100
AcDbPolyline
 90
       58
 70
   128
 43
0.0
 10
24.6607851672
 20
23.3953554883
 10
24.671839389
 20
23.3987707032
 10
24.6820970552
 20
23.4027915049
 10
24.6914336516
 20
23.4073690863
 10
24.6997358446
 20
23.4124478816
 10
24.7069028568
 20
23.4179662412
 10
24.7128476904
 20
23.4238571798
 10
24.7174981831
 20
23.4300491892
 10
24.7207978843
 20
23.4364671069
 10
24.7227067401
 20
23.4430330281
 10
24.7232015795
 20
23.4496672513
 10
24.7222763959
 20
23.4562892461
 10
24.7199424198
 20
23.4628186304
 10
24.7162279824
 20
23.4691761464
 10
24.711178172
 20
23.4752846224
 10
24.7048542864
 20
23.4810699098
 10
24.6973330891
 20
23.4864617831
 10
24.6887058772
 20
23.4913947921
 10
24.6790773733
 20
23.495809057
 10
24.6685644545
 20
23.4996509943
 10
24.6572947334
 20
23.5028739684
 10
24.6454050091
 20
23.5054388565
 10
24.6330396067
 20
23.5073145245
 10
24.6203486255
 20
23.5084782043
 10
24.6074861168
 20
23.5089157703
 10
24.594608214
 20
23.5086219112
 10
24.5818712374
 20
23.5076001939
 10
24.5694297968
 20
23.5058630207
 10
24.5574349142
 20
23.5034314787
 10
24.5460321913
 20
23.5003350833
 10
24.5353600419
 20
23.4966114206
 10
24.5255480111
 20
23.492305691
 10
24.516715204
 20
23.48747016
 10
24.5089688386
 20
23.4821635244
 10
24.5024029455
 20
23.4764501997
 10
24.4970972257
 20
23.4703995379
 10
24.4931160835
 20
23.4640849858
 10
24.4905078444
 20
23.4575831935
 10
24.489304169
 20
23.450973084
 10
24.4895196683
 20
23.444334895
 10
24.4911517265
 20
23.4377492052
 10
24.4941805324
 20
23.4312959558
 10
24.4985693207
 20
23.4250534807
 10
24.5042648172
 20
23.4190975551
 10
24.5111978864
 20
23.4135004757
 10
24.5192843702
 20
23.4083301835
 10
24.5284261096
 20
23.4036494389
 10
24.5385121364
 20
23.3995150598
 10
24.5494200198
 20
23.395977232
 10
24.5610173529
 20
23.3930788998
 10
24.5731633598
 20
23.3908552452
 10
24.5857106044
 20
23.3893332602
 10
24.5985067801
 20
23.3885314197
 10
24.6113965588
 20
23.388459457
 10
24.6242234759
 20
23.3891182456
 10
24.6368318301
 20
23.3904997886
 10
24.649068573
 20
23.3925873161
 10
24.6607851672
 20
23.3953554883
  0
LWPOLYLINE
  5
170
330
1F
100
AcDbEntity
  8
0
  6
Continuous
 62
     7
370
    25
100
AcDbPolyline
 90
       58
 70
   128
 43
0.0
 10
26.2931384083
 20
21.8007803992
 10
26.3041926302
 20
21.8041956142
 10
26.3144502964
 20
21.8082164159
 10
26.3237868928
 20
21.8127939972
 10
26.3320890858
 20
21.8178727926
 10
26.339256098
 20
21.8233911522
 10
26.3452009316
 20
21.8292820908
 10
26.3498514243
 20
21.8354741002
 10
26.3531511255
 20
21.8418920179
 10
26.3550599813
 20
21.8484579391
 10
26.3555548207
 20
21.8550921623
 10
26.3546296371
 20
21.8617141571
 10
26.352295661
 20
21.8682435414
 10
26.3485812236
 20
21.8746010574
 10
26.3435314132
 20
21.8807095334
 10
26.3372075276
 20
21.8864948208
 10
26.3296863303
 20
21.8918866941
 10
26.3210591184
 20
21.8968197031
 10
26.3114306145
 20
21.9012339679
 10
26.3009176957
 20
21.9050759053
 10
26.2896479746
 20
21.9082988794
 10
26.2777582502
 20
21.9108637675
 10
26.2653928479
 20
21.9127394355
 10
26.2527018666
 20
21.9139031152
 10
26.2398393579
 20
21.9143406813
 10
26.2269614552
 20
21.9140468221
 10
26.2142244786
 20
21.9130251049
 10
26.2017830379
 20
21.9112879317
 10
26.1897881554
 20
21.9088563897
 10
26.1783854325
 20
21.9057599943
 10
26.167713283
 20
21.9020363316
 10
26.1579012523
 20
21.8977306019
 10
26.1490684451
 20
21.8928950709
 10
26.1413220798
 20
21.8875884354
 10
26.1347561867
 20
21.8818751107
 10
26.1294504669
 20
21.8758244489
 10
26.1254693246
 20
21.8695098968
 10
26.1228610856
 20
21.8630081045
 10
26.1216574102
 20
21.856397995
 10
26.1218729095
 20
21.849759806
 10
26.1235049677
 20
21.8431741161
 10
26.1265337736
 20
21.8367208668
 10
26.1309225618
 20
21.8304783917
 10
26.1366180583
 20
21.824522466
 10
26.1435511275
 20
21.8189253866
 10
26.1516376113
 20
21.8137550945
 10
26.1607793508
 20
21.8090743499
 10
26.1708653776
 20
21.8049399708
 10
26.181773261
 20
21.801402143
 10
26.1933705941
 20
21.7985038108
 10
26.205516601
 20
21.7962801562
 10
26.2180638456
 20
21.7947581712
 10
26.2308600213
 20
21.7939563307
 10
26.2437498
 20
21.793884368
 10
26.2565767171
 20
21.7945431566
 10
26.2691850713
 20
21.7959246996
 10
26.2814218142
 20
21.7980122271
 10
26.2931384083
 20
21.8007803992
  0
ARC
  5
171
330
1F
100
AcDbEntity
  8
0
  6
Continuous
 62
     7
370
    25
100
AcDbCircle
 10
26.4052243749
 20
15.6098126716
 30
0.0
 40
0.5023396525356633
100
AcDbArc
 50
1.7032134274
 51
48.8171137335
  0
LWPOLYLINE
  5
172
330
1F
100
AcDbEntity
  8
0
  6
Continuous
 62
     7
370
    25
100
AcDbPolyline
 90
       88
 70
   128
 43
0.0
 10
23.9374470105
 20
15.6247433665
 10
23.9374166124
 20
15.6270030959
 10
23.9378773626
 20
15.650673761
 10
23.9397601738
 20
15.6743257449
 10
23.9430632424
 20
15.6979363908
 10
23.9477834043
 20
15.7214830812
 10
23.9539161378
 20
15.7449432603
 10
23.9614555684
 20
15.7682944547
 10
23.9703944737
 20
15.7915142958
 10
23.9807242909
 20
15.8145805406
 10
23.9924351248
 20
15.8374710933
 10
24.0055157573
 20
15.8601640263
 10
24.019953658
 20
15.8826376015
 10
24.0357349965
 20
15.9048702909
 10
24.0528446553
 20
15.926840797
 10
24.0712662448
 20
15.9485280737
 10
24.0909821182
 20
15.9699113462
 10
24.1119733892
 20
15.9909701308
 10
24.1342199498
 20
16.0116842547
 10
24.1577004891
 20
16.0320338753
 10
24.1823925147
 20
16.0519994991
 10
24.2082723733
 20
16.0715620004
 10
24.2353152738
 20
16.0907026399
 10
24.2634953111
 20
16.109403082
 10
24.2927854908
 20
16.1276454132
 10
24.3231577549
 20
16.1454121586
 10
24.354583009
 20
16.1626862989
 10
24.38703115
 20
16.1794512867
 10
24.4204710948
 20
16.1956910625
 10
24.4548708105
 20
16.2113900696
 10
24.4901973444
 20
16.2265332695
 10
24.5264168565
 20
16.2411061561
 10
24.5634946509
 20
16.2550947697
 10
24.6013952098
 20
16.2684857101
 10
24.6400822271
 20
16.2812661498
 10
24.6795186436
 20
16.2934238461
 10
24.7196666819
 20
16.3049471527
 10
24.7604878831
 20
16.3158250312
 10
24.8019431434
 20
16.3260470613
 10
24.8439927516
 20
16.335603451
 10
24.8865964273
 20
16.3444850461
 10
24.9297133591
 20
16.3526833385
 10
24.9733022442
 20
16.3601904749
 10
25.0173213275
 20
16.3669992641
 10
25.0617284418
 20
16.3731031836
 10
25.1064810485
 20
16.3784963864
 10
25.1515362776
 20
16.3831737062
 10
25.1968509695
 20
16.3871306623
 10
25.242381716
 20
16.3903634644
 10
25.2880849019
 20
16.3928690157
 10
25.3339167467
 20
16.394644916
 10
25.379833347
 20
16.3956894641
 10
25.4257907179
 20
16.3960016594
 10
25.4717448354
 20
16.3955812028
 10
25.517651679
 20
16.3944284973
 10
25.563467273
 20
16.3925446468
 10
25.6091477295
 20
16.3899314561
 10
25.6546492898
 20
16.3865914283
 10
25.6999283668
 20
16.3825277631
 10
25.7449415862
 20
16.377744353
 10
25.7896458288
 20
16.3722457803
 10
25.833998271
 20
16.3660373122
 10
25.8779564263
 20
16.3591248959
 10
25.921478186
 20
16.3515151531
 10
25.9645218594
 20
16.3432153734
 10
26.0070462138
 20
16.3342335072
 10
26.0490105137
 20
16.3245781587
 10
26.0903745606
 20
16.314258577
 10
26.1310987305
 20
16.3032846474
 10
26.1711440126
 20
16.2916668823
 10
26.2104720465
 20
16.2794164105
 10
26.2490451586
 20
16.2665449672
 10
26.2868263988
 20
16.2530648823
 10
26.3237795752
 20
16.2389890687
 10
26.3598692895
 20
16.2243310101
 10
26.3950609702
 20
16.2091047478
 10
26.4293209063
 20
16.1933248675
 10
26.4626162791
 20
16.1770064852
 10
26.4949151941
 20
16.1601652327
 10
26.5261867113
 20
16.1428172428
 10
26.5564008748
 20
16.1249791336
 10
26.5855287416
 20
16.1066679926
 10
26.6135424092
 20
16.0879013607
 10
26.6404150427
 20
16.068697215
 10
26.6661208998
 20
16.0490739516
 10
26.6906353564
 20
16.0290503682
 10
26.7139349292
 20
16.008645646
 10
26.735997299
 20
15.9878793312
  0
LWPOLYLINE
  5
173
330
1F
100
AcDbEntity
  8
0
  6
Continuous
 62
     7
370
    25
100
AcDbPolyline
 90
       87
 70
   128
 43
0.0
 10
26.735997299
 20
20.4108626028
 10
26.7139349292
 20
20.4316289176
 10
26.6906353564
 20
20.4520336398
 10
26.6661208998
 20
20.4720572232
 10
26.6404150427
 20
20.4916804866
 10
26.6135424092
 20
20.5108846323
 10
26.5855287416
 20
20.5296512642
 10
26.5564008748
 20
20.5479624052
 10
26.5261867113
 20
20.5658005144
 10
26.4949151941
 20
20.5831485044
 10
26.4626162791
 20
20.5999897568
 10
26.4293209063
 20
20.6163081391
 10
26.3950609702
 20
20.6320880194
 10
26.3598692895
 20
20.6473142817
 10
26.3237795752
 20
20.6619723403
 10
26.2868263988
 20
20.6760481539
 10
26.2490451586
 20
20.6895282388
 10
26.2104720465
 20
20.7023996821
 10
26.1711440126
 20
20.7146501539
 10
26.1310987305
 20
20.726267919
 10
26.0903745606
 20
20.7372418486
 10
26.0490105137
 20
20.7475614304
 10
26.0070462138
 20
20.7572167789
 10
25.9645218594
 20
20.766198645
 10
25.921478186
 20
20.7744984248
 10
25.8779564263
 20
20.7821081676
 10
25.833998271
 20
20.7890205838
 10
25.7896458288
 20
20.7952290519
 10
25.7449415862
 20
20.8007276247
 10
25.6999283668
 20
20.8055110347
 10
25.6546492898
 20
20.8095747
 10
25.6091477295
 20
20.8129147277
 10
25.563467273
 20
20.8155279184
 10
25.517651679
 20
20.8174117689
 10
25.4717448354
 20
20.8185644745
 10
25.4257907179
 20
20.818984931
 10
25.379833347
 20
20.8186727357
 10
25.3339167467
 20
20.8176281876
 10
25.2880849019
 20
20.8158522873
 10
25.242381716
 20
20.8133467361
 10
25.1968509695
 20
20.8101139339
 10
25.1515362776
 20
20.8061569778
 10
25.1064810485
 20
20.801479658
 10
25.0617284418
 20
20.7960864552
 10
25.0173213275
 20
20.7899825357
 10
24.9733022442
 20
20.7831737466
 10
24.9297133591
 20
20.7756666101
 10
24.8865964273
 20
20.7674683177
 10
24.8439927516
 20
20.7585867226
 10
24.8019431434
 20
20.7490303329
 10
24.7604878831
 20
20.7388083028
 10
24.7196666819
 20
20.7279304243
 10
24.6795186436
 20
20.7164071177
 10
24.6400822271
 20
20.7042494214
 10
24.6013952098
 20
20.6914689817
 10
24.5634946509
 20
20.6780780413
 10
24.5264168565
 20
20.6640894277
 10
24.4901973444
 20
20.6495165411
 10
24.4548708105
 20
20.6343733412
 10
24.4204710948
 20
20.6186743341
 10
24.38703115
 20
20.6024345584
 10
24.354583009
 20
20.5856695705
 10
24.3231577549
 20
20.5683954302
 10
24.2927854908
 20
20.5506286848
 10
24.2634953111
 20
20.5323863536
 10
24.2353152738
 20
20.5136859115
 10
24.2082723733
 20
20.4945452721
 10
24.1823925147
 20
20.4749827707
 10
24.1577004891
 20
20.455017147
 10
24.1342199498
 20
20.4346675264
 10
24.1119733892
 20
20.4139534024
 10
24.0909821182
 20
20.3928946178
 10
24.0712662448
 20
20.3715113453
 10
24.0528446553
 20
20.3498240686
 10
24.0357349965
 20
20.3278535625
 10
24.019953658
 20
20.3056208732
 10
24.0055157573
 20
20.2831472979
 10
23.9924351248
 20
20.2604543649
 10
23.9807242909
 20
20.2375638122
 10
23.9703944737
 20
20.2144975674
 10
23.9614555684
 20
20.1912777263
 10
23.9539161378
 20
20.1679265319
 10
23.9477834043
 20
20.1444663529
 10
23.9430632424
 20
20.1209196624
 10
23.9397601738
 20
20.0973090165
 10
23.9378773626
 20
20.0736570326
 10
23.9373945508
 20
20.0541553899
  0
ARC
  5
174
330
1F
100
AcDbEntity
  8
0
  6
Continuous
 62
     7
370
    25
100
AcDbCircle
 10
26.4037323254
 20
20.0316781477
 30
0.0
 40
0.5041635287260898
100
AcDbArc
 50
2.5552783141
 51
48.7731438387
  0
LWPOLYLINE
  5
175
330
1F
100
AcDbEntity
  8
0
  6
Continuous
 62
     7
370
    25
100
AcDbPolyline
 90
       61
 70
   128
 43
0.0
 10
24.2593347546
 20
20.5301435793
 10
24.2691969802
 20
20.5368227901
 10
24.2974900353
 20
20.5551628901
 10
24.3268822174
 20
20.573038589
 10
24.357344808
 20
20.5904324209
 10
24.3888480425
 20
20.6073273903
 10
24.4213611396
 20
20.6237069896
 10
24.4548523313
 20
20.6395552144
 10
24.4892888937
 20
20.6548565797
 10
24.5246371795
 20
20.6695961347
 10
24.5608626503
 20
20.6837594777
 10
24.5979299109
 20
20.6973327698
 10
24.6358027433
 20
20.7103027489
 10
24.6744441427
 20
20.7226567421
 10
24.713816353
 20
20.7343826786
 10
24.7538809043
 20
20.7454691011
 10
24.7945986501
 20
20.7559051772
 10
24.8359298058
 20
20.76568071
 10
24.8778339872
 20
20.774786148
 10
24.9202702505
 20
20.7832125944
 10
24.9631971319
 20
20.7909518158
 10
25.006572688
 20
20.7979962504
 10
25.0503545374
 20
20.8043390151
 10
25.0944999014
 20
20.8099739126
 10
25.1389656462
 20
20.8148954371
 10
25.1837083252
 20
20.8190987798
 10
25.2286842208
 20
20.8225798336
 10
25.2738493879
 20
20.8253351974
 10
25.3191596961
 20
20.8273621789
 10
25.3645708736
 20
20.8286587975
 10
25.4100385497
 20
20.8292237864
 10
25.4555182987
 20
20.8290565934
 10
25.500965683
 20
20.8281573821
 10
25.5463362966
 20
20.8265270309
 10
25.5915858086
 20
20.8241671329
 10
25.6366700064
 20
20.8210799938
 10
25.6815448389
 20
20.8172686302
 10
25.7261664596
 20
20.8127367659
 10
25.7704912694
 20
20.8074888291
 10
25.8144759592
 20
20.8015299474
 10
25.8580775522
 20
20.7948659431
 10
25.901253446
 20
20.7875033276
 10
25.943961454
 20
20.7794492946
 10
25.9861598469
 20
20.7707117138
 10
26.0278073933
 20
20.7612991225
 10
26.0688634
 20
20.7512207175
 10
26.1092877519
 20
20.7404863463
 10
26.1490409508
 20
20.7291064973
 10
26.1880841546
 20
20.7170922896
 10
26.2263792147
 20
20.7044554622
 10
26.2638887137
 20
20.6912083621
 10
26.3005760014
 20
20.677363933
 10
26.3364052314
 20
20.6629357021
 10
26.3713413955
 20
20.647937767
 10
26.4053503581
 20
20.6323847818
 10
26.4383988894
 20
20.6162919433
 10
26.4704546984
 20
20.5996749755
 10
26.5014864637
 20
20.5825501145
 10
26.5314638648
 20
20.5649340928
 10
26.560357611
 20
20.5468441227
 10
26.5854543471
 20
20.5301435793
  0
LWPOLYLINE
  5
176
330
1F
100
AcDbEntity
  8
0
  6
Continuous
 62
     7
370
    25
100
AcDbPolyline
 90
      102
 70
   128
 43
0.0
 10
23.9379245569
 20
13.2438215624
 10
23.9386410914
 20
13.2547205572
 10
23.9412343419
 20
13.2783547022
 10
23.9452464375
 20
13.3019361942
 10
23.9506735351
 20
13.3254424438
 10
23.9575104359
 20
13.3488509336
 10
23.9657505905
 20
13.3721392401
 10
23.9753861056
 20
13.3952850548
 10
23.986407751
 20
13.4182662054
 10
23.9988049687
 20
13.4410606779
 10
24.0125658832
 20
13.4636466367
 10
24.0276773123
 20
13.486002446
 10
24.0441247806
 20
13.5081066907
 10
24.0618925324
 20
13.5299381964
 10
24.0809635475
 20
13.5514760501
 10
24.1013195574
 20
13.5726996201
 10
24.1229410623
 20
13.5935885758
 10
24.1458073504
 20
13.614122907
 10
24.1698965175
 20
13.6342829433
 10
24.1951854879
 20
13.6540493729
 10
24.2216500365
 20
13.6734032609
 10
24.2492648123
 20
13.6923260676
 10
24.2780033622
 20
13.7107996665
 10
24.3078381567
 20
13.728806361
 10
24.3387406163
 20
13.7463289021
 10
24.3706811387
 20
13.7633505045
 10
24.4036291271
 20
13.7798548627
 10
24.4375530196
 20
13.7958261666
 10
24.4724203197
 20
13.811249117
 10
24.508197627
 20
13.8261089397
 10
24.5448506694
 20
13.8403914001
 10
24.5823443358
 20
13.8540828166
 10
24.6206427101
 20
13.8671700739
 10
24.6597091052
 20
13.8796406352
 10
24.6995060982
 20
13.8914825547
 10
24.7399955664
 20
13.9026844887
 10
24.781138724
 20
13.9132357064
 10
24.8228961586
 20
13.9231261007
 10
24.8652278697
 20
13.9323461972
 10
24.9080933065
 20
13.9408871637
 10
24.951451407
 20
13.9487408186
 10
24.9952606373
 20
13.9558996387
 10
25.0394790312
 20
13.9623567662
 10
25.0840642307
 20
13.9681060158
 10
25.1289735264
 20
13.9731418802
 10
25.1741638984
 20
13.9774595351
 10
25.2195920575
 20
13.9810548448
 10
25.2652144869
 20
13.9839243651
 10
25.3109874835
 20
13.9860653473
 10
25.3568672001
 20
13.9874757403
 10
25.4028096872
 20
13.9881541933
 10
25.4487709352
 20
13.9881000562
 10
25.4947069165
 20
13.9873133809
 10
25.5405736277
 20
13.9857949211
 10
25.5863271319
 20
13.9835461312
 10
25.6319236004
 20
13.9805691655
 10
25.6773193551
 20
13.9768668756
 10
25.7224709101
 20
13.9724428082
 10
25.7673350135
 20
13.9673012011
 10
25.8118686887
 20
13.9614469797
 10
25.8560292756
 20
13.9548857518
 10
25.8997744715
 20
13.9476238027
 10
25.9430623717
 20
13.9396680887
 10
25.9858515095
 20
13.9310262309
 10
26.028100896
 20
13.9217065076
 10
26.0697700592
 20
13.9117178463
 10
26.1108190831
 20
13.9010698156
 10
26.1512086457
 20
13.8897726154
 10
26.1909000567
 20
13.8778370677
 10
26.2298552945
 20
13.8652746058
 10
26.2680370429
 20
13.8520972637
 10
26.3054087264
 20
13.8383176644
 10
26.3419345456
 20
13.8239490077
 10
26.3775795115
 20
13.8090050577
 10
26.4123094788
 20
13.7935001297
 10
26.4460911785
 20
13.7774490764
 10
26.4788922503
 20
13.7608672733
 10
26.5106812731
 20
13.7437706048
 10
26.5414277953
 20
13.7261754483
 10
26.5711023639
 20
13.7080986585
 10
26.5996765528
 20
13.6895575518
 10
26.62712299
 20
13.6705698893
 10
26.6534153838
 20
13.6511538596
 10
26.6785285479
 20
13.6313280622
 10
26.7024384258
 20
13.6111114885
 10
26.7251221134
 20
13.5905235046
 10
26.7465578815
 20
13.5695838324
 10
26.7667251961
 20
13.5483125305
 10
26.7856047384
 20
13.5267299754
 10
26.8031784231
 20
13.5048568415
 10
26.8194294159
 20
13.4827140818
 10
26.8343421495
 20
13.4603229074
 10
26.8479023386
 20
13.4377047675
 10
26.8600969935
 20
13.4148813287
 10
26.8709144326
 20
13.391874454
 10
26.8803442935
 20
13.3687061826
 10
26.8883775432
 20
13.3453987079
 10
26.8950064863
 20
13.3219743568
 10
26.9002247728
 20
13.2984555682
 10
26.904027404
 20
13.2748648713
 10
26.9064107371
 20
13.2512248645
 10
26.9068104396
 20
13.2448389407
  0
LINE
  5
177
330
1F
100
AcDbEntity
  8
0
  6
Continuous
 62
     7
370
    25
100
AcDbLine
 10
11.2052315188
 20
2.8205343175
 30
0.0
 11
11.2052315188
 21
4.7965846476
 31
0.0
  0
LINE
  5
178
330
1F
100
AcDbEntity
  8
0
  6
Continuous
 62
     7
370
    25
100
AcDbLine
 10
11.2052315188
 20
2.5025846476
 30
0.0
 11
11.2052315188
 21
2.6848027171
 31
0.0
  0
LINE
  5
179
330
1F
100
AcDbEntity
  8
0
  6
Continuous
 62
     7
370
    25
100
AcDbLine
 10
8.2352315188
 20
7.7665846476
 30
0.0
 11
8.2352315188
 21
2.5025846476
 31
0.0
  0
LINE
  5
17A
330
1F
100
AcDbEntity
  8
0
  6
Continuous
 62
     7
370
    25
100
AcDbLine
 10
11.2052315188
 20
4.7965846476
 30
0.0
 11
8.2352315188
 21
7.7665846476
 31
0.0
  0
SPLINE
  5
17B
330
1F
100
AcDbEntity
  8
0
  6
Continuous
 62
     7
370
    25
100
AcDbSpline
210
0.0
220
0.0
230
1.0
 70
    11
 71
     3
 72
    56
 73
    52
 74
     0
 42
0.00000001
 43
0.00000001
 40
0.0
 40
0.0
 40
0.0
 40
0.0
 40
0.0312499999999999
 40
0.0312499999999999
 40
0.0624999999999999
 40
0.0624999999999999
 40
0.0937499999999998
 40
0.0937499999999998
 40
0.1249999999999998
 40
0.1249999999999998
 40
0.1874999999999996
 40
0.1874999999999996
 40
0.2499999999999995
 40
0.2499999999999995
 40
0.2812499999999995
 40
0.2812499999999995
 40
0.3124999999999995
 40
0.3124999999999995
 40
0.3437499999999995
 40
0.3437499999999995
 40
0.3749999999999994
 40
0.3749999999999994
 40
0.4062499999999994
 40
0.4062499999999994
 40
0.4374999999999994
 40
0.4374999999999994
 40
0.4687499999999994
 40
0.4687499999999994
 40
0.4999999999999994
 40
0.4999999999999994
 40
0.5624999999999997
 40
0.5624999999999997
 40
0.6249999999999999
 40
0.6249999999999999
 40
0.65625
 40
0.65625
 40
0.6875000000000002
 40
0.6875000000000002
 40
0.7187500000000003
 40
0.7187500000000003
 40
0.7500000000000004
 40
0.7500000000000004
 40
0.8124999999999997
 40
0.8124999999999997
 40
0.8437499999999993
 40
0.8437499999999993
 40
0.8749999999999989
 40
0.8749999999999989
 40
0.9374999999999994
 40
0.9374999999999994
 40
1.0
 40
1.0
 40
1.0
 40
1.0
 10
9.037400105937483
 20
2.75258464761069
 30
0.0
 10
9.037400105937483
 20
2.748091608550444
 30
0.0
 10
9.037008048973307
 20
2.743673768768065
 30
0.0
 10
9.035473113599137
 20
2.734982300970598
 30
0.0
 10
9.034311593307978
 20
2.7306636201557
 30
0.0
 10
9.031283283205568
 20
2.722428947471836
 30
0.0
 10
9.029431612623487
 20
2.718523439439336
 30
0.0
 10
9.025064091290254
 20
2.711132095006331
 30
0.0
 10
9.022525432069733
 20
2.707632967784388
 30
0.0
 10
9.014223917060262
 20
2.698224923420581
 30
0.0
 10
9.007552953629757
 20
2.693158825774841
 30
0.0
 10
8.993237675717658
 20
2.686375796006452
 30
0.0
 10
8.98544525794479
 20
2.684589396226985
 30
0.0
 10
8.973921840236898
 20
2.684582287857847
 30
0.0
 10
8.97003053798656
 20
2.685023659372638
 30
0.0
 10
8.962516317894124
 20
2.686758331473362
 30
0.0
 10
8.958873679676582
 20
2.688041833088306
 30
0.0
 10
8.951815348348058
 20
2.691445950199467
 30
0.0
 10
8.948410429278205
 20
2.693574755573137
 30
0.0
 10
8.942122321292771
 20
2.698496006663287
 30
0.0
 10
8.939198248021425
 20
2.701305429161577
 30
0.0
 10
8.933801404342203
 20
2.707649580781341
 30
0.0
 10
8.931411016507317
 20
2.711089329988817
 30
0.0
 10
8.927238583511759
 20
2.718452031749512
 30
0.0
 10
8.925438172426041
 20
2.722425069347242
 30
0.0
 10
8.922552568295771
 20
2.73066432660042
 30
0.0
 10
8.921466861343754
 20
2.734902943441289
 30
0.0
 10
8.919998165558695
 20
2.743615489666765
 30
0.0
 10
8.919621988294079
 20
2.748122478701762
 30
0.0
 10
8.919617987405362
 20
2.761436273997885
 30
0.0
 10
8.92111612462699
 20
2.770382561964944
 30
0.0
 10
8.926835121555778
 20
2.786753719977562
 30
0.0
 10
8.931117171480897
 20
2.79434566422748
 30
0.0
 10
8.939101311147368
 20
2.803759084409645
 30
0.0
 10
8.942075538322591
 20
2.806632542647473
 30
0.0
 10
8.948383846794437
 20
2.811577819912812
 30
0.0
 10
8.951721553416487
 20
2.813669088573347
 30
0.0
 10
8.958770315673048
 20
2.817086383332521
 30
0.0
 10
8.962485740205727
 20
2.818400472669428
 30
0.0
 10
8.969974769888646
 20
2.820136154495759
 30
0.0
 10
8.973787710812799
 20
2.820580093037145
 30
0.0
 10
8.985441107885634
 20
2.820593653181242
 30
0.0
 10
8.993129072803722
 20
2.818835964147034
 30
0.0
 10
9.003951291242936
 20
2.813721499928915
 30
0.0
 10
9.007378296753371
 20
2.811635245327263
 30
0.0
 10
9.013872181280904
 20
2.806711070939325
 30
0.0
 10
9.016957590719306
 20
2.803841917483313
 30
0.0
 10
9.025269941035898
 20
2.794434730392379
 30
0.0
 10
9.02976198646484
 20
2.786857087972209
 30
0.0
 10
9.035792862302166
 20
2.770497646958379
 30
0.0
 10
9.037400105937483
 20
2.761570725731181
 30
0.0
 10
9.037400105937483
 20
2.75258464761069
 30
0.0
  0
SPLINE
  5
17C
330
1F
100
AcDbEntity
  8
0
  6
Continuous
 62
     7
370
    25
100
AcDbSpline
210
0.0
220
0.0
230
1.0
 70
     8
 71
     3
 72
    26
 73
    22
 74
     0
 42
0.00000001
 43
0.00000001
 40
0.0
 40
0.0
 40
0.0
 40
0.0
 40
0.0367526413874318
 40
0.0896225545983529
 40
0.1440246552526243
 40
0.196915681801909
 40
0.2513377791172882
 40
0.3042762434242478
 40
0.3587497415262306
 40
0.4116880067269634
 40
0.4661641873857406
 40
0.519054797238322
 40
0.5734806031266029
 40
0.6263505202692166
 40
0.6807515690133623
 40
0.733660012543369
 40
0.7881005146957876
 40
0.8410465963407331
 40
0.8955292073685375
 40
0.948453321292022
 40
1.0
 40
1.0
 40
1.0
 40
1.0
 10
11.20522155806435
 20
2.684802717061783
 30
0.0
 10
11.20522149517914
 20
2.684803661718361
 30
0.0
 10
11.20522134183142
 20
2.684805965295261
 30
0.0
 10
11.20512035031412
 20
2.687031260390652
 30
0.0
 10
11.20494550011283
 20
2.691080660408825
 30
0.0
 10
11.20471010915822
 20
2.696992829648063
 30
0.0
 10
11.20444859029789
 20
2.704402834134343
 30
0.0
 10
11.20418498879764
 20
2.713261033186559
 30
0.0
 10
11.20395357912651
 20
2.72315262810593
 30
0.0
 10
11.2037767194251
 20
2.733975335133684
 30
0.0
 10
11.20367730637049
 20
2.745224058386302
 30
0.0
 10
11.20366488304411
 20
2.756782027646592
 30
0.0
 10
11.20374094909029
 20
2.7681118518009
 30
0.0
 10
11.20389810351488
 20
2.779100329021222
 30
0.0
 10
11.20411609067592
 20
2.789241740280715
 30
0.0
 10
11.20437400912813
 20
2.798434414328539
 30
0.0
 10
11.20463857061677
 20
2.806250830008218
 30
0.0
 10
11.20488487998494
 20
2.812622093962335
 30
0.0
 10
11.20507871298787
 20
2.817197139278036
 30
0.0
 10
11.20520808304979
 20
2.820076320557225
 30
0.0
 10
11.20522224216498
 20
2.820382999671375
 30
0.0
 10
11.20522922837943
 20
2.820534317464274
 30
0.0
  0
LINE
  5
17D
330
1F
100
AcDbEntity
  8
0
  6
Continuous
 62
     7
370
    25
100
AcDbLine
 10
9.7202315188
 20
2.5025846476
 30
0.0
 11
11.2052315188
 21
2.5025846476
 31
0.0
  0
LINE
  5
17E
330
1F
100
AcDbEntity
  8
0
  6
Continuous
 62
     7
370
    25
100
AcDbLine
 10
8.2352315188
 20
2.5025846476
 30
0.0
 11
9.7202315188
 21
2.5025846476
 31
0.0
  0
SPLINE
  5
17F
330
1F
100
AcDbEntity
  8
0
  6
Continuous
 62
     7
370
    25
100
AcDbSpline
210
0.0
220
0.0
230
1.0
 70
     8
 71
     3
 72
    22
 73
    18
 74
     0
 42
0.00000001
 43
0.00000001
 40
0.0
 40
0.0
 40
0.0
 40
0.0
 40
0.043879842356506
 40
0.1127691620739941
 40
0.1816587066608067
 40
0.2506191240585593
 40
0.3195793063435174
 40
0.3885415660454347
 40
0.4575034955507341
 40
0.5263952393271135
 40
0.5952870740047609
 40
0.6641460758971437
 40
0.7330054454353946
 40
0.8019205096298855
 40
0.8708356452933801
 40
0.9398081149216976
 40
1.0
 40
1.0
 40
1.0
 40
1.0
 10
8.99797772477953
 20
2.816362881579413
 30
0.0
 10
8.996007583136388
 20
2.815552741070434
 30
0.0
 10
8.990944410382507
 20
2.813470717493011
 30
0.0
 10
8.983603609566126
 20
2.808094692449625
 30
0.0
 10
8.976125143730616
 20
2.800711657747807
 30
0.0
 10
8.969885407115903
 20
2.791858845633547
 30
0.0
 10
8.964966863506499
 20
2.78192998116623
 30
0.0
 10
8.9615675688972
 20
2.771144119406387
 30
0.0
 10
8.95971314318985
 20
2.759846123965763
 30
0.0
 10
8.959515496521929
 20
2.748340875823537
 30
0.0
 10
8.960912062863411
 20
2.73695979542048
 30
0.0
 10
8.963929791546553
 20
2.726032393461631
 30
0.0
 10
8.968429018745555
 20
2.715844823978796
 30
0.0
 10
8.974346856078045
 20
2.706705008453725
 30
0.0
 10
8.981497521279103
 20
2.698882069322273
 30
0.0
 10
8.989313064085046
 20
2.69270931468636
 30
0.0
 10
8.99501769065246
 20
2.690046795841407
 30
0.0
 10
8.997676103862052
 20
2.6888060353491
 30
0.0
  0
INSERT
  5
180
330
1F
100
AcDbEntity
  8
0
  6
Continuous
 62
     7
100
AcDbBlockReference
  2
Block1
 10
8.827531053
 20
1.405350802
 30
0.0
 41
0.5
 42
0.5
 43
0.5
  0
DIMENSION
  5
181
330
1F
100
AcDbEntity
  8
0
  6
Continuous
 62
     7
370
    18
100
AcDbDimension
  2
_D_5
 10
6.3454677393
 20
7.7665846476
 30
0.0
 11
6.3454677393
 21
5.1345846476
 31
0.0
 70
   160
  1
<>
 71
     2
 42
-1.0
  3
SLDDIMSTYLE3
100
AcDbAlignedDimension
 13
8.2352315188
 23
2.5025846476
 33
0.0
 14
8.2352315188
 24
7.7665846476
 34
0.0
 50
90.0
100
AcDbRotatedDimension
  0
ARC
  5
195
330
1F
100
AcDbEntity
  8
0
  6
Continuous
 62
     7
370
    25
100
AcDbCircle
 10
15.4053174951
 20
5.2965846476
 30
0.0
 40
0.0300000000000011
100
AcDbArc
 50
90.0
 51
180.0
  0
ARC
  5
196
330
1F
100
AcDbEntity
  8
0
  6
Continuous
 62
     7
370
    25
100
AcDbCircle
 10
18.3153174951
 20
5.2965846476
 30
0.0
 40
0.0300000000000011
100
AcDbArc
 50
0.0
 51
90.0
  0
LINE
  5
197
330
1F
100
AcDbEntity
  8
0
  6
Continuous
 62
     7
370
    25
100
AcDbLine
 10
18.3453174951
 20
2.8205608861
 30
0.0
 11
18.3453174951
 21
5.2965846476
 31
0.0
  0
LINE
  5
198
330
1F
100
AcDbEntity
  8
0
  6
Continuous
 62
     7
370
    25
100
AcDbLine
 10
18.3453174951
 20
2.5025846476
 30
0.0
 11
18.3453174951
 21
2.6846415895
 31
0.0
  0
LINE
  5
199
330
1F
100
AcDbEntity
  8
0
  6
Continuous
 62
     7
370
    25
100
AcDbLine
 10
15.3753174951
 20
5.2965846476
 30
0.0
 11
15.3753174951
 21
2.5025846476
 31
0.0
  0
LINE
  5
19A
330
1F
100
AcDbEntity
  8
0
  6
Continuous
 62
     7
370
    25
100
AcDbLine
 10
16.8603174951
 20
5.3265846476
 30
0.0
 11
18.3153174951
 21
5.3265846476
 31
0.0
  0
LINE
  5
19B
330
1F
100
AcDbEntity
  8
0
  6
Continuous
 62
     7
370
    25
100
AcDbLine
 10
15.4053174951
 20
5.3265846476
 30
0.0
 11
16.8603174951
 21
5.3265846476
 31
0.0
  0
LINE
  5
19C
330
1F
100
AcDbEntity
  8
0
  6
Continuous
 62
     7
370
    25
100
AcDbLine
 10
16.8603174951
 20
2.5025846476
 30
0.0
 11
18.3453174951
 21
2.5025846476
 31
0.0
  0
LINE
  5
19D
330
1F
100
AcDbEntity
  8
0
  6
Continuous
 62
     7
370
    25
100
AcDbLine
 10
15.3753174951
 20
2.5025846476
 30
0.0
 11
16.8603174951
 21
2.5025846476
 31
0.0
  0
SPLINE
  5
19E
330
1F
100
AcDbEntity
  8
0
  6
Continuous
 62
     7
370
    25
100
AcDbSpline
210
0.0
220
0.0
230
1.0
 70
     8
 71
     3
 72
    36
 73
    32
 74
     0
 42
0.00000001
 43
0.00000001
 40
0.0
 40
0.0
 40
0.0
 40
0.0
 40
0.0095567945485619
 40
0.0367901096875842
 40
0.0896330708248993
 40
0.1168450140946798
 40
0.1440569748487784
 40
0.1969210385613108
 40
0.2241429680506015
 40
0.2513649031734318
 40
0.3042763804608156
 40
0.3315240942162374
 40
0.3587717928677356
 40
0.4116830711503342
 40
0.4389321755283638
 40
0.4661812675877273
 40
0.5190449148159889
 40
0.5462687691251589
 40
0.5734926331464266
 40
0.62633559821348
 40
0.6535469974642145
 40
0.6807584131893305
 40
0.7336398850036914
 40
0.7608710397064353
 40
0.7881021919911824
 40
0.841021282733326
 40
0.8682735811328143
 40
0.8955258619156837
 40
0.9484229961351386
 40
0.9756648411826843
 40
1.0
 40
1.0
 40
1.0
 40
1.0
 10
18.34531487576572
 20
2.684641589494756
 30
0.0
 10
18.34531556438691
 20
2.684626468471045
 30
0.0
 10
18.34531821532273
 20
2.684568258145593
 30
0.0
 10
18.34529255335901
 20
2.685130217738808
 30
0.0
 10
18.34522613183721
 20
2.686594921544232
 30
0.0
 10
18.34511962848932
 20
2.689040184279507
 30
0.0
 10
18.34499157758709
 20
2.692081474922736
 30
0.0
 10
18.34483561164563
 20
2.696000158991517
 30
0.0
 10
18.34466541922044
 20
2.70069588245021
 30
0.0
 10
18.34449033250294
 20
2.705889032881141
 30
0.0
 10
18.34431521327377
 20
2.711774221056752
 30
0.0
 10
18.34415527422139
 20
2.718207021702186
 30
0.0
 10
18.34400988309516
 20
2.72496866735585
 30
0.0
 10
18.3438923778934
 20
2.732159334801708
 30
0.0
 10
18.34381299361394
 20
2.739601463172458
 30
0.0
 10
18.34376120378424
 20
2.747164623209697
 30
0.0
 10
18.34375295027673
 20
2.754843260741109
 30
0.0
 10
18.34378891691256
 20
2.762447595743895
 30
0.0
 10
18.34385330828563
 20
2.769956156240338
 30
0.0
 10
18.34395771892476
 20
2.777256763219208
 30
0.0
 10
18.34409306117459
 20
2.784169617113466
 30
0.0
 10
18.3442453258957
 20
2.790783427770631
 30
0.0
 10
18.3444166816966
 20
2.796891114179295
 30
0.0
 10
18.34459226678413
 20
2.802342027889736
 30
0.0
 10
18.34476586956255
 20
2.807319643838126
 30
0.0
 10
18.34492927150499
 20
2.811547399264095
 30
0.0
 10
18.3450682050649
 20
2.814918853884433
 30
0.0
 10
18.34518718410175
 20
2.817697624147961
 30
0.0
 10
18.34527004458237
 20
2.819543991853616
 30
0.0
 10
18.34531221516975
 20
2.820470251989813
 30
0.0
 10
18.3453150627317
 20
2.82053183153565
 30
0.0
 10
18.34531640627372
 20
2.820560886112605
 30
0.0
  0
SPLINE
  5
19F
330
1F
100
AcDbEntity
  8
0
  6
Continuous
 62
     7
370
    25
100
AcDbSpline
210
0.0
220
0.0
230
1.0
 70
    11
 71
     3
 72
    56
 73
    52
 74
     0
 42
0.00000001
 43
0.00000001
 40
0.0
 40
0.0
 40
0.0
 40
0.0
 40
0.0312499999999997
 40
0.0312499999999997
 40
0.0624999999999994
 40
0.0624999999999994
 40
0.0937499999999991
 40
0.0937499999999991
 40
0.1249999999999988
 40
0.1249999999999988
 40
0.1874999999999981
 40
0.1874999999999981
 40
0.2499999999999974
 40
0.2499999999999974
 40
0.2812499999999976
 40
0.2812499999999976
 40
0.3124999999999977
 40
0.3124999999999977
 40
0.3437499999999978
 40
0.3437499999999978
 40
0.374999999999998
 40
0.374999999999998
 40
0.4062499999999981
 40
0.4062499999999981
 40
0.4374999999999983
 40
0.4374999999999983
 40
0.4687499999999984
 40
0.4687499999999984
 40
0.4999999999999986
 40
0.4999999999999986
 40
0.5624999999999986
 40
0.5624999999999986
 40
0.6249999999999987
 40
0.6249999999999987
 40
0.6562499999999983
 40
0.6562499999999983
 40
0.6874999999999981
 40
0.6874999999999981
 40
0.718749999999998
 40
0.718749999999998
 40
0.7499999999999978
 40
0.7499999999999978
 40
0.8124999999999982
 40
0.8124999999999982
 40
0.8437499999999987
 40
0.8437499999999987
 40
0.874999999999999
 40
0.874999999999999
 40
0.9374999999999994
 40
0.9374999999999994
 40
1.0
 40
1.0
 40
1.0
 40
1.0
 10
16.177486082227
 20
2.752584647610717
 30
0.0
 10
16.177486082227
 20
2.748091608550472
 30
0.0
 10
16.17709402526284
 20
2.743673768768092
 30
0.0
 10
16.17555908988867
 20
2.734982300970625
 30
0.0
 10
16.17439756959751
 20
2.730663620155726
 30
0.0
 10
16.1713692594951
 20
2.722428947471862
 30
0.0
 10
16.16951758891302
 20
2.718523439439362
 30
0.0
 10
16.16515006757979
 20
2.711132095006358
 30
0.0
 10
16.16261140835927
 20
2.707632967784413
 30
0.0
 10
16.1543098933498
 20
2.698224923420605
 30
0.0
 10
16.14763892991929
 20
2.693158825774865
 30
0.0
 10
16.1333236520072
 20
2.686375796006473
 30
0.0
 10
16.12553123423433
 20
2.684589396227005
 30
0.0
 10
16.11400781652643
 20
2.684582287857867
 30
0.0
 10
16.1101165142761
 20
2.685023659372657
 30
0.0
 10
16.10260229418366
 20
2.686758331473381
 30
0.0
 10
16.09895965596612
 20
2.688041833088324
 30
0.0
 10
16.09190132463759
 20
2.691445950199483
 30
0.0
 10
16.08849640556774
 20
2.693574755573154
 30
0.0
 10
16.08220829758231
 20
2.698496006663305
 30
0.0
 10
16.07928422431096
 20
2.701305429161595
 30
0.0
 10
16.07388738063174
 20
2.707649580781363
 30
0.0
 10
16.07149699279685
 20
2.711089329988829
 30
0.0
 10
16.06732455980129
 20
2.718452031749526
 30
0.0
 10
16.06552414871557
 20
2.722425069347256
 30
0.0
 10
16.0626385445853
 20
2.730664326600433
 30
0.0
 10
16.06155283763329
 20
2.734902943441303
 30
0.0
 10
16.06008414184823
 20
2.743615489666781
 30
0.0
 10
16.05970796458361
 20
2.748122478701773
 30
0.0
 10
16.05970396369489
 20
2.761436273997899
 30
0.0
 10
16.06120210091652
 20
2.770382561964957
 30
0.0
 10
16.06692109784531
 20
2.786753719977576
 30
0.0
 10
16.07120314777043
 20
2.794345664227495
 30
0.0
 10
16.07918728743689
 20
2.803759084409662
 30
0.0
 10
16.08216151461212
 20
2.806632542647487
 30
0.0
 10
16.08846982308396
 20
2.811577819912829
 30
0.0
 10
16.09180752970601
 20
2.813669088573364
 30
0.0
 10
16.09885629196258
 20
2.817086383332539
 30
0.0
 10
16.10257171649525
 20
2.818400472669445
 30
0.0
 10
16.11006074617817
 20
2.820136154495778
 30
0.0
 10
16.11387368710232
 20
2.820580093037164
 30
0.0
 10
16.12552708417516
 20
2.820593653181263
 30
0.0
 10
16.13321504909325
 20
2.818835964147055
 30
0.0
 10
16.14403726753246
 20
2.813721499928937
 30
0.0
 10
16.1474642730429
 20
2.811635245327286
 30
0.0
 10
16.15395815757043
 20
2.80671107093935
 30
0.0
 10
16.15704356700883
 20
2.803841917483337
 30
0.0
 10
16.16535591732542
 20
2.794434730392406
 30
0.0
 10
16.16984796275437
 20
2.786857087972234
 30
0.0
 10
16.17587883859169
 20
2.770497646958408
 30
0.0
 10
16.17748608222701
 20
2.761570725731207
 30
0.0
 10
16.17748608222701
 20
2.752584647610717
 30
0.0
  0
SPLINE
  5
1A0
330
1F
100
AcDbEntity
  8
0
  6
Continuous
 62
     7
370
    25
100
AcDbSpline
210
0.0
220
0.0
230
1.0
 70
     8
 71
     3
 72
    22
 73
    18
 74
     0
 42
0.00000001
 43
0.00000001
 40
0.0
 40
0.0
 40
0.0
 40
0.0
 40
0.0438798423565652
 40
0.1127691620740671
 40
0.181658706660894
 40
0.2506191240586758
 40
0.3195793063436616
 40
0.3885415660455638
 40
0.4575034955508459
 40
0.5263952393271917
 40
0.5952870740048141
 40
0.6641460758972547
 40
0.7330054454355568
 40
0.8019205096300452
 40
0.8708356452935404
 40
0.9398081149218277
 40
1.0
 40
1.0
 40
1.0
 40
1.0
 10
16.13806370106907
 20
2.816362881579437
 30
0.0
 10
16.13609355942593
 20
2.815552741070457
 30
0.0
 10
16.13103038667204
 20
2.813470717493036
 30
0.0
 10
16.12368958585566
 20
2.808094692449648
 30
0.0
 10
16.11621112002015
 20
2.800711657747828
 30
0.0
 10
16.10997138340543
 20
2.791858845633567
 30
0.0
 10
16.10505283979603
 20
2.781929981166248
 30
0.0
 10
16.10165354518673
 20
2.771144119406407
 30
0.0
 10
16.09979911947937
 20
2.759846123965787
 30
0.0
 10
16.09960147281146
 20
2.748340875823565
 30
0.0
 10
16.10099803915295
 20
2.73695979542051
 30
0.0
 10
16.10401576783608
 20
2.726032393461655
 30
0.0
 10
16.10851499503508
 20
2.715844823978811
 30
0.0
 10
16.11443283236757
 20
2.70670500845374
 30
0.0
 10
16.12158349756863
 20
2.698882069322292
 30
0.0
 10
16.12939904037456
 20
2.692709314686377
 30
0.0
 10
16.13510366694197
 20
2.690046795841423
 30
0.0
 10
16.13776208015155
 20
2.688806035349117
 30
0.0
  0
LINE
  5
1A1
330
1F
100
AcDbEntity
  8
0
  6
Continuous
 62
     7
370
    25
100
AcDbLine
 10
16.8603174951
 20
5.2965846476
 30
0.0
 11
15.3753174951
 21
5.2965846476
 31
0.0
  0
LINE
  5
1A2
330
1F
100
AcDbEntity
  8
0
  6
Continuous
 62
     7
370
    25
100
AcDbLine
 10
18.3453174951
 20
5.2965846476
 30
0.0
 11
16.8603174951
 21
5.2965846476
 31
0.0
  0
INSERT
  5
1A3
330
1F
100
AcDbEntity
  8
0
  6
Continuous
 62
     7
100
AcDbBlockReference
  2
Block2
 10
16.0169929531
 20
0.7773693067
 30
0.0
 41
0.5
 42
0.5
 43
0.5
  0
DIMENSION
  5
1A4
330
1F
100
AcDbEntity
  8
0
  6
Continuous
 62
     7
370
    18
100
AcDbDimension
  2
_D_6
 10
13.4855537156
 20
5.3265846476
 30
0.0
 11
13.4855537156
 21
3.9145846476
 31
0.0
 70
   160
  1
<>
 71
     2
 42
-1.0
  3
SLDDIMSTYLE0
100
AcDbAlignedDimension
 13
15.3753174951
 23
2.5025846476
 33
0.0
 14
15.4053174951
 24
5.3265846476
 34
0.0
 50
90.0
100
AcDbRotatedDimension
  0
ARC
  5
1B8
330
1F
100
AcDbEntity
  8
0
  6
Continuous
 62
     7
370
    25
100
AcDbCircle
 10
21.8839080711
 20
4.2965846476
 30
0.0
 40
0.0300000000000011
100
AcDbArc
 50
90.0
 51
180.0
  0
ARC
  5
1B9
330
1F
100
AcDbEntity
  8
0
  6
Continuous
 62
     7
370
    25
100
AcDbCircle
 10
24.7939080711
 20
4.2965846476
 30
0.0
 40
0.0299999999999994
100
AcDbArc
 50
0.0
 51
90.0
  0
LINE
  5
1BA
330
1F
100
AcDbEntity
  8
0
  6
Continuous
 62
     7
370
    25
100
AcDbLine
 10
24.8239080711
 20
2.8205608861
 30
0.0
 11
24.8239080711
 21
4.2965846476
 31
0.0
  0
LINE
  5
1BB
330
1F
100
AcDbEntity
  8
0
  6
Continuous
 62
     7
370
    25
100
AcDbLine
 10
24.8239080711
 20
2.5025846476
 30
0.0
 11
24.8239080711
 21
2.6846415895
 31
0.0
  0
LINE
  5
1BC
330
1F
100
AcDbEntity
  8
0
  6
Continuous
 62
     7
370
    25
100
AcDbLine
 10
21.8539080711
 20
4.2965846476
 30
0.0
 11
21.8539080711
 21
2.5025846476
 31
0.0
  0
LINE
  5
1BD
330
1F
100
AcDbEntity
  8
0
  6
Continuous
 62
     7
370
    25
100
AcDbLine
 10
23.3389080711
 20
4.3265846476
 30
0.0
 11
24.7939080711
 21
4.3265846476
 31
0.0
  0
LINE
  5
1BE
330
1F
100
AcDbEntity
  8
0
  6
Continuous
 62
     7
370
    25
100
AcDbLine
 10
21.8839080711
 20
4.3265846476
 30
0.0
 11
23.3389080711
 21
4.3265846476
 31
0.0
  0
LINE
  5
1BF
330
1F
100
AcDbEntity
  8
0
  6
Continuous
 62
     7
370
    25
100
AcDbLine
 10
23.3389080711
 20
2.5025846476
 30
0.0
 11
24.8239080711
 21
2.5025846476
 31
0.0
  0
LINE
  5
1C0
330
1F
100
AcDbEntity
  8
0
  6
Continuous
 62
     7
370
    25
100
AcDbLine
 10
21.8539080711
 20
2.5025846476
 30
0.0
 11
23.3389080711
 21
2.5025846476
 31
0.0
  0
SPLINE
  5
1C1
330
1F
100
AcDbEntity
  8
0
  6
Continuous
 62
     7
370
    25
100
AcDbSpline
210
0.0
220
0.0
230
1.0
 70
     8
 71
     3
 72
    45
 73
    41
 74
     0
 42
0.00000001
 43
0.00000001
 40
0.0
 40
0.0
 40
0.0
 40
0.0
 40
0.0095528775845902
 40
0.0367750308310242
 40
0.0632084228823066
 40
0.0896418261220636
 40
0.1168426162587668
 40
0.1440434238726218
 40
0.1704873454169138
 40
0.1969312801702883
 40
0.2241420524335319
 40
0.251352830328006
 40
0.2778205053357545
 40
0.3042881749612166
 40
0.3315247209226097
 40
0.35876125178627
 40
0.3852288699275723
 40
0.4116964723990194
 40
0.4389344084130561
 40
0.4661723321134757
 40
0.4926161064928479
 40
0.5190598794098767
 40
0.5462725757040908
 40
0.573485281706422
 40
0.5999186601141279
 40
0.6263520534735671
 40
0.6535522998141968
 40
0.6807525626224555
 40
0.7072051984503264
 40
0.7336578423212199
 40
0.7608778360168559
 40
0.788097827295486
 40
0.8145693292249298
 40
0.841040819714375
 40
0.8682819484407643
 40
0.8955230595577552
 40
0.9219836041062115
 40
0.9484441355731481
 40
0.9756748152320228
 40
1.0
 40
1.0
 40
1.0
 40
1.0
 10
24.82390545180543
 20
2.684641589494756
 30
0.0
 10
24.82390614516504
 20
2.684626365031987
 30
0.0
 10
24.82390881434203
 20
2.684567756504582
 30
0.0
 10
24.82389037960367
 20
2.684971427678966
 30
0.0
 10
24.823850956503
 20
2.685839922278938
 30
0.0
 10
24.82379022016361
 20
2.687202745806055
 30
0.0
 10
24.82371028431377
 20
2.689038439151406
 30
0.0
 10
24.823613636039
 20
2.691333695967623
 30
0.0
 10
24.82350415407975
 20
2.694041366375528
 30
0.0
 10
24.82338433452698
 20
2.697154950349873
 30
0.0
 10
24.8232559945533
 20
2.700695883544577
 30
0.0
 10
24.8231239885644
 20
2.704611236721537
 30
0.0
 10
24.82299337413089
 20
2.708831249053904
 30
0.0
 10
24.82286645548769
 20
2.713356270865914
 30
0.0
 10
24.82274584956091
 20
2.718207007338904
 30
0.0
 10
24.82263621532773
 20
2.723305751266777
 30
0.0
 10
24.8225417242694
 20
2.728564134859396
 30
0.0
 10
24.82246343187436
 20
2.733989558275833
 30
0.0
 10
24.82240356825448
 20
2.739601457776691
 30
0.0
 10
24.82236451075168
 20
2.745305485858525
 30
0.0
 10
24.82234767456722
 20
2.751004854836636
 30
0.0
 10
24.82235237190386
 20
2.756713401111349
 30
0.0
 10
24.82237949151643
 20
2.76244760018195
 30
0.0
 10
24.82242805226588
 20
2.768109931515192
 30
0.0
 10
24.82249611391329
 20
2.773606725917341
 30
0.0
 10
24.82258158069293
 20
2.778956908299478
 30
0.0
 10
24.82268363638224
 20
2.784169629934883
 30
0.0
 10
24.82279844089862
 20
2.789156225890634
 30
0.0
 10
24.82292157019114
 20
2.79383639969851
 30
0.0
 10
24.82305044049796
 20
2.798231715570616
 30
0.0
 10
24.82318284256228
 20
2.802342038936009
 30
0.0
 10
24.82331373638781
 20
2.806095040518144
 30
0.0
 10
24.82343811671078
 20
2.809432565395519
 30
0.0
 10
24.82355400903108
 20
2.812376422101664
 30
0.0
 10
24.82365881139588
 20
2.814919514744551
 30
0.0
 10
24.8237483961919
 20
2.817011998928806
 30
0.0
 10
24.82381957066596
 20
2.818629013787588
 30
0.0
 10
24.82387117022533
 20
2.819775747038744
 30
0.0
 10
24.82390281716824
 20
2.820470813879402
 30
0.0
 10
24.82390564709301
 20
2.820532011660573
 30
0.0
 10
24.82390698231343
 20
2.820560886112605
 30
0.0
  0
SPLINE
  5
1C2
330
1F
100
AcDbEntity
  8
0
  6
Continuous
 62
     7
370
    25
100
AcDbSpline
210
0.0
220
0.0
230
1.0
 70
    11
 71
     3
 72
    56
 73
    52
 74
     0
 42
0.00000001
 43
0.00000001
 40
0.0
 40
0.0
 40
0.0
 40
0.0
 40
0.0312499999999996
 40
0.0312499999999996
 40
0.0624999999999992
 40
0.0624999999999992
 40
0.0937499999999988
 40
0.0937499999999988
 40
0.1249999999999984
 40
0.1249999999999984
 40
0.1874999999999978
 40
0.1874999999999978
 40
0.2499999999999972
 40
0.2499999999999972
 40
0.2812499999999973
 40
0.2812499999999973
 40
0.3124999999999975
 40
0.3124999999999975
 40
0.3437499999999977
 40
0.3437499999999977
 40
0.3749999999999978
 40
0.3749999999999978
 40
0.4062499999999979
 40
0.4062499999999979
 40
0.4374999999999981
 40
0.4374999999999981
 40
0.4687499999999983
 40
0.4687499999999983
 40
0.4999999999999984
 40
0.4999999999999984
 40
0.5624999999999988
 40
0.5624999999999988
 40
0.6249999999999991
 40
0.6249999999999991
 40
0.6562499999999989
 40
0.6562499999999989
 40
0.6874999999999989
 40
0.6874999999999989
 40
0.7187499999999988
 40
0.7187499999999988
 40
0.7499999999999987
 40
0.7499999999999987
 40
0.8124999999999994
 40
0.8124999999999994
 40
0.8437499999999998
 40
0.8437499999999998
 40
0.875
 40
0.875
 40
0.9375
 40
0.9375
 40
1.0
 40
1.0
 40
1.0
 40
1.0
 10
22.65607665826671
 20
2.752584647610718
 30
0.0
 10
22.65607665826671
 20
2.748091608550472
 30
0.0
 10
22.65568460130255
 20
2.743673768768092
 30
0.0
 10
22.65414966592838
 20
2.734982300970625
 30
0.0
 10
22.65298814563722
 20
2.730663620155727
 30
0.0
 10
22.64995983553481
 20
2.722428947471862
 30
0.0
 10
22.64810816495273
 20
2.718523439439362
 30
0.0
 10
22.6437406436195
 20
2.711132095006358
 30
0.0
 10
22.64120198439898
 20
2.707632967784413
 30
0.0
 10
22.63290046938951
 20
2.698224923420606
 30
0.0
 10
22.626229505959
 20
2.693158825774865
 30
0.0
 10
22.61191422804691
 20
2.686375796006473
 30
0.0
 10
22.60412181027404
 20
2.684589396227005
 30
0.0
 10
22.59259839256614
 20
2.684582287857867
 30
0.0
 10
22.58870709031581
 20
2.685023659372657
 30
0.0
 10
22.58119287022337
 20
2.686758331473381
 30
0.0
 10
22.57755023200583
 20
2.688041833088324
 30
0.0
 10
22.5704919006773
 20
2.691445950199483
 30
0.0
 10
22.56708698160745
 20
2.693574755573154
 30
0.0
 10
22.56079887362201
 20
2.698496006663305
 30
0.0
 10
22.55787480035067
 20
2.701305429161594
 30
0.0
 10
22.55247795667144
 20
2.707649580781363
 30
0.0
 10
22.55008756883656
 20
2.711089329988829
 30
0.0
 10
22.545915135841
 20
2.718452031749525
 30
0.0
 10
22.54411472475529
 20
2.722425069347255
 30
0.0
 10
22.54122912062501
 20
2.730664326600433
 30
0.0
 10
22.540143413673
 20
2.734902943441303
 30
0.0
 10
22.53867471788794
 20
2.743615489666781
 30
0.0
 10
22.53829854062332
 20
2.748122478701772
 30
0.0
 10
22.5382945397346
 20
2.761436273997899
 30
0.0
 10
22.53979267695623
 20
2.770382561964956
 30
0.0
 10
22.54551167388501
 20
2.786753719977576
 30
0.0
 10
22.54979372381013
 20
2.794345664227494
 30
0.0
 10
22.55777786347661
 20
2.803759084409662
 30
0.0
 10
22.56075209065182
 20
2.806632542647487
 30
0.0
 10
22.56706039912367
 20
2.811577819912829
 30
0.0
 10
22.57039810574572
 20
2.813669088573364
 30
0.0
 10
22.57744686800228
 20
2.817086383332539
 30
0.0
 10
22.58116229253496
 20
2.818400472669445
 30
0.0
 10
22.58865132221788
 20
2.820136154495777
 30
0.0
 10
22.59246426314203
 20
2.820580093037164
 30
0.0
 10
22.60411766021487
 20
2.820593653181263
 30
0.0
 10
22.61180562513296
 20
2.818835964147055
 30
0.0
 10
22.62262784357218
 20
2.813721499928937
 30
0.0
 10
22.62605484908261
 20
2.811635245327286
 30
0.0
 10
22.63254873361014
 20
2.80671107093935
 30
0.0
 10
22.63563414304854
 20
2.803841917483337
 30
0.0
 10
22.64394649336514
 20
2.794434730392406
 30
0.0
 10
22.64843853879408
 20
2.786857087972234
 30
0.0
 10
22.6544694146314
 20
2.770497646958408
 30
0.0
 10
22.65607665826671
 20
2.761570725731207
 30
0.0
 10
22.65607665826671
 20
2.752584647610718
 30
0.0
  0
SPLINE
  5
1C3
330
1F
100
AcDbEntity
  8
0
  6
Continuous
 62
     7
370
    25
100
AcDbSpline
210
0.0
220
0.0
230
1.0
 70
     8
 71
     3
 72
    29
 73
    25
 74
     0
 42
0.00000001
 43
0.00000001
 40
0.0
 40
0.0
 40
0.0
 40
0.0
 40
0.0429214486403183
 40
0.088772485863531
 40
0.1347695122160184
 40
0.1806207047758528
 40
0.2265190286240044
 40
0.2725636415009431
 40
0.3184618029362827
 40
0.3643613154473715
 40
0.4104073898546793
 40
0.4563066742701143
 40
0.502159271137549
 40
0.54815824805316
 40
0.5940109077140163
 40
0.6398417576760455
 40
0.6858186354698154
 40
0.7316497393965623
 40
0.7775179050167339
 40
0.8235321255733484
 40
0.8694003405633302
 40
0.915306669420673
 40
0.9613594167409699
 40
1.0
 40
1.0
 40
1.0
 40
1.0
 10
22.61646565464709
 20
2.816494514831151
 30
0.0
 10
22.61456295695844
 20
2.815627759213429
 30
0.0
 10
22.61062769361066
 20
2.813835087874065
 30
0.0
 10
22.60506207932291
 20
2.810127436055768
 30
0.0
 10
22.59975650152778
 20
2.805690077436203
 30
0.0
 10
22.59491947571225
 20
2.800570536825759
 30
0.0
 10
22.59062057763193
 20
2.794833749862836
 30
0.0
 10
22.58689456261782
 20
2.788567396554493
 30
0.0
 10
22.58378414017691
 20
2.781850346447085
 30
0.0
 10
22.5813494277668
 20
2.77475392433615
 30
0.0
 10
22.57959568242661
 20
2.767381721339393
 30
0.0
 10
22.57854285891905
 20
2.759825260830658
 30
0.0
 10
22.57822780289147
 20
2.752177579316213
 30
0.0
 10
22.57862800818833
 20
2.744539237741898
 30
0.0
 10
22.57973875053522
 20
2.737000947764722
 30
0.0
 10
22.58157142391966
 20
2.729665516540746
 30
0.0
 10
22.58407939832338
 20
2.722618594603049
 30
0.0
 10
22.5872359342087
 20
2.715942016295431
 30
0.0
 10
22.59102628790341
 20
2.709736642398068
 30
0.0
 10
22.59538508737262
 20
2.704066882900109
 30
0.0
 10
22.60026089157882
 20
2.698993391025004
 30
0.0
 10
22.60562269832192
 20
2.694633984828228
 30
0.0
 10
22.61105074966758
 20
2.691109370520698
 30
0.0
 10
22.61481806595437
 20
2.689437182111588
 30
0.0
 10
22.61653687070141
 20
2.688674260934619
 30
0.0
  0
LINE
  5
1C4
330
1F
100
AcDbEntity
  8
0
  6
Continuous
 62
     7
370
    25
100
AcDbLine
 10
23.3389080711
 20
4.2965846476
 30
0.0
 11
21.8539080711
 21
4.2965846476
 31
0.0
  0
LINE
  5
1C5
330
1F
100
AcDbEntity
  8
0
  6
Continuous
 62
     7
370
    25
100
AcDbLine
 10
24.8239080711
 20
4.2965846476
 30
0.0
 11
23.3389080711
 21
4.2965846476
 31
0.0
  0
INSERT
  5
1C6
330
1F
100
AcDbEntity
  8
0
  6
Continuous
 62
     7
100
AcDbBlockReference
  2
Block3
 10
22.5521020043
 20
1.3291107989
 30
0.0
 41
0.5
 42
0.5
 43
0.5
  0
DIMENSION
  5
1C7
330
1F
100
AcDbEntity
  8
0
  6
Continuous
 62
     7
370
    18
100
AcDbDimension
  2
_D_7
 10
19.9641442916
 20
4.3265846476
 30
0.0
 11
19.9641442916
 21
3.4145846476
 31
0.0
 70
   160
  1
<>
 71
     2
 42
-1.0
  3
SLDDIMSTYLE0
100
AcDbAlignedDimension
 13
21.8539080711
 23
2.5025846476
 33
0.0
 14
21.8839080711
 24
4.3265846476
 34
0.0
 50
90.0
100
AcDbRotatedDimension
  0
CIRCLE
  5
1DB
330
1F
100
AcDbEntity
  8
0
  6
Continuous
 62
     7
370
    25
100
AcDbCircle
 10
26.3218323857
 20
6.2398270051
 30
0.0
 40
0.077499999999997
  0
CIRCLE
  5
1DC
330
1F
100
AcDbEntity
  8
0
  6
Continuous
 62
     7
370
    25
100
AcDbCircle
 10
29.8218323857
 20
6.2398270051
 30
0.0
 40
0.077500000000004
  0
CIRCLE
  5
1DD
330
1F
100
AcDbEntity
  8
0
  6
Continuous
 62
     7
370
    25
100
AcDbCircle
 10
28.0718323857
 20
6.2398270051
 30
0.0
 40
2.484999999999999
  0
CIRCLE
  5
1DE
330
1F
100
AcDbEntity
  8
0
  6
Continuous
 62
     7
370
    25
100
AcDbCircle
 10
28.0718323857
 20
6.2398270051
 30
0.0
 40
2.434999999999999
  0
CIRCLE
  5
1DF
330
1F
100
AcDbEntity
  8
0
  6
Continuous
 62
     7
370
    25
100
AcDbCircle
 10
28.0718323857
 20
6.2398270051
 30
0.0
 40
0.4139999999999979
  0
CIRCLE
  5
1E0
330
1F
100
AcDbEntity
  8
0
  6
Continuous
 62
     7
370
    25
100
AcDbCircle
 10
26.3218323857
 20
6.2398270051
 30
0.0
 40
0.1169999999999973
  0
CIRCLE
  5
1E1
330
1F
100
AcDbEntity
  8
0
  6
Continuous
 62
     7
370
    25
100
AcDbCircle
 10
29.8218323857
 20
6.2398270051
 30
0.0
 40
0.1169999999999938
  0
DIMENSION
  5
1E2
330
1F
100
AcDbEntity
  8
SLD-0
100
AcDbDimension
  2
_D_8
 10
29.8218323857
 20
10.2490323978
 30
0.0
 11
28.0718323857
 21
10.2490323978
 31
0.0
 70
   160
  1
ON CENTER\P<>
 71
     2
 42
-1.0
  3
SLDDIMSTYLE0
100
AcDbAlignedDimension
 13
26.3218323857
 23
6.4568270051
 33
0.0
 14
29.8218323857
 24
6.4568270051
 34
0.0
100
AcDbRotatedDimension
  0
DIMENSION
  5
1F5
330
1F
100
AcDbEntity
  8
SLD-0
100
AcDbDimension
  2
_D_9
 10
29.8289927369
 20
4.4826666538
 30
0.0
 11
23.3900023519
 21
9.058766455
 31
0.0
 70
   163
  1
<>
 71
     1
 42
-1.0
  3
SLDDIMSTYLE4
100
AcDbDiametricDimension
 15
26.3146720344
 25
7.9969873563
 35
0.0
 40
0.0
  0
INSERT
  5
211
330
1F
100
AcDbEntity
  8
SLD-0
100
AcDbBlockReference
  2
SW_CENTERMARKSYMBOL_0
 10
26.3218323857
 20
6.2398270051
 30
0.0
  0
INSERT
  5
21D
330
1F
100
AcDbEntity
  8
SLD-0
100
AcDbBlockReference
  2
SW_CENTERMARKSYMBOL_1
 10
29.8218323857
 20
6.2398270051
 30
0.0
  0
ENDSEC
  0
SECTION
  2
OBJECTS
  0
DICTIONARY
  5
C
330
0
100
AcDbDictionary
281
     1
  3
ACAD_GROUP
350
D
  3
ACAD_LAYOUT
350
1A
  3
ACAD_MLINESTYLE
350
17
  3
ACAD_PLOTSETTINGS
350
19
  3
ACAD_PLOTSTYLENAME
350
E
  3
ACAD_SCALELIST
350
47
  3
DWGPROPS
350
21E
  0
DICTIONARY
  5
D
102
{ACAD_REACTORS
330
C
102
}
330
C
100
AcDbDictionary
281
     1
  0
DICTIONARY
  5
1A
102
{ACAD_REACTORS
330
C
102
}
330
C
100
AcDbDictionary
281
     1
  3
Layout1
350
1E
  3
Layout2
350
26
  3
Model
350
22
  0
DICTIONARY
  5
17
102
{ACAD_REACTORS
330
C
102
}
330
C
100
AcDbDictionary
281
     1
  3
Standard
350
18
  0
DICTIONARY
  5
19
102
{ACAD_REACTORS
330
C
102
}
330
C
100
AcDbDictionary
281
     1
  0
ACDBDICTIONARYWDFLT
  5
E
102
{ACAD_REACTORS
330
C
102
}
330
C
100
AcDbDictionary
281
     1
  3
Normal
350
F
100
AcDbDictionaryWithDefault
340
F
  0
DICTIONARY
  5
47
102
{ACAD_REACTORS
330
C
102
}
330
C
100
AcDbDictionary
281
     1
  3
A0
350
48
  3
A1
350
49
  3
A2
350
4A
  3
A3
350
4B
  3
A4
350
4C
  3
A5
350
4D
  3
A6
350
4E
  3
A7
350
4F
  3
A8
350
50
  3
A9
350
51
  3
B1
350
52
  3
B2
350
53
  3
B3
350
54
  3
B4
350
55
  3
B5
350
56
  3
B6
350
57
  3
B7
350
58
  0
XRECORD
  5
21E
102
{ACAD_REACTORS
330
C
102
}
330
C
100
AcDbXrecord
280
     1
  1
DWGPROPS COOKIE
  2

  3

  4

  6

  7

  8
gurisher.rai
  9

300
=
301
=
302
=
303
=
304
=
305
=
306
=
307
=
308
=
309
=
 40
0.0
 41
2460465.110904827
 42
2460465.110905429
  1

 90
        0
  0
LAYOUT
  5
1E
102
{ACAD_REACTORS
330
1A
102
}
330
1A
100
AcDbPlotSettings
  1

  2
none_device
  4

  6

 40
0.0
 41
0.0
 42
0.0
 43
0.0
 44
0.0
 45
0.0
 46
0.0
 47
0.0
 48
0.0
 49
0.0
140
0.0
141
0.0
142
1.0
143
1.0
 70
   688
 72
     0
 73
     0
 74
     5
  7

 75
    16
147
1.0
148
0.0
149
0.0
100
AcDbLayout
  1
Layout1
 70
     1
 71
     1
 10
0.0
 20
0.0
 11
12.0
 21
9.0
 12
0.0
 22
0.0
 32
0.0
 14
1.0000000000E+20
 24
1.0000000000E+20
 34
1.0000000000E+20
 15
-1.0000000000E+20
 25
-1.0000000000E+20
 35
-1.0000000000E+20
146
0.0
 13
0.0
 23
0.0
 33
0.0
 16
1.0
 26
0.0
 36
0.0
 17
0.0
 27
1.0
 37
0.0
 76
     0
330
1B
  0
LAYOUT
  5
26
102
{ACAD_REACTORS
330
1A
102
}
330
1A
100
AcDbPlotSettings
  1

  2
none_device
  4

  6

 40
0.0
 41
0.0
 42
0.0
 43
0.0
 44
0.0
 45
0.0
 46
0.0
 47
0.0
 48
0.0
 49
0.0
140
0.0
141
0.0
142
1.0
143
1.0
 70
   688
 72
     0
 73
     0
 74
     5
  7

 75
    16
147
1.0
148
0.0
149
0.0
100
AcDbLayout
  1
Layout2
 70
     1
 71
     2
 10
0.0
 20
0.0
 11
0.0
 21
0.0
 12
0.0
 22
0.0
 32
0.0
 14
0.0
 24
0.0
 34
0.0
 15
0.0
 25
0.0
 35
0.0
146
0.0
 13
0.0
 23
0.0
 33
0.0
 16
1.0
 26
0.0
 36
0.0
 17
0.0
 27
1.0
 37
0.0
 76
     0
330
23
  0
LAYOUT
  5
22
102
{ACAD_REACTORS
330
1A
102
}
330
1A
100
AcDbPlotSettings
  1

  2
none_device
  4
Letter_(8.50_x_11.00_Inches)
  6

 40
6.35
 41
6.35
 42
6.35000508
 43
6.35000508
 44
215.9
 45
279.4
 46
0.0
 47
0.0
 48
0.0
 49
0.0
140
0.0
141
0.0
142
1.0
143
1.0
 70
  1712
 72
     0
 73
     0
 74
     0
  7

 75
     0
147
1.0
148
0.0
149
0.0
100
AcDbLayout
  1
Model
 70
     1
 71
     0
 10
0.0
 20
0.0
 11
33.0
 21
25.5
 12
0.0
 22
0.0
 32
0.0
 14
0.0
 24
0.0
 34
0.0
 15
33.0
 25
25.5
 35
0.0
146
0.0
 13
0.0
 23
0.0
 33
0.0
 16
1.0
 26
0.0
 36
0.0
 17
0.0
 27
1.0
 37
0.0
 76
     0
330
1F
331
29
  0
MLINESTYLE
  5
18
102
{ACAD_REACTORS
330
17
102
}
330
17
100
AcDbMlineStyle
  2
Standard
 70
     0
  3

 62
   256
 51
90.0
 52
90.0
 71
     2
 49
0.5
 62
   256
  6
BYLAYER
 49
-0.5
 62
   256
  6
BYLAYER
  0
ACDBPLACEHOLDER
  5
F
102
{ACAD_REACTORS
330
E
102
}
330
E
  0
SCALE
  5
48
102
{ACAD_REACTORS
330
47
102
}
330
47
100
AcDbScale
 70
     0
300
1:1
140
1.0
141
1.0
290
     1
  0
SCALE
  5
49
102
{ACAD_REACTORS
330
47
102
}
330
47
100
AcDbScale
 70
     0
300
1/128" = 1'-0"
140
0.0078125
141
12.0
290
     0
  0
SCALE
  5
4A
102
{ACAD_REACTORS
330
47
102
}
330
47
100
AcDbScale
 70
     0
300
1/64" = 1'-0"
140
0.015625
141
12.0
290
     0
  0
SCALE
  5
4B
102
{ACAD_REACTORS
330
47
102
}
330
47
100
AcDbScale
 70
     0
300
1/32" = 1'-0"
140
0.03125
141
12.0
290
     0
  0
SCALE
  5
4C
102
{ACAD_REACTORS
330
47
102
}
330
47
100
AcDbScale
 70
     0
300
1/16" = 1'-0"
140
0.0625
141
12.0
290
     0
  0
SCALE
  5
4D
102
{ACAD_REACTORS
330
47
102
}
330
47
100
AcDbScale
 70
     0
300
3/32" = 1'-0"
140
0.09375
141
12.0
290
     0
  0
SCALE
  5
4E
102
{ACAD_REACTORS
330
47
102
}
330
47
100
AcDbScale
 70
     0
300
1/8" = 1'-0"
140
0.125
141
12.0
290
     0
  0
SCALE
  5
4F
102
{ACAD_REACTORS
330
47
102
}
330
47
100
AcDbScale
 70
     0
300
3/16" = 1'-0"
140
0.1875
141
12.0
290
     0
  0
SCALE
  5
50
102
{ACAD_REACTORS
330
47
102
}
330
47
100
AcDbScale
 70
     0
300
1/4" = 1'-0"
140
0.25
141
12.0
290
     0
  0
SCALE
  5
51
102
{ACAD_REACTORS
330
47
102
}
330
47
100
AcDbScale
 70
     0
300
3/8" = 1'-0"
140
0.375
141
12.0
290
     0
  0
SCALE
  5
52
102
{ACAD_REACTORS
330
47
102
}
330
47
100
AcDbScale
 70
     0
300
1/2" = 1'-0"
140
0.5
141
12.0
290
     0
  0
SCALE
  5
53
102
{ACAD_REACTORS
330
47
102
}
330
47
100
AcDbScale
 70
     0
300
3/4" = 1'-0"
140
0.75
141
12.0
290
     0
  0
SCALE
  5
54
102
{ACAD_REACTORS
330
47
102
}
330
47
100
AcDbScale
 70
     0
300
1" = 1'-0"
140
1.0
141
12.0
290
     0
  0
SCALE
  5
55
102
{ACAD_REACTORS
330
47
102
}
330
47
100
AcDbScale
 70
     0
300
1-1/2" = 1'-0"
140
1.5
141
12.0
290
     0
  0
SCALE
  5
56
102
{ACAD_REACTORS
330
47
102
}
330
47
100
AcDbScale
 70
     0
300
3" = 1'-0"
140
3.0
141
12.0
290
     0
  0
SCALE
  5
57
102
{ACAD_REACTORS
330
47
102
}
330
47
100
AcDbScale
 70
     0
300
6" = 1'-0"
140
6.0
141
12.0
290
     0
  0
SCALE
  5
58
102
{ACAD_REACTORS
330
47
102
}
330
47
100
AcDbScale
 70
     0
300
1'-0" = 1'-0"
140
12.0
141
12.0
290
     0
  0
ENDSEC
  0
EOF
