  0
SECTION
  2
HEADER
  9
$ACADVER
  1
AC1015
  9
$ACADMAINTVER
 70
     6
  9
$DWGCODEPAGE
  3
ANSI_1252
  9
$INSBASE
 10
0.0
 20
0.0
 30
0.0
  9
$EXTMIN
 10
0.0
 20
0.0
 30
0.0
  9
$EXTMAX
 10
22.0
 20
17.0
 30
0.0
  9
$LIMMIN
 10
0.0
 20
0.0
  9
$LIMMAX
 10
22.0
 20
17.0
  9
$ORTHOMODE
 70
     0
  9
$REGENMODE
 70
     1
  9
$FILLMODE
 70
     1
  9
$QTEXTMODE
 70
     0
  9
$MIRRTEXT
 70
     1
  9
$LTSCALE
 40
2.0
  9
$ATTMODE
 70
     1
  9
$TEXTSIZE
 40
0.25
  9
$TRACEWID
 40
0.05
  9
$TEXTSTYLE
  7
Standard
  9
$CLAYER
  8
0
  9
$CELTYPE
  6
ByLayer
  9
$CECOLOR
 62
   256
  9
$CELTSCALE
 40
1.0
  9
$DISPSILH
 70
     0
  9
$DIMSCALE
 40
1.0
  9
$DIMASZ
 40
0.26
  9
$DIMEXO
 40
0.1
  9
$DIMDLI
 40
0.38
  9
$DIMRND
 40
0.0
  9
$DIMDLE
 40
0.0
  9
$DIMEXE
 40
0.25
  9
$DIMTP
 40
0.0
  9
$DIMTM
 40
0.0
  9
$DIMTXT
 40
0.25
  9
$DIMCEN
 40
0.09
  9
$DIMTSZ
 40
0.0
  9
$DIMTOL
 70
     0
  9
$DIMLIM
 70
     0
  9
$DIMTIH
 70
     1
  9
$DIMTOH
 70
     1
  9
$DIMSE1
 70
     0
  9
$DIMSE2
 70
     0
  9
$DIMTAD
 70
     0
  9
$DIMZIN
 70
     1
  9
$DIMBLK
  1

  9
$DIMASO
 70
     1
  9
$DIMSHO
 70
     1
  9
$DIMPOST
  1

  9
$DIMAPOST
  1

  9
$DIMALT
 70
     0
  9
$DIMALTD
 70
     2
  9
$DIMALTF
 40
25.4
  9
$DIMLFAC
 40
1.0
  9
$DIMTOFL
 70
     0
  9
$DIMTVP
 40
0.0
  9
$DIMTIX
 70
     0
  9
$DIMSOXD
 70
     0
  9
$DIMSAH
 70
     0
  9
$DIMBLK1
  1

  9
$DIMBLK2
  1

  9
$DIMSTYLE
  2
Standard
  9
$DIMCLRD
 70
     0
  9
$DIMCLRE
 70
     0
  9
$DIMCLRT
 70
     0
  9
$DIMTFAC
 40
1.0
  9
$DIMGAP
 40
0.12
  9
$DIMJUST
 70
     0
  9
$DIMSD1
 70
     0
  9
$DIMSD2
 70
     0
  9
$DIMTOLJ
 70
     1
  9
$DIMTZIN
 70
     1
  9
$DIMALTZ
 70
     0
  9
$DIMALTTZ
 70
     0
  9
$DIMUPT
 70
     0
  9
$DIMDEC
 70
     0
  9
$DIMTDEC
 70
     0
  9
$DIMALTU
 70
     2
  9
$DIMALTTD
 70
     2
  9
$DIMTXSTY
  7
Standard
  9
$DIMAUNIT
 70
     0
  9
$DIMADEC
 70
     0
  9
$DIMALTRND
 40
0.0
  9
$DIMAZIN
 70
     0
  9
$DIMDSEP
 70
    46
  9
$DIMATFIT
 70
     3
  9
$DIMFRAC
 70
     0
  9
$DIMLDRBLK
  1

  9
$DIMLUNIT
 70
     2
  9
$DIMLWD
 70
    -2
  9
$DIMLWE
 70
    -2
  9
$DIMTMOVE
 70
     0
  9
$LUNITS
 70
     2
  9
$LUPREC
 70
     6
  9
$SKETCHINC
 40
0.1
  9
$FILLETRAD
 40
0.0
  9
$AUNITS
 70
     0
  9
$AUPREC
 70
     2
  9
$MENU
  1
.
  9
$ELEVATION
 40
0.0
  9
$PELEVATION
 40
0.0
  9
$THICKNESS
 40
0.0
  9
$LIMCHECK
 70
     0
  9
$CHAMFERA
 40
0.0
  9
$CHAMFERB
 40
0.0
  9
$CHAMFERC
 40
0.0
  9
$CHAMFERD
 40
0.0
  9
$SKPOLY
 70
     0
  9
$TDCREATE
 40
2460858.432291968
  9
$TDUCREATE
 40
2460858.723958635
  9
$TDUPDATE
 40
2460858.43229272
  9
$TDUUPDATE
 40
2460858.723959387
  9
$TDINDWG
 40
0.0000000116
  9
$TDUSRTIMER
 40
0.0000000116
  9
$USRTIMER
 70
     1
  9
$ANGBASE
 50
0.0
  9
$ANGDIR
 70
     0
  9
$PDMODE
 70
     0
  9
$PDSIZE
 40
-1.0
  9
$PLINEWID
 40
0.0
  9
$SPLFRAME
 70
     0
  9
$SPLINETYPE
 70
     6
  9
$SPLINESEGS
 70
     8
  9
$HANDSEED
  5
3A7
  9
$SURFTAB1
 70
     6
  9
$SURFTAB2
 70
     6
  9
$SURFTYPE
 70
     6
  9
$SURFU
 70
     6
  9
$SURFV
 70
     6
  9
$UCSBASE
  2

  9
$UCSNAME
  2

  9
$UCSORG
 10
0.0
 20
0.0
 30
0.0
  9
$UCSXDIR
 10
1.0
 20
0.0
 30
0.0
  9
$UCSYDIR
 10
0.0
 20
1.0
 30
0.0
  9
$UCSORTHOREF
  2

  9
$UCSORTHOVIEW
 70
     0
  9
$UCSORGTOP
 10
0.0
 20
0.0
 30
0.0
  9
$UCSORGBOTTOM
 10
0.0
 20
0.0
 30
0.0
  9
$UCSORGLEFT
 10
0.0
 20
0.0
 30
0.0
  9
$UCSORGRIGHT
 10
0.0
 20
0.0
 30
0.0
  9
$UCSORGFRONT
 10
0.0
 20
0.0
 30
0.0
  9
$UCSORGBACK
 10
0.0
 20
0.0
 30
0.0
  9
$PUCSBASE
  2

  9
$PUCSNAME
  2

  9
$PUCSORG
 10
0.0
 20
0.0
 30
0.0
  9
$PUCSXDIR
 10
1.0
 20
0.0
 30
0.0
  9
$PUCSYDIR
 10
0.0
 20
1.0
 30
0.0
  9
$PUCSORTHOREF
  2

  9
$PUCSORTHOVIEW
 70
     0
  9
$PUCSORGTOP
 10
0.0
 20
0.0
 30
0.0
  9
$PUCSORGBOTTOM
 10
0.0
 20
0.0
 30
0.0
  9
$PUCSORGLEFT
 10
0.0
 20
0.0
 30
0.0
  9
$PUCSORGRIGHT
 10
0.0
 20
0.0
 30
0.0
  9
$PUCSORGFRONT
 10
0.0
 20
0.0
 30
0.0
  9
$PUCSORGBACK
 10
0.0
 20
0.0
 30
0.0
  9
$USERI1
 70
     0
  9
$USERI2
 70
     0
  9
$USERI3
 70
     0
  9
$USERI4
 70
     0
  9
$USERI5
 70
     0
  9
$USERR1
 40
0.0
  9
$USERR2
 40
0.0
  9
$USERR3
 40
0.0
  9
$USERR4
 40
0.0
  9
$USERR5
 40
0.0
  9
$WORLDVIEW
 70
     1
  9
$SHADEDGE
 70
     3
  9
$SHADEDIF
 70
    70
  9
$TILEMODE
 70
     1
  9
$MAXACTVP
 70
    64
  9
$PINSBASE
 10
0.0
 20
0.0
 30
0.0
  9
$PLIMCHECK
 70
     0
  9
$PEXTMIN
 10
1.0000000000E+20
 20
1.0000000000E+20
 30
1.0000000000E+20
  9
$PEXTMAX
 10
-1.0000000000E+20
 20
-1.0000000000E+20
 30
-1.0000000000E+20
  9
$PLIMMIN
 10
0.0
 20
0.0
  9
$PLIMMAX
 10
12.0
 20
9.0
  9
$UNITMODE
 70
     0
  9
$VISRETAIN
 70
     1
  9
$PLINEGEN
 70
     0
  9
$PSLTSCALE
 70
     1
  9
$TREEDEPTH
 70
  3020
  9
$CMLSTYLE
  2
Standard
  9
$CMLJUST
 70
     0
  9
$CMLSCALE
 40
1.0
  9
$PROXYGRAPHICS
 70
     1
  9
$MEASUREMENT
 70
     0
  9
$CELWEIGHT
370
    -1
  9
$ENDCAPS
280
     0
  9
$JOINSTYLE
280
     0
  9
$LWDISPLAY
290
     1
  9
$INSUNITS
 70
     1
  9
$HYPERLINKBASE
  1

  9
$STYLESHEET
  1

  9
$XEDIT
290
     1
  9
$CEPSNTYPE
380
     0
  9
$PSTYLEMODE
290
     1
  9
$FINGERPRINTGUID
  2
{de9a6de4-828e-4cf3-9d8e-8fe823f9e496}
  9
$VERSIONGUID
  2
{FAEB1C32-E019-11D5-929B-00C0DF256EC4}
  9
$EXTNAMES
290
     1
  9
$PSVPSCALE
 40
0.0
  9
$OLESTARTUP
290
     0
  0
ENDSEC
  0
SECTION
  2
CLASSES
  0
CLASS
  1
ACDBDICTIONARYWDFLT
  2
AcDbDictionaryWithDefault
  3
ObjectDBX Classes
 90
        0
280
     0
281
     0
  0
CLASS
  1
VISUALSTYLE
  2
AcDbVisualStyle
  3
ObjectDBX Classes
 90
     4095
280
     0
281
     0
  0
CLASS
  1
MATERIAL
  2
AcDbMaterial
  3
ObjectDBX Classes
 90
     1153
280
     0
281
     0
  0
CLASS
  1
SCALE
  2
AcDbScale
  3
ObjectDBX Classes
 90
     1153
280
     0
281
     0
  0
CLASS
  1
TABLESTYLE
  2
AcDbTableStyle
  3
ObjectDBX Classes
 90
     4095
280
     0
281
     0
  0
CLASS
  1
MLEADERSTYLE
  2
AcDbMLeaderStyle
  3
ACDB_MLEADERSTYLE_CLASS
 90
     4095
280
     0
281
     0
  0
CLASS
  1
SUN
  2
AcDbSun
  3
SCENEOE
 90
     1153
280
     0
281
     0
  0
CLASS
  1
ACDBPLACEHOLDER
  2
AcDbPlaceHolder
  3
ObjectDBX Classes
 90
        0
280
     0
281
     0
  0
CLASS
  1
LAYOUT
  2
AcDbLayout
  3
ObjectDBX Classes
 90
        0
280
     0
281
     0
  0
ENDSEC
  0
SECTION
  2
TABLES
  0
TABLE
  2
VPORT
  5
8
330
0
100
AcDbSymbolTable
 70
     1
  0
VPORT
  5
29
330
8
100
AcDbSymbolTableRecord
100
AcDbViewportTableRecord
  2
*Active
 70
     0
 10
0.0
 20
0.0
 11
1.0
 21
1.0
 12
11.0
 22
8.5
 13
0.0
 23
0.0
 14
0.5
 24
0.5
 15
0.5
 25
0.5
 16
0.0
 26
0.0
 36
1.0
 17
0.0
 27
0.0
 37
0.0
 40
17.0
 41
1.2941176471
 42
50.0
 43
0.0
 44
0.0
 50
0.0
 51
0.0
 71
     0
 72
  2000
 73
     1
 74
     3
 75
     0
 76
     0
 77
     0
 78
     0
281
     0
 65
     1
110
0.0
120
0.0
130
0.0
111
1.0
121
0.0
131
0.0
112
0.0
122
1.0
132
0.0
 79
     0
146
0.0
  0
ENDTAB
  0
TABLE
  2
LTYPE
  5
5
330
0
100
AcDbSymbolTable
 70
     6
  0
LTYPE
  5
14
330
5
100
AcDbSymbolTableRecord
100
AcDbLinetypeTableRecord
  2
ByBlock
 70
     0
  3

 72
    65
 73
     0
 40
0.0
  0
LTYPE
  5
15
330
5
100
AcDbSymbolTableRecord
100
AcDbLinetypeTableRecord
  2
ByLayer
 70
     0
  3

 72
    65
 73
     0
 40
0.0
  0
LTYPE
  5
16
330
5
100
AcDbSymbolTableRecord
100
AcDbLinetypeTableRecord
  2
Continuous
 70
     0
  3
Solid line
 72
    65
 73
     0
 40
0.0
  0
LTYPE
  5
5E
330
5
100
AcDbSymbolTableRecord
100
AcDbLinetypeTableRecord
  2
HIDDEN
 70
     0
  3
Hidden __ __ __ __ __ __ __ __ __ __ __ __ __ __
 72
    65
 73
     2
 40
0.075
 49
0.05
 74
     0
 49
-0.025
 74
     0
  0
LTYPE
  5
5F
330
5
100
AcDbSymbolTableRecord
100
AcDbLinetypeTableRecord
  2
PHANTOM
 70
     0
  3
Phantom ______  __  __  ______  __  __  ______
 72
    65
 73
     6
 40
0.5
 49
0.25
 74
     0
 49
-0.05
 74
     0
 49
0.05
 74
     0
 49
-0.05
 74
     0
 49
0.05
 74
     0
 49
-0.05
 74
     0
  0
LTYPE
  5
60
330
5
100
AcDbSymbolTableRecord
100
AcDbLinetypeTableRecord
  2
CENTER
 70
     0
  3
Center ____ _ ____ _ ____ _ ____ _ ____ _ ____
 72
    65
 73
     4
 40
0.4
 49
0.25
 74
     0
 49
-0.05
 74
     0
 49
0.05
 74
     0
 49
-0.05
 74
     0
  0
LTYPE
  5
61
330
5
100
AcDbSymbolTableRecord
100
AcDbLinetypeTableRecord
  2
CENTERX2
 70
     0
  3
Center (2x) ________  __  ________  __  _____
 72
    65
 73
     4
 40
0.8
 49
0.5
 74
     0
 49
-0.1
 74
     0
 49
0.1
 74
     0
 49
-0.1
 74
     0
  0
LTYPE
  5
62
330
5
100
AcDbSymbolTableRecord
100
AcDbLinetypeTableRecord
  2
DOT2
 70
     0
  3
Dot (.5x) ........................................
 72
    65
 73
     2
 40
0.025
 49
0.0
 74
     0
 49
-0.025
 74
     0
  0
ENDTAB
  0
TABLE
  2
LAYER
  5
2
330
0
100
AcDbSymbolTable
 70
    11
  0
LAYER
  5
10
330
2
100
AcDbSymbolTableRecord
100
AcDbLayerTableRecord
  2
0
 70
     0
 62
     7
  6
Continuous
370
    -3
390
F
  0
LAYER
  5
63
330
2
100
AcDbSymbolTableRecord
100
AcDbLayerTableRecord
  2
SLD-0
 70
     0
 62
     7
  6
Continuous
370
    -3
390
F
  0
LAYER
  5
64
330
2
100
AcDbSymbolTableRecord
100
AcDbLayerTableRecord
  2
DIM
 70
     0
 62
     7
  6
Continuous
370
    -3
390
F
  0
LAYER
  5
65
330
2
100
AcDbSymbolTableRecord
100
AcDbLayerTableRecord
  2
CEN
 70
     0
 62
     1
  6
CENTER
370
    -3
390
F
  0
LAYER
  5
66
330
2
100
AcDbSymbolTableRecord
100
AcDbLayerTableRecord
  2
HAT
 70
     0
 62
     4
  6
Continuous
370
    -3
390
F
  0
LAYER
  5
67
330
2
100
AcDbSymbolTableRecord
100
AcDbLayerTableRecord
  2
OBJ
 70
     0
 62
     5
  6
Continuous
370
    -3
390
F
  0
LAYER
  5
68
330
2
100
AcDbSymbolTableRecord
100
AcDbLayerTableRecord
  2
SLD-DEFPOINTS
 70
     0
 62
     7
  6
Continuous
370
    -3
390
F
  0
LAYER
  5
69
330
2
100
AcDbSymbolTableRecord
100
AcDbLayerTableRecord
  2
HID
 70
     0
 62
     4
  6
HIDDEN
370
    -3
390
F
  0
LAYER
  5
6A
330
2
100
AcDbSymbolTableRecord
100
AcDbLayerTableRecord
  2
NOTE
 70
     0
 62
     7
  6
Continuous
370
    -3
390
F
  0
LAYER
  5
6B
330
2
100
AcDbSymbolTableRecord
100
AcDbLayerTableRecord
  2
TITLE
 70
     0
 62
     7
  6
Continuous
370
    -3
390
F
  0
LAYER
  5
6C
330
2
100
AcDbSymbolTableRecord
100
AcDbLayerTableRecord
  2
THICK_TITLE
 70
     0
 62
     7
  6
Continuous
370
   100
390
F
  0
ENDTAB
  0
TABLE
  2
STYLE
  5
3
330
0
100
AcDbSymbolTable
 70
     3
  0
STYLE
  5
11
330
3
100
AcDbSymbolTableRecord
100
AcDbTextStyleTableRecord
  2
Standard
 70
     0
 40
0.0
 41
1.0
 50
0.0
 71
     0
 42
0.25
  3
txt
  4

  0
STYLE
  5
73
330
3
100
AcDbSymbolTableRecord
100
AcDbTextStyleTableRecord
  2
SLDTEXTSTYLE0
 70
     0
 40
0.0
 41
0.75
 50
0.0
 71
     0
 42
0.25
  3
TXT
  4

  0
STYLE
  5
84
330
3
100
AcDbSymbolTableRecord
100
AcDbTextStyleTableRecord
  2
SLDTEXTSTYLE1
 70
     0
 40
0.0
 41
0.7
 50
0.0
 71
     0
 42
0.25
  3
TXT
  4

  0
ENDTAB
  0
TABLE
  2
VIEW
  5
6
330
0
100
AcDbSymbolTable
 70
     0
  0
ENDTAB
  0
TABLE
  2
UCS
  5
7
330
0
100
AcDbSymbolTable
 70
     0
  0
ENDTAB
  0
TABLE
  2
APPID
  5
9
330
0
100
AcDbSymbolTable
 70
     1
  0
APPID
  5
12
330
9
100
AcDbSymbolTableRecord
100
AcDbRegAppTableRecord
  2
ACAD
 70
     0
  0
ENDTAB
  0
TABLE
  2
DIMSTYLE
  5
A
330
0
100
AcDbSymbolTable
 70
     7
100
AcDbDimStyleTable
  0
DIMSTYLE
105
27
330
A
100
AcDbSymbolTableRecord
100
AcDbDimStyleTableRecord
  2
Standard
 70
     0
178
     0
340
11
  0
DIMSTYLE
105
18E
102
{ACAD_REACTORS
330
18D
330
1B8
102
}
330
A
100
AcDbSymbolTableRecord
100
AcDbDimStyleTableRecord
  2
SLDDIMSTYLE0
 70
     0
 41
0.26
 44
0.0
 45
0.000000001
 78
    12
 79
     3
140
0.25
147
0.0625
148
0.000000001
170
     1
173
     1
178
     0
271
     0
272
     0
276
     2
277
     5
284
    12
340
73
  0
DIMSTYLE
105
1A3
102
{ACAD_REACTORS
330
1A2
102
}
330
A
100
AcDbSymbolTableRecord
100
AcDbDimStyleTableRecord
  2
SLDDIMSTYLE1
 70
     0
 41
0.26
 44
0.0
 45
0.000000001
 78
    12
 79
     3
140
0.25
147
0.0625
148
0.000000001
170
     1
173
     1
178
     0
271
     6
272
     0
276
     2
277
     5
284
    12
340
73
  0
DIMSTYLE
105
1CC
102
{ACAD_REACTORS
330
1CB
102
}
330
A
100
AcDbSymbolTableRecord
100
AcDbDimStyleTableRecord
  2
SLDDIMSTYLE2
 70
     0
 41
0.26
 44
0.0
 45
0.000000001
 78
    12
 79
     3
140
0.25
147
0.0625
148
0.000000001
170
     1
172
     1
173
     1
178
     0
271
     6
272
     0
276
     2
277
     5
284
    12
289
     0
340
73
  0
DIMSTYLE
105
1E2
330
A
100
AcDbSymbolTableRecord
100
AcDbDimStyleTableRecord
  2
SLDDIMSTYLE3
 70
     0
 41
0.26
 44
0.0
 45
0.000000001
146
0.26
147
0.0
173
     1
178
     0
271
     0
272
     0
276
     2
277
     5
340
11
  0
DIMSTYLE
105
1F1
102
{ACAD_REACTORS
330
1F0
102
}
330
A
100
AcDbSymbolTableRecord
100
AcDbDimStyleTableRecord
  2
SLDDIMSTYLE4
 70
     0
 41
0.26
 44
0.0
 45
0.000000001
 78
    12
 79
     3
140
0.25
144
1.5
147
0.0625
148
0.000000001
170
     1
173
     1
178
     0
271
     6
272
     0
276
     2
277
     5
284
    12
340
73
  0
DIMSTYLE
105
217
102
{ACAD_REACTORS
330
216
330
23A
102
}
330
A
100
AcDbSymbolTableRecord
100
AcDbDimStyleTableRecord
  2
SLDDIMSTYLE5
 70
     0
 41
0.26
 44
0.0
 45
0.000000001
 78
    12
 79
     3
140
0.25
144
1.5
147
0.0625
148
0.000000001
170
     1
172
     1
173
     1
178
     0
271
     6
272
     0
276
     2
277
     5
284
    12
289
     0
340
73
  0
ENDTAB
  0
TABLE
  2
BLOCK_RECORD
  5
1
330
0
100
AcDbSymbolTable
 70
    14
  0
BLOCK_RECORD
  5
1F
330
1
100
AcDbSymbolTableRecord
100
AcDbBlockTableRecord
  2
*Model_Space
340
22
  0
BLOCK_RECORD
  5
1B
330
1
100
AcDbSymbolTableRecord
100
AcDbBlockTableRecord
  2
*Paper_Space
340
1E
  0
BLOCK_RECORD
  5
23
330
1
100
AcDbSymbolTableRecord
100
AcDbBlockTableRecord
  2
*Paper_Space0
340
26
  0
BLOCK_RECORD
  5
6D
330
1
100
AcDbSymbolTableRecord
100
AcDbBlockTableRecord
  2
Block1
340
0
102
{BLKREFS
331
1EF
102
}
  0
BLOCK_RECORD
  5
70
330
1
100
AcDbSymbolTableRecord
100
AcDbBlockTableRecord
  2
SW_NOTE_0
340
0
102
{BLKREFS
331
75
102
}
  0
BLOCK_RECORD
  5
76
330
1
100
AcDbSymbolTableRecord
100
AcDbBlockTableRecord
  2
Block2
340
0
102
{BLKREFS
331
215
102
}
  0
BLOCK_RECORD
  5
79
330
1
100
AcDbSymbolTableRecord
100
AcDbBlockTableRecord
  2
SW_NOTE_0_1
340
0
102
{BLKREFS
331
7D
102
}
  0
BLOCK_RECORD
  5
7E
330
1
100
AcDbSymbolTableRecord
100
AcDbBlockTableRecord
  2
Block3
340
0
102
{BLKREFS
331
239
102
}
  0
BLOCK_RECORD
  5
81
330
1
100
AcDbSymbolTableRecord
100
AcDbBlockTableRecord
  2
SW_NOTE_0_2
340
0
102
{BLKREFS
331
86
102
}
  0
BLOCK_RECORD
  5
18F
330
1
100
AcDbSymbolTableRecord
100
AcDbBlockTableRecord
  2
_D
340
0
  0
BLOCK_RECORD
  5
1A4
330
1
100
AcDbSymbolTableRecord
100
AcDbBlockTableRecord
  2
_D_1
340
0
  0
BLOCK_RECORD
  5
1B9
330
1
100
AcDbSymbolTableRecord
100
AcDbBlockTableRecord
  2
_D_2
340
0
  0
BLOCK_RECORD
  5
1CD
330
1
100
AcDbSymbolTableRecord
100
AcDbBlockTableRecord
  2
_D_3
340
0
  0
BLOCK_RECORD
  5
1F2
330
1
100
AcDbSymbolTableRecord
100
AcDbBlockTableRecord
  2
_D_4
340
0
  0
BLOCK_RECORD
  5
218
330
1
100
AcDbSymbolTableRecord
100
AcDbBlockTableRecord
  2
_D_5
340
0
  0
BLOCK_RECORD
  5
23B
330
1
100
AcDbSymbolTableRecord
100
AcDbBlockTableRecord
  2
_D_6
340
0
  0
ENDTAB
  0
ENDSEC
  0
SECTION
  2
BLOCKS
  0
BLOCK
  5
20
330
1F
100
AcDbEntity
  8
0
100
AcDbBlockBegin
  2
*Model_Space
 70
     0
 10
0.0
 20
0.0
 30
0.0
  3
*Model_Space
  1

  0
ENDBLK
  5
21
330
1F
100
AcDbEntity
  8
0
100
AcDbBlockEnd
  0
BLOCK
  5
1C
330
1B
100
AcDbEntity
 67
     1
  8
0
100
AcDbBlockBegin
  2
*Paper_Space
 70
     0
 10
0.0
 20
0.0
 30
0.0
  3
*Paper_Space
  1

  0
ENDBLK
  5
1D
330
1B
100
AcDbEntity
 67
     1
  8
0
100
AcDbBlockEnd
  0
BLOCK
  5
24
330
23
100
AcDbEntity
  8
0
100
AcDbBlockBegin
  2
*Paper_Space0
 70
     0
 10
0.0
 20
0.0
 30
0.0
  3
*Paper_Space0
  1

  0
ENDBLK
  5
25
330
23
100
AcDbEntity
  8
0
100
AcDbBlockEnd
  0
BLOCK
  5
6E
330
6D
100
AcDbEntity
  8
0
100
AcDbBlockBegin
  2
Block1
 70
     0
 10
0.0
 20
0.0
 30
0.0
  3
Block1
  1

  0
INSERT
  5
75
330
6D
100
AcDbEntity
  8
0
  6
Continuous
 62
     7
370
     0
100
AcDbBlockReference
  2
SW_NOTE_0
 10
0.0008214865
 20
-0.0347641935
 30
0.0
  0
ENDBLK
  5
6F
330
6D
100
AcDbEntity
  8
0
100
AcDbBlockEnd
  0
BLOCK
  5
71
330
70
100
AcDbEntity
  8
0
100
AcDbBlockBegin
  2
SW_NOTE_0
 70
     0
 10
0.0
 20
0.0
 30
0.0
  3
SW_NOTE_0
  1

  0
MTEXT
  5
74
330
70
100
AcDbEntity
  8
0
  6
Continuous
 62
     0
370
     0
100
AcDbMText
 10
1.1588541667
 20
0.5371115582
 30
0.0
 40
0.4166666667
 41
0.0
 71
     2
 72
     1
  1
A/D CAP
  7
SLDTEXTSTYLE0
 73
     1
 44
1.0
  0
ENDBLK
  5
72
330
70
100
AcDbEntity
  8
0
100
AcDbBlockEnd
  0
BLOCK
  5
77
330
76
100
AcDbEntity
  8
0
100
AcDbBlockBegin
  2
Block2
 70
     0
 10
0.0
 20
0.0
 30
0.0
  3
Block2
  1

  0
INSERT
  5
7D
330
76
100
AcDbEntity
  8
0
  6
Continuous
 62
     7
370
     0
100
AcDbBlockReference
  2
SW_NOTE_0_1
 10
0.0078828751
 20
0.5683615613
 30
0.0
  0
ENDBLK
  5
78
330
76
100
AcDbEntity
  8
0
100
AcDbBlockEnd
  0
BLOCK
  5
7A
330
79
100
AcDbEntity
  8
0
100
AcDbBlockBegin
  2
SW_NOTE_0_1
 70
     0
 10
0.0
 20
0.0
 30
0.0
  3
SW_NOTE_0_1
  1

  0
MTEXT
  5
7C
330
79
100
AcDbEntity
  8
0
  6
Continuous
 62
     0
370
     0
100
AcDbMText
 10
1.07421875
 20
0.5371115582
 30
0.0
 40
0.4166666667
 41
0.0
 71
     2
 72
     1
  1
B/E CAP
  7
SLDTEXTSTYLE0
 73
     1
 44
1.0
  0
ENDBLK
  5
7B
330
79
100
AcDbEntity
  8
0
100
AcDbBlockEnd
  0
BLOCK
  5
7F
330
7E
100
AcDbEntity
  8
0
100
AcDbBlockBegin
  2
Block3
 70
     0
 10
0.0
 20
0.0
 30
0.0
  3
Block3
  1

  0
INSERT
  5
86
330
7E
100
AcDbEntity
  8
0
  6
Continuous
 62
     7
370
     0
100
AcDbBlockReference
  2
SW_NOTE_0_2
 10
0.0226267664
 20
-0.0185493262
 30
0.0
  0
ENDBLK
  5
80
330
7E
100
AcDbEntity
  8
0
100
AcDbBlockEnd
  0
BLOCK
  5
82
330
81
100
AcDbEntity
  8
0
100
AcDbBlockBegin
  2
SW_NOTE_0_2
 70
     0
 10
0.0
 20
0.0
 30
0.0
  3
SW_NOTE_0_2
  1

  0
MTEXT
  5
85
330
81
100
AcDbEntity
  8
0
  6
Continuous
 62
     0
370
     0
100
AcDbMText
 10
0.8723958333
 20
0.5371115582
 30
0.0
 40
0.4166666667
 41
0.0
 71
     2
 72
     1
  1
C CAP
  7
SLDTEXTSTYLE1
 73
     1
 44
1.0
  0
ENDBLK
  5
83
330
81
100
AcDbEntity
  8
0
100
AcDbBlockEnd
  0
BLOCK
  5
190
330
18F
100
AcDbEntity
  8
0
100
AcDbBlockBegin
  2
_D
 70
     0
 10
0.0
 20
0.0
 30
0.0
  3
_D
  1

  0
SOLID
  5
192
330
18F
100
AcDbEntity
  8
0
  6
Continuous
 62
     7
370
    18
100
AcDbTrace
 10
2.8415871404
 20
11.4323666038
 30
0.0
 11
3.0537191747
 21
11.5879300957
 31
0.0
 12
2.9971506322
 22
11.6444986382
 32
0.0
 13
2.9971506322
 23
11.6444986382
 33
0.0
  0
SOLID
  5
193
330
18F
100
AcDbEntity
  8
0
  6
Continuous
 62
     7
370
    18
100
AcDbTrace
 10
7.0730555403
 20
15.6638350038
 30
0.0
 11
6.860923506
 21
15.5082715119
 31
0.0
 12
6.9174920485
 22
15.4517029694
 32
0.0
 13
6.9174920485
 23
15.4517029694
 33
0.0
  0
LINE
  5
194
330
18F
100
AcDbEntity
  8
0
  6
Continuous
 62
     7
370
     0
100
AcDbLine
 10
4.3677380513
 20
13.5461910425
 30
0.0
 11
4.291566177
 21
13.5461910425
 31
0.0
  0
LINE
  5
195
330
18F
100
AcDbEntity
  8
0
  6
Continuous
 62
     7
370
     0
100
AcDbLine
 10
4.291566177
 20
13.5461910425
 30
0.0
 11
4.291566177
 21
13.1493160306
 31
0.0
  0
LINE
  5
196
330
18F
100
AcDbEntity
  8
0
  6
Continuous
 62
     7
370
     0
100
AcDbLine
 10
4.291566177
 20
13.1493160306
 30
0.0
 11
4.3677380513
 21
13.1493160306
 31
0.0
  0
LINE
  5
197
330
18F
100
AcDbEntity
  8
0
  6
Continuous
 62
     7
370
     0
100
AcDbLine
 10
5.5469047028
 20
13.5461910425
 30
0.0
 11
5.623076577
 21
13.5461910425
 31
0.0
  0
LINE
  5
198
330
18F
100
AcDbEntity
  8
0
  6
Continuous
 62
     7
370
     0
100
AcDbLine
 10
5.623076577
 20
13.5461910425
 30
0.0
 11
5.623076577
 21
13.1493160306
 31
0.0
  0
LINE
  5
199
330
18F
100
AcDbEntity
  8
0
  6
Continuous
 62
     7
370
     0
100
AcDbLine
 10
5.623076577
 20
13.1493160306
 30
0.0
 11
5.5469047028
 21
13.1493160306
 31
0.0
  0
LINE
  5
19A
330
18F
100
AcDbEntity
  8
0
  6
Continuous
 62
     7
370
     0
100
AcDbLine
 10
4.9111383289
 20
9.3628154153
 30
0.0
 11
2.6648104451
 21
11.6091432991
 31
0.0
  0
LINE
  5
19B
330
18F
100
AcDbEntity
  8
0
  6
Continuous
 62
     7
370
     0
100
AcDbLine
 10
8.0925531588
 20
14.6443373853
 30
0.0
 11
6.896278845
 21
15.8406116991
 31
0.0
  0
LINE
  5
19C
330
18F
100
AcDbEntity
  8
0
  6
Continuous
 62
     7
370
     0
100
AcDbLine
 10
2.8415871404
 20
11.4323666038
 30
0.0
 11
4.5077553971
 21
13.0985348605
 31
0.0
  0
LINE
  5
19D
330
18F
100
AcDbEntity
  8
0
  6
Continuous
 62
     7
370
     0
100
AcDbLine
 10
7.0730555403
 20
15.6638350038
 30
0.0
 11
5.4068872836
 21
13.997666747
 31
0.0
  0
MTEXT
  5
19E
330
18F
100
AcDbEntity
  8
0
  6
Continuous
 62
     7
370
    18
100
AcDbMText
 10
4.2167831914
 20
13.9230586975
 30
0.0
 40
0.25
 41
0.0
 71
     1
 72
     1
  1

  7
SLDTEXTSTYLE0
 73
     1
 44
1.0
  0
MTEXT
  5
19F
330
18F
100
AcDbEntity
  8
0
  6
Continuous
 62
     7
370
    18
100
AcDbMText
 10
4.8133977471
 20
13.9192392346
 30
0.0
 40
0.25
 41
0.0
 71
     1
 72
     1
  1
6"
  7
SLDTEXTSTYLE0
 73
     1
 44
1.0
  0
MTEXT
  5
1A0
330
18F
100
AcDbEntity
  8
0
  6
Continuous
 62
     7
370
    18
100
AcDbMText
 10
4.3677380513
 20
13.471582993
 30
0.0
 40
0.25
 41
0.0
 71
     1
 72
     1
  1
152mm
  7
SLDTEXTSTYLE0
 73
     1
 44
1.0
  0
MTEXT
  5
1A1
330
18F
100
AcDbEntity
  8
0
  6
Continuous
 62
     7
370
    18
100
AcDbMText
 10
5.7929983962
 20
13.9230586975
 30
0.0
 40
0.25
 41
0.0
 71
     1
 72
     1
  1

  7
SLDTEXTSTYLE0
 73
     1
 44
1.0
  0
ENDBLK
  5
191
330
18F
100
AcDbEntity
  8
0
100
AcDbBlockEnd
  0
BLOCK
  5
1A5
330
1A4
100
AcDbEntity
  8
0
100
AcDbBlockBegin
  2
_D_1
 70
     0
 10
0.0
 20
0.0
 30
0.0
  3
_D_1
  1

  0
SOLID
  5
1A7
330
1A4
100
AcDbEntity
  8
0
  6
Continuous
 62
     7
370
    18
100
AcDbTrace
 10
6.9925488041
 20
8.2999215477
 30
0.0
 11
6.7804167697
 21
8.1443580559
 31
0.0
 12
6.8369853122
 22
8.0877895134
 32
0.0
 13
6.8369853122
 23
8.0877895134
 33
0.0
  0
SOLID
  5
1A8
330
1A4
100
AcDbEntity
  8
0
  6
Continuous
 62
     7
370
    18
100
AcDbTrace
 10
6.4832905003
 20
7.7906632439
 30
0.0
 11
6.6954225346
 21
7.9462267358
 31
0.0
 12
6.6388539921
 22
8.0027952783
 32
0.0
 13
6.6388539921
 23
8.0027952783
 33
0.0
  0
LINE
  5
1A9
330
1A4
100
AcDbEntity
  8
0
  6
Continuous
 62
     7
370
     0
100
AcDbLine
 10
8.1193787287
 20
8.6801368512
 30
0.0
 11
8.0432068544
 21
8.6801368512
 31
0.0
  0
LINE
  5
1AA
330
1A4
100
AcDbEntity
  8
0
  6
Continuous
 62
     7
370
     0
100
AcDbLine
 10
8.0432068544
 20
8.6801368512
 30
0.0
 11
8.0432068544
 21
8.2832618393
 31
0.0
  0
LINE
  5
1AB
330
1A4
100
AcDbEntity
  8
0
  6
Continuous
 62
     7
370
     0
100
AcDbLine
 10
8.0432068544
 20
8.2832618393
 30
0.0
 11
8.1193787287
 21
8.2832618393
 31
0.0
  0
LINE
  5
1AC
330
1A4
100
AcDbEntity
  8
0
  6
Continuous
 62
     7
370
     0
100
AcDbLine
 10
9.1138231941
 20
8.6801368512
 30
0.0
 11
9.1899950683
 21
8.6801368512
 31
0.0
  0
LINE
  5
1AD
330
1A4
100
AcDbEntity
  8
0
  6
Continuous
 62
     7
370
     0
100
AcDbLine
 10
9.1899950683
 20
8.6801368512
 30
0.0
 11
9.1899950683
 21
8.2832618393
 31
0.0
  0
LINE
  5
1AE
330
1A4
100
AcDbEntity
  8
0
  6
Continuous
 62
     7
370
     0
100
AcDbLine
 10
9.1899950683
 20
8.2832618393
 30
0.0
 11
9.1138231941
 21
8.2832618393
 31
0.0
  0
LINE
  5
1AF
330
1A4
100
AcDbEntity
  8
0
  6
Continuous
 62
     7
370
     0
100
AcDbLine
 10
6.6048004912
 20
8.6876698606
 30
0.0
 11
7.1693254994
 21
8.1231448524
 31
0.0
  0
LINE
  5
1B0
330
1A4
100
AcDbEntity
  8
0
  6
Continuous
 62
     7
370
     0
100
AcDbLine
 10
5.0525596851
 20
9.221394059
 30
0.0
 11
6.6600671956
 21
7.6138865486
 31
0.0
  0
LINE
  5
1B1
330
1A4
100
AcDbEntity
  8
0
  6
Continuous
 62
     7
370
     0
100
AcDbLine
 10
6.9925488041
 20
8.2999215477
 30
0.0
 11
7.3746738688
 21
8.6820466125
 31
0.0
  0
LINE
  5
1B2
330
1A4
100
AcDbEntity
  8
0
  6
Continuous
 62
     7
370
     0
100
AcDbLine
 10
6.4832905003
 20
7.7906632439
 30
0.0
 11
6.9925488041
 21
8.2999215477
 31
0.0
  0
LINE
  5
1B3
330
1A4
100
AcDbEntity
  8
0
  6
Continuous
 62
     7
370
     0
100
AcDbLine
 10
7.3746738688
 20
8.6820466125
 30
0.0
 11
7.8746738688
 21
8.6820466125
 31
0.0
  0
MTEXT
  5
1B4
330
1A4
100
AcDbEntity
  8
0
  6
Continuous
 62
     7
370
    18
100
AcDbMText
 10
7.9684238688
 20
9.0570045062
 30
0.0
 40
0.25
 41
0.0
 71
     1
 72
     1
  1

  7
SLDTEXTSTYLE0
 73
     1
 44
1.0
  0
MTEXT
  5
1B5
330
1A4
100
AcDbEntity
  8
0
  6
Continuous
 62
     7
370
    18
100
AcDbMText
 10
8.3073995383
 20
9.0531850433
 30
0.0
 40
0.25
 41
0.0
 71
     1
 72
     1
  1
3/4"
  7
SLDTEXTSTYLE0
 73
     1
 44
1.0
  0
MTEXT
  5
1B6
330
1A4
100
AcDbEntity
  8
0
  6
Continuous
 62
     7
370
    18
100
AcDbMText
 10
8.1193787287
 20
8.6055288017
 30
0.0
 40
0.25
 41
0.0
 71
     1
 72
     1
  1
18mm
  7
SLDTEXTSTYLE0
 73
     1
 44
1.0
  0
MTEXT
  5
1B7
330
1A4
100
AcDbEntity
  8
0
  6
Continuous
 62
     7
370
    18
100
AcDbMText
 10
9.3599168875
 20
9.0570045062
 30
0.0
 40
0.25
 41
0.0
 71
     1
 72
     1
  1

  7
SLDTEXTSTYLE0
 73
     1
 44
1.0
  0
ENDBLK
  5
1A6
330
1A4
100
AcDbEntity
  8
0
100
AcDbBlockEnd
  0
BLOCK
  5
1BA
330
1B9
100
AcDbEntity
  8
0
100
AcDbBlockBegin
  2
_D_2
 70
     0
 10
0.0
 20
0.0
 30
0.0
  3
_D_2
  1

  0
SOLID
  5
1BC
330
1B9
100
AcDbEntity
  8
0
  6
Continuous
 62
     7
370
    18
100
AcDbTrace
 10
8.7979920626
 20
15.2154260006
 30
0.0
 11
8.9535555544
 21
15.0032939663
 31
0.0
 12
9.0101240969
 22
15.0598625088
 32
0.0
 13
9.0101240969
 23
15.0598625088
 33
0.0
  0
SOLID
  5
1BD
330
1B9
100
AcDbEntity
  8
0
  6
Continuous
 62
     7
370
    18
100
AcDbTrace
 10
10.9051702705
 20
13.1082477927
 30
0.0
 11
10.7496067786
 21
13.3203798271
 31
0.0
 12
10.6930382361
 22
13.2638112846
 32
0.0
 13
10.6930382361
 23
13.2638112846
 33
0.0
  0
LINE
  5
1BE
330
1B9
100
AcDbEntity
  8
0
  6
Continuous
 62
     7
370
     0
100
AcDbLine
 10
9.3543589521
 20
14.16183686
 30
0.0
 11
9.2781870779
 21
14.16183686
 31
0.0
  0
LINE
  5
1BF
330
1B9
100
AcDbEntity
  8
0
  6
Continuous
 62
     7
370
     0
100
AcDbLine
 10
9.2781870779
 20
14.16183686
 30
0.0
 11
9.2781870779
 21
13.7649618481
 31
0.0
  0
LINE
  5
1C0
330
1B9
100
AcDbEntity
  8
0
  6
Continuous
 62
     7
370
     0
100
AcDbLine
 10
9.2781870779
 20
13.7649618481
 30
0.0
 11
9.3543589521
 21
13.7649618481
 31
0.0
  0
LINE
  5
1C1
330
1B9
100
AcDbEntity
  8
0
  6
Continuous
 62
     7
370
     0
100
AcDbLine
 10
10.3488034176
 20
14.16183686
 30
0.0
 11
10.4249752918
 21
14.16183686
 31
0.0
  0
LINE
  5
1C2
330
1B9
100
AcDbEntity
  8
0
  6
Continuous
 62
     7
370
     0
100
AcDbLine
 10
10.4249752918
 20
14.16183686
 30
0.0
 11
10.4249752918
 21
13.7649618481
 31
0.0
  0
LINE
  5
1C3
330
1B9
100
AcDbEntity
  8
0
  6
Continuous
 62
     7
370
     0
100
AcDbLine
 10
10.4249752918
 20
13.7649618481
 30
0.0
 11
10.3488034176
 21
13.7649618481
 31
0.0
  0
LINE
  5
1C4
330
1B9
100
AcDbEntity
  8
0
  6
Continuous
 62
     7
370
     0
100
AcDbLine
 10
4.4976222832
 20
10.9150562213
 30
0.0
 11
8.9747687579
 21
15.3922026959
 31
0.0
  0
LINE
  5
1C5
330
1B9
100
AcDbEntity
  8
0
  6
Continuous
 62
     7
370
     0
100
AcDbLine
 10
6.6048004912
 20
8.8078780134
 30
0.0
 11
11.0819469658
 21
13.285024488
 31
0.0
  0
LINE
  5
1C6
330
1B9
100
AcDbEntity
  8
0
  6
Continuous
 62
     7
370
     0
100
AcDbLine
 10
8.7979920626
 20
15.2154260006
 30
0.0
 11
9.4039249112
 21
14.609493152
 31
0.0
  0
LINE
  5
1C7
330
1B9
100
AcDbEntity
  8
0
  6
Continuous
 62
     7
370
     0
100
AcDbLine
 10
10.9051702705
 20
13.1082477927
 30
0.0
 11
10.2992374218
 21
13.7141806414
 31
0.0
  0
MTEXT
  5
1C8
330
1B9
100
AcDbEntity
  8
0
  6
Continuous
 62
     7
370
    18
100
AcDbMText
 10
9.5191419436
 20
14.5348850704
 30
0.0
 40
0.25
 41
0.0
 71
     1
 72
     1
  1
%%c
  7
SLDTEXTSTYLE0
 73
     1
 44
1.0
  0
MTEXT
  5
1C9
330
1B9
100
AcDbEntity
  8
0
  6
Continuous
 62
     7
370
    18
100
AcDbMText
 10
9.8961731847
 20
14.5348850704
 30
0.0
 40
0.25
 41
0.0
 71
     1
 72
     1
  1
3"
  7
SLDTEXTSTYLE0
 73
     1
 44
1.0
  0
MTEXT
  5
1CA
330
1B9
100
AcDbEntity
  8
0
  6
Continuous
 62
     7
370
    18
100
AcDbMText
 10
9.3543589521
 20
14.0872288105
 30
0.0
 40
0.25
 41
0.0
 71
     1
 72
     1
  1
76mm
  7
SLDTEXTSTYLE0
 73
     1
 44
1.0
  0
ENDBLK
  5
1BB
330
1B9
100
AcDbEntity
  8
0
100
AcDbBlockEnd
  0
BLOCK
  5
1CE
330
1CD
100
AcDbEntity
  8
0
100
AcDbBlockBegin
  2
_D_3
 70
     0
 10
0.0
 20
0.0
 30
0.0
  3
_D_3
  1

  0
SOLID
  5
1D0
330
1CD
100
AcDbEntity
  8
0
  6
Continuous
 62
     7
370
    18
100
AcDbTrace
 10
3.0789259469
 20
9.2921047372
 30
0.0
 11
3.1189259469
 21
9.5521047372
 31
0.0
 12
3.0389259469
 22
9.5521047372
 32
0.0
 13
3.0389259469
 23
9.5521047372
 33
0.0
  0
SOLID
  5
1D1
330
1CD
100
AcDbEntity
  8
0
  6
Continuous
 62
     7
370
    18
100
AcDbTrace
 10
3.0789259469
 20
7.6671047372
 30
0.0
 11
3.0389259469
 21
7.4071047372
 31
0.0
 12
3.1189259469
 22
7.4071047372
 32
0.0
 13
3.1189259469
 23
7.4071047372
 33
0.0
  0
LINE
  5
1D2
330
1CD
100
AcDbEntity
  8
0
  6
Continuous
 62
     7
370
     0
100
AcDbLine
 10
2.5817037509
 20
8.4776949759
 30
0.0
 11
2.5055318767
 21
8.4776949759
 31
0.0
  0
LINE
  5
1D3
330
1CD
100
AcDbEntity
  8
0
  6
Continuous
 62
     7
370
     0
100
AcDbLine
 10
2.5055318767
 20
8.4776949759
 30
0.0
 11
2.5055318767
 21
8.0808199639
 31
0.0
  0
LINE
  5
1D4
330
1CD
100
AcDbEntity
  8
0
  6
Continuous
 62
     7
370
     0
100
AcDbLine
 10
2.5055318767
 20
8.0808199639
 30
0.0
 11
2.5817037509
 21
8.0808199639
 31
0.0
  0
LINE
  5
1D5
330
1CD
100
AcDbEntity
  8
0
  6
Continuous
 62
     7
370
     0
100
AcDbLine
 10
3.5761482163
 20
8.4776949759
 30
0.0
 11
3.6523200905
 21
8.4776949759
 31
0.0
  0
LINE
  5
1D6
330
1CD
100
AcDbEntity
  8
0
  6
Continuous
 62
     7
370
     0
100
AcDbLine
 10
3.6523200905
 20
8.4776949759
 30
0.0
 11
3.6523200905
 21
8.0808199639
 31
0.0
  0
LINE
  5
1D7
330
1CD
100
AcDbEntity
  8
0
  6
Continuous
 62
     7
370
     0
100
AcDbLine
 10
3.6523200905
 20
8.0808199639
 30
0.0
 11
3.5761482163
 21
8.0808199639
 31
0.0
  0
LINE
  5
1D8
330
1CD
100
AcDbEntity
  8
0
  6
Continuous
 62
     7
370
     0
100
AcDbLine
 10
4.881849007
 20
9.2921047372
 30
0.0
 11
2.8289259469
 21
9.2921047372
 31
0.0
  0
LINE
  5
1D9
330
1CD
100
AcDbEntity
  8
0
  6
Continuous
 62
     7
370
     0
100
AcDbLine
 10
4.386849007
 20
7.6671047372
 30
0.0
 11
2.8289259469
 21
7.6671047372
 31
0.0
  0
LINE
  5
1DA
330
1CD
100
AcDbEntity
  8
0
  6
Continuous
 62
     7
370
     0
100
AcDbLine
 10
3.0789259469
 20
9.2921047372
 30
0.0
 11
3.0789259469
 21
9.7921047372
 31
0.0
  0
LINE
  5
1DB
330
1CD
100
AcDbEntity
  8
0
  6
Continuous
 62
     7
370
     0
100
AcDbLine
 10
3.0789259469
 20
7.6671047372
 30
0.0
 11
3.0789259469
 21
7.1671047372
 31
0.0
  0
MTEXT
  5
1DC
330
1CD
100
AcDbEntity
  8
0
  6
Continuous
 62
     7
370
    18
100
AcDbMText
 10
2.4307488911
 20
8.8545626309
 30
0.0
 40
0.25
 41
0.0
 71
     1
 72
     1
  1

  7
SLDTEXTSTYLE0
 73
     1
 44
1.0
  0
MTEXT
  5
1DD
330
1CD
100
AcDbEntity
  8
0
  6
Continuous
 62
     7
370
    18
100
AcDbMText
 10
2.631182921
 20
8.8507431679
 30
0.0
 40
0.25
 41
0.0
 71
     1
 72
     1
  1
1 5/8"
  7
SLDTEXTSTYLE0
 73
     1
 44
1.0
  0
MTEXT
  5
1DE
330
1CD
100
AcDbEntity
  8
0
  6
Continuous
 62
     7
370
    18
100
AcDbMText
 10
2.5817037509
 20
8.4030869264
 30
0.0
 40
0.25
 41
0.0
 71
     1
 72
     1
  1
41mm
  7
SLDTEXTSTYLE0
 73
     1
 44
1.0
  0
MTEXT
  5
1DF
330
1CD
100
AcDbEntity
  8
0
  6
Continuous
 62
     7
370
    18
100
AcDbMText
 10
3.8222419098
 20
8.8545626309
 30
0.0
 40
0.25
 41
0.0
 71
     1
 72
     1
  1

  7
SLDTEXTSTYLE0
 73
     1
 44
1.0
  0
ENDBLK
  5
1CF
330
1CD
100
AcDbEntity
  8
0
100
AcDbBlockEnd
  0
BLOCK
  5
1F3
330
1F2
100
AcDbEntity
  8
0
100
AcDbBlockBegin
  2
_D_4
 70
     0
 10
0.0
 20
0.0
 30
0.0
  3
_D_4
  1

  0
SOLID
  5
1F5
330
1F2
100
AcDbEntity
  8
0
  6
Continuous
 62
     7
370
    18
100
AcDbTrace
 10
4.272265138
 20
5.1503544418
 30
0.0
 11
4.232265138
 21
4.8903544418
 31
0.0
 12
4.312265138
 22
4.8903544418
 32
0.0
 13
4.312265138
 23
4.8903544418
 33
0.0
  0
SOLID
  5
1F6
330
1F2
100
AcDbEntity
  8
0
  6
Continuous
 62
     7
370
    18
100
AcDbTrace
 10
4.272265138
 20
1.6410211085
 30
0.0
 11
4.312265138
 21
1.9010211085
 31
0.0
 12
4.232265138
 22
1.9010211085
 32
0.0
 13
4.232265138
 23
1.9010211085
 33
0.0
  0
LINE
  5
1F7
330
1F2
100
AcDbEntity
  8
0
  6
Continuous
 62
     7
370
     0
100
AcDbLine
 10
3.6826818489
 20
3.3937780139
 30
0.0
 11
3.6065099747
 21
3.3937780139
 31
0.0
  0
LINE
  5
1F8
330
1F2
100
AcDbEntity
  8
0
  6
Continuous
 62
     7
370
     0
100
AcDbLine
 10
3.6065099747
 20
3.3937780139
 30
0.0
 11
3.6065099747
 21
2.9969030019
 31
0.0
  0
LINE
  5
1F9
330
1F2
100
AcDbEntity
  8
0
  6
Continuous
 62
     7
370
     0
100
AcDbLine
 10
3.6065099747
 20
2.9969030019
 30
0.0
 11
3.6826818489
 21
2.9969030019
 31
0.0
  0
LINE
  5
1FA
330
1F2
100
AcDbEntity
  8
0
  6
Continuous
 62
     7
370
     0
100
AcDbLine
 10
4.8618485004
 20
3.3937780139
 30
0.0
 11
4.9380203746
 21
3.3937780139
 31
0.0
  0
LINE
  5
1FB
330
1F2
100
AcDbEntity
  8
0
  6
Continuous
 62
     7
370
     0
100
AcDbLine
 10
4.9380203746
 20
3.3937780139
 30
0.0
 11
4.9380203746
 21
2.9969030019
 31
0.0
  0
LINE
  5
1FC
330
1F2
100
AcDbEntity
  8
0
  6
Continuous
 62
     7
370
     0
100
AcDbLine
 10
4.9380203746
 20
2.9969030019
 30
0.0
 11
4.8618485004
 21
2.9969030019
 31
0.0
  0
LINE
  5
1FD
330
1F2
100
AcDbEntity
  8
0
  6
Continuous
 62
     7
370
     0
100
AcDbLine
 10
5.4321076577
 20
5.1503544418
 30
0.0
 11
4.022265138
 21
5.1503544418
 31
0.0
  0
LINE
  5
1FE
330
1F2
100
AcDbEntity
  8
0
  6
Continuous
 62
     7
370
     0
100
AcDbLine
 10
5.4321076577
 20
1.6410211085
 30
0.0
 11
4.022265138
 21
1.6410211085
 31
0.0
  0
LINE
  5
1FF
330
1F2
100
AcDbEntity
  8
0
  6
Continuous
 62
     7
370
     0
100
AcDbLine
 10
4.272265138
 20
5.1503544418
 30
0.0
 11
4.272265138
 21
3.8452537184
 31
0.0
  0
LINE
  5
200
330
1F2
100
AcDbEntity
  8
0
  6
Continuous
 62
     7
370
     0
100
AcDbLine
 10
4.272265138
 20
1.6410211085
 30
0.0
 11
4.272265138
 21
2.9461218319
 31
0.0
  0
MTEXT
  5
201
330
1F2
100
AcDbEntity
  8
0
  6
Continuous
 62
     7
370
    18
100
AcDbMText
 10
3.5317269891
 20
3.7706456689
 30
0.0
 40
0.25
 41
0.0
 71
     1
 72
     1
  1

  7
SLDTEXTSTYLE0
 73
     1
 44
1.0
  0
MTEXT
  5
202
330
1F2
100
AcDbEntity
  8
0
  6
Continuous
 62
     7
370
    18
100
AcDbMText
 10
3.824522112
 20
3.7668262059
 30
0.0
 40
0.25
 41
0.0
 71
     1
 72
     1
  1
5 1/4"
  7
SLDTEXTSTYLE0
 73
     1
 44
1.0
  0
MTEXT
  5
203
330
1F2
100
AcDbEntity
  8
0
  6
Continuous
 62
     7
370
    18
100
AcDbMText
 10
3.6826818489
 20
3.3191699644
 30
0.0
 40
0.25
 41
0.0
 71
     1
 72
     1
  1
134mm
  7
SLDTEXTSTYLE0
 73
     1
 44
1.0
  0
MTEXT
  5
204
330
1F2
100
AcDbEntity
  8
0
  6
Continuous
 62
     7
370
    18
100
AcDbMText
 10
5.1079421938
 20
3.7706456689
 30
0.0
 40
0.25
 41
0.0
 71
     1
 72
     1
  1

  7
SLDTEXTSTYLE0
 73
     1
 44
1.0
  0
ENDBLK
  5
1F4
330
1F2
100
AcDbEntity
  8
0
100
AcDbBlockEnd
  0
BLOCK
  5
219
330
218
100
AcDbEntity
  8
0
100
AcDbBlockBegin
  2
_D_5
 70
     0
 10
0.0
 20
0.0
 30
0.0
  3
_D_5
  1

  0
SOLID
  5
21B
330
218
100
AcDbEntity
  8
0
  6
Continuous
 62
     7
370
    18
100
AcDbTrace
 10
9.426979165
 20
3.5236877751
 30
0.0
 11
9.466979165
 21
3.7836877751
 31
0.0
 12
9.386979165
 22
3.7836877751
 32
0.0
 13
9.386979165
 23
3.7836877751
 33
0.0
  0
SOLID
  5
21C
330
218
100
AcDbEntity
  8
0
  6
Continuous
 62
     7
370
    18
100
AcDbTrace
 10
9.426979165
 20
1.6410211085
 30
0.0
 11
9.386979165
 21
1.3810211085
 31
0.0
 12
9.466979165
 22
1.3810211085
 32
0.0
 13
9.466979165
 23
1.3810211085
 33
0.0
  0
LINE
  5
21D
330
218
100
AcDbEntity
  8
0
  6
Continuous
 62
     7
370
     0
100
AcDbLine
 10
8.9297569689
 20
2.5804446805
 30
0.0
 11
8.8535850947
 21
2.5804446805
 31
0.0
  0
LINE
  5
21E
330
218
100
AcDbEntity
  8
0
  6
Continuous
 62
     7
370
     0
100
AcDbLine
 10
8.8535850947
 20
2.5804446805
 30
0.0
 11
8.8535850947
 21
2.1835696686
 31
0.0
  0
LINE
  5
21F
330
218
100
AcDbEntity
  8
0
  6
Continuous
 62
     7
370
     0
100
AcDbLine
 10
8.8535850947
 20
2.1835696686
 30
0.0
 11
8.9297569689
 21
2.1835696686
 31
0.0
  0
LINE
  5
220
330
218
100
AcDbEntity
  8
0
  6
Continuous
 62
     7
370
     0
100
AcDbLine
 10
9.9242014344
 20
2.5804446805
 30
0.0
 11
10.0003733086
 21
2.5804446805
 31
0.0
  0
LINE
  5
221
330
218
100
AcDbEntity
  8
0
  6
Continuous
 62
     7
370
     0
100
AcDbLine
 10
10.0003733086
 20
2.5804446805
 30
0.0
 11
10.0003733086
 21
2.1835696686
 31
0.0
  0
LINE
  5
222
330
218
100
AcDbEntity
  8
0
  6
Continuous
 62
     7
370
     0
100
AcDbLine
 10
10.0003733086
 20
2.1835696686
 30
0.0
 11
9.9242014344
 21
2.1835696686
 31
0.0
  0
LINE
  5
223
330
218
100
AcDbEntity
  8
0
  6
Continuous
 62
     7
370
     0
100
AcDbLine
 10
10.4793953348
 20
3.5236877751
 30
0.0
 11
9.176979165
 21
3.5236877751
 31
0.0
  0
LINE
  5
224
330
218
100
AcDbEntity
  8
0
  6
Continuous
 62
     7
370
     0
100
AcDbLine
 10
10.4210620015
 20
1.6410211085
 30
0.0
 11
9.176979165
 21
1.6410211085
 31
0.0
  0
LINE
  5
225
330
218
100
AcDbEntity
  8
0
  6
Continuous
 62
     7
370
     0
100
AcDbLine
 10
9.426979165
 20
3.5236877751
 30
0.0
 11
9.426979165
 21
4.0236877751
 31
0.0
  0
LINE
  5
226
330
218
100
AcDbEntity
  8
0
  6
Continuous
 62
     7
370
     0
100
AcDbLine
 10
9.426979165
 20
1.6410211085
 30
0.0
 11
9.426979165
 21
1.1410211085
 31
0.0
  0
MTEXT
  5
227
330
218
100
AcDbEntity
  8
0
  6
Continuous
 62
     7
370
    18
100
AcDbMText
 10
8.7788021091
 20
2.9573123355
 30
0.0
 40
0.25
 41
0.0
 71
     1
 72
     1
  1

  7
SLDTEXTSTYLE0
 73
     1
 44
1.0
  0
MTEXT
  5
228
330
218
100
AcDbEntity
  8
0
  6
Continuous
 62
     7
370
    18
100
AcDbMText
 10
8.7945139163
 20
2.9534928726
 30
0.0
 40
0.25
 41
0.0
 71
     1
 72
     1
  1
2 13/16"
  7
SLDTEXTSTYLE0
 73
     1
 44
1.0
  0
MTEXT
  5
229
330
218
100
AcDbEntity
  8
0
  6
Continuous
 62
     7
370
    18
100
AcDbMText
 10
8.9297569689
 20
2.505836631
 30
0.0
 40
0.25
 41
0.0
 71
     1
 72
     1
  1
72mm
  7
SLDTEXTSTYLE0
 73
     1
 44
1.0
  0
MTEXT
  5
22A
330
218
100
AcDbEntity
  8
0
  6
Continuous
 62
     7
370
    18
100
AcDbMText
 10
10.1702951278
 20
2.9573123355
 30
0.0
 40
0.25
 41
0.0
 71
     1
 72
     1
  1

  7
SLDTEXTSTYLE0
 73
     1
 44
1.0
  0
ENDBLK
  5
21A
330
218
100
AcDbEntity
  8
0
100
AcDbBlockEnd
  0
BLOCK
  5
23C
330
23B
100
AcDbEntity
  8
0
100
AcDbBlockBegin
  2
_D_6
 70
     0
 10
0.0
 20
0.0
 30
0.0
  3
_D_6
  1

  0
SOLID
  5
23E
330
23B
100
AcDbEntity
  8
0
  6
Continuous
 62
     7
370
    18
100
AcDbTrace
 10
14.2247581875
 20
2.8570211085
 30
0.0
 11
14.2647581875
 21
3.1170211085
 31
0.0
 12
14.1847581875
 22
3.1170211085
 32
0.0
 13
14.1847581875
 23
3.1170211085
 33
0.0
  0
SOLID
  5
23F
330
23B
100
AcDbEntity
  8
0
  6
Continuous
 62
     7
370
    18
100
AcDbTrace
 10
14.2247581875
 20
1.6410211085
 30
0.0
 11
14.1847581875
 21
1.3810211085
 31
0.0
 12
14.2647581875
 22
1.3810211085
 32
0.0
 13
14.2647581875
 23
1.3810211085
 33
0.0
  0
LINE
  5
240
330
23B
100
AcDbEntity
  8
0
  6
Continuous
 62
     7
370
     0
100
AcDbLine
 10
13.7275359914
 20
2.2471113472
 30
0.0
 11
13.6513641172
 21
2.2471113472
 31
0.0
  0
LINE
  5
241
330
23B
100
AcDbEntity
  8
0
  6
Continuous
 62
     7
370
     0
100
AcDbLine
 10
13.6513641172
 20
2.2471113472
 30
0.0
 11
13.6513641172
 21
1.8502363353
 31
0.0
  0
LINE
  5
242
330
23B
100
AcDbEntity
  8
0
  6
Continuous
 62
     7
370
     0
100
AcDbLine
 10
13.6513641172
 20
1.8502363353
 30
0.0
 11
13.7275359914
 21
1.8502363353
 31
0.0
  0
LINE
  5
243
330
23B
100
AcDbEntity
  8
0
  6
Continuous
 62
     7
370
     0
100
AcDbLine
 10
14.7219804569
 20
2.2471113472
 30
0.0
 11
14.7981523311
 21
2.2471113472
 31
0.0
  0
LINE
  5
244
330
23B
100
AcDbEntity
  8
0
  6
Continuous
 62
     7
370
     0
100
AcDbLine
 10
14.7981523311
 20
2.2471113472
 30
0.0
 11
14.7981523311
 21
1.8502363353
 31
0.0
  0
LINE
  5
245
330
23B
100
AcDbEntity
  8
0
  6
Continuous
 62
     7
370
     0
100
AcDbLine
 10
14.7981523311
 20
1.8502363353
 30
0.0
 11
14.7219804569
 21
1.8502363353
 31
0.0
  0
LINE
  5
246
330
23B
100
AcDbEntity
  8
0
  6
Continuous
 62
     7
370
     0
100
AcDbLine
 10
15.5312673738
 20
2.8570211085
 30
0.0
 11
13.9747581875
 21
2.8570211085
 31
0.0
  0
LINE
  5
247
330
23B
100
AcDbEntity
  8
0
  6
Continuous
 62
     7
370
     0
100
AcDbLine
 10
15.3846007072
 20
1.6410211085
 30
0.0
 11
13.9747581875
 21
1.6410211085
 31
0.0
  0
LINE
  5
248
330
23B
100
AcDbEntity
  8
0
  6
Continuous
 62
     7
370
     0
100
AcDbLine
 10
14.2247581875
 20
2.8570211085
 30
0.0
 11
14.2247581875
 21
3.3570211085
 31
0.0
  0
LINE
  5
249
330
23B
100
AcDbEntity
  8
0
  6
Continuous
 62
     7
370
     0
100
AcDbLine
 10
14.2247581875
 20
1.6410211085
 30
0.0
 11
14.2247581875
 21
1.1410211085
 31
0.0
  0
MTEXT
  5
24A
330
23B
100
AcDbEntity
  8
0
  6
Continuous
 62
     7
370
    18
100
AcDbMText
 10
13.5765811316
 20
2.6239790022
 30
0.0
 40
0.25
 41
0.0
 71
     1
 72
     1
  1

  7
SLDTEXTSTYLE0
 73
     1
 44
1.0
  0
MTEXT
  5
24B
330
23B
100
AcDbEntity
  8
0
  6
Continuous
 62
     7
370
    18
100
AcDbMText
 10
13.5922929388
 20
2.6201595393
 30
0.0
 40
0.25
 41
0.0
 71
     1
 72
     1
  1
1 13/16"
  7
SLDTEXTSTYLE0
 73
     1
 44
1.0
  0
MTEXT
  5
24C
330
23B
100
AcDbEntity
  8
0
  6
Continuous
 62
     7
370
    18
100
AcDbMText
 10
13.7275359914
 20
2.1725032977
 30
0.0
 40
0.25
 41
0.0
 71
     1
 72
     1
  1
46mm
  7
SLDTEXTSTYLE0
 73
     1
 44
1.0
  0
MTEXT
  5
24D
330
23B
100
AcDbEntity
  8
0
  6
Continuous
 62
     7
370
    18
100
AcDbMText
 10
14.9680741503
 20
2.6239790022
 30
0.0
 40
0.25
 41
0.0
 71
     1
 72
     1
  1

  7
SLDTEXTSTYLE0
 73
     1
 44
1.0
  0
ENDBLK
  5
23D
330
23B
100
AcDbEntity
  8
0
100
AcDbBlockEnd
  0
ENDSEC
  0
SECTION
  2
ENTITIES
  0
LINE
  5
87
330
1F
100
AcDbEntity
  8
0
  6
Continuous
 62
     7
370
    25
100
AcDbLine
 10
7.9270545832
 20
10.1372031732
 30
0.0
 11
8.1632638369
 21
10.3734124269
 31
0.0
  0
LINE
  5
88
330
1F
100
AcDbEntity
  8
0
  6
Continuous
 62
     7
370
    25
100
AcDbLine
 10
6.7659852485
 20
8.9761338385
 30
0.0
 11
7.8310778482
 21
10.0412264382
 31
0.0
  0
LINE
  5
89
330
1F
100
AcDbEntity
  8
0
  6
Continuous
 62
     7
370
    25
100
AcDbLine
 10
6.5411608809
 20
8.7513094709
 30
0.0
 11
6.6700085134
 21
8.8801571035
 31
0.0
  0
LINE
  5
8A
330
1F
100
AcDbEntity
  8
0
  6
Continuous
 62
     7
370
    25
100
AcDbLine
 10
8.1632638369
 20
14.5736267072
 30
0.0
 11
4.4410537408
 21
10.851416611
 31
0.0
  0
LINE
  5
8B
330
1F
100
AcDbEntity
  8
0
  6
Continuous
 62
     7
370
    25
100
AcDbLine
 10
4.4873888727
 20
8.5310446028
 30
0.0
 11
4.486849007
 21
8.5305047372
 31
0.0
  0
LINE
  5
8C
330
1F
100
AcDbEntity
  8
0
  6
Continuous
 62
     7
370
    25
100
AcDbLine
 10
4.486849007
 20
8.4037047372
 30
0.0
 11
4.4873877031
 21
8.403166041
 31
0.0
  0
LINE
  5
8D
330
1F
100
AcDbEntity
  8
0
  6
Continuous
 62
     7
370
    25
100
AcDbLine
 10
5.476849007
 20
7.6671047372
 30
0.0
 11
5.476849007
 21
8.6421047372
 31
0.0
  0
LINE
  5
8E
330
1F
100
AcDbEntity
  8
0
  6
Continuous
 62
     7
370
    25
100
AcDbLine
 10
4.486849007
 20
8.3991047372
 30
0.0
 11
4.486849007
 21
7.6671047372
 31
0.0
  0
LINE
  5
8F
330
1F
100
AcDbEntity
  8
0
  6
Continuous
 62
     7
370
    25
100
AcDbLine
 10
4.486849007
 20
8.6421047372
 30
0.0
 11
4.486849007
 21
8.5351047372
 31
0.0
  0
LINE
  5
90
330
1F
100
AcDbEntity
  8
0
  6
Continuous
 62
     7
370
    25
100
AcDbLine
 10
4.576849007
 20
7.2671047372
 30
0.0
 11
4.626849007
 21
7.2421047372
 31
0.0
  0
LINE
  5
91
330
1F
100
AcDbEntity
  8
0
  6
Continuous
 62
     7
370
    25
100
AcDbLine
 10
5.336849007
 20
7.2421047372
 30
0.0
 11
5.386849007
 21
7.2671047372
 31
0.0
  0
LINE
  5
92
330
1F
100
AcDbEntity
  8
0
  6
Continuous
 62
     7
370
    25
100
AcDbLine
 10
4.576849007
 20
7.3671047372
 30
0.0
 11
4.626849007
 21
7.3421047372
 31
0.0
  0
LINE
  5
93
330
1F
100
AcDbEntity
  8
0
  6
Continuous
 62
     7
370
    25
100
AcDbLine
 10
5.336849007
 20
7.3421047372
 30
0.0
 11
5.386849007
 21
7.3671047372
 31
0.0
  0
LINE
  5
94
330
1F
100
AcDbEntity
  8
0
  6
Continuous
 62
     7
370
    25
100
AcDbLine
 10
5.386849007
 20
7.2671047372
 30
0.0
 11
5.336849007
 21
7.2921047372
 31
0.0
  0
LINE
  5
95
330
1F
100
AcDbEntity
  8
0
  6
Continuous
 62
     7
370
    25
100
AcDbLine
 10
4.626849007
 20
7.2921047372
 30
0.0
 11
4.576849007
 21
7.2671047372
 31
0.0
  0
LINE
  5
96
330
1F
100
AcDbEntity
  8
0
  6
Continuous
 62
     7
370
    25
100
AcDbLine
 10
5.386849007
 20
7.4671047372
 30
0.0
 11
5.336849007
 21
7.4921047372
 31
0.0
  0
LINE
  5
97
330
1F
100
AcDbEntity
  8
0
  6
Continuous
 62
     7
370
    25
100
AcDbLine
 10
4.626849007
 20
7.4921047372
 30
0.0
 11
4.576849007
 21
7.4671047372
 31
0.0
  0
LINE
  5
98
330
1F
100
AcDbEntity
  8
0
  6
Continuous
 62
     7
370
    25
100
AcDbLine
 10
5.386849007
 20
7.3671047372
 30
0.0
 11
5.336849007
 21
7.3921047372
 31
0.0
  0
LINE
  5
99
330
1F
100
AcDbEntity
  8
0
  6
Continuous
 62
     7
370
    25
100
AcDbLine
 10
4.626849007
 20
7.3921047372
 30
0.0
 11
4.576849007
 21
7.3671047372
 31
0.0
  0
LINE
  5
9A
330
1F
100
AcDbEntity
  8
0
  6
Continuous
 62
     7
370
    25
100
AcDbLine
 10
4.576849007
 20
7.1171047372
 30
0.0
 11
4.626849007
 21
7.0921047372
 31
0.0
  0
LINE
  5
9B
330
1F
100
AcDbEntity
  8
0
  6
Continuous
 62
     7
370
    25
100
AcDbLine
 10
5.336849007
 20
7.0921047372
 30
0.0
 11
5.386849007
 21
7.1171047372
 31
0.0
  0
LINE
  5
9C
330
1F
100
AcDbEntity
  8
0
  6
Continuous
 62
     7
370
    25
100
AcDbLine
 10
4.576849007
 20
7.4171047372
 30
0.0
 11
4.626849007
 21
7.3921047372
 31
0.0
  0
LINE
  5
9D
330
1F
100
AcDbEntity
  8
0
  6
Continuous
 62
     7
370
    25
100
AcDbLine
 10
5.336849007
 20
7.3921047372
 30
0.0
 11
5.386849007
 21
7.4171047372
 31
0.0
  0
LINE
  5
9E
330
1F
100
AcDbEntity
  8
0
  6
Continuous
 62
     7
370
    25
100
AcDbLine
 10
5.386849007
 20
7.3171047372
 30
0.0
 11
5.336849007
 21
7.3421047372
 31
0.0
  0
LINE
  5
9F
330
1F
100
AcDbEntity
  8
0
  6
Continuous
 62
     7
370
    25
100
AcDbLine
 10
4.626849007
 20
7.3421047372
 30
0.0
 11
4.576849007
 21
7.3171047372
 31
0.0
  0
LINE
  5
A0
330
1F
100
AcDbEntity
  8
0
  6
Continuous
 62
     7
370
    25
100
AcDbLine
 10
5.386849007
 20
7.1171047372
 30
0.0
 11
5.336849007
 21
7.1421047372
 31
0.0
  0
LINE
  5
A1
330
1F
100
AcDbEntity
  8
0
  6
Continuous
 62
     7
370
    25
100
AcDbLine
 10
4.626849007
 20
7.1421047372
 30
0.0
 11
4.576849007
 21
7.1171047372
 31
0.0
  0
LINE
  5
A2
330
1F
100
AcDbEntity
  8
0
  6
Continuous
 62
     7
370
    25
100
AcDbLine
 10
4.618849007
 20
7.4961047372
 30
0.0
 11
4.626849007
 21
7.4921047372
 31
0.0
  0
LINE
  5
A3
330
1F
100
AcDbEntity
  8
0
  6
Continuous
 62
     7
370
    25
100
AcDbLine
 10
5.336849007
 20
7.4921047372
 30
0.0
 11
5.344849007
 21
7.4961047372
 31
0.0
  0
LINE
  5
A4
330
1F
100
AcDbEntity
  8
0
  6
Continuous
 62
     7
370
    25
100
AcDbLine
 10
5.386849007
 20
7.4171047372
 30
0.0
 11
5.336849007
 21
7.4421047372
 31
0.0
  0
LINE
  5
A5
330
1F
100
AcDbEntity
  8
0
  6
Continuous
 62
     7
370
    25
100
AcDbLine
 10
4.626849007
 20
7.4421047372
 30
0.0
 11
4.576849007
 21
7.4171047372
 31
0.0
  0
LINE
  5
A6
330
1F
100
AcDbEntity
  8
0
  6
Continuous
 62
     7
370
    25
100
AcDbLine
 10
4.576849007
 20
7.1671047372
 30
0.0
 11
4.626849007
 21
7.1421047372
 31
0.0
  0
LINE
  5
A7
330
1F
100
AcDbEntity
  8
0
  6
Continuous
 62
     7
370
    25
100
AcDbLine
 10
5.336849007
 20
7.1421047372
 30
0.0
 11
5.386849007
 21
7.1671047372
 31
0.0
  0
LINE
  5
A8
330
1F
100
AcDbEntity
  8
0
  6
Continuous
 62
     7
370
    25
100
AcDbLine
 10
4.576849007
 20
7.2171047372
 30
0.0
 11
4.626849007
 21
7.1921047372
 31
0.0
  0
LINE
  5
A9
330
1F
100
AcDbEntity
  8
0
  6
Continuous
 62
     7
370
    25
100
AcDbLine
 10
5.336849007
 20
7.1921047372
 30
0.0
 11
5.386849007
 21
7.2171047372
 31
0.0
  0
LINE
  5
AA
330
1F
100
AcDbEntity
  8
0
  6
Continuous
 62
     7
370
    25
100
AcDbLine
 10
4.576849007
 20
7.3171047372
 30
0.0
 11
4.626849007
 21
7.2921047372
 31
0.0
  0
LINE
  5
AB
330
1F
100
AcDbEntity
  8
0
  6
Continuous
 62
     7
370
    25
100
AcDbLine
 10
5.336849007
 20
7.2921047372
 30
0.0
 11
5.386849007
 21
7.3171047372
 31
0.0
  0
LINE
  5
AC
330
1F
100
AcDbEntity
  8
0
  6
Continuous
 62
     7
370
    25
100
AcDbLine
 10
5.386849007
 20
7.1671047372
 30
0.0
 11
5.336849007
 21
7.1921047372
 31
0.0
  0
LINE
  5
AD
330
1F
100
AcDbEntity
  8
0
  6
Continuous
 62
     7
370
    25
100
AcDbLine
 10
4.626849007
 20
7.1921047372
 30
0.0
 11
4.576849007
 21
7.1671047372
 31
0.0
  0
LINE
  5
AE
330
1F
100
AcDbEntity
  8
0
  6
Continuous
 62
     7
370
    25
100
AcDbLine
 10
4.576849007
 20
7.4671047372
 30
0.0
 11
4.626849007
 21
7.4421047372
 31
0.0
  0
LINE
  5
AF
330
1F
100
AcDbEntity
  8
0
  6
Continuous
 62
     7
370
    25
100
AcDbLine
 10
5.336849007
 20
7.4421047372
 30
0.0
 11
5.386849007
 21
7.4671047372
 31
0.0
  0
LINE
  5
B0
330
1F
100
AcDbEntity
  8
0
  6
Continuous
 62
     7
370
    25
100
AcDbLine
 10
5.386849007
 20
7.2171047372
 30
0.0
 11
5.336849007
 21
7.2421047372
 31
0.0
  0
LINE
  5
B1
330
1F
100
AcDbEntity
  8
0
  6
Continuous
 62
     7
370
    25
100
AcDbLine
 10
4.626849007
 20
7.2421047372
 30
0.0
 11
4.576849007
 21
7.2171047372
 31
0.0
  0
LINE
  5
B2
330
1F
100
AcDbEntity
  8
0
  6
Continuous
 62
     7
370
    25
100
AcDbLine
 10
5.3835156737
 20
7.0687714038
 30
0.0
 11
5.336849007
 21
7.0921047372
 31
0.0
  0
LINE
  5
B3
330
1F
100
AcDbEntity
  8
0
  6
Continuous
 62
     7
370
    25
100
AcDbLine
 10
4.626849007
 20
7.0921047372
 30
0.0
 11
4.5801823403
 21
7.0687714038
 31
0.0
  0
LINE
  5
B4
330
1F
100
AcDbEntity
  8
0
  6
Continuous
 62
     7
370
    25
100
AcDbLine
 10
4.5801823403
 20
7.0687714038
 30
0.0
 11
4.606849007
 21
7.0421047372
 31
0.0
  0
LINE
  5
B5
330
1F
100
AcDbEntity
  8
0
  6
Continuous
 62
     7
370
    25
100
AcDbLine
 10
5.356849007
 20
7.0421047372
 30
0.0
 11
5.3835156737
 21
7.0687714038
 31
0.0
  0
LINE
  5
B6
330
1F
100
AcDbEntity
  8
0
  6
Continuous
 62
     7
370
    25
100
AcDbLine
 10
4.631849007
 20
7.6421047372
 30
0.0
 11
4.631849007
 21
7.6394935588
 31
0.0
  0
LINE
  5
B7
330
1F
100
AcDbEntity
  8
0
  6
Continuous
 62
     7
370
    25
100
AcDbLine
 10
5.331849007
 20
7.6321047372
 30
0.0
 11
5.331849007
 21
7.6421047372
 31
0.0
  0
LINE
  5
B8
330
1F
100
AcDbEntity
  8
0
  6
Continuous
 62
     7
370
    25
100
AcDbLine
 10
5.476849007
 20
8.6421047372
 30
0.0
 11
5.476849007
 21
9.2972047372
 31
0.0
  0
LINE
  5
B9
330
1F
100
AcDbEntity
  8
0
  6
Continuous
 62
     7
370
    25
100
AcDbLine
 10
4.486849007
 20
9.2972047372
 30
0.0
 11
4.486849007
 21
8.6421047372
 31
0.0
  0
ARC
  5
BA
330
1F
100
AcDbEntity
  8
0
  6
Continuous
 62
     7
370
    25
100
AcDbCircle
 10
4.981749007
 20
9.2972047372
 30
0.0
 40
0.4949000000000012
100
AcDbArc
 50
90.0
 51
180.0
  0
ARC
  5
BB
330
1F
100
AcDbEntity
  8
0
  6
Continuous
 62
     7
370
    25
100
AcDbCircle
 10
4.981949007
 20
9.2972047372
 30
0.0
 40
0.4949000000000012
100
AcDbArc
 50
0.0
 51
90.0
  0
ARC
  5
BC
330
1F
100
AcDbEntity
  8
0
  6
Continuous
 62
     7
370
    25
100
AcDbCircle
 10
5.4212302729
 20
7.7946769896
 30
0.0
 40
0.2999999999999997
100
AcDbArc
 50
275.5921022903
 51
293.6033423945
  0
ARC
  5
BD
330
1F
100
AcDbEntity
  8
0
  6
Continuous
 62
     7
370
    25
100
AcDbCircle
 10
4.5424677411
 20
7.7946769896
 30
0.0
 40
0.3000000000000004
100
AcDbArc
 50
246.3966576055
 51
264.4078977097
  0
LINE
  5
BE
330
1F
100
AcDbEntity
  8
0
  6
Continuous
 62
     7
370
    25
100
AcDbLine
 10
5.0499723983
 20
7.6607694796
 30
0.0
 11
5.0246399642
 21
7.6607694796
 31
0.0
  0
SPLINE
  5
BF
330
1F
100
AcDbEntity
  8
0
  6
Continuous
 62
     7
370
    25
100
AcDbSpline
210
0.0
220
0.0
230
1.0
 70
     8
 71
     3
 72
    12
 73
     8
 74
     0
 42
0.00000001
 43
0.00000001
 40
0.0
 40
0.0
 40
0.0
 40
0.0
 40
0.1689660239263491
 40
0.3759117101257416
 40
0.5854926889441936
 40
0.7970016250171285
 40
1.0
 40
1.0
 40
1.0
 40
1.0
 10
5.252843416989114
 20
7.498135375691708
 30
0.0
 10
5.254592123089815
 20
7.498901661531125
 30
0.0
 10
5.258482604060763
 20
7.50060647658001
 30
0.0
 10
5.264350735334274
 20
7.50446173544197
 30
0.0
 10
5.270477190311033
 20
7.509493030764993
 30
0.0
 10
5.276392477143295
 20
7.515412293282817
 30
0.0
 10
5.280162786983215
 20
7.520138858791793
 30
0.0
 10
5.28200923637089
 20
7.522453619212131
 30
0.0
  0
LINE
  5
C0
330
1F
100
AcDbEntity
  8
0
  6
Continuous
 62
     7
370
    25
100
AcDbLine
 10
4.586283883
 20
7.6593173884
 30
0.0
 11
4.5835114559
 21
7.6609468088
 31
0.0
  0
LINE
  5
C1
330
1F
100
AcDbEntity
  8
0
  6
Continuous
 62
     7
370
    25
100
AcDbLine
 10
4.5860086472
 20
7.4981567785
 30
0.0
 11
4.5877222554
 21
7.4978095426
 31
0.0
  0
SPLINE
  5
C2
330
1F
100
AcDbEntity
  8
0
  6
Continuous
 62
     7
370
    25
100
AcDbSpline
210
0.0
220
0.0
230
1.0
 70
     8
 71
     3
 72
    13
 73
     9
 74
     0
 42
0.00000001
 43
0.00000001
 40
0.0
 40
0.0
 40
0.0
 40
0.0
 40
0.0707231190037045
 40
0.2873808292173194
 40
0.5046543918424434
 40
0.7225667436928772
 40
0.9411256677020184
 40
0.9999999999999999
 40
0.9999999999999999
 40
0.9999999999999999
 40
0.9999999999999999
 10
4.533794868399309
 20
7.520863514573331
 30
0.0
 10
4.534960019175278
 20
7.520052967677877
 30
0.0
 10
4.539694567097909
 20
7.516759339763606
 30
0.0
 10
4.54829823450526
 20
7.511956779660853
 30
0.0
 10
4.559570466200905
 20
7.506464321674503
 30
0.0
 10
4.571103808454209
 20
7.502107757293725
 30
0.0
 10
4.579936772518602
 20
7.499336425263694
 30
0.0
 10
4.584945698934268
 20
7.498363288640114
 30
0.0
 10
4.586008647198573
 20
7.498156778542116
 30
0.0
  0
LINE
  5
C3
330
1F
100
AcDbEntity
  8
0
  6
Continuous
 62
     7
370
    25
100
AcDbLine
 10
4.5833429665
 20
7.6607694796
 30
0.0
 11
4.5342594516
 21
7.6607694796
 31
0.0
  0
LINE
  5
C4
330
1F
100
AcDbEntity
  8
0
  6
Continuous
 62
     7
370
    25
100
AcDbLine
 10
5.4975619537
 20
7.6607694796
 30
0.0
 11
5.4231460047
 21
7.6607694796
 31
0.0
  0
LINE
  5
C5
330
1F
100
AcDbEntity
  8
0
  6
Continuous
 62
     7
370
    25
100
AcDbLine
 10
5.544349007
 20
7.5243568745
 30
0.0
 11
5.544349007
 21
7.6291047372
 31
0.0
  0
ARC
  5
C6
330
1F
100
AcDbEntity
  8
0
  6
Continuous
 62
     7
370
    25
100
AcDbCircle
 10
5.539349007
 20
7.5243568745
 30
0.0
 40
0.0049999999999999
100
AcDbArc
 50
293.6033423945
 51
0.0
  0
SPLINE
  5
C7
330
1F
100
AcDbEntity
  8
0
  6
Continuous
 62
     7
370
    25
100
AcDbSpline
210
0.0
220
0.0
230
1.0
 70
     8
 71
     3
 72
    14
 73
    10
 74
     0
 42
0.00000001
 43
0.00000001
 40
0.0
 40
0.0
 40
0.0
 40
0.0
 40
0.0760875264574945
 40
0.2239136516709021
 40
0.3755219551795145
 40
0.5297684163288282
 40
0.685950713078068
 40
0.8431239999688507
 40
1.0
 40
1.0
 40
1.0
 40
1.0
 10
5.533467624082817
 20
7.631791342147114
 30
0.0
 10
5.532927212478987
 20
7.632103379291919
 30
0.0
 10
5.531336865923481
 20
7.633021655648148
 30
0.0
 10
5.527946117835765
 20
7.63534896425584
 30
0.0
 10
5.523342022362058
 20
7.638764908221797
 30
0.0
 10
5.518000001249846
 20
7.643025595365447
 30
0.0
 10
5.511990740759596
 20
7.648089003323277
 30
0.0
 10
5.50542276043117
 20
7.653849231511813
 30
0.0
 10
5.500588141121098
 20
7.658297974556564
 30
0.0
 10
5.498173119751455
 20
7.660520240433577
 30
0.0
  0
ARC
  5
C8
330
1F
100
AcDbEntity
  8
0
  6
Continuous
 62
     7
370
    25
100
AcDbCircle
 10
5.541349007
 20
7.6291047372
 30
0.0
 40
0.003000000000001
100
AcDbArc
 50
0.0
 51
90.0
  0
ARC
  5
C9
330
1F
100
AcDbEntity
  8
0
  6
Continuous
 62
     7
370
    25
100
AcDbCircle
 10
4.422349007
 20
7.6291047372
 30
0.0
 40
0.0030000000000001
100
AcDbArc
 50
90.0
 51
180.0
  0
LINE
  5
CA
330
1F
100
AcDbEntity
  8
0
  6
Continuous
 62
     7
370
    25
100
AcDbLine
 10
4.419349007
 20
7.6291047372
 30
0.0
 11
4.419349007
 21
7.5243568745
 31
0.0
  0
ARC
  5
CB
330
1F
100
AcDbEntity
  8
0
  6
Continuous
 62
     7
370
    25
100
AcDbCircle
 10
4.424349007
 20
7.5243568745
 30
0.0
 40
0.0050000000000009
100
AcDbArc
 50
180.0
 51
246.3966576055
  0
SPLINE
  5
CC
330
1F
100
AcDbEntity
  8
0
  6
Continuous
 62
     7
370
    25
100
AcDbSpline
210
0.0
220
0.0
230
1.0
 70
     8
 71
     3
 72
    14
 73
    10
 74
     0
 42
0.00000001
 43
0.00000001
 40
0.0
 40
0.0
 40
0.0
 40
0.0
 40
0.0398850725609344
 40
0.2079770544713433
 40
0.3747962345585287
 40
0.5402465678291852
 40
0.7011413814359952
 40
0.8603038059882179
 40
1.0
 40
1.0
 40
1.0
 40
1.0
 10
4.465548888912778
 20
7.660562991403177
 30
0.0
 10
4.464925828291062
 20
7.659977421368437
 30
0.0
 10
4.461676935797165
 20
7.656924020103443
 30
0.0
 10
4.456356457823354
 20
7.652160810191816
 30
0.0
 10
4.449670063281084
 20
7.646337500287766
 30
0.0
 10
4.443723374656757
 20
7.641419320553211
 30
0.0
 10
4.438513018580907
 20
7.637364521147333
 30
0.0
 10
4.434140315776375
 20
7.634200590360851
 30
0.0
 10
4.431855110785535
 20
7.63277234518713
 30
0.0
 10
4.43078693198818
 20
7.632104737152791
 30
0.0
  0
LINE
  5
CD
330
1F
100
AcDbEntity
  8
0
  6
Continuous
 62
     7
370
    25
100
AcDbLine
 10
4.5153948577
 20
7.6607694796
 30
0.0
 11
4.4661360603
 21
7.6607694796
 31
0.0
  0
LINE
  5
CE
330
1F
100
AcDbEntity
  8
0
  6
Continuous
 62
     7
370
    25
100
AcDbLine
 10
5.417349007
 20
7.6421047372
 30
0.0
 11
5.4200524669
 21
7.6422093033
 31
0.0
  0
LWPOLYLINE
  5
CF
330
1F
100
AcDbEntity
  8
0
  6
Continuous
 62
     7
370
    25
100
AcDbPolyline
 90
        3
 70
   128
 43
0.0
 10
5.4483031563
 20
7.6607694796
 10
5.4486797222
 20
7.6615038947
 10
5.4508900267
 20
7.6671047372
  0
ARC
  5
D0
330
1F
100
AcDbEntity
  8
0
  6
Continuous
 62
     7
370
    25
100
AcDbCircle
 10
4.546349007
 20
7.6771047372
 30
0.0
 40
0.0349999999999996
100
AcDbArc
 50
196.601549599
 51
243.9255976689
  0
LINE
  5
D1
330
1F
100
AcDbEntity
  8
0
  6
Continuous
 62
     7
370
    25
100
AcDbLine
 10
4.6228180041
 20
7.6421047372
 30
0.0
 11
5.0209450543
 21
7.6421047372
 31
0.0
  0
LINE
  5
D2
330
1F
100
AcDbEntity
  8
0
  6
Continuous
 62
     7
370
    25
100
AcDbLine
 10
5.1127733202
 20
7.6421047372
 30
0.0
 11
5.417349007
 21
7.6421047372
 31
0.0
  0
LINE
  5
D3
330
1F
100
AcDbEntity
  8
0
  6
Continuous
 62
     7
370
    25
100
AcDbLine
 10
6.5340898131
 20
8.7371673353
 30
0.0
 11
6.5340898131
 21
8.7583805387
 31
0.0
  0
LINE
  5
D4
330
1F
100
AcDbEntity
  8
0
  6
Continuous
 62
     7
370
    25
100
AcDbLine
 10
4.4481248086
 20
10.8443455432
 30
0.0
 11
4.4269116051
 21
10.8443455432
 31
0.0
  0
LINE
  5
D5
330
1F
100
AcDbEntity
  8
0
  6
Continuous
 62
     7
370
    25
100
AcDbLine
 10
6.4455600441
 20
8.6486375663
 30
0.0
 11
6.5340898131
 21
8.7371673353
 31
0.0
  0
LINE
  5
D6
330
1F
100
AcDbEntity
  8
0
  6
Continuous
 62
     7
370
    25
100
AcDbLine
 10
4.4269116051
 20
10.8443455432
 30
0.0
 11
4.3383818361
 21
10.7558157742
 31
0.0
  0
LINE
  5
D7
330
1F
100
AcDbEntity
  8
0
  6
Continuous
 62
     7
370
    25
100
AcDbLine
 10
4.3383818361
 20
10.7558157742
 30
0.0
 11
4.3383818361
 21
10.7133893673
 31
0.0
  0
LINE
  5
D8
330
1F
100
AcDbEntity
  8
0
  6
Continuous
 62
     7
370
    25
100
AcDbLine
 10
6.4031336372
 20
8.6486375663
 30
0.0
 11
6.4455600441
 21
8.6486375663
 31
0.0
  0
LINE
  5
D9
330
1F
100
AcDbEntity
  8
0
  6
Continuous
 62
     7
370
    25
100
AcDbLine
 10
5.02073988
 20
10.0310313235
 30
0.0
 11
4.67632922
 21
9.6866206635
 31
0.0
  0
LINE
  5
DA
330
1F
100
AcDbEntity
  8
0
  6
Continuous
 62
     7
370
    25
100
AcDbLine
 10
5.476849007
 20
9.0870690238
 30
0.0
 11
5.7207755933
 21
9.3309956101
 31
0.0
  0
LINE
  5
DB
330
1F
100
AcDbEntity
  8
0
  6
Continuous
 62
     7
370
    25
100
AcDbLine
 10
8.1632638369
 20
10.3734124269
 30
0.0
 11
8.1632638369
 21
14.5736267072
 31
0.0
  0
SPLINE
  5
DC
330
1F
100
AcDbEntity
  8
0
  6
Continuous
 62
     7
370
    25
100
AcDbSpline
210
0.0
220
0.0
230
1.0
 70
     8
 71
     3
 72
    26
 73
    22
 74
     0
 42
0.00000001
 43
0.00000001
 40
0.0
 40
0.0
 40
0.0
 40
0.0
 40
0.0367526413874564
 40
0.089622554598355
 40
0.144024655252592
 40
0.1969156818018838
 40
0.251337779117263
 40
0.3042762434242764
 40
0.358749741526306
 40
0.4116880067270254
 40
0.4661641873857575
 40
0.5190547972383555
 40
0.5734806031266395
 40
0.626350520269279
 40
0.6807515690134245
 40
0.7336600125433874
 40
0.7881005146957362
 40
0.8410465963406804
 40
0.8955292073684712
 40
0.9484533212919983
 40
1.0
 40
1.0
 40
1.0
 40
1.0
 10
7.831070804845088
 20
10.04123348147819
 30
0.0
 10
7.831071428351598
 20
10.04123419391782
 30
0.0
 10
7.831072948793236
 20
10.04123593122587
 30
0.0
 10
7.832575058258608
 20
10.0428808642647
 30
0.0
 10
7.835314778708161
 20
10.04586786024031
 30
0.0
 10
7.839328867128526
 20
10.05021484174113
 30
0.0
 10
7.84438360978981
 20
10.05563942792157
 30
0.0
 10
7.850460908000421
 20
10.06208951494883
 30
0.0
 10
7.857291690496961
 20
10.06924756014076
 30
0.0
 10
7.8648194413329
 20
10.07702542836508
 30
0.0
 10
7.872703194179453
 20
10.08504977250174
 30
0.0
 10
7.880867128001826
 20
10.09323127556076
 30
0.0
 10
7.888932310308069
 20
10.10118888423285
 30
0.0
 10
7.89681346202478
 20
10.10884778603094
 30
0.0
 10
7.904138662896991
 20
10.11586470650354
 30
0.0
 10
7.910821240939947
 20
10.12218253277343
 30
0.0
 10
7.916535354694298
 20
10.12752250008246
 30
0.0
 10
7.921214685665467
 20
10.13185349700463
 30
0.0
 10
7.924586791863237
 20
10.13495148194082
 30
0.0
 10
7.926714158918086
 20
10.13689589209953
 30
0.0
 10
7.926941025805698
 20
10.13710273497443
 30
0.0
 10
7.927052963642778
 20
10.13720479281229
 30
0.0
  0
SPLINE
  5
DD
330
1F
100
AcDbEntity
  8
0
  6
Continuous
 62
     7
370
    25
100
AcDbSpline
210
0.0
220
0.0
230
1.0
 70
    11
 71
     3
 72
    44
 73
    40
 74
     0
 42
0.00000001
 43
0.00000001
 40
0.0
 40
0.0
 40
0.0
 40
0.0
 40
0.0268283843171033
 40
0.053656848974269
 40
0.0804843602019151
 40
0.1073119868157091
 40
0.1341573061540504
 40
0.1610025960821469
 40
0.1878597184739323
 40
0.214716712164559
 40
0.2415545791584227
 40
0.2683924190851226
 40
0.2952100576824597
 40
0.3220278123640525
 40
0.3488557554504109
 40
0.3756837768927008
 40
0.4025365051125238
 40
0.4293891513265108
 40
0.4562425066235376
 40
0.4830957469051895
 40
0.509924521528015
 40
0.5367533278964604
 40
0.5635707021997203
 40
0.5903882046885605
 40
0.6172251299283711
 40
0.6440620800005871
 40
0.6709190048091677
 40
0.6977758119438889
 40
0.7246219843421781
 40
0.7514680801573932
 40
0.7782895607010031
 40
0.8051111247872264
 40
0.83193247590596
 40
0.8587539401325746
 40
0.8855999010418381
 40
0.9124458283078729
 40
0.9393028102145775
 40
0.966159663256267
 40
1.0
 40
1.0
 40
1.0
 40
1.0
 10
5.185049283669262
 20
10.46097445870351
 30
0.0
 10
5.182228095921303
 20
10.45839262968647
 30
0.0
 10
5.176585711977081
 20
10.45322896392087
 30
0.0
 10
5.166840792784174
 20
10.44721600360544
 30
0.0
 10
5.156480589379434
 20
10.44274474165466
 30
0.0
 10
5.145712691810351
 20
10.43997858933164
 30
0.0
 10
5.134869051125157
 20
10.43903174943174
 30
0.0
 10
5.1242518033191
 20
10.43985866029485
 30
0.0
 10
5.11419054147461
 20
10.44250099542465
 30
0.0
 10
5.104950286622558
 20
10.44680721024009
 30
0.0
 10
5.09684032690215
 20
10.45271538079462
 30
0.0
 10
5.09004270354947
 20
10.45999230641876
 30
0.0
 10
5.084807174564295
 20
10.46848421519234
 30
0.0
 10
5.081210057116188
 20
10.47791001342494
 30
0.0
 10
5.079418579180351
 20
10.48804332453391
 30
0.0
 10
5.079402737195993
 20
10.49858540742392
 30
0.0
 10
5.081231745877715
 20
10.50925571489422
 30
0.0
 10
5.084775160839304
 20
10.51976066977032
 30
0.0
 10
5.089994722225062
 20
10.52979334499979
 30
0.0
 10
5.096671606572457
 20
10.5390950399877
 30
0.0
 10
5.104668103664373
 20
10.54736976594822
 30
0.0
 10
5.113706426377076
 20
10.55442807430481
 30
0.0
 10
5.12357168635817
 20
10.56001641348576
 30
0.0
 10
5.133964017059103
 20
10.56403555817764
 30
0.0
 10
5.144613018502765
 20
10.56629728913479
 30
0.0
 10
5.155223712691672
 20
10.56680080579817
 30
0.0
 10
5.16549323018518
 20
10.56544737646623
 30
0.0
 10
5.175155149310237
 20
10.56234126399263
 30
0.0
 10
5.183908094950204
 20
10.5574927218204
 30
0.0
 10
5.191545732600606
 20
10.55110683321538
 30
0.0
 10
5.197804167963265
 20
10.54330265029547
 30
0.0
 10
5.202564205238049
 20
10.53435860173035
 30
0.0
 10
5.205624165780391
 20
10.52448665830272
 30
0.0
 10
5.20696259758691
 20
10.51400107728409
 30
0.0
 10
5.206457578875034
 20
10.50318781483761
 30
0.0
 10
5.204195887984472
 20
10.49235773149454
 30
0.0
 10
5.200127722025786
 20
10.48186611445654
 30
0.0
 10
5.194067620626289
 20
10.47101701279819
 30
0.0
 10
5.188277457397713
 20
10.46456925777228
 30
0.0
 10
5.185049283669262
 20
10.46097445870351
 30
0.0
  0
SPLINE
  5
DE
330
1F
100
AcDbEntity
  8
0
  6
Continuous
 62
     7
370
    25
100
AcDbSpline
210
0.0
220
0.0
230
1.0
 70
     8
 71
     3
 72
    26
 73
    22
 74
     0
 42
0.00000001
 43
0.00000001
 40
0.0
 40
0.0
 40
0.0
 40
0.0
 40
0.0367526413874566
 40
0.0896225545983552
 40
0.1440246552525933
 40
0.1969156818018853
 40
0.2513377791172638
 40
0.3042762434242738
 40
0.3587497415262996
 40
0.4116880067270214
 40
0.4661641873857564
 40
0.5190547972383515
 40
0.5734806031266337
 40
0.6263505202692766
 40
0.6807515690134242
 40
0.7336600125433893
 40
0.7881005146957389
 40
0.8410465963406805
 40
0.8955292073684684
 40
0.9484533212919973
 40
1.0
 40
1.0
 40
1.0
 40
1.0
 10
6.670001470136778
 20
8.880164146769877
 30
0.0
 10
6.670002093643288
 20
8.880164859209508
 30
0.0
 10
6.670003614084926
 20
8.880166596517556
 30
0.0
 10
6.671505723550298
 20
8.88181152955639
 30
0.0
 10
6.674245443999848
 20
8.884798525531997
 30
0.0
 10
6.678259532420216
 20
8.889145507032818
 30
0.0
 10
6.683314275081501
 20
8.894570093213261
 30
0.0
 10
6.689391573292109
 20
8.901020180240524
 30
0.0
 10
6.696222355788648
 20
8.90817822543245
 30
0.0
 10
6.703750106624589
 20
8.915956093656764
 30
0.0
 10
6.711633859471138
 20
8.923980437793434
 30
0.0
 10
6.719797793293517
 20
8.93216194085245
 30
0.0
 10
6.727862975599755
 20
8.940119549524542
 30
0.0
 10
6.735744127316468
 20
8.947778451322627
 30
0.0
 10
6.743069328188678
 20
8.954795371795232
 30
0.0
 10
6.749751906231637
 20
8.961113198065123
 30
0.0
 10
6.755466019985987
 20
8.966453165374151
 30
0.0
 10
6.760145350957156
 20
8.970784162296317
 30
0.0
 10
6.763517457154926
 20
8.973882147232507
 30
0.0
 10
6.765644824209774
 20
8.975826557391215
 30
0.0
 10
6.765871691097386
 20
8.97603340026612
 30
0.0
 10
6.765983628934467
 20
8.976135458103983
 30
0.0
  0
LINE
  5
DF
330
1F
100
AcDbEntity
  8
0
  6
Continuous
 62
     7
370
    25
100
AcDbLine
 10
5.4911073108
 20
9.801363041
 30
0.0
 11
6.5411608809
 21
8.7513094709
 31
0.0
  0
LINE
  5
E0
330
1F
100
AcDbEntity
  8
0
  6
Continuous
 62
     7
370
    25
100
AcDbLine
 10
4.4410537408
 20
10.851416611
 30
0.0
 11
5.4911073108
 21
9.801363041
 31
0.0
  0
LINE
  5
E1
330
1F
100
AcDbEntity
  8
0
  6
Continuous
 62
     7
370
    25
100
AcDbLine
 10
4.486849007
 20
8.4668980091
 30
0.0
 11
4.486849007
 21
8.5305047372
 31
0.0
  0
LINE
  5
E2
330
1F
100
AcDbEntity
  8
0
  6
Continuous
 62
     7
370
    25
100
AcDbLine
 10
4.486849007
 20
8.4037047372
 30
0.0
 11
4.486849007
 21
8.4668980091
 31
0.0
  0
CIRCLE
  5
E3
330
1F
100
AcDbEntity
  8
0
  6
Continuous
 62
     7
370
    25
100
AcDbCircle
 10
4.981849007
 20
8.4671047372
 30
0.0
 40
0.0634000000000002
  0
LINE
  5
E4
330
1F
100
AcDbEntity
  8
0
  6
Continuous
 62
     7
370
    25
100
AcDbLine
 10
5.0043643418
 20
8.4281039718
 30
0.0
 11
4.9593310208
 21
8.4281055026
 31
0.0
  0
LINE
  5
E5
330
1F
100
AcDbEntity
  8
0
  6
Continuous
 62
     7
370
    25
100
AcDbLine
 10
5.0043643418
 20
8.4281039718
 30
0.0
 11
5.026882328
 21
8.4671032063
 31
0.0
  0
LINE
  5
E6
330
1F
100
AcDbEntity
  8
0
  6
Continuous
 62
     7
370
    25
100
AcDbLine
 10
5.0043669932
 20
8.5061039717
 30
0.0
 11
5.026882328
 21
8.4671032063
 31
0.0
  0
LINE
  5
E7
330
1F
100
AcDbEntity
  8
0
  6
Continuous
 62
     7
370
    25
100
AcDbLine
 10
5.0043669932
 20
8.5061039717
 30
0.0
 11
4.9593336723
 21
8.5061055025
 31
0.0
  0
LINE
  5
E8
330
1F
100
AcDbEntity
  8
0
  6
Continuous
 62
     7
370
    25
100
AcDbLine
 10
4.9593310208
 20
8.4281055026
 30
0.0
 11
4.936815686
 21
8.467106268
 31
0.0
  0
LINE
  5
E9
330
1F
100
AcDbEntity
  8
0
  6
Continuous
 62
     7
370
    25
100
AcDbLine
 10
4.9593336723
 20
8.5061055025
 30
0.0
 11
4.936815686
 21
8.467106268
 31
0.0
  0
LINE
  5
EA
330
1F
100
AcDbEntity
  8
0
  6
Continuous
 62
     7
370
    25
100
AcDbLine
 10
6.7627681461
 20
8.9729167361
 30
0.0
 11
6.6731070062
 21
8.8832555963
 31
0.0
  0
LWPOLYLINE
  5
EB
330
1F
100
AcDbEntity
  8
0
  6
Continuous
 62
     7
370
    25
100
AcDbPolyline
 90
       47
 70
   128
 43
0.0
 10
5.202010082
 20
10.5074115052
 10
5.2020377019
 20
10.5154266533
 10
5.2009629014
 20
10.5232134184
 10
5.198805702
 20
10.5306267478
 10
5.1956062883
 20
10.537528545
 10
5.1914242593
 20
10.5437902428
 10
5.1863375183
 20
10.5492951975
 10
5.1804408215
 20
10.5539408623
 10
5.1738440134
 20
10.5576406971
 10
5.16666998
 20
10.5603257812
 10
5.15905236
 20
10.5619460963
 10
5.1511330552
 20
10.5624714592
 10
5.1430595872
 20
10.5618920833
 10
5.1349823495
 20
10.5602187613
 10
5.1270518058
 20
10.5574826641
 10
5.1194156871
 20
10.5537347598
 10
5.1122162398
 20
10.5490448649
 10
5.105587576
 20
10.5435003433
 10
5.0996531752
 20
10.537204479
 10
5.094523584
 20
10.5302745518
 10
5.090294357
 20
10.5228396534
 10
5.0870442767
 20
10.5150382817
 10
5.084833886
 20
10.5070157616
 10
5.0837043602
 20
10.4989215374
 10
5.0836767403
 20
10.4909063892
 10
5.0847515408
 20
10.4831196241
 10
5.0869087401
 20
10.4757062948
 10
5.0901081538
 20
10.4688044975
 10
5.0942901829
 20
10.4625427998
 10
5.0993769239
 20
10.457037845
 10
5.1052736206
 20
10.4523921803
 10
5.1118704287
 20
10.4486923454
 10
5.1190444621
 20
10.4460072614
 10
5.1266620822
 20
10.4443869462
 10
5.134581387
 20
10.4438615834
 10
5.142654855
 20
10.4444409592
 10
5.1507320926
 20
10.4461142812
 10
5.1586626364
 20
10.4488503785
 10
5.1662987551
 20
10.4525982828
 10
5.1734982024
 20
10.4572881776
 10
5.1801268662
 20
10.4628326992
 10
5.186061267
 20
10.4691285636
 10
5.1911908582
 20
10.4760584908
 10
5.1954200852
 20
10.4834933892
 10
5.1986701655
 20
10.4912947609
 10
5.2008805562
 20
10.499317281
 10
5.202010082
 20
10.5074115052
  0
LINE
  5
EC
330
1F
100
AcDbEntity
  8
0
  6
Continuous
 62
     7
370
    25
100
AcDbLine
 10
5.1244626837
 20
10.5380464893
 30
0.0
 11
5.1008406632
 21
10.5001512891
 31
0.0
  0
LINE
  5
ED
330
1F
100
AcDbEntity
  8
0
  6
Continuous
 62
     7
370
    25
100
AcDbLine
 10
5.1192352006
 20
10.465271321
 30
0.0
 11
5.1008406632
 21
10.5001512891
 31
0.0
  0
LINE
  5
EE
330
1F
100
AcDbEntity
  8
0
  6
Continuous
 62
     7
370
    25
100
AcDbLine
 10
5.1612517585
 20
10.4682865532
 30
0.0
 11
5.1192352006
 21
10.465271321
 31
0.0
  0
LINE
  5
EF
330
1F
100
AcDbEntity
  8
0
  6
Continuous
 62
     7
370
    25
100
AcDbLine
 10
5.1612517585
 20
10.4682865532
 30
0.0
 11
5.184873779
 21
10.5061817535
 31
0.0
  0
LINE
  5
F0
330
1F
100
AcDbEntity
  8
0
  6
Continuous
 62
     7
370
    25
100
AcDbLine
 10
5.1664792416
 20
10.5410617216
 30
0.0
 11
5.184873779
 21
10.5061817535
 31
0.0
  0
LINE
  5
F1
330
1F
100
AcDbEntity
  8
0
  6
Continuous
 62
     7
370
    25
100
AcDbLine
 10
5.1664792416
 20
10.5410617216
 30
0.0
 11
5.1244626837
 21
10.5380464893
 31
0.0
  0
LINE
  5
F2
330
1F
100
AcDbEntity
  8
0
  6
Continuous
 62
     7
370
    25
100
AcDbLine
 10
5.1326604683
 20
10.4683314839
 30
0.0
 11
5.1008406632
 21
10.5001512891
 31
0.0
  0
LINE
  5
F3
330
1F
100
AcDbEntity
  8
0
  6
Continuous
 62
     7
370
    25
100
AcDbLine
 10
5.1337258907
 20
10.4663112157
 30
0.0
 11
5.1326604683
 21
10.4683314839
 31
0.0
  0
LINE
  5
F4
330
1F
100
AcDbEntity
  8
0
  6
Continuous
 62
     7
370
    25
100
AcDbLine
 10
5.1838083566
 20
10.5082020217
 30
0.0
 11
5.1562824888
 21
10.5062266842
 31
0.0
  0
LINE
  5
F5
330
1F
100
AcDbEntity
  8
0
  6
Continuous
 62
     7
370
    25
100
AcDbLine
 10
5.1562824888
 20
10.5062266842
 30
0.0
 11
5.1244626837
 21
10.5380464893
 31
0.0
  0
LINE
  5
F6
330
1F
100
AcDbEntity
  8
0
  6
Continuous
 62
     7
370
    25
100
AcDbLine
 10
5.1562824888
 20
10.5062266842
 30
0.0
 11
5.1326604683
 21
10.4683314839
 31
0.0
  0
LINE
  5
F7
330
1F
100
AcDbEntity
  8
0
  6
Continuous
 62
     7
370
    25
100
AcDbLine
 10
4.486849007
 20
7.6671047372
 30
0.0
 11
5.476849007
 21
7.6671047372
 31
0.0
  0
LINE
  5
F8
330
1F
100
AcDbEntity
  8
0
  6
Continuous
 62
     7
370
    25
100
AcDbLine
 10
4.486849007
 20
8.6421047372
 30
0.0
 11
5.476849007
 21
8.6421047372
 31
0.0
  0
SPLINE
  5
F9
330
1F
100
AcDbEntity
  8
0
  6
Continuous
 62
     7
370
    25
100
AcDbSpline
210
0.0
220
0.0
230
1.0
 70
     8
 71
     3
 72
    25
 73
    21
 74
     0
 42
0.00000001
 43
0.00000001
 40
0.0
 40
0.0
 40
0.0
 40
0.0
 40
0.0518695620099358
 40
0.1052086685948762
 40
0.1576816814499693
 40
0.2116532158058096
 40
0.2645417774865937
 40
0.3189506026691622
 40
0.372048547456401
 40
0.4267044093373281
 40
0.4999972826368072
 40
0.5525865740906154
 40
0.6067099224670062
 40
0.6592966799562234
 40
0.7133914509364505
 40
0.7662898536028379
 40
0.8207094736154648
 40
0.8738047849957168
 40
0.9284584124327844
 40
0.9999999999999999
 40
0.9999999999999999
 40
0.9999999999999999
 40
0.9999999999999999
 10
4.486849007005579
 20
8.53510473715279
 30
0.0
 10
4.486873176879931
 20
8.53492992157503
 30
0.0
 10
4.486922201398403
 20
8.534575337624961
 30
0.0
 10
4.487308033005225
 20
8.531713053238079
 30
0.0
 10
4.487887427604785
 20
8.52715837627376
 30
0.0
 10
4.488614809689381
 20
8.5209133073679
 30
0.0
 10
4.489414316444912
 20
8.513089481900298
 30
0.0
 10
4.49018708846021
 20
8.504005852172519
 30
0.0
 10
4.490855788524875
 20
8.493765106045508
 30
0.0
 10
4.491392850565379
 20
8.481470371836158
 30
0.0
 10
4.491602840663674
 20
8.468576096577348
 30
0.0
 10
4.491453827846869
 20
8.455750727089818
 30
0.0
 10
4.491070554638495
 20
8.444713092558404
 30
0.0
 10
4.490474234167847
 20
8.434217577182235
 30
0.0
 10
4.489740524504259
 20
8.424721463916086
 30
0.0
 10
4.488939186819186
 20
8.416324195920172
 30
0.0
 10
4.488169478905525
 20
8.409393295785847
 30
0.0
 10
4.487514168038499
 20
8.404075636229894
 30
0.0
 10
4.486975027750332
 20
8.400010024738531
 30
0.0
 10
4.486894601573857
 20
8.399432272089367
 30
0.0
 10
4.486849007005579
 20
8.399104737152792
 30
0.0
  0
SPLINE
  5
FA
330
1F
100
AcDbEntity
  8
0
  6
Continuous
 62
     7
370
    25
100
AcDbSpline
210
0.0
220
0.0
230
1.0
 70
    11
 71
     3
 72
    44
 73
    40
 74
     0
 42
0.00000001
 43
0.00000001
 40
0.0
 40
0.0
 40
0.0
 40
0.0
 40
0.0266749338094393
 40
0.0533505941496735
 40
0.0800176928719545
 40
0.1066858186845667
 40
0.1335126787131187
 40
0.160339285139479
 40
0.1872742304654378
 40
0.2142080047541446
 40
0.2409712489158237
 40
0.2677342348256663
 40
0.2943163092301445
 40
0.3208993830811667
 40
0.3475680945742215
 40
0.3742375269099878
 40
0.4011277895903256
 40
0.4280173474142773
 40
0.4549225461889898
 40
0.4818266578433887
 40
0.5085110961951487
 40
0.5351957835527996
 40
0.561769819082215
 40
0.5883449876659722
 40
0.6150893973877029
 40
0.641834078449326
 40
0.6687648085574527
 40
0.6956944953253114
 40
0.722538177324284
 40
0.7493811207972185
 40
0.7760024860473236
 40
0.8026245329446209
 40
0.8292324046286894
 40
0.855841296423502
 40
0.8826629773577683
 40
0.909484449193717
 40
0.9364206245024326
 40
0.9633556070230772
 40
1.0
 40
1.0
 40
1.0
 40
1.0
 10
5.04984900700558
 20
8.467104737152791
 30
0.0
 10
5.049660429205357
 20
8.463302105397629
 30
0.0
 10
5.049283268468718
 20
8.45569673831707
 30
0.0
 10
5.04634198367599
 20
8.44460935966849
 30
0.0
 10
5.041699245399826
 20
8.434175516678362
 30
0.0
 10
5.03537058078412
 20
8.424633823693268
 30
0.0
 10
5.027505219339387
 20
8.416294918624871
 30
0.0
 10
5.018343058034537
 20
8.40933634730925
 30
0.0
 10
5.008103726837531
 20
8.404039996041325
 30
0.0
 10
4.997130372156483
 20
8.400504798941885
 30
0.0
 10
4.985730696764424
 20
8.39890697384223
 30
0.0
 10
4.974271399184087
 20
8.399199752381463
 30
0.0
 10
4.963060018923302
 20
8.401435880564978
 30
0.0
 10
4.95238315353026
 20
8.405460904458025
 30
0.0
 10
4.942542163693389
 20
8.411242486025982
 30
0.0
 10
4.933748089233169
 20
8.418577249535517
 30
0.0
 10
4.926313376007881
 20
8.427329330470926
 30
0.0
 10
4.920399995262825
 20
8.437219297738459
 30
0.0
 10
4.91626726363206
 20
8.447988314965729
 30
0.0
 10
4.913970011205252
 20
8.459271122111257
 30
0.0
 10
4.913640091072555
 20
8.470752582064197
 30
0.0
 10
4.915186227714785
 20
8.482084620267365
 30
0.0
 10
4.918630459418821
 20
8.492965741689675
 30
0.0
 10
4.9237998183089
 20
8.503140145136504
 30
0.0
 10
4.930633370539002
 20
8.512302030105293
 30
0.0
 10
4.938909201813121
 20
8.520255450913488
 30
0.0
 10
4.948449287210758
 20
8.526694089520669
 30
0.0
 10
4.958940847016635
 20
8.531481458927267
 30
0.0
 10
4.970095436784727
 20
8.534395814946516
 30
0.0
 10
4.981539696352147
 20
8.535432101145672
 30
0.0
 10
4.992960210680465
 20
8.534499868961106
 30
0.0
 10
5.004037460859169
 20
8.531725915432737
 30
0.0
 10
5.014471777642814
 20
8.52711474954922
 30
0.0
 10
5.024032678120082
 20
8.520854077886066
 30
0.0
 10
5.032405071174463
 20
8.51303909243947
 30
0.0
 10
5.039421768280955
 20
8.503917510663852
 30
0.0
 10
5.044741697603049
 20
8.493707545429439
 30
0.0
 10
5.048914659076776
 20
8.481415025752467
 30
0.0
 10
5.04950738532041
 20
8.472336947506099
 30
0.0
 10
5.04984900700558
 20
8.467104737152791
 30
0.0
  0
LINE
  5
FB
330
1F
100
AcDbEntity
  8
0
  6
Continuous
 62
     7
370
    25
100
AcDbLine
 10
4.626849007
 20
7.2421047372
 30
0.0
 11
5.336849007
 21
7.2421047372
 31
0.0
  0
LINE
  5
FC
330
1F
100
AcDbEntity
  8
0
  6
Continuous
 62
     7
370
    25
100
AcDbLine
 10
4.576849007
 20
7.2671047372
 30
0.0
 11
5.386849007
 21
7.2671047372
 31
0.0
  0
LINE
  5
FD
330
1F
100
AcDbEntity
  8
0
  6
Continuous
 62
     7
370
    25
100
AcDbLine
 10
4.626849007
 20
7.3421047372
 30
0.0
 11
5.336849007
 21
7.3421047372
 31
0.0
  0
LINE
  5
FE
330
1F
100
AcDbEntity
  8
0
  6
Continuous
 62
     7
370
    25
100
AcDbLine
 10
4.576849007
 20
7.3671047372
 30
0.0
 11
5.386849007
 21
7.3671047372
 31
0.0
  0
LINE
  5
FF
330
1F
100
AcDbEntity
  8
0
  6
Continuous
 62
     7
370
    25
100
AcDbLine
 10
4.626849007
 20
7.2921047372
 30
0.0
 11
5.336849007
 21
7.2921047372
 31
0.0
  0
LINE
  5
100
330
1F
100
AcDbEntity
  8
0
  6
Continuous
 62
     7
370
    25
100
AcDbLine
 10
4.576849007
 20
7.4671047372
 30
0.0
 11
5.386849007
 21
7.4671047372
 31
0.0
  0
LINE
  5
101
330
1F
100
AcDbEntity
  8
0
  6
Continuous
 62
     7
370
    25
100
AcDbLine
 10
4.626849007
 20
7.4921047372
 30
0.0
 11
5.336849007
 21
7.4921047372
 31
0.0
  0
LINE
  5
102
330
1F
100
AcDbEntity
  8
0
  6
Continuous
 62
     7
370
    25
100
AcDbLine
 10
4.626849007
 20
7.3921047372
 30
0.0
 11
5.336849007
 21
7.3921047372
 31
0.0
  0
LINE
  5
103
330
1F
100
AcDbEntity
  8
0
  6
Continuous
 62
     7
370
    25
100
AcDbLine
 10
4.626849007
 20
7.0921047372
 30
0.0
 11
5.336849007
 21
7.0921047372
 31
0.0
  0
LINE
  5
104
330
1F
100
AcDbEntity
  8
0
  6
Continuous
 62
     7
370
    25
100
AcDbLine
 10
4.576849007
 20
7.1171047372
 30
0.0
 11
5.386849007
 21
7.1171047372
 31
0.0
  0
LINE
  5
105
330
1F
100
AcDbEntity
  8
0
  6
Continuous
 62
     7
370
    25
100
AcDbLine
 10
4.576849007
 20
7.4171047372
 30
0.0
 11
5.386849007
 21
7.4171047372
 31
0.0
  0
LINE
  5
106
330
1F
100
AcDbEntity
  8
0
  6
Continuous
 62
     7
370
    25
100
AcDbLine
 10
4.576849007
 20
7.3171047372
 30
0.0
 11
5.386849007
 21
7.3171047372
 31
0.0
  0
LINE
  5
107
330
1F
100
AcDbEntity
  8
0
  6
Continuous
 62
     7
370
    25
100
AcDbLine
 10
4.626849007
 20
7.1421047372
 30
0.0
 11
5.336849007
 21
7.1421047372
 31
0.0
  0
LINE
  5
108
330
1F
100
AcDbEntity
  8
0
  6
Continuous
 62
     7
370
    25
100
AcDbLine
 10
4.626849007
 20
7.4421047372
 30
0.0
 11
5.336849007
 21
7.4421047372
 31
0.0
  0
LINE
  5
109
330
1F
100
AcDbEntity
  8
0
  6
Continuous
 62
     7
370
    25
100
AcDbLine
 10
4.576849007
 20
7.1671047372
 30
0.0
 11
5.386849007
 21
7.1671047372
 31
0.0
  0
LINE
  5
10A
330
1F
100
AcDbEntity
  8
0
  6
Continuous
 62
     7
370
    25
100
AcDbLine
 10
4.626849007
 20
7.1921047372
 30
0.0
 11
5.336849007
 21
7.1921047372
 31
0.0
  0
LINE
  5
10B
330
1F
100
AcDbEntity
  8
0
  6
Continuous
 62
     7
370
    25
100
AcDbLine
 10
4.576849007
 20
7.2171047372
 30
0.0
 11
5.386849007
 21
7.2171047372
 31
0.0
  0
LINE
  5
10C
330
1F
100
AcDbEntity
  8
0
  6
Continuous
 62
     7
370
    25
100
AcDbLine
 10
5.3835156737
 20
7.0687714038
 30
0.0
 11
4.5801823403
 21
7.0687714038
 31
0.0
  0
LINE
  5
10D
330
1F
100
AcDbEntity
  8
0
  6
Continuous
 62
     7
370
    25
100
AcDbLine
 10
5.356849007
 20
7.0421047372
 30
0.0
 11
4.606849007
 21
7.0421047372
 31
0.0
  0
LINE
  5
10E
330
1F
100
AcDbEntity
  8
0
  6
Continuous
 62
     7
370
    25
100
AcDbLine
 10
4.981849007
 20
8.6421047372
 30
0.0
 11
4.486849007
 21
8.6421047372
 31
0.0
  0
LINE
  5
10F
330
1F
100
AcDbEntity
  8
0
  6
Continuous
 62
     7
370
    25
100
AcDbLine
 10
5.476849007
 20
8.6421047372
 30
0.0
 11
4.981849007
 21
8.6421047372
 31
0.0
  0
SPLINE
  5
110
330
1F
100
AcDbEntity
  8
0
  6
Continuous
 62
     7
370
    25
100
AcDbSpline
210
0.0
220
0.0
230
1.0
 70
     8
 71
     3
 72
    32
 73
    28
 74
     0
 42
0.00000001
 43
0.00000001
 40
0.0
 40
0.0
 40
0.0
 40
0.0
 40
0.0336154799000003
 40
0.0673436628812611
 40
0.1009639977207466
 40
0.1513253843262323
 40
0.2016983553089308
 40
0.2537663629310214
 40
0.3058338557551427
 40
0.3416266819624281
 40
0.377536665381872
 40
0.413319897821749
 40
0.4480372781417546
 40
0.4828734725150675
 40
0.517587023547269
 40
0.5674942906382927
 40
0.6174098149237472
 40
0.667687454772519
 40
0.7179743783111905
 40
0.753029880882639
 40
0.7881921076578479
 40
0.8232451764086384
 40
0.8590010802978707
 40
0.8948760931304742
 40
0.930620906020681
 40
0.9653109687609399
 40
1.0
 40
1.0
 40
1.0
 40
1.0
 10
4.817928324966977
 20
9.297204737152809
 30
0.0
 10
4.817934998236026
 20
9.291274063974436
 30
0.0
 10
4.817948367147685
 20
9.279392833768252
 30
0.0
 10
4.82040032122788
 20
9.2617310272727
 30
0.0
 10
4.82526747243337
 20
9.241600252743302
 30
0.0
 10
4.833970531679176
 20
9.219635472036652
 30
0.0
 10
4.847589388235703
 20
9.19663515355248
 30
0.0
 10
4.864973530567071
 20
9.17602559621599
 30
0.0
 10
4.883537358895632
 20
9.160147827431802
 30
0.0
 10
4.901790002260705
 20
9.148583585580589
 30
0.0
 10
4.918723821176861
 20
9.140369777496197
 30
0.0
 10
4.93635901850979
 20
9.134164307555574
 30
0.0
 10
4.954463744805781
 20
9.130079577543881
 30
0.0
 10
4.972753582863048
 20
9.128032520434669
 30
0.0
 10
4.993853351382635
 20
9.128014829070102
 30
0.0
 10
5.017426391244007
 20
9.131316562697775
 30
0.0
 10
5.04272882978734
 20
9.13904738348591
 30
0.0
 10
5.066379449948851
 20
9.150774773913689
 30
0.0
 10
5.085699575386652
 20
9.16450538409348
 30
0.0
 10
5.100958613610813
 20
9.17889629940344
 30
0.0
 10
5.112824198022262
 20
9.19286380179756
 30
0.0
 10
5.123163620533922
 20
9.20817857452978
 30
0.0
 10
5.131746648943465
 20
9.224742429111599
 30
0.0
 10
5.138482072234359
 20
9.242337695363977
 30
0.0
 10
5.143107171960149
 20
9.260461579642017
 30
0.0
 10
5.145739533901835
 20
9.278843447241059
 30
0.0
 10
5.145759637429695
 20
9.29108436784663
 30
0.0
 10
5.145769689044179
 20
9.297204737152809
 30
0.0
  0
LINE
  5
111
330
1F
100
AcDbEntity
  8
0
  6
Continuous
 62
     7
370
    25
100
AcDbLine
 10
4.981749007
 20
9.7921047372
 30
0.0
 11
4.981949007
 21
9.7921047372
 31
0.0
  0
SPLINE
  5
112
330
1F
100
AcDbEntity
  8
0
  6
Continuous
 62
     7
370
    25
100
AcDbSpline
210
0.0
220
0.0
230
1.0
 70
     8
 71
     3
 72
    35
 73
    31
 74
     0
 42
0.00000001
 43
0.00000001
 40
0.0
 40
0.0
 40
0.0
 40
0.0
 40
0.0364774591361203
 40
0.0730712008654607
 40
0.1095486556975401
 40
0.1460313410960434
 40
0.1826303662559826
 40
0.2191130423290059
 40
0.2555946646901064
 40
0.2921926294650107
 40
0.3286742415688542
 40
0.3651537848626748
 40
0.4017496639052648
 40
0.4382292004147157
 40
0.4747069038744121
 40
0.5113009334729186
 40
0.5477786364902826
 40
0.5842555237550158
 40
0.6208487287339054
 40
0.6573256220823329
 40
0.6938030610210856
 40
0.7303968139864523
 40
0.766874262964147
 40
0.8033533889895101
 40
0.8399488316577676
 40
0.8764279673783395
 40
0.9129091986708544
 40
0.9495067544692384
 40
0.9859879908776913
 40
0.9999999999999999
 40
0.9999999999999999
 40
0.9999999999999999
 40
0.9999999999999999
 10
4.817928324966977
 20
9.297204737152809
 30
0.0
 10
4.818323525781403
 20
9.303335368221493
 30
0.0
 10
4.819115187228694
 20
9.315616173542393
 30
0.0
 10
4.822900500641467
 20
9.333712606926762
 30
0.0
 10
4.828518204974056
 20
9.351299312009852
 30
0.0
 10
4.836160415728079
 20
9.368119981398001
 30
0.0
 10
4.84560890222262
 20
9.383989425835889
 30
0.0
 10
4.856763235409907
 20
9.398715030979131
 30
0.0
 10
4.869535008260135
 20
9.412061378543367
 30
0.0
 10
4.883706033277787
 20
9.423907537313202
 30
0.0
 10
4.899105133445783
 20
9.434110670783342
 30
0.0
 10
4.915574461096314
 20
9.44247660183187
 30
0.0
 10
4.932867122013117
 20
9.448963875100103
 30
0.0
 10
4.950774761105231
 20
9.453494374699106
 30
0.0
 10
4.969084097611492
 20
9.455937156220523
 30
0.0
 10
4.987548473107331
 20
9.456334821704163
 30
0.0
 10
5.005945569110994
 20
9.454682629570232
 30
0.0
 10
5.024030809284966
 20
9.450927578490365
 30
0.0
 10
5.041585552881885
 20
9.445191456733346
 30
0.0
 10
5.058398512560943
 20
9.437543331476643
 30
0.0
 10
5.07422135871007
 20
9.428014078329419
 30
0.0
 10
5.088888046211226
 20
9.416790910663135
 30
0.0
 10
5.102222056838196
 20
9.404008924764076
 30
0.0
 10
5.113999104864213
 20
9.389779401962981
 30
0.0
 10
5.124124950216271
 20
9.37433389083908
 30
0.0
 10
5.132475638496768
 20
9.357858461796518
 30
0.0
 10
5.138883827230126
 20
9.340532052766346
 30
0.0
 10
5.143309161970127
 20
9.32260544589316
 30
0.0
 10
5.145289707447382
 20
9.308047515404825
 30
0.0
 10
5.145665426119414
 20
9.299560035315656
 30
0.0
 10
5.145769689044179
 20
9.297204737152809
 30
0.0
  0
LINE
  5
113
330
1F
100
AcDbEntity
  8
0
  6
Continuous
 62
     7
370
    25
100
AcDbLine
 10
4.6778761399
 20
7.4961047372
 30
0.0
 11
4.5132340265
 21
7.4961047372
 31
0.0
  0
LINE
  5
114
330
1F
100
AcDbEntity
  8
0
  6
Continuous
 62
     7
370
    25
100
AcDbLine
 10
5.4504639876
 20
7.4961047372
 30
0.0
 11
4.6778761399
 21
7.4961047372
 31
0.0
  0
SPLINE
  5
115
330
1F
100
AcDbEntity
  8
0
  6
Continuous
 62
     7
370
    25
100
AcDbSpline
210
0.0
220
0.0
230
1.0
 70
     8
 71
     3
 72
    11
 73
     7
 74
     0
 42
0.00000001
 43
0.00000001
 40
0.0
 40
0.0
 40
0.0
 40
0.0
 40
0.2659881467325425
 40
0.5333341092149955
 40
0.8096645163527657
 40
1.0
 40
1.0
 40
1.0
 40
1.0
 10
4.502353058350695
 20
7.497534403815451
 30
0.0
 10
4.495090117657021
 20
7.498681192463524
 30
0.0
 10
4.480527160424806
 20
7.500980623884026
 30
0.0
 10
4.458811636385982
 20
7.50651103537671
 30
0.0
 10
4.439481444039926
 20
7.512791777457216
 30
0.0
 10
4.42755038170541
 20
7.517752063342646
 30
0.0
 10
4.422684149643656
 20
7.519775177591352
 30
0.0
  0
LINE
  5
116
330
1F
100
AcDbEntity
  8
0
  6
Continuous
 62
     7
370
    25
100
AcDbLine
 10
4.5884854687
 20
7.4975344038
 30
0.0
 11
4.5023530584
 21
7.4975344038
 31
0.0
  0
SPLINE
  5
117
330
1F
100
AcDbEntity
  8
0
  6
Continuous
 62
     7
370
    25
100
AcDbSpline
210
0.0
220
0.0
230
1.0
 70
     8
 71
     3
 72
    11
 73
     7
 74
     0
 42
0.00000001
 43
0.00000001
 40
0.0
 40
0.0
 40
0.0
 40
0.0
 40
0.2659844447964346
 40
0.5333707766871049
 40
0.8060474732702956
 40
1.0
 40
1.0
 40
1.0
 40
1.0
 10
4.535771148768371
 20
7.51977517759135
 30
0.0
 10
4.540280295792717
 20
7.516985946572713
 30
0.0
 10
4.549322355573366
 20
7.511392783724758
 30
0.0
 10
4.563452648295367
 20
7.504919938033392
 30
0.0
 10
4.576538668660113
 20
7.50028688874646
 30
0.0
 10
4.584977784675342
 20
7.498342557245544
 30
0.0
 10
4.588485468705284
 20
7.497534403815449
 30
0.0
  0
LINE
  5
118
330
1F
100
AcDbEntity
  8
0
  6
Continuous
 62
     7
370
    25
100
AcDbLine
 10
4.7190854119
 20
7.5197751776
 30
0.0
 11
4.5357711488
 21
7.5197751776
 31
0.0
  0
SPLINE
  5
119
330
1F
100
AcDbEntity
  8
0
  6
Continuous
 62
     7
370
    25
100
AcDbSpline
210
0.0
220
0.0
230
1.0
 70
     8
 71
     3
 72
    11
 73
     7
 74
     0
 42
0.00000001
 43
0.00000001
 40
0.0
 40
0.0
 40
0.0
 40
0.0
 40
0.2669700483322559
 40
0.5353131661690581
 40
0.8106190627892139
 40
1.0
 40
1.0
 40
1.0
 40
1.0
 10
4.771405778720378
 20
7.497534403815449
 30
0.0
 10
4.766621141220577
 20
7.49868598249042
 30
0.0
 10
4.757027258067803
 20
7.50099506259301
 30
0.0
 10
4.742751525155375
 20
7.506541247800182
 30
0.0
 10
4.730072858366098
 20
7.51282169665663
 30
0.0
 10
4.722266753381557
 20
7.517761843813725
 30
0.0
 10
4.719085411948338
 20
7.51977517759135
 30
0.0
  0
LINE
  5
11A
330
1F
100
AcDbEntity
  8
0
  6
Continuous
 62
     7
370
    25
100
AcDbLine
 10
5.0244262748
 20
7.4975344038
 30
0.0
 11
4.7714057787
 21
7.4975344038
 31
0.0
  0
SPLINE
  5
11B
330
1F
100
AcDbEntity
  8
0
  6
Continuous
 62
     7
370
    25
100
AcDbSpline
210
0.0
220
0.0
230
1.0
 70
     8
 71
     3
 72
    11
 73
     7
 74
     0
 42
0.00000001
 43
0.00000001
 40
0.0
 40
0.0
 40
0.0
 40
0.0
 40
0.2328672778470137
 40
0.4666746224400874
 40
0.7778733096581525
 40
1.0
 40
1.0
 40
1.0
 40
1.0
 10
5.051287059440702
 20
7.519775177591352
 30
0.0
 10
5.049274678756968
 20
7.517317760185588
 30
0.0
 10
5.045241793568161
 20
7.51239300497474
 30
0.0
 10
5.038322167558658
 20
7.505852539719737
 30
0.0
 10
5.031374288089897
 20
7.50072817146636
 30
0.0
 10
5.026469209459988
 20
7.498473472047783
 30
0.0
 10
5.024426274831763
 20
7.497534403815449
 30
0.0
  0
LINE
  5
11C
330
1F
100
AcDbEntity
  8
0
  6
Continuous
 62
     7
370
    25
100
AcDbLine
 10
5.2782502693
 20
7.5197751776
 30
0.0
 11
5.0512870594
 21
7.5197751776
 31
0.0
  0
SPLINE
  5
11D
330
1F
100
AcDbEntity
  8
0
  6
Continuous
 62
     7
370
    25
100
AcDbSpline
210
0.0
220
0.0
230
1.0
 70
     8
 71
     3
 72
    11
 73
     7
 74
     0
 42
0.00000001
 43
0.00000001
 40
0.0
 40
0.0
 40
0.0
 40
0.0
 40
0.2659881467325286
 40
0.5333341092149689
 40
0.8096645163527977
 40
1.0
 40
1.0
 40
1.0
 40
1.0
 10
5.250901727375266
 20
7.497534403815449
 30
0.0
 10
5.253397586995401
 20
7.498681192463522
 30
0.0
 10
5.25840204709478
 20
7.500980623884023
 30
0.0
 10
5.265857353406283
 20
7.506511035376712
 30
0.0
 10
5.272490062843299
 20
7.512791777457215
 30
0.0
 10
5.276581518335818
 20
7.517752063342645
 30
0.0
 10
5.278250269310266
 20
7.51977517759135
 30
0.0
  0
LINE
  5
11E
330
1F
100
AcDbEntity
  8
0
  6
Continuous
 62
     7
370
    25
100
AcDbLine
 10
5.4177898131
 20
7.4975344038
 30
0.0
 11
5.2509017274
 21
7.4975344038
 31
0.0
  0
SPLINE
  5
11F
330
1F
100
AcDbEntity
  8
0
  6
Continuous
 62
     7
370
    25
100
AcDbSpline
210
0.0
220
0.0
230
1.0
 70
     8
 71
     3
 72
    11
 73
     7
 74
     0
 42
0.00000001
 43
0.00000001
 40
0.0
 40
0.0
 40
0.0
 40
0.0
 40
0.2328672778470268
 40
0.46667462244012
 40
0.7778733096582509
 40
1.0
 40
1.0
 40
1.0
 40
1.0
 10
5.497364917677909
 20
7.51977517759135
 30
0.0
 10
5.491409353877626
 20
7.517317760185588
 30
0.0
 10
5.47947418413797
 20
7.512393004974744
 30
0.0
 10
5.458982946059157
 20
7.505852539719735
 30
0.0
 10
5.438396420168347
 20
7.500728171466362
 30
0.0
 10
5.423848804317108
 20
7.498473472047784
 30
0.0
 10
5.417789813132058
 20
7.497534403815449
 30
0.0
  0
LINE
  5
120
330
1F
100
AcDbEntity
  8
0
  6
Continuous
 62
     7
370
    25
100
AcDbLine
 10
5.0477865343
 20
7.6585992775
 30
0.0
 11
5.0476673177
 21
7.6577694796
 31
0.0
  0
SPLINE
  5
121
330
1F
100
AcDbEntity
  8
0
  6
Continuous
 62
     7
370
    25
100
AcDbSpline
210
0.0
220
0.0
230
1.0
 70
     8
 71
     3
 72
    11
 73
     7
 74
     0
 42
0.00000001
 43
0.00000001
 40
0.0
 40
0.0
 40
0.0
 40
0.0
 40
0.2519956718517744
 40
0.5058364467559782
 40
0.752145337259591
 40
1.0
 40
1.0
 40
1.0
 40
1.0
 10
5.170011476750533
 20
7.62910473715279
 30
0.0
 10
5.159776004437442
 20
7.630452218525705
 30
0.0
 10
5.139230116058978
 20
7.633157047480645
 30
0.0
 10
5.108398078407128
 20
7.639808249482887
 30
0.0
 10
5.077789102194265
 20
7.648087016103641
 30
0.0
 10
5.057808224044031
 20
7.65508789065968
 30
0.0
 10
5.047786534296432
 20
7.658599277508396
 30
0.0
  0
LINE
  5
122
330
1F
100
AcDbEntity
  8
0
  6
Continuous
 62
     7
370
    25
100
AcDbLine
 10
5.283241369
 20
7.6291047372
 30
0.0
 11
5.1700114768
 21
7.6291047372
 31
0.0
  0
LINE
  5
123
330
1F
100
AcDbEntity
  8
0
  6
Continuous
 62
     7
370
    25
100
AcDbLine
 10
5.283241369
 20
7.5260993014
 30
0.0
 11
5.283241369
 21
7.6291047372
 31
0.0
  0
LINE
  5
124
330
1F
100
AcDbEntity
  8
0
  6
Continuous
 62
     7
370
    25
100
AcDbLine
 10
5.2830083237
 20
7.5243568745
 30
0.0
 11
5.283241369
 21
7.5260993014
 31
0.0
  0
LINE
  5
125
330
1F
100
AcDbEntity
  8
0
  6
Continuous
 62
     7
370
    25
100
AcDbLine
 10
5.0479413801
 20
7.5243568745
 30
0.0
 11
5.2830083237
 21
7.5243568745
 31
0.0
  0
LINE
  5
126
330
1F
100
AcDbEntity
  8
0
  6
Continuous
 62
     7
370
    25
100
AcDbLine
 10
5.0476673177
 20
7.5260993014
 30
0.0
 11
5.0479413801
 21
7.5243568745
 31
0.0
  0
LINE
  5
127
330
1F
100
AcDbEntity
  8
0
  6
Continuous
 62
     7
370
    25
100
AcDbLine
 10
5.0476673177
 20
7.5260993014
 30
0.0
 11
5.0476673177
 21
7.6577694796
 31
0.0
  0
SPLINE
  5
128
330
1F
100
AcDbEntity
  8
0
  6
Continuous
 62
     7
370
    25
100
AcDbSpline
210
0.0
220
0.0
230
1.0
 70
     8
 71
     3
 72
    12
 73
     8
 74
     0
 42
0.00000001
 43
0.00000001
 40
0.0
 40
0.0
 40
0.0
 40
0.0
 40
0.013078190827813
 40
0.1682487970432249
 40
0.4796432328572287
 40
0.7389533742626604
 40
1.0
 40
1.0
 40
1.0
 40
1.0
 10
5.051287059440702
 20
7.519775177591352
 30
0.0
 10
5.051270843524777
 20
7.519784630371833
 30
0.0
 10
5.051062228404893
 20
7.519906238854664
 30
0.0
 10
5.05046277950304
 20
7.520326101450428
 30
0.0
 10
5.049564121697601
 20
7.521252640912133
 30
0.0
 10
5.0485986489638
 20
7.522681121383883
 30
0.0
 10
5.048160956575707
 20
7.523797048778253
 30
0.0
 10
5.047941380069284
 20
7.524356874457983
 30
0.0
  0
SPLINE
  5
129
330
1F
100
AcDbEntity
  8
0
  6
Continuous
 62
     7
370
    25
100
AcDbSpline
210
0.0
220
0.0
230
1.0
 70
     8
 71
     3
 72
    12
 73
     8
 74
     0
 42
0.00000001
 43
0.00000001
 40
0.0
 40
0.0
 40
0.0
 40
0.0
 40
0.2610466257363039
 40
0.5203567671399052
 40
0.8317512029543854
 40
0.9869218091727159
 40
1.0
 40
1.0
 40
1.0
 40
1.0
 10
5.2830083237474
 20
7.524356874457983
 30
0.0
 10
5.282784987874283
 20
7.523797048778255
 30
0.0
 10
5.282339801760142
 20
7.522681121383893
 30
0.0
 10
5.281004044148167
 20
7.52125264091214
 30
0.0
 10
5.279621266652586
 20
7.520326101450428
 30
0.0
 10
5.278630784815789
 20
7.519906238854674
 30
0.0
 10
5.278277713952966
 20
7.519784630371833
 30
0.0
 10
5.278250269310266
 20
7.51977517759135
 30
0.0
  0
SPLINE
  5
12A
330
1F
100
AcDbEntity
  8
0
  6
Continuous
 62
     7
370
    25
100
AcDbSpline
210
0.0
220
0.0
230
1.0
 70
     8
 71
     3
 72
    14
 73
    10
 74
     0
 42
0.00000001
 43
0.00000001
 40
0.0
 40
0.0
 40
0.0
 40
0.0
 40
0.1465205959091586
 40
0.2927124607916963
 40
0.4464049764402692
 40
0.6728524845601843
 40
0.9030242191910265
 40
0.9876334781044409
 40
1.0
 40
1.0
 40
1.0
 40
1.0
 10
5.047786534296432
 20
7.658599277508396
 30
0.0
 10
5.04787866307379
 20
7.658858681722921
 30
0.0
 10
5.048062713930008
 20
7.659376908157249
 30
0.0
 10
5.048493562346185
 20
7.660004952905696
 30
0.0
 10
5.049051821419904
 20
7.660524987729113
 30
0.0
 10
5.049723686066803
 20
7.660807385176803
 30
0.0
 10
5.050276062464885
 20
7.660765348597882
 30
0.0
 10
5.050578719570929
 20
7.66063603378289
 30
0.0
 10
5.050664998327205
 20
7.660587736048058
 30
0.0
 10
5.050676000745744
 20
7.660581577036082
 30
0.0
  0
SPLINE
  5
12B
330
1F
100
AcDbEntity
  8
0
  6
Continuous
 62
     7
370
    25
100
AcDbSpline
210
0.0
220
0.0
230
1.0
 70
     8
 71
     3
 72
    11
 73
     7
 74
     0
 42
0.00000001
 43
0.00000001
 40
0.0
 40
0.0
 40
0.0
 40
0.0
 40
0.2419117087061189
 40
0.4852111572906189
 40
0.7416738144491889
 40
1.0
 40
1.0
 40
1.0
 40
1.0
 10
5.050676000745744
 20
7.660581577036082
 30
0.0
 10
5.060160974342032
 20
7.657279532320474
 30
0.0
 10
5.079185332609522
 20
7.650656500527365
 30
0.0
 10
5.108598288223895
 20
7.642686157208194
 30
0.0
 10
5.138718630122524
 20
7.636145786640604
 30
0.0
 10
5.158987482906694
 20
7.633455000518073
 30
0.0
 10
5.169158595780213
 20
7.632104737152791
 30
0.0
  0
SPLINE
  5
12C
330
1F
100
AcDbEntity
  8
0
  6
Continuous
 62
     7
370
    25
100
AcDbSpline
210
0.0
220
0.0
230
1.0
 70
     8
 71
     3
 72
    13
 73
     9
 74
     0
 42
0.00000001
 43
0.00000001
 40
0.0
 40
0.0
 40
0.0
 40
0.0
 40
0.0450838408436602
 40
0.1423612177182912
 40
0.3570576764415738
 40
0.5714659061368332
 40
0.7857353221871701
 40
0.9999999999999999
 40
0.9999999999999999
 40
0.9999999999999999
 40
0.9999999999999999
 10
5.170011476750533
 20
7.62910473715279
 30
0.0
 10
5.170014503228423
 20
7.629175225163715
 30
0.0
 10
5.170024059935877
 20
7.629397805114359
 30
0.0
 10
5.170023641296351
 20
7.629951694411033
 30
0.0
 10
5.169956241526239
 20
7.630729751304036
 30
0.0
 10
5.169765878081343
 20
7.631489325560597
 30
0.0
 10
5.169491781230422
 20
7.632005462780119
 30
0.0
 10
5.169269656778284
 20
7.63207164593916
 30
0.0
 10
5.169158595780212
 20
7.632104737152791
 30
0.0
  0
SPLINE
  5
12D
330
1F
100
AcDbEntity
  8
0
  6
Continuous
 62
     7
370
    25
100
AcDbSpline
210
0.0
220
0.0
230
1.0
 70
     8
 71
     3
 72
    13
 73
     9
 74
     0
 42
0.00000001
 43
0.00000001
 40
0.0
 40
0.0
 40
0.0
 40
0.0
 40
0.0110833551319091
 40
0.1707198361072081
 40
0.4221210186975395
 40
0.629173138119099
 40
0.8141387340449122
 40
0.9999999999999999
 40
0.9999999999999999
 40
0.9999999999999999
 40
0.9999999999999999
 10
5.024426274831763
 20
7.497534403815449
 30
0.0
 10
5.024409937841116
 20
7.49753781759132
 30
0.0
 10
5.0241582948745
 20
7.497590400879537
 30
0.0
 10
5.023534613748776
 20
7.49782420016267
 30
0.0
 10
5.022643562221213
 20
7.498517539843415
 30
0.0
 10
5.021831431985339
 20
7.499655079631093
 30
0.0
 10
5.021235066036759
 20
7.5009796284179
 30
0.0
 10
5.021061902737162
 20
7.501983588004033
 30
0.0
 10
5.020975111963923
 20
7.502486780245015
 30
0.0
  0
SPLINE
  5
12E
330
1F
100
AcDbEntity
  8
0
  6
Continuous
 62
     7
370
    25
100
AcDbSpline
210
0.0
220
0.0
230
1.0
 70
     8
 71
     3
 72
    13
 73
     9
 74
     0
 42
0.00000001
 43
0.00000001
 40
0.0
 40
0.0
 40
0.0
 40
0.0
 40
0.011083355132317
 40
0.1707198361081606
 40
0.4221210186987482
 40
0.6291731381194576
 40
0.8141387340448711
 40
1.0
 40
1.0
 40
1.0
 40
1.0
 10
4.771405778720378
 20
7.497534403815449
 30
0.0
 10
4.771412031144709
 20
7.49753781759132
 30
0.0
 10
4.771508338882227
 20
7.497590400879537
 30
0.0
 10
4.771753237199309
 20
7.497824200162669
 30
0.0
 10
4.772125152562582
 20
7.498517539843413
 30
0.0
 10
4.772495258619037
 20
7.499655079631093
 30
0.0
 10
4.772796922148988
 20
7.500979628417903
 30
0.0
 10
4.772921186490878
 20
7.501983588004033
 30
0.0
 10
4.772983468731652
 20
7.502486780245015
 30
0.0
  0
LINE
  5
12F
330
1F
100
AcDbEntity
  8
0
  6
Continuous
 62
     7
370
    25
100
AcDbLine
 10
4.7729834687
 20
7.5024867802
 30
0.0
 11
5.020975112
 21
7.5024867802
 31
0.0
  0
LINE
  5
130
330
1F
100
AcDbEntity
  8
0
  6
Continuous
 62
     7
370
    25
100
AcDbLine
 10
4.7730106854
 20
7.5030304483
 30
0.0
 11
4.7730106854
 21
7.6321047372
 31
0.0
  0
LINE
  5
131
330
1F
100
AcDbEntity
  8
0
  6
Continuous
 62
     7
370
    25
100
AcDbLine
 10
5.0209450543
 20
7.5030304483
 30
0.0
 11
5.0209450543
 21
7.6321047372
 31
0.0
  0
LINE
  5
132
330
1F
100
AcDbEntity
  8
0
  6
Continuous
 62
     7
370
    25
100
AcDbLine
 10
5.020975112
 20
7.5024867802
 30
0.0
 11
5.0209450543
 21
7.5030304483
 31
0.0
  0
LINE
  5
133
330
1F
100
AcDbEntity
  8
0
  6
Continuous
 62
     7
370
    25
100
AcDbLine
 10
4.7730106854
 20
7.5030304483
 30
0.0
 11
4.7729834687
 21
7.5024867802
 31
0.0
  0
LINE
  5
134
330
1F
100
AcDbEntity
  8
0
  6
Continuous
 62
     7
370
    25
100
AcDbLine
 10
5.0209450543
 20
7.6321047372
 30
0.0
 11
4.7730106854
 21
7.6321047372
 31
0.0
  0
SPLINE
  5
135
330
1F
100
AcDbEntity
  8
0
  6
Continuous
 62
     7
370
    25
100
AcDbSpline
210
0.0
220
0.0
230
1.0
 70
     8
 71
     3
 72
    12
 73
     8
 74
     0
 42
0.00000001
 43
0.00000001
 40
0.0
 40
0.0
 40
0.0
 40
0.0
 40
0.2217181155150742
 40
0.4435284651947777
 40
0.6625812968592316
 40
0.8762617802482907
 40
0.9999999999999999
 40
0.9999999999999999
 40
0.9999999999999999
 40
0.9999999999999999
 10
5.282211127976546
 20
7.632104737152791
 30
0.0
 10
5.282329227966025
 20
7.632070334419678
 30
0.0
 10
5.282565477074272
 20
7.632001514642005
 30
0.0
 10
5.282879349235729
 20
7.631463239337752
 30
0.0
 10
5.283111953312321
 20
7.630675022719909
 30
0.0
 10
5.283226612047774
 20
7.62983588122852
 30
0.0
 10
5.283237409359426
 20
7.62930091867327
 30
0.0
 10
5.283241368950609
 20
7.62910473715279
 30
0.0
  0
LINE
  5
136
330
1F
100
AcDbEntity
  8
0
  6
Continuous
 62
     7
370
    25
100
AcDbLine
 10
5.1691585958
 20
7.6321047372
 30
0.0
 11
5.282211128
 21
7.6321047372
 31
0.0
  0
SPLINE
  5
137
330
1F
100
AcDbEntity
  8
0
  6
Continuous
 62
     7
370
    25
100
AcDbSpline
210
0.0
220
0.0
230
1.0
 70
     8
 71
     3
 72
    11
 73
     7
 74
     0
 42
0.00000001
 43
0.00000001
 40
0.0
 40
0.0
 40
0.0
 40
0.0
 40
0.2413129272728431
 40
0.4836503712709017
 40
0.7411830816097129
 40
1.0
 40
1.0
 40
1.0
 40
1.0
 10
5.020945054324963
 20
7.503030448331767
 30
0.0
 10
5.023159475163196
 20
7.504129908381584
 30
0.0
 10
5.027597718371569
 20
7.506333496342248
 30
0.0
 10
5.034284384071848
 20
7.511397324932743
 30
0.0
 10
5.041017792281092
 20
7.517763160160239
 30
0.0
 10
5.045447137193928
 20
7.523315984200659
 30
0.0
 10
5.047667317740293
 20
7.526099301407729
 30
0.0
  0
LINE
  5
138
330
1F
100
AcDbEntity
  8
0
  6
Continuous
 62
     7
370
    25
100
AcDbLine
 10
5.0476673177
 20
7.6577694796
 30
0.0
 11
5.0209450543
 21
7.6577694796
 31
0.0
  0
SPLINE
  5
139
330
1F
100
AcDbEntity
  8
0
  6
Continuous
 62
     7
370
    25
100
AcDbSpline
210
0.0
220
0.0
230
1.0
 70
     8
 71
     3
 72
     9
 73
     5
 74
     0
 42
0.00000001
 43
0.00000001
 40
0.0
 40
0.0
 40
0.0
 40
0.0
 40
0.7268678013201397
 40
1.0
 40
1.0
 40
1.0
 40
1.0
 10
5.020945054324955
 20
7.657769479626764
 30
0.0
 10
5.020973760561803
 20
7.658099214768857
 30
0.0
 10
5.02101325362615
 20
7.658552853162928
 30
0.0
 10
5.021201732389828
 20
7.658962643072833
 30
0.0
 10
5.021253212008957
 20
7.659074569891922
 30
0.0
  0
SPLINE
  5
13A
330
1F
100
AcDbEntity
  8
0
  6
Continuous
 62
     7
370
    25
100
AcDbSpline
210
0.0
220
0.0
230
1.0
 70
     8
 71
     3
 72
    11
 73
     7
 74
     0
 42
0.00000001
 43
0.00000001
 40
0.0
 40
0.0
 40
0.0
 40
0.0
 40
0.1879520780037302
 40
0.3741445732284035
 40
0.6893011319065367
 40
1.0
 40
1.0
 40
1.0
 40
1.0
 10
5.021253212008957
 20
7.659074569891922
 30
0.0
 10
5.02139924370737
 20
7.659303583816082
 30
0.0
 10
5.021689939974531
 20
7.659759467665988
 30
0.0
 10
5.022477327510702
 20
7.660318061798701
 30
0.0
 10
5.023488292945919
 20
7.660726836091402
 30
0.0
 10
5.024260686048144
 20
7.660705897855471
 30
0.0
 10
5.024644131892533
 20
7.660695503304391
 30
0.0
  0
LINE
  5
13B
330
1F
100
AcDbEntity
  8
0
  6
Continuous
 62
     7
370
    25
100
AcDbLine
 10
5.0209450543
 20
7.6577694796
 30
0.0
 11
5.0209450543
 21
7.6321047372
 31
0.0
  0
LINE
  5
13C
330
1F
100
AcDbEntity
  8
0
  6
Continuous
 62
     7
370
    25
100
AcDbLine
 10
4.5310369635
 20
7.6585992775
 30
0.0
 11
4.5309651798
 21
7.6577694796
 31
0.0
  0
SPLINE
  5
13D
330
1F
100
AcDbEntity
  8
0
  6
Continuous
 62
     7
370
    25
100
AcDbSpline
210
0.0
220
0.0
230
1.0
 70
     8
 71
     3
 72
    11
 73
     7
 74
     0
 42
0.00000001
 43
0.00000001
 40
0.0
 40
0.0
 40
0.0
 40
0.0
 40
0.2519956718517601
 40
0.5058364467559379
 40
0.752145337259573
 40
1.0
 40
1.0
 40
1.0
 40
1.0
 10
4.616854157514464
 20
7.629104737152789
 30
0.0
 10
4.608754563059117
 20
7.630452218525704
 30
0.0
 10
4.592496069215358
 20
7.633157047480647
 30
0.0
 10
4.570246794004553
 20
7.639808249482885
 30
0.0
 10
4.549506611543057
 20
7.648087016103641
 30
0.0
 10
4.53720633816803
 20
7.655087890659684
 30
0.0
 10
4.531036963496487
 20
7.658599277508398
 30
0.0
  0
LINE
  5
13E
330
1F
100
AcDbEntity
  8
0
  6
Continuous
 62
     7
370
    25
100
AcDbLine
 10
4.7212342708
 20
7.6291047372
 30
0.0
 11
4.6168541575
 21
7.6291047372
 31
0.0
  0
LINE
  5
13F
330
1F
100
AcDbEntity
  8
0
  6
Continuous
 62
     7
370
    25
100
AcDbLine
 10
4.7212342708
 20
7.5260993014
 30
0.0
 11
4.7212342708
 21
7.6291047372
 31
0.0
  0
LINE
  5
140
330
1F
100
AcDbEntity
  8
0
  6
Continuous
 62
     7
370
    25
100
AcDbLine
 10
4.7209897429
 20
7.5243568745
 30
0.0
 11
4.7212342708
 21
7.5260993014
 31
0.0
  0
LINE
  5
141
330
1F
100
AcDbEntity
  8
0
  6
Continuous
 62
     7
370
    25
100
AcDbLine
 10
4.5311302339
 20
7.5243568745
 30
0.0
 11
4.7209897429
 21
7.5243568745
 31
0.0
  0
LINE
  5
142
330
1F
100
AcDbEntity
  8
0
  6
Continuous
 62
     7
370
    25
100
AcDbLine
 10
4.5309651798
 20
7.5260993014
 30
0.0
 11
4.5311302339
 21
7.5243568745
 31
0.0
  0
LINE
  5
143
330
1F
100
AcDbEntity
  8
0
  6
Continuous
 62
     7
370
    25
100
AcDbLine
 10
4.5309651798
 20
7.5260993014
 30
0.0
 11
4.5309651798
 21
7.6577694796
 31
0.0
  0
SPLINE
  5
144
330
1F
100
AcDbEntity
  8
0
  6
Continuous
 62
     7
370
    25
100
AcDbSpline
210
0.0
220
0.0
230
1.0
 70
     8
 71
     3
 72
    13
 73
     9
 74
     0
 42
0.00000001
 43
0.00000001
 40
0.0
 40
0.0
 40
0.0
 40
0.0
 40
0.2142797061517553
 40
0.428545023987406
 40
0.642949152810371
 40
0.8576415051481175
 40
0.9549170214499882
 40
1.0
 40
1.0
 40
1.0
 40
1.0
 10
4.618922514004081
 20
7.63210473715279
 30
0.0
 10
4.61870248694551
 20
7.632071650310481
 30
0.0
 10
4.618262447602604
 20
7.632005478847557
 30
0.0
 10
4.617659443922462
 20
7.631489325369091
 30
0.0
 10
4.617185325613893
 20
7.630729751356792
 30
0.0
 10
4.616947273953857
 20
7.629951694404963
 30
0.0
 10
4.616870124234588
 20
7.629397805114762
 30
0.0
 10
4.616857997792113
 20
7.629175225163812
 30
0.0
 10
4.616854157514464
 20
7.629104737152789
 30
0.0
  0
SPLINE
  5
145
330
1F
100
AcDbEntity
  8
0
  6
Continuous
 62
     7
370
    25
100
AcDbSpline
210
0.0
220
0.0
230
1.0
 70
     8
 71
     3
 72
    12
 73
     8
 74
     0
 42
0.00000001
 43
0.00000001
 40
0.0
 40
0.0
 40
0.0
 40
0.0
 40
0.2217181155142933
 40
0.4435284651941724
 40
0.6625812968578637
 40
0.8762617802482595
 40
0.9999999999999999
 40
0.9999999999999999
 40
0.9999999999999999
 40
0.9999999999999999
 10
4.723230440883644
 20
7.63210473715279
 30
0.0
 10
4.723001613185793
 20
7.632070334419677
 30
0.0
 10
4.722543862598357
 20
7.632001514642003
 30
0.0
 10
4.721935711450805
 20
7.631463239337755
 30
0.0
 10
4.721485023389009
 20
7.630675022719903
 30
0.0
 10
4.721262863382153
 20
7.629835881228524
 30
0.0
 10
4.721241942770896
 20
7.62930091867327
 30
0.0
 10
4.721234270762293
 20
7.62910473715279
 30
0.0
  0
LINE
  5
146
330
1F
100
AcDbEntity
  8
0
  6
Continuous
 62
     7
370
    25
100
AcDbLine
 10
4.618922514
 20
7.6321047372
 30
0.0
 11
4.7232304409
 21
7.6321047372
 31
0.0
  0
SPLINE
  5
147
330
1F
100
AcDbEntity
  8
0
  6
Continuous
 62
     7
370
    25
100
AcDbSpline
210
0.0
220
0.0
230
1.0
 70
     8
 71
     3
 72
    12
 73
     8
 74
     0
 42
0.00000001
 43
0.00000001
 40
0.0
 40
0.0
 40
0.0
 40
0.0
 40
0.0130781908273782
 40
0.1682487970426584
 40
0.4796432328574142
 40
0.7389533742622898
 40
1.0
 40
1.0
 40
1.0
 40
1.0
 10
4.535771148768371
 20
7.51977517759135
 30
0.0
 10
4.535742638573545
 20
7.519784630371832
 30
0.0
 10
4.535375859556013
 20
7.519906238854671
 30
0.0
 10
4.534354951759677
 20
7.520326101450424
 30
0.0
 10
4.532964604491223
 20
7.521252640912131
 30
0.0
 10
4.531676544961171
 20
7.522681121383885
 30
0.0
 10
4.531312742273515
 20
7.523797048778253
 30
0.0
 10
4.531130233906096
 20
7.524356874457983
 30
0.0
  0
SPLINE
  5
148
330
1F
100
AcDbEntity
  8
0
  6
Continuous
 62
     7
370
    25
100
AcDbSpline
210
0.0
220
0.0
230
1.0
 70
     8
 71
     3
 72
    12
 73
     8
 74
     0
 42
0.00000001
 43
0.00000001
 40
0.0
 40
0.0
 40
0.0
 40
0.0
 40
0.0130781908273293
 40
0.1682487970447686
 40
0.4796432328592692
 40
0.7389533742638784
 40
1.0
 40
1.0
 40
1.0
 40
1.0
 10
4.719085411948338
 20
7.51977517759135
 30
0.0
 10
4.719092165632356
 20
7.519784630371832
 30
0.0
 10
4.719179050678353
 20
7.519906238854674
 30
0.0
 10
4.719442302469051
 20
7.52032610145043
 30
0.0
 10
4.719894631074975
 20
7.521252640912143
 30
0.0
 10
4.720465235534959
 20
7.522681121383887
 30
0.0
 10
4.72081451855933
 20
7.523797048778255
 30
0.0
 10
4.720989742868297
 20
7.524356874457983
 30
0.0
  0
SPLINE
  5
149
330
1F
100
AcDbEntity
  8
0
  6
Continuous
 62
     7
370
    25
100
AcDbSpline
210
0.0
220
0.0
230
1.0
 70
     8
 71
     3
 72
    11
 73
     7
 74
     0
 42
0.00000001
 43
0.00000001
 40
0.0
 40
0.0
 40
0.0
 40
0.0
 40
0.2565531990776945
 40
0.5143818070954697
 40
0.7566696092736893
 40
1.0
 40
1.0
 40
1.0
 40
1.0
 10
4.721234270762294
 20
7.526099301407728
 30
0.0
 10
4.725498083748273
 20
7.523339261405527
 30
0.0
 10
4.734046906513804
 20
7.517805460349484
 30
0.0
 10
4.747056278509392
 20
7.511444838863436
 30
0.0
 10
4.76005000829824
 20
7.506354566998721
 30
0.0
 10
4.768684280608984
 20
7.504140072675945
 30
0.0
 10
4.773010685355982
 20
7.503030448331766
 30
0.0
  0
LINE
  5
14A
330
1F
100
AcDbEntity
  8
0
  6
Continuous
 62
     7
370
    25
100
AcDbLine
 10
4.7730106854
 20
7.6321047372
 30
0.0
 11
4.7232304409
 21
7.6321047372
 31
0.0
  0
SPLINE
  5
14B
330
1F
100
AcDbEntity
  8
0
  6
Continuous
 62
     7
370
    25
100
AcDbSpline
210
0.0
220
0.0
230
1.0
 70
     8
 71
     3
 72
    10
 73
     6
 74
     0
 42
0.00000001
 43
0.00000001
 40
0.0
 40
0.0
 40
0.0
 40
0.0
 40
0.3447207012250793
 40
0.9574584105437871
 40
1.0
 40
1.0
 40
1.0
 40
1.0
 10
5.252854661762301
 20
7.498111446321202
 30
0.0
 10
5.252642631259667
 20
7.498001701888342
 30
0.0
 10
5.252053718591186
 20
7.497696887788466
 30
0.0
 10
5.251371057717457
 20
7.497590993667576
 30
0.0
 10
5.250930339385989
 20
7.497537853729742
 30
0.0
 10
5.250901727375266
 20
7.497534403815449
 30
0.0
  0
SPLINE
  5
14C
330
1F
100
AcDbEntity
  8
0
  6
Continuous
 62
     7
370
    25
100
AcDbSpline
210
0.0
220
0.0
230
1.0
 70
     8
 71
     3
 72
    11
 73
     7
 74
     0
 42
0.00000001
 43
0.00000001
 40
0.0
 40
0.0
 40
0.0
 40
0.0
 40
0.2419117138570343
 40
0.4852111676219956
 40
0.7416738302413042
 40
0.9999999999999999
 40
0.9999999999999999
 40
0.9999999999999999
 40
0.9999999999999999
 10
4.535599526313145
 20
7.660581577036084
 30
0.0
 10
4.541457159913799
 20
7.657279532322081
 30
0.0
 10
4.553206029753786
 20
7.650656500532194
 30
0.0
 10
4.573134712518984
 20
7.642686157188334
 30
0.0
 10
4.594847945408799
 20
7.636145786903509
 30
0.0
 10
4.610878314788408
 20
7.633455000569001
 30
0.0
 10
4.618922514004081
 20
7.63210473715279
 30
0.0
  0
SPLINE
  5
14D
330
1F
100
AcDbEntity
  8
0
  6
Continuous
 62
     7
370
    25
100
AcDbSpline
210
0.0
220
0.0
230
1.0
 70
     8
 71
     3
 72
    14
 73
    10
 74
     0
 42
0.00000001
 43
0.00000001
 40
0.0
 40
0.0
 40
0.0
 40
0.0
 40
0.012366521894965
 40
0.0969757808094897
 40
0.3271475154406739
 40
0.5535950235604591
 40
0.70728753920934
 40
0.8534794040916995
 40
0.9999999999999999
 40
0.9999999999999999
 40
0.9999999999999999
 40
0.9999999999999999
 10
4.535599526313145
 20
7.660581577036084
 30
0.0
 10
4.535577200708476
 20
7.660587736048059
 30
0.0
 10
4.535402127800899
 20
7.66063603378289
 30
0.0
 10
4.534802470428262
 20
7.660765348597886
 30
0.0
 10
4.533778230072491
 20
7.660807385176805
 30
0.0
 10
4.532653457385659
 20
7.660524987729117
 30
0.0
 10
4.531822016908792
 20
7.6600049529057
 30
0.0
 10
4.531261928722118
 20
7.659376908157254
 30
0.0
 10
4.531112008027895
 20
7.658858681722925
 30
0.0
 10
4.531036963496488
 20
7.658599277508398
 30
0.0
  0
SPLINE
  5
14E
330
1F
100
AcDbEntity
  8
0
  6
Continuous
 62
     7
370
    25
100
AcDbSpline
210
0.0
220
0.0
230
1.0
 70
     8
 71
     3
 72
    11
 73
     7
 74
     0
 42
0.00000001
 43
0.00000001
 40
0.0
 40
0.0
 40
0.0
 40
0.0
 40
0.266986032570957
 40
0.5362670288084684
 40
0.7823658931220562
 40
1.0
 40
1.0
 40
1.0
 40
1.0
 10
4.665301876507352
 20
7.632104737152789
 30
0.0
 10
4.657228845883695
 20
7.633463801932548
 30
0.0
 10
4.641013390324694
 20
7.636193613767201
 30
0.0
 10
4.619541044320651
 20
7.642799751828206
 30
0.0
 10
4.600817691369289
 20
7.65045026863725
 30
0.0
 10
4.590311231303268
 20
7.656563211256127
 30
0.0
 10
4.585380453905572
 20
7.659432070901447
 30
0.0
  0
LINE
  5
14F
330
1F
100
AcDbEntity
  8
0
  6
Continuous
 62
     7
370
    25
100
AcDbLine
 10
4.5832975389
 20
7.660581577
 30
0.0
 11
4.5355995263
 21
7.660581577
 31
0.0
  0
SPLINE
  5
150
330
1F
100
AcDbEntity
  8
0
  6
Continuous
 62
     7
370
    25
100
AcDbSpline
210
0.0
220
0.0
230
1.0
 70
     8
 71
     3
 72
    13
 73
     9
 74
     0
 42
0.00000001
 43
0.00000001
 40
0.0
 40
0.0
 40
0.0
 40
0.0
 40
0.1858612659553003
 40
0.3708268618803653
 40
0.5778789813017562
 40
0.8292801638917648
 40
0.9889166448662862
 40
1.0
 40
1.0
 40
1.0
 40
1.0
 10
5.420065389739137
 20
7.502486780245014
 30
0.0
 10
5.420063088029908
 20
7.501983588004033
 30
0.0
 10
5.420058495703444
 20
7.500979628417904
 30
0.0
 10
5.419735821423967
 20
7.49965507963109
 30
0.0
 10
5.419197519567811
 20
7.498517539843415
 30
0.0
 10
5.418523916812224
 20
7.497824200162676
 30
0.0
 10
5.418014972234428
 20
7.497590400879528
 30
0.0
 10
5.417803539614393
 20
7.49753781759132
 30
0.0
 10
5.417789813132058
 20
7.497534403815449
 30
0.0
  0
LINE
  5
151
330
1F
100
AcDbEntity
  8
0
  6
Continuous
 62
     7
370
    25
100
AcDbLine
 10
5.4200524669
 20
7.5030304483
 30
0.0
 11
5.4200524669
 21
7.6321047372
 31
0.0
  0
LINE
  5
152
330
1F
100
AcDbEntity
  8
0
  6
Continuous
 62
     7
370
    25
100
AcDbLine
 10
5.4200653897
 20
7.5024867802
 30
0.0
 11
5.4200524669
 21
7.5030304483
 31
0.0
  0
LINE
  5
153
330
1F
100
AcDbEntity
  8
0
  6
Continuous
 62
     7
370
    25
100
AcDbLine
 10
5.4200524669
 20
7.6321047372
 30
0.0
 11
5.2825224285
 21
7.6321047372
 31
0.0
  0
SPLINE
  5
154
330
1F
100
AcDbEntity
  8
0
  6
Continuous
 62
     7
370
    25
100
AcDbSpline
210
0.0
220
0.0
230
1.0
 70
     8
 71
     3
 72
    10
 73
     6
 74
     0
 42
0.00000001
 43
0.00000001
 40
0.0
 40
0.0
 40
0.0
 40
0.0
 40
0.0382776953484111
 40
0.4917050737396368
 40
1.0
 40
1.0
 40
1.0
 40
1.0
 10
4.58329753891372
 20
7.660581577036084
 30
0.0
 10
4.583299149228495
 20
7.660586483345349
 30
0.0
 10
4.583319834902952
 20
7.660649508486673
 30
0.0
 10
4.583359849404793
 20
7.66076962545094
 30
0.0
 10
4.583350910709691
 20
7.660717420813853
 30
0.0
 10
4.583346186379866
 20
7.660689829323013
 30
0.0
  0
SPLINE
  5
155
330
1F
100
AcDbEntity
  8
0
  6
Continuous
 62
     7
370
    25
100
AcDbSpline
210
0.0
220
0.0
230
1.0
 70
     8
 71
     3
 72
    13
 73
     9
 74
     0
 42
0.00000001
 43
0.00000001
 40
0.0
 40
0.0
 40
0.0
 40
0.0
 40
0.0110833551323236
 40
0.1707198361082529
 40
0.4221210186985191
 40
0.629173138118824
 40
0.8141387340451589
 40
1.0
 40
1.0
 40
1.0
 40
1.0
 10
4.502353058350695
 20
7.497534403815451
 30
0.0
 10
4.502330684692532
 20
7.497537817591323
 30
0.0
 10
4.501986057347356
 20
7.497590400879538
 30
0.0
 10
4.501149110619112
 20
7.497824200162669
 30
0.0
 10
4.500014391397211
 20
7.498517539843413
 30
0.0
 10
4.499066412319993
 20
7.4996550796311
 30
0.0
 10
4.498453076352043
 20
7.500979628417896
 30
0.0
 10
4.498376570071626
 20
7.501983588004033
 30
0.0
 10
4.49833822453738
 20
7.502486780245015
 30
0.0
  0
LINE
  5
156
330
1F
100
AcDbEntity
  8
0
  6
Continuous
 62
     7
370
    25
100
AcDbLine
 10
4.4983405868
 20
7.5030304483
 30
0.0
 11
4.4983405868
 21
7.6321047372
 31
0.0
  0
LINE
  5
157
330
1F
100
AcDbEntity
  8
0
  6
Continuous
 62
     7
370
    25
100
AcDbLine
 10
4.4983405868
 20
7.5030304483
 30
0.0
 11
4.4983382245
 21
7.5024867802
 31
0.0
  0
LINE
  5
158
330
1F
100
AcDbEntity
  8
0
  6
Continuous
 62
     7
370
    25
100
AcDbLine
 10
4.5309651798
 20
7.6321047372
 30
0.0
 11
4.4983405868
 21
7.6321047372
 31
0.0
  0
SPLINE
  5
159
330
1F
100
AcDbEntity
  8
0
  6
Continuous
 62
     7
370
    25
100
AcDbSpline
210
0.0
220
0.0
230
1.0
 70
     8
 71
     3
 72
    11
 73
     7
 74
     0
 42
0.00000001
 43
0.00000001
 40
0.0
 40
0.0
 40
0.0
 40
0.0
 40
0.2413129272728673
 40
0.4836503712709529
 40
0.7411830816097402
 40
1.0
 40
1.0
 40
1.0
 40
1.0
 10
5.42005246692879
 20
7.503030448331766
 30
0.0
 10
5.426557496299067
 20
7.504129908381584
 30
0.0
 10
5.439595172753528
 20
7.506333496342251
 30
0.0
 10
5.459237761017906
 20
7.51139732493274
 30
0.0
 10
5.479017658951935
 20
7.517763160160243
 30
0.0
 10
5.492029195987524
 20
7.523315984200662
 30
0.0
 10
5.498551144937816
 20
7.526099301407728
 30
0.0
  0
LINE
  5
15A
330
1F
100
AcDbEntity
  8
0
  6
Continuous
 62
     7
370
    25
100
AcDbLine
 10
5.4985511449
 20
7.5260993014
 30
0.0
 11
5.4986601532
 21
7.5243568745
 31
0.0
  0
SPLINE
  5
15B
330
1F
100
AcDbEntity
  8
0
  6
Continuous
 62
     7
370
    25
100
AcDbSpline
210
0.0
220
0.0
230
1.0
 70
     8
 71
     3
 72
    12
 73
     8
 74
     0
 42
0.00000001
 43
0.00000001
 40
0.0
 40
0.0
 40
0.0
 40
0.0
 40
0.2610466257376822
 40
0.520356767142806
 40
0.8317512029568456
 40
0.9869218091718845
 40
1.0
 40
1.0
 40
1.0
 40
1.0
 10
5.498660153168768
 20
7.524356874457983
 30
0.0
 10
5.49869722130777
 20
7.523797048778252
 30
0.0
 10
5.498771111008206
 20
7.522681121383883
 30
0.0
 10
5.498448524211959
 20
7.521252640912131
 30
0.0
 10
5.497956834748929
 20
7.520326101450428
 30
0.0
 10
5.497535375854472
 20
7.519906238854664
 30
0.0
 10
5.497377211956811
 20
7.519784630371832
 30
0.0
 10
5.497364917677909
 20
7.51977517759135
 30
0.0
  0
SPLINE
  5
15C
330
1F
100
AcDbEntity
  8
0
  6
Continuous
 62
     7
370
    25
100
AcDbSpline
210
0.0
220
0.0
230
1.0
 70
     8
 71
     3
 72
     9
 73
     5
 74
     0
 42
0.00000001
 43
0.00000001
 40
0.0
 40
0.0
 40
0.0
 40
0.0
 40
0.7268678013181267
 40
1.0
 40
1.0
 40
1.0
 40
1.0
 10
5.420052466928788
 20
7.657769479626763
 30
0.0
 10
5.420064818075409
 20
7.658099214768857
 30
0.0
 10
5.420081810362864
 20
7.65855285316293
 30
0.0
 10
5.420162765710053
 20
7.658962643072831
 30
0.0
 10
5.420184877222026
 20
7.659074569891921
 30
0.0
  0
SPLINE
  5
15D
330
1F
100
AcDbEntity
  8
0
  6
Continuous
 62
     7
370
    25
100
AcDbSpline
210
0.0
220
0.0
230
1.0
 70
     8
 71
     3
 72
    11
 73
     7
 74
     0
 42
0.00000001
 43
0.00000001
 40
0.0
 40
0.0
 40
0.0
 40
0.0
 40
0.3106988680924881
 40
0.6258554267732434
 40
0.8120479219972598
 40
0.9999999999999999
 40
0.9999999999999999
 40
0.9999999999999999
 40
0.9999999999999999
 10
5.423146806211014
 20
7.66069550330439
 30
0.0
 10
5.422755875817752
 20
7.66070589785547
 30
0.0
 10
5.421968406234691
 20
7.660726836091398
 30
0.0
 10
5.421063099217156
 20
7.660318061798706
 30
0.0
 10
5.420428049101692
 20
7.659759467665988
 30
0.0
 10
5.420266188256338
 20
7.65930358381608
 30
0.0
 10
5.420184877222026
 20
7.659074569891921
 30
0.0
  0
SPLINE
  5
15E
330
1F
100
AcDbEntity
  8
0
  6
Continuous
 62
     7
370
    25
100
AcDbSpline
210
0.0
220
0.0
230
1.0
 70
     8
 71
     3
 72
    12
 73
     8
 74
     0
 42
0.00000001
 43
0.00000001
 40
0.0
 40
0.0
 40
0.0
 40
0.0
 40
0.1130801400946097
 40
0.4115717066500864
 40
0.6141613493685613
 40
0.8068640164385823
 40
1.0
 40
1.0
 40
1.0
 40
1.0
 10
5.49756163060214
 20
7.660728432813207
 30
0.0
 10
5.497636483576827
 20
7.660739396568885
 30
0.0
 10
5.497908921924649
 20
7.660779300761012
 30
0.0
 10
5.498245618783
 20
7.660515708006924
 30
0.0
 10
5.498520920383029
 20
7.660006901467959
 30
0.0
 10
5.49864970191701
 20
7.659376429959073
 30
0.0
 10
5.49861563193013
 20
7.658858522204232
 30
0.0
 10
5.498598577805522
 20
7.658599277508395
 30
0.0
  0
LINE
  5
15F
330
1F
100
AcDbEntity
  8
0
  6
Continuous
 62
     7
370
    25
100
AcDbLine
 10
5.4985985778
 20
7.6585992775
 30
0.0
 11
5.4985511449
 21
7.6577694796
 31
0.0
  0
LINE
  5
160
330
1F
100
AcDbEntity
  8
0
  6
Continuous
 62
     7
370
    25
100
AcDbLine
 10
5.4985511449
 20
7.6577694796
 30
0.0
 11
5.4200524669
 21
7.6577694796
 31
0.0
  0
LINE
  5
161
330
1F
100
AcDbEntity
  8
0
  6
Continuous
 62
     7
370
    25
100
AcDbLine
 10
5.4200524669
 20
7.6577694796
 30
0.0
 11
5.4200524669
 21
7.6321047372
 31
0.0
  0
LINE
  5
162
330
1F
100
AcDbEntity
  8
0
  6
Continuous
 62
     7
370
    25
100
AcDbLine
 10
5.4985511449
 20
7.5260993014
 30
0.0
 11
5.4985511449
 21
7.6577694796
 31
0.0
  0
SPLINE
  5
163
330
1F
100
AcDbEntity
  8
0
  6
Continuous
 62
     7
370
    25
100
AcDbSpline
210
0.0
220
0.0
230
1.0
 70
     8
 71
     3
 72
    11
 73
     7
 74
     0
 42
0.00000001
 43
0.00000001
 40
0.0
 40
0.0
 40
0.0
 40
0.0
 40
0.2519956718517855
 40
0.5058364467559894
 40
0.7521453372596008
 40
1.0
 40
1.0
 40
1.0
 40
1.0
 10
5.53500632624165
 20
7.62910473715279
 30
0.0
 10
5.532870448383903
 20
7.630452218525706
 30
0.0
 10
5.528583053849196
 20
7.633157047480648
 30
0.0
 10
5.520000291408159
 20
7.639808249482885
 30
0.0
 10
5.510131497656783
 20
7.648087016103646
 30
0.0
 10
5.50245089288158
 20
7.655087890659681
 30
0.0
 10
5.498598577805522
 20
7.658599277508395
 30
0.0
  0
SPLINE
  5
164
330
1F
100
AcDbEntity
  8
0
  6
Continuous
 62
     7
370
    25
100
AcDbSpline
210
0.0
220
0.0
230
1.0
 70
     8
 71
     3
 72
    12
 73
     8
 74
     0
 42
0.00000001
 43
0.00000001
 40
0.0
 40
0.0
 40
0.0
 40
0.0
 40
0.175680779315159
 40
0.4849570159279908
 40
0.7946490126499522
 40
0.9349681649438596
 40
1.0
 40
1.0
 40
1.0
 40
1.0
 10
5.533430479519691
 20
7.631725805157414
 30
0.0
 10
5.533599277506299
 20
7.631641811624544
 30
0.0
 10
5.534065234955933
 20
7.631409952150691
 30
0.0
 10
5.534615105335524
 20
7.630719697457783
 30
0.0
 10
5.534925928190698
 20
7.629952850229168
 30
0.0
 10
5.53500290612573
 20
7.629397728772968
 30
0.0
 10
5.535005503643482
 20
7.629175206802255
 30
0.0
 10
5.53500632624165
 20
7.62910473715279
 30
0.0
  0
LINE
  5
165
330
1F
100
AcDbEntity
  8
0
  6
Continuous
 62
     7
370
    25
100
AcDbLine
 10
5.5320850583
 20
7.6321047372
 30
0.0
 11
5.541349007
 21
7.6321047372
 31
0.0
  0
SPLINE
  5
166
330
1F
100
AcDbEntity
  8
0
  6
Continuous
 62
     7
370
    25
100
AcDbSpline
210
0.0
220
0.0
230
1.0
 70
     8
 71
     3
 72
    12
 73
     8
 74
     0
 42
0.00000001
 43
0.00000001
 40
0.0
 40
0.0
 40
0.0
 40
0.0
 40
0.0130781908276362
 40
0.1682487970461725
 40
0.4796432328598389
 40
0.7389533742637558
 40
1.0
 40
1.0
 40
1.0
 40
1.0
 10
4.422684149643656
 20
7.519775177591352
 30
0.0
 10
4.422663458684974
 20
7.519784630371833
 30
0.0
 10
4.422397272868138
 20
7.519906238854683
 30
0.0
 10
4.42167004282205
 20
7.520326101450419
 30
0.0
 10
4.420739593932399
 20
7.521252640912146
 30
0.0
 10
4.419974440780393
 20
7.522681121383891
 30
0.0
 10
4.419878537690629
 20
7.523797048778255
 30
0.0
 10
4.419830426126484
 20
7.524356874457983
 30
0.0
  0
LINE
  5
167
330
1F
100
AcDbEntity
  8
0
  6
Continuous
 62
     7
370
    25
100
AcDbLine
 10
4.4198304261
 20
7.5243568745
 30
0.0
 11
4.4198419088
 21
7.5260993014
 31
0.0
  0
SPLINE
  5
168
330
1F
100
AcDbEntity
  8
0
  6
Continuous
 62
     7
370
    25
100
AcDbSpline
210
0.0
220
0.0
230
1.0
 70
     8
 71
     3
 72
    11
 73
     7
 74
     0
 42
0.00000001
 43
0.00000001
 40
0.0
 40
0.0
 40
0.0
 40
0.0
 40
0.2575297854246258
 40
0.5163496293046325
 40
0.7576598734532579
 40
1.0
 40
1.0
 40
1.0
 40
1.0
 10
4.419841908817273
 20
7.526099301407729
 30
0.0
 10
4.426331147460275
 20
7.52332925514841
 30
0.0
 10
4.43934213165482
 20
7.517775286481066
 30
0.0
 10
4.459094429343134
 20
7.511414723369144
 30
0.0
 10
4.478770339244423
 20
7.506339563825876
 30
0.0
 10
4.491807916917308
 20
7.504135051588486
 30
0.0
 10
4.49834058682629
 20
7.503030448331768
 30
0.0
  0
SPLINE
  5
169
330
1F
100
AcDbEntity
  8
0
  6
Continuous
 62
     7
370
    25
100
AcDbSpline
210
0.0
220
0.0
230
1.0
 70
     8
 71
     3
 72
    12
 73
     8
 74
     0
 42
0.00000001
 43
0.00000001
 40
0.0
 40
0.0
 40
0.0
 40
0.0
 40
0.2217181155143256
 40
0.4435284651953291
 40
0.6625812968587274
 40
0.8762617802484215
 40
1.0
 40
1.0
 40
1.0
 40
1.0
 10
4.422868319912675
 20
7.632104737152791
 30
0.0
 10
4.422521392225348
 20
7.632070334419677
 30
0.0
 10
4.421827392529664
 20
7.632001514642003
 30
0.0
 10
4.420905369220651
 20
7.631463239337757
 30
0.0
 10
4.420222077082272
 20
7.630675022719903
 30
0.0
 10
4.419885258339953
 20
7.629835881228523
 30
0.0
 10
4.419853540417057
 20
7.629300918673271
 30
0.0
 10
4.419841908817275
 20
7.629104737152791
 30
0.0
  0
LINE
  5
16A
330
1F
100
AcDbEntity
  8
0
  6
Continuous
 62
     7
370
    25
100
AcDbLine
 10
4.4198419088
 20
7.5260993014
 30
0.0
 11
4.4198419088
 21
7.6291047372
 31
0.0
  0
LINE
  5
16B
330
1F
100
AcDbEntity
  8
0
  6
Continuous
 62
     7
370
    25
100
AcDbLine
 10
4.4983405868
 20
7.6321047372
 30
0.0
 11
4.4228683199
 21
7.6321047372
 31
0.0
  0
LINE
  5
16C
330
1F
100
AcDbEntity
  8
0
  6
Continuous
 62
     7
370
    25
100
AcDbLine
 10
4.422349007
 20
7.6321047372
 30
0.0
 11
4.4228683199
 21
7.6321047372
 31
0.0
  0
SPLINE
  5
16D
330
1F
100
AcDbEntity
  8
0
  6
Continuous
 62
     7
370
    25
100
AcDbSpline
210
0.0
220
0.0
230
1.0
 70
     8
 71
     3
 72
    11
 73
     7
 74
     0
 42
0.00000001
 43
0.00000001
 40
0.0
 40
0.0
 40
0.0
 40
0.0
 40
0.2419117138570608
 40
0.4852111676220426
 40
0.7416738302413294
 40
1.0
 40
1.0
 40
1.0
 40
1.0
 10
4.466772532572987
 20
7.660581577036086
 30
0.0
 10
4.463145192426422
 20
7.657279532322082
 30
0.0
 10
4.455869703696194
 20
7.650656500532192
 30
0.0
 10
4.446385433168674
 20
7.642686157188338
 30
0.0
 10
4.437978315686801
 20
7.636145786903509
 30
0.0
 10
4.433739856713603
 20
7.633455000569001
 30
0.0
 10
4.431612955733316
 20
7.632104737152791
 30
0.0
  0
SPLINE
  5
16E
330
1F
100
AcDbEntity
  8
0
  6
Continuous
 62
     7
370
    25
100
AcDbSpline
210
0.0
220
0.0
230
1.0
 70
     8
 71
     3
 72
    11
 73
     7
 74
     0
 42
0.00000001
 43
0.00000001
 40
0.0
 40
0.0
 40
0.0
 40
0.0
 40
0.0256512504992111
 40
0.2011519542024544
 40
0.6785855343920757
 40
1.0
 40
1.0
 40
1.0
 40
1.0
 10
4.466772532572987
 20
7.660581577036086
 30
0.0
 10
4.466761207185905
 20
7.66058774216415
 30
0.0
 10
4.466672395775176
 20
7.660636087860122
 30
0.0
 10
4.466376707038493
 20
7.660761758138642
 30
0.0
 10
4.46595442219757
 20
7.660833675472556
 30
0.0
 10
4.4656881423827
 20
7.660612075354448
 30
0.0
 10
4.465581005381052
 20
7.660522915114382
 30
0.0
  0
LINE
  5
16F
330
1F
100
AcDbEntity
  8
0
  6
Continuous
 62
     7
370
    25
100
AcDbLine
 10
5.3809564196
 20
7.6421047372
 30
0.0
 11
5.3809564196
 21
7.6321047372
 31
0.0
  0
LINE
  5
170
330
1F
100
AcDbEntity
  8
0
  6
Continuous
 62
     7
370
    25
100
AcDbLine
 10
5.331849007
 20
7.6394935588
 30
0.0
 11
5.3406002857
 21
7.6421047372
 31
0.0
  0
LINE
  5
171
330
1F
100
AcDbEntity
  8
0
  6
Continuous
 62
     7
370
    25
100
AcDbLine
 10
4.9919000303
 20
9.2024554328
 30
0.0
 11
4.9092359437
 21
9.2385756435
 31
0.0
  0
LINE
  5
172
330
1F
100
AcDbEntity
  8
0
  6
Continuous
 62
     7
370
    25
100
AcDbLine
 10
5.0645130936
 20
9.2559845265
 30
0.0
 11
4.9919000303
 21
9.2024554328
 31
0.0
  0
LINE
  5
173
330
1F
100
AcDbEntity
  8
0
  6
Continuous
 62
     7
370
    25
100
AcDbLine
 10
5.0645130936
 20
9.2559845265
 30
0.0
 11
5.0544620703
 21
9.3456338308
 31
0.0
  0
LINE
  5
174
330
1F
100
AcDbEntity
  8
0
  6
Continuous
 62
     7
370
    25
100
AcDbLine
 10
4.8991849204
 20
9.3282249478
 30
0.0
 11
4.9092359437
 21
9.2385756435
 31
0.0
  0
CIRCLE
  5
175
330
1F
100
AcDbEntity
  8
0
  6
Continuous
 62
     7
370
    25
100
AcDbCircle
 10
4.981849007
 20
9.2921047372
 30
0.0
 40
0.1459999999999999
  0
LINE
  5
176
330
1F
100
AcDbEntity
  8
0
  6
Continuous
 62
     7
370
    25
100
AcDbLine
 10
4.8991849204
 20
9.3282249478
 30
0.0
 11
4.9717979837
 21
9.3817540415
 31
0.0
  0
LINE
  5
177
330
1F
100
AcDbEntity
  8
0
  6
Continuous
 62
     7
370
    25
100
AcDbLine
 10
5.0544620703
 20
9.3456338308
 30
0.0
 11
4.9717979837
 21
9.3817540415
 31
0.0
  0
CIRCLE
  5
178
330
1F
100
AcDbEntity
  8
0
  6
Continuous
 62
     7
370
    25
100
AcDbCircle
 10
4.981849007
 20
9.2921047372
 30
0.0
 40
0.1560000000000003
  0
LINE
  5
179
330
1F
100
AcDbEntity
  8
0
  6
Continuous
 62
     7
370
    25
100
AcDbLine
 10
6.5340898131
 20
8.7371673353
 30
0.0
 11
4.4269116051
 21
10.8443455432
 31
0.0
  0
LINE
  5
17A
330
1F
100
AcDbEntity
  8
0
  6
Continuous
 62
     7
370
    25
100
AcDbLine
 10
4.3383818361
 20
10.7558157742
 30
0.0
 11
6.4455600441
 21
8.6486375663
 31
0.0
  0
LINE
  5
17B
330
1F
100
AcDbEntity
  8
0
  6
Continuous
 62
     7
370
    25
100
AcDbLine
 10
6.4031336372
 20
8.6486375663
 30
0.0
 11
4.3383818361
 21
10.7133893673
 31
0.0
  0
LINE
  5
17C
330
1F
100
AcDbEntity
  8
0
  6
Continuous
 62
     7
370
    25
100
AcDbLine
 10
5.0272464559
 20
10.0245247476
 30
0.0
 11
4.7198472425
 21
9.7171255342
 31
0.0
  0
LINE
  5
17D
330
1F
100
AcDbEntity
  8
0
  6
Continuous
 62
     7
370
    25
100
AcDbLine
 10
5.7142690174
 20
9.3375021861
 30
0.0
 11
5.476849007
 21
9.1000821757
 31
0.0
  0
LINE
  5
17E
330
1F
100
AcDbEntity
  8
0
  6
Continuous
 62
     7
370
    25
100
AcDbLine
 10
5.476849007
 20
9.2972047372
 30
0.0
 11
5.145769689
 21
9.2972047372
 31
0.0
  0
LINE
  5
17F
330
1F
100
AcDbEntity
  8
0
  6
Continuous
 62
     7
370
    25
100
AcDbLine
 10
4.817928325
 20
9.2972047372
 30
0.0
 11
4.486849007
 21
9.2972047372
 31
0.0
  0
LINE
  5
180
330
1F
100
AcDbEntity
  8
0
  6
Continuous
 62
     7
370
    25
100
AcDbLine
 10
4.4226841496
 20
7.5197751776
 30
0.0
 11
4.4223469946
 21
7.5197751776
 31
0.0
  0
LINE
  5
181
330
1F
100
AcDbEntity
  8
0
  6
Continuous
 62
     7
370
    25
100
AcDbLine
 10
5.5413510194
 20
7.5197751776
 30
0.0
 11
5.4973649177
 21
7.5197751776
 31
0.0
  0
LINE
  5
182
330
1F
100
AcDbEntity
  8
0
  6
Continuous
 62
     7
370
    25
100
AcDbLine
 10
4.5853804539
 20
7.6594320709
 30
0.0
 11
4.5832975389
 21
7.660581577
 31
0.0
  0
LINE
  5
183
330
1F
100
AcDbEntity
  8
0
  6
Continuous
 62
     7
370
    25
100
AcDbLine
 10
5.2611652665
 20
7.5024867802
 30
0.0
 11
5.4200653897
 21
7.5024867802
 31
0.0
  0
LINE
  5
184
330
1F
100
AcDbEntity
  8
0
  6
Continuous
 62
     7
370
    25
100
AcDbLine
 10
4.4983382245
 20
7.5024867802
 30
0.0
 11
4.570252925
 21
7.5024867802
 31
0.0
  0
LINE
  5
185
330
1F
100
AcDbEntity
  8
0
  6
Continuous
 62
     7
370
    25
100
AcDbLine
 10
5.544349007
 20
7.6291047372
 30
0.0
 11
5.5350063262
 21
7.6291047372
 31
0.0
  0
LINE
  5
186
330
1F
100
AcDbEntity
  8
0
  6
Continuous
 62
     7
370
    25
100
AcDbLine
 10
5.4986601532
 20
7.5243568745
 30
0.0
 11
5.544349007
 21
7.5243568745
 31
0.0
  0
LINE
  5
187
330
1F
100
AcDbEntity
  8
0
  6
Continuous
 62
     7
370
    25
100
AcDbLine
 10
4.4198419088
 20
7.6291047372
 30
0.0
 11
4.419349007
 21
7.6291047372
 31
0.0
  0
LINE
  5
188
330
1F
100
AcDbEntity
  8
0
  6
Continuous
 62
     7
370
    25
100
AcDbLine
 10
4.419349007
 20
7.5243568745
 30
0.0
 11
4.4198304261
 21
7.5243568745
 31
0.0
  0
SPLINE
  5
189
330
1F
100
AcDbEntity
  8
0
  6
Continuous
 62
     7
370
    25
100
AcDbSpline
210
0.0
220
0.0
230
1.0
 70
     8
 71
     3
 72
    10
 73
     6
 74
     0
 42
0.00000001
 43
0.00000001
 40
0.0
 40
0.0
 40
0.0
 40
0.0
 40
0.3670909859823477
 40
0.7373374197124192
 40
1.0
 40
1.0
 40
1.0
 40
1.0
 10
4.501929115551997
 20
7.632104737152791
 30
0.0
 10
4.504108138299229
 20
7.633476968116724
 30
0.0
 10
4.508484914279273
 20
7.636233225493866
 30
0.0
 10
4.516587486955304
 20
7.642194159581974
 30
0.0
 10
4.522900106055857
 20
7.64725404384812
 30
0.0
 10
4.525519896238333
 20
7.64935393850575
 30
0.0
  0
LINE
  5
18A
330
1F
100
AcDbEntity
  8
0
  6
Continuous
 62
     7
370
    25
100
AcDbLine
 10
4.5154947499
 20
7.660581577
 30
0.0
 11
4.4667725326
 21
7.660581577
 31
0.0
  0
SPLINE
  5
18B
330
1F
100
AcDbEntity
  8
0
  6
Continuous
 62
     7
370
    25
100
AcDbSpline
210
0.0
220
0.0
230
1.0
 70
     8
 71
     3
 72
    10
 73
     6
 74
     0
 42
0.00000001
 43
0.00000001
 40
0.0
 40
0.0
 40
0.0
 40
0.0
 40
0.3726068128283351
 40
0.685754300944965
 40
1.0
 40
1.0
 40
1.0
 40
1.0
 10
4.529154180965954
 20
7.647031006933472
 30
0.0
 10
4.526297404955469
 20
7.644712055254339
 30
0.0
 10
4.521039727509489
 20
7.640444202298088
 30
0.0
 10
4.514657189502381
 20
7.635632570407939
 30
0.0
 10
4.511287182248592
 20
7.633282053047058
 30
0.0
 10
4.509599229132524
 20
7.632104737152791
 30
0.0
  0
SPLINE
  5
18C
330
1F
100
AcDbEntity
  8
0
  6
Continuous
 62
     7
370
    25
100
AcDbSpline
210
0.0
220
0.0
230
1.0
 70
     8
 71
     3
 72
     9
 73
     5
 74
     0
 42
0.00000001
 43
0.00000001
 40
0.0
 40
0.0
 40
0.0
 40
0.0
 40
0.2867168501024247
 40
0.9999999999999999
 40
0.9999999999999999
 40
0.9999999999999999
 40
0.9999999999999999
 10
5.346933590898924
 20
7.64210473715279
 30
0.0
 10
5.345580324489123
 20
7.641507536114252
 30
0.0
 10
5.340860453964186
 20
7.639424641305921
 30
0.0
 10
5.335600700514123
 20
7.637912000684429
 30
0.0
 10
5.331849007005578
 20
7.636833059617268
 30
0.0
  0
DIMENSION
  5
18D
330
1F
100
AcDbEntity
  8
0
  6
Continuous
 62
     7
370
    18
100
AcDbDimension
  2
_D
 10
7.0730555403
 20
15.6638350038
 30
0.0
 11
4.9573213403
 21
13.5481008038
 31
0.0
 70
   160
  1
<>
 71
     2
 42
-1.0
  3
SLDDIMSTYLE0
100
AcDbAlignedDimension
 13
4.981849007
 23
9.2921047372
 33
0.0
 14
8.1632638369
 24
14.5736267072
 34
0.0
 50
45.0
100
AcDbRotatedDimension
  0
DIMENSION
  5
1A2
330
1F
100
AcDbEntity
  8
0
  6
Continuous
 62
     7
370
    18
100
AcDbDimension
  2
_D_1
 10
6.4832905003
 20
7.7906632439
 30
0.0
 11
7.3746738688
 21
8.6820466125
 31
0.0
 70
   160
  1
<>
 71
     2
 42
-1.0
  3
SLDDIMSTYLE1
100
AcDbAlignedDimension
 13
6.5340898131
 23
8.7583805387
 33
0.0
 14
4.981849007
 24
9.2921047372
 34
0.0
 50
45.0
100
AcDbRotatedDimension
  0
DIMENSION
  5
1B8
330
1F
100
AcDbEntity
  8
0
  6
Continuous
 62
     7
370
    18
100
AcDbDimension
  2
_D_2
 10
10.9051702705
 20
13.1082477927
 30
0.0
 11
9.8515811665
 21
14.1618368967
 31
0.0
 70
   160
  1
%%c<>
 71
     2
 42
-1.0
  3
SLDDIMSTYLE0
100
AcDbAlignedDimension
 13
4.4269116051
 23
10.8443455432
 33
0.0
 14
6.5340898131
 24
8.7371673353
 34
0.0
 50
-45.0
100
AcDbRotatedDimension
  0
DIMENSION
  5
1CB
330
1F
100
AcDbEntity
  8
0
  6
Continuous
 62
     7
370
    18
100
AcDbDimension
  2
_D_3
 10
3.0789259469
 20
7.6671047372
 30
0.0
 11
3.0789259469
 21
8.4796047372
 31
0.0
 70
   160
  1
<>
 71
     2
 42
-1.0
  3
SLDDIMSTYLE2
100
AcDbAlignedDimension
 13
4.981849007
 23
9.2921047372
 33
0.0
 14
4.486849007
 24
7.6671047372
 34
0.0
 50
90.0
100
AcDbRotatedDimension
  0
MTEXT
  5
1E0
330
1F
100
AcDbEntity
  8
SLD-0
100
AcDbMText
 10
7.7088713848
 20
6.4714505986
 30
0.0
 40
0.25
 41
0.0
 71
     2
 72
     1
  1
1/2" PIPE THREAD
  7
SLDTEXTSTYLE0
 73
     1
 44
1.0
  0
MTEXT
  5
1E1
330
1F
100
AcDbEntity
  8
SLD-0
100
AcDbMText
 10
7.7144268653
 20
6.1427104496
 30
0.0
 40
0.25
 41
0.0
 71
     2
 72
     1
  1
FOR MOUNTING
  7
SLDTEXTSTYLE0
 73
     1
 44
1.0
  0
LEADER
  5
1E3
330
1F
100
AcDbEntity
  8
SLD-0
100
AcDbLeader
  3
SLDDIMSTYLE3
 76
     3
 10
5.3066331554
 20
7.0421047372
 30
0.0
 10
5.8341940312
 20
6.3580213953
 30
0.0
 10
6.3341940312
 20
6.3580213953
 30
0.0
  0
LINE
  5
1E4
330
1F
100
AcDbEntity
  8
0
  6
Continuous
 62
     7
370
    25
100
AcDbLine
 10
7.5121076577
 20
2.9476542217
 30
0.0
 11
7.5121076577
 21
3.1703544418
 31
0.0
  0
LINE
  5
1E5
330
1F
100
AcDbEntity
  8
0
  6
Continuous
 62
     7
370
    25
100
AcDbLine
 10
7.5121076577
 20
1.852987555
 30
0.0
 11
7.5121076577
 21
2.8571664881
 31
0.0
  0
LINE
  5
1E6
330
1F
100
AcDbEntity
  8
0
  6
Continuous
 62
     7
370
    25
100
AcDbLine
 10
7.5121076577
 20
1.6410211085
 30
0.0
 11
7.5121076577
 21
1.7624998214
 31
0.0
  0
LINE
  5
1E7
330
1F
100
AcDbEntity
  8
0
  6
Continuous
 62
     7
370
    25
100
AcDbLine
 10
5.5321076577
 20
5.1503544418
 30
0.0
 11
5.5321076577
 21
1.6410211085
 31
0.0
  0
LINE
  5
1E8
330
1F
100
AcDbEntity
  8
0
  6
Continuous
 62
     7
370
    25
100
AcDbLine
 10
7.5121076577
 20
3.1703544418
 30
0.0
 11
5.5321076577
 21
5.1503544418
 31
0.0
  0
SPLINE
  5
1E9
330
1F
100
AcDbEntity
  8
0
  6
Continuous
 62
     7
370
    25
100
AcDbSpline
210
0.0
220
0.0
230
1.0
 70
     8
 71
     3
 72
    26
 73
    22
 74
     0
 42
0.00000001
 43
0.00000001
 40
0.0
 40
0.0
 40
0.0
 40
0.0
 40
0.0367526413874566
 40
0.0896225545983549
 40
0.1440246552525926
 40
0.1969156818018854
 40
0.2513377791172636
 40
0.3042762434242764
 40
0.3587497415263066
 40
0.4116880067270252
 40
0.466164187385758
 40
0.5190547972383556
 40
0.5734806031266394
 40
0.6263505202692796
 40
0.6807515690134255
 40
0.7336600125433891
 40
0.7881005146957375
 40
0.8410465963406806
 40
0.8955292073684715
 40
0.948453321291999
 40
1.0
 40
1.0
 40
1.0
 40
1.0
 10
7.512101017175667
 20
2.857166488096915
 30
0.0
 10
7.512100975252193
 20
2.857167117867966
 30
0.0
 10
7.512100873020386
 20
2.857168653585896
 30
0.0
 10
7.51203354534218
 20
2.8586521836495
 30
0.0
 10
7.51191697854132
 20
2.861351783661606
 30
0.0
 10
7.511760051238253
 20
2.865293229821106
 30
0.0
 10
7.511585705331335
 20
2.870233232811952
 30
0.0
 10
7.511409970997865
 20
2.876138698846775
 30
0.0
 10
7.511255697883771
 20
2.882733095459685
 30
0.0
 10
7.511137791416165
 20
2.889948233478195
 30
0.0
 10
7.51107151604642
 20
2.897447382313266
 30
0.0
 10
7.511063233828839
 20
2.90515269515346
 30
0.0
 10
7.511113944526296
 20
2.912705911256336
 30
0.0
 10
7.511218714142681
 20
2.920031562736545
 30
0.0
 10
7.511364038916729
 20
2.926792503576224
 30
0.0
 10
7.511535984551517
 20
2.932920952941411
 30
0.0
 10
7.511712358877279
 20
2.938131896727879
 30
0.0
 10
7.511876565122726
 20
2.942379406030607
 30
0.0
 10
7.512005787124677
 20
2.945429436241087
 30
0.0
 10
7.512092033832629
 20
2.94734889042721
 30
0.0
 10
7.512101473242745
 20
2.947553343169972
 30
0.0
 10
7.512106130719043
 20
2.947654221698569
 30
0.0
  0
SPLINE
  5
1EA
330
1F
100
AcDbEntity
  8
0
  6
Continuous
 62
     7
370
    25
100
AcDbSpline
210
0.0
220
0.0
230
1.0
 70
    11
 71
     3
 72
    56
 73
    52
 74
     0
 42
0.00000001
 43
0.00000001
 40
0.0
 40
0.0
 40
0.0
 40
0.0
 40
0.0312499999999997
 40
0.0312499999999997
 40
0.0624999999999994
 40
0.0624999999999994
 40
0.0937499999999991
 40
0.0937499999999991
 40
0.1249999999999988
 40
0.1249999999999988
 40
0.187499999999998
 40
0.187499999999998
 40
0.2499999999999972
 40
0.2499999999999972
 40
0.2812499999999973
 40
0.2812499999999973
 40
0.3124999999999974
 40
0.3124999999999974
 40
0.3437499999999975
 40
0.3437499999999975
 40
0.3749999999999976
 40
0.3749999999999976
 40
0.4062499999999977
 40
0.4062499999999977
 40
0.4374999999999978
 40
0.4374999999999978
 40
0.4687499999999979
 40
0.4687499999999979
 40
0.499999999999998
 40
0.499999999999998
 40
0.5624999999999979
 40
0.5624999999999979
 40
0.6249999999999977
 40
0.6249999999999977
 40
0.6562499999999978
 40
0.6562499999999978
 40
0.6874999999999977
 40
0.6874999999999977
 40
0.7187499999999977
 40
0.7187499999999977
 40
0.7499999999999976
 40
0.7499999999999976
 40
0.8124999999999983
 40
0.8124999999999983
 40
0.8437499999999987
 40
0.8437499999999987
 40
0.874999999999999
 40
0.874999999999999
 40
0.9374999999999996
 40
0.9374999999999996
 40
1.0
 40
1.0
 40
1.0
 40
1.0
 10
6.066886715757759
 20
1.807687775129529
 30
0.0
 10
6.06688671575776
 20
1.804692415756033
 30
0.0
 10
6.066625344448316
 20
1.801747189234446
 30
0.0
 10
6.06560205419887
 20
1.795952877369469
 30
0.0
 10
6.064827707338097
 20
1.793073756826203
 30
0.0
 10
6.062808833936491
 20
1.787583975036959
 30
0.0
 10
6.061574386881771
 20
1.784980303015293
 30
0.0
 10
6.058662705992949
 20
1.780052740059957
 30
0.0
 10
6.056970266512601
 20
1.77771998857866
 30
0.0
 10
6.051435923172956
 20
1.771447959002789
 30
0.0
 10
6.046988614219285
 20
1.768070560572295
 30
0.0
 10
6.037445095611218
 20
1.7635485407267
 30
0.0
 10
6.032250150429308
 20
1.762357607540389
 30
0.0
 10
6.024567871957379
 20
1.76235286862763
 30
0.0
 10
6.021973670457155
 20
1.762647116304157
 30
0.0
 10
6.01696419039553
 20
1.763803564371306
 30
0.0
 10
6.014535764917168
 20
1.764659232114601
 30
0.0
 10
6.009830210698152
 20
1.766928643522041
 30
0.0
 10
6.007560264651582
 20
1.768347847104488
 30
0.0
 10
6.003368192661292
 20
1.771628681164589
 30
0.0
 10
6.001418810480395
 20
1.773501629496782
 30
0.0
 10
5.997820914694245
 20
1.77773106390996
 30
0.0
 10
5.996227322804324
 20
1.780024230048272
 30
0.0
 10
5.993445700807284
 20
1.784932697888735
 30
0.0
 10
5.992245426750139
 20
1.787581389620555
 30
0.0
 10
5.990321690663292
 20
1.793074227789341
 30
0.0
 10
5.989597886028615
 20
1.79589997234992
 30
0.0
 10
5.988618755505241
 20
1.801708336500239
 30
0.0
 10
5.988367970662163
 20
1.8047129958569
 30
0.0
 10
5.988365303403019
 20
1.813588859387651
 30
0.0
 10
5.989364061550769
 20
1.819553051365689
 30
0.0
 10
5.993176726169961
 20
1.830467156707436
 30
0.0
 10
5.996031426120038
 20
1.835528452874048
 30
0.0
 10
6.001354185897688
 20
1.841804066328826
 30
0.0
 10
6.0033370040145
 20
1.843719705154043
 30
0.0
 10
6.007542542995732
 20
1.847016556664271
 30
0.0
 10
6.009767680743765
 20
1.848410735771295
 30
0.0
 10
6.014466855581473
 20
1.850688932277411
 30
0.0
 10
6.016943805269924
 20
1.851564991835349
 30
0.0
 10
6.021936491725203
 20
1.852722113052904
 30
0.0
 10
6.024478452341306
 20
1.853018072080495
 30
0.0
 10
6.032247383723194
 20
1.85302711217656
 30
0.0
 10
6.03737269366859
 20
1.851855319487088
 30
0.0
 10
6.044587505961399
 20
1.848445676675011
 30
0.0
 10
6.046872176301687
 20
1.847054840273909
 30
0.0
 10
6.051201432653377
 20
1.843772057348618
 30
0.0
 10
6.053258372278979
 20
1.841859288377943
 30
0.0
 10
6.058799939156707
 20
1.835587830317322
 30
0.0
 10
6.061794636109336
 20
1.830536068703874
 30
0.0
 10
6.065815220000887
 20
1.819629774694657
 30
0.0
 10
6.06688671575776
 20
1.813678493876523
 30
0.0
 10
6.066886715757759
 20
1.807687775129529
 30
0.0
  0
SPLINE
  5
1EB
330
1F
100
AcDbEntity
  8
0
  6
Continuous
 62
     7
370
    25
100
AcDbSpline
210
0.0
220
0.0
230
1.0
 70
     8
 71
     3
 72
    26
 73
    22
 74
     0
 42
0.00000001
 43
0.00000001
 40
0.0
 40
0.0
 40
0.0
 40
0.0
 40
0.0367526413874567
 40
0.0896225545983549
 40
0.1440246552525936
 40
0.1969156818018854
 40
0.2513377791172645
 40
0.3042762434242746
 40
0.3587497415263006
 40
0.411688006727022
 40
0.4661641873857574
 40
0.5190547972383528
 40
0.5734806031266341
 40
0.6263505202692778
 40
0.6807515690134254
 40
0.7336600125433903
 40
0.788100514695739
 40
0.8410465963406802
 40
0.8955292073684687
 40
0.9484533212919979
 40
1.0
 40
1.0
 40
1.0
 40
1.0
 10
7.512101017175669
 20
1.762499821430248
 30
0.0
 10
7.512100975252193
 20
1.762500451201299
 30
0.0
 10
7.512100873020387
 20
1.76250198691923
 30
0.0
 10
7.512033545342181
 20
1.763985516982833
 30
0.0
 10
7.511916978541318
 20
1.766685116994939
 30
0.0
 10
7.511760051238253
 20
1.770626563154438
 30
0.0
 10
7.511585705331335
 20
1.775566566145285
 30
0.0
 10
7.511409970997865
 20
1.781472032180107
 30
0.0
 10
7.511255697883771
 20
1.788066428793018
 30
0.0
 10
7.511137791416166
 20
1.795281566811527
 30
0.0
 10
7.511071516046418
 20
1.802780715646598
 30
0.0
 10
7.51106323382884
 20
1.810486028486792
 30
0.0
 10
7.511113944526294
 20
1.818039244589668
 30
0.0
 10
7.511218714142682
 20
1.825364896069878
 30
0.0
 10
7.511364038916726
 20
1.832125836909557
 30
0.0
 10
7.511535984551519
 20
1.838254286274745
 30
0.0
 10
7.511712358877279
 20
1.843465230061213
 30
0.0
 10
7.511876565122726
 20
1.84771273936394
 30
0.0
 10
7.512005787124679
 20
1.850762769574419
 30
0.0
 10
7.512092033832629
 20
1.852682223760543
 30
0.0
 10
7.512101473242744
 20
1.852886676503305
 30
0.0
 10
7.51210613071904
 20
1.852987555031903
 30
0.0
  0
LINE
  5
1EC
330
1F
100
AcDbEntity
  8
0
  6
Continuous
 62
     7
370
    25
100
AcDbLine
 10
6.5221076577
 20
1.6410211085
 30
0.0
 11
7.5121076577
 21
1.6410211085
 31
0.0
  0
LINE
  5
1ED
330
1F
100
AcDbEntity
  8
0
  6
Continuous
 62
     7
370
    25
100
AcDbLine
 10
5.5321076577
 20
1.6410211085
 30
0.0
 11
6.5221076577
 21
1.6410211085
 31
0.0
  0
SPLINE
  5
1EE
330
1F
100
AcDbEntity
  8
0
  6
Continuous
 62
     7
370
    25
100
AcDbSpline
210
0.0
220
0.0
230
1.0
 70
     8
 71
     3
 72
    22
 73
    18
 74
     0
 42
0.00000001
 43
0.00000001
 40
0.0
 40
0.0
 40
0.0
 40
0.0
 40
0.0438798423565642
 40
0.1127691620740656
 40
0.1816587066608916
 40
0.2506191240586668
 40
0.3195793063436463
 40
0.3885415660455514
 40
0.4575034955508371
 40
0.5263952393271816
 40
0.5952870740048036
 40
0.664146075897238
 40
0.7330054454355328
 40
0.801920509630023
 40
0.8708356452935186
 40
0.9398081149218056
 40
1.0
 40
1.0
 40
1.0
 40
1.0
 10
6.040605128319136
 20
1.850206597775343
 30
0.0
 10
6.039291700557041
 20
1.849666504102689
 30
0.0
 10
6.03591625205445
 20
1.848278488384408
 30
0.0
 10
6.031022384843529
 20
1.844694471688816
 30
0.0
 10
6.026036740953187
 20
1.83977244855427
 30
0.0
 10
6.021876916543378
 20
1.833870573811429
 30
0.0
 10
6.018597887470444
 20
1.827251330833217
 30
0.0
 10
6.016331691064242
 20
1.820060756326656
 30
0.0
 10
6.015095407259338
 20
1.812528759366242
 30
0.0
 10
6.014963642814064
 20
1.804858593938094
 30
0.0
 10
6.015894687041723
 20
1.797271207002725
 30
0.0
 10
6.017906506163812
 20
1.789986272363488
 30
0.0
 10
6.020905990963144
 20
1.783194559374925
 30
0.0
 10
6.024851215851472
 20
1.777101349024878
 30
0.0
 10
6.029618325985505
 20
1.771886056270579
 30
0.0
 10
6.034828687856135
 20
1.767770886513302
 30
0.0
 10
6.038631772234408
 20
1.765995873949999
 30
0.0
 10
6.040404047707465
 20
1.765168700288461
 30
0.0
  0
INSERT
  5
1EF
330
1F
100
AcDbEntity
  8
0
  6
Continuous
 62
     7
100
AcDbBlockReference
  2
Block1
 10
5.8893190164
 20
0.9270924182
 30
0.0
 41
0.5
 42
0.5
 43
0.5
  0
DIMENSION
  5
1F0
330
1F
100
AcDbEntity
  8
0
  6
Continuous
 62
     7
370
    18
100
AcDbDimension
  2
_D_4
 10
4.272265138
 20
1.6410211085
 30
0.0
 11
4.272265138
 21
3.3956877751
 31
0.0
 70
   160
  1
<>
 71
     2
 42
-1.0
  3
SLDDIMSTYLE4
100
AcDbAlignedDimension
 13
5.5321076577
 23
5.1503544418
 33
0.0
 14
5.5321076577
 24
1.6410211085
 34
0.0
 50
90.0
100
AcDbRotatedDimension
  0
LINE
  5
205
330
1F
100
AcDbEntity
  8
0
  6
Continuous
 62
     7
370
    25
100
AcDbLine
 10
12.5010620015
 20
2.9476542217
 30
0.0
 11
12.5010620015
 21
3.5036877751
 31
0.0
  0
LINE
  5
206
330
1F
100
AcDbEntity
  8
0
  6
Continuous
 62
     7
370
    25
100
AcDbLine
 10
12.5010620015
 20
1.852987555
 30
0.0
 11
12.5010620015
 21
2.8571664881
 31
0.0
  0
LINE
  5
207
330
1F
100
AcDbEntity
  8
0
  6
Continuous
 62
     7
370
    25
100
AcDbLine
 10
12.5010620015
 20
1.6410211085
 30
0.0
 11
12.5010620015
 21
1.7624998214
 31
0.0
  0
LINE
  5
208
330
1F
100
AcDbEntity
  8
0
  6
Continuous
 62
     7
370
    25
100
AcDbLine
 10
10.5210620015
 20
3.5036877751
 30
0.0
 11
10.5210620015
 21
1.6410211085
 31
0.0
  0
ARC
  5
209
330
1F
100
AcDbEntity
  8
0
  6
Continuous
 62
     7
370
    25
100
AcDbCircle
 10
10.5410620015
 20
3.5036877751
 30
0.0
 40
0.02
100
AcDbArc
 50
90.0
 51
180.0
  0
ARC
  5
20A
330
1F
100
AcDbEntity
  8
0
  6
Continuous
 62
     7
370
    25
100
AcDbCircle
 10
12.4810620015
 20
3.5036877751
 30
0.0
 40
0.0200000000000014
100
AcDbArc
 50
0.0
 51
90.0
  0
LINE
  5
20B
330
1F
100
AcDbEntity
  8
0
  6
Continuous
 62
     7
370
    25
100
AcDbLine
 10
11.5110620015
 20
1.6410211085
 30
0.0
 11
12.5010620015
 21
1.6410211085
 31
0.0
  0
LINE
  5
20C
330
1F
100
AcDbEntity
  8
0
  6
Continuous
 62
     7
370
    25
100
AcDbLine
 10
10.5210620015
 20
1.6410211085
 30
0.0
 11
11.5110620015
 21
1.6410211085
 31
0.0
  0
SPLINE
  5
20D
330
1F
100
AcDbEntity
  8
0
  6
Continuous
 62
     7
370
    25
100
AcDbSpline
210
0.0
220
0.0
230
1.0
 70
     8
 71
     3
 72
    26
 73
    22
 74
     0
 42
0.00000001
 43
0.00000001
 40
0.0
 40
0.0
 40
0.0
 40
0.0
 40
0.0367526413874517
 40
0.0896225545983505
 40
0.1440246552525915
 40
0.1969156818018782
 40
0.2513377791172558
 40
0.3042762434242698
 40
0.3587497415263018
 40
0.4116880067270237
 40
0.4661641873857602
 40
0.5190547972383608
 40
0.5734806031266516
 40
0.6263505202692857
 40
0.6807515690134266
 40
0.7336600125433909
 40
0.78810051469574
 40
0.8410465963406909
 40
0.8955292073684908
 40
0.9484533212920057
 40
1.0
 40
1.0
 40
1.0
 40
1.0
 10
12.50105536097034
 20
1.762499821430247
 30
0.0
 10
12.50105531904687
 20
1.762500451201299
 30
0.0
 10
12.50105521681507
 20
1.76250198691923
 30
0.0
 10
12.50098788913685
 20
1.763985516982831
 30
0.0
 10
12.500871322336
 20
1.76668511699494
 30
0.0
 10
12.50071439503293
 20
1.770626563154436
 30
0.0
 10
12.50054004912602
 20
1.775566566145286
 30
0.0
 10
12.50036431479254
 20
1.781472032180105
 30
0.0
 10
12.50021004167846
 20
1.788066428793018
 30
0.0
 10
12.50009213521084
 20
1.795281566811527
 30
0.0
 10
12.5000258598411
 20
1.802780715646598
 30
0.0
 10
12.50001757762351
 20
1.810486028486793
 30
0.0
 10
12.50006828832098
 20
1.818039244589668
 30
0.0
 10
12.50017305793735
 20
1.825364896069879
 30
0.0
 10
12.50031838271141
 20
1.832125836909556
 30
0.0
 10
12.50049032834619
 20
1.838254286274745
 30
0.0
 10
12.50066670267196
 20
1.843465230061212
 30
0.0
 10
12.5008309089174
 20
1.847712739363941
 30
0.0
 10
12.50096013091936
 20
1.850762769574418
 30
0.0
 10
12.5010463776273
 20
1.852682223760543
 30
0.0
 10
12.50105581703742
 20
1.852886676503304
 30
0.0
 10
12.50106047451372
 20
1.852987555031901
 30
0.0
  0
SPLINE
  5
20E
330
1F
100
AcDbEntity
  8
0
  6
Continuous
 62
     7
370
    25
100
AcDbSpline
210
0.0
220
0.0
230
1.0
 70
    11
 71
     3
 72
    56
 73
    52
 74
     0
 42
0.00000001
 43
0.00000001
 40
0.0
 40
0.0
 40
0.0
 40
0.0
 40
0.0312500000000002
 40
0.0312500000000002
 40
0.0625000000000005
 40
0.0625000000000005
 40
0.0937500000000007
 40
0.0937500000000007
 40
0.125000000000001
 40
0.125000000000001
 40
0.1875000000000021
 40
0.1875000000000021
 40
0.2500000000000032
 40
0.2500000000000032
 40
0.2812500000000028
 40
0.2812500000000028
 40
0.3125000000000024
 40
0.3125000000000024
 40
0.3437500000000021
 40
0.3437500000000021
 40
0.3750000000000017
 40
0.3750000000000017
 40
0.4062500000000013
 40
0.4062500000000013
 40
0.4375000000000009
 40
0.4375000000000009
 40
0.4687500000000006
 40
0.4687500000000006
 40
0.5000000000000002
 40
0.5000000000000002
 40
0.5624999999999997
 40
0.5624999999999997
 40
0.6249999999999992
 40
0.6249999999999992
 40
0.656249999999999
 40
0.656249999999999
 40
0.6874999999999988
 40
0.6874999999999988
 40
0.7187499999999986
 40
0.7187499999999986
 40
0.7499999999999983
 40
0.7499999999999983
 40
0.8124999999999979
 40
0.8124999999999979
 40
0.843749999999998
 40
0.843749999999998
 40
0.8749999999999982
 40
0.8749999999999982
 40
0.9374999999999992
 40
0.9374999999999992
 40
1.0
 40
1.0
 40
1.0
 40
1.0
 10
11.05584105955244
 20
1.807687775129529
 30
0.0
 10
11.05584105955244
 20
1.804692415756032
 30
0.0
 10
11.055579688243
 20
1.801747189234445
 30
0.0
 10
11.05455639799355
 20
1.795952877369468
 30
0.0
 10
11.05378205113278
 20
1.793073756826201
 30
0.0
 10
11.05176317773117
 20
1.787583975036958
 30
0.0
 10
11.05052873067645
 20
1.784980303015292
 30
0.0
 10
11.04761704978763
 20
1.780052740059956
 30
0.0
 10
11.04592461030728
 20
1.777719988578659
 30
0.0
 10
11.04039026696764
 20
1.771447959002787
 30
0.0
 10
11.03594295801397
 20
1.768070560572293
 30
0.0
 10
11.0263994394059
 20
1.763548540726698
 30
0.0
 10
11.02120449422399
 20
1.762357607540387
 30
0.0
 10
11.01352221575206
 20
1.762352868627627
 30
0.0
 10
11.01092801425184
 20
1.762647116304154
 30
0.0
 10
11.00591853419021
 20
1.763803564371303
 30
0.0
 10
11.00349010871185
 20
1.764659232114598
 30
0.0
 10
10.99878455449284
 20
1.766928643522037
 30
0.0
 10
10.99651460844627
 20
1.768347847104484
 30
0.0
 10
10.99232253645597
 20
1.771628681164585
 30
0.0
 10
10.99037315427508
 20
1.773501629496778
 30
0.0
 10
10.98677525848893
 20
1.777731063909956
 30
0.0
 10
10.985181666599
 20
1.780024230048267
 30
0.0
 10
10.98240004460196
 20
1.784932697888731
 30
0.0
 10
10.98119977054482
 20
1.787581389620551
 30
0.0
 10
10.97927603445797
 20
1.793074227789336
 30
0.0
 10
10.97855222982329
 20
1.795899972349916
 30
0.0
 10
10.97757309929992
 20
1.801708336500234
 30
0.0
 10
10.97732231445684
 20
1.804712995856895
 30
0.0
 10
10.9773196471977
 20
1.813588859387646
 30
0.0
 10
10.97831840534545
 20
1.819553051365685
 30
0.0
 10
10.98213106996464
 20
1.830467156707432
 30
0.0
 10
10.98498576991472
 20
1.835528452874043
 30
0.0
 10
10.99030852969237
 20
1.841804066328823
 30
0.0
 10
10.99229134780918
 20
1.843719705154039
 30
0.0
 10
10.99649688679041
 20
1.847016556664268
 30
0.0
 10
10.99872202453844
 20
1.848410735771291
 30
0.0
 10
11.00342119937615
 20
1.850688932277408
 30
0.0
 10
11.0058981490646
 20
1.851564991835346
 30
0.0
 10
11.01089083551988
 20
1.852722113052901
 30
0.0
 10
11.01343279613599
 20
1.853018072080492
 30
0.0
 10
11.02120172751787
 20
1.853027112176558
 30
0.0
 10
11.02632703746327
 20
1.851855319487086
 30
0.0
 10
11.03354184975608
 20
1.848445676675008
 30
0.0
 10
11.03582652009637
 20
1.847054840273908
 30
0.0
 10
11.04015577644806
 20
1.843772057348617
 30
0.0
 10
11.04221271607366
 20
1.841859288377941
 30
0.0
 10
11.04775428295139
 20
1.83558783031732
 30
0.0
 10
11.05074897990401
 20
1.830536068703873
 30
0.0
 10
11.05476956379557
 20
1.819629774694655
 30
0.0
 10
11.05584105955244
 20
1.813678493876521
 30
0.0
 10
11.05584105955244
 20
1.807687775129529
 30
0.0
  0
SPLINE
  5
20F
330
1F
100
AcDbEntity
  8
0
  6
Continuous
 62
     7
370
    25
100
AcDbSpline
210
0.0
220
0.0
230
1.0
 70
     8
 71
     3
 72
    26
 73
    22
 74
     0
 42
0.00000001
 43
0.00000001
 40
0.0
 40
0.0
 40
0.0
 40
0.0
 40
0.0367526413874413
 40
0.0896225545983425
 40
0.1440246552525821
 40
0.1969156818018745
 40
0.2513377791172536
 40
0.3042762434242715
 40
0.3587497415263069
 40
0.4116880067270302
 40
0.4661641873857644
 40
0.5190547972383524
 40
0.5734806031266229
 40
0.6263505202692663
 40
0.6807515690134152
 40
0.7336600125433861
 40
0.7881005146957435
 40
0.8410465963406857
 40
0.895529207368478
 40
0.9484533212919984
 40
0.9999999999999999
 40
0.9999999999999999
 40
0.9999999999999999
 40
0.9999999999999999
 10
12.50105536097034
 20
2.857166488096917
 30
0.0
 10
12.50105531904687
 20
2.857167117867967
 30
0.0
 10
12.50105521681507
 20
2.857168653585896
 30
0.0
 10
12.50098788913685
 20
2.858652183649504
 30
0.0
 10
12.50087132233601
 20
2.861351783661608
 30
0.0
 10
12.50071439503293
 20
2.865293229821108
 30
0.0
 10
12.50054004912602
 20
2.870233232811954
 30
0.0
 10
12.50036431479254
 20
2.876138698846777
 30
0.0
 10
12.50021004167846
 20
2.882733095459688
 30
0.0
 10
12.50009213521084
 20
2.889948233478198
 30
0.0
 10
12.5000258598411
 20
2.897447382313268
 30
0.0
 10
12.50001757762351
 20
2.905152695153461
 30
0.0
 10
12.50006828832098
 20
2.912705911256336
 30
0.0
 10
12.50017305793735
 20
2.920031562736546
 30
0.0
 10
12.50031838271141
 20
2.926792503576225
 30
0.0
 10
12.50049032834619
 20
2.932920952941414
 30
0.0
 10
12.50066670267196
 20
2.93813189672788
 30
0.0
 10
12.5008309089174
 20
2.942379406030611
 30
0.0
 10
12.50096013091936
 20
2.945429436241088
 30
0.0
 10
12.5010463776273
 20
2.947348890427214
 30
0.0
 10
12.50105581703742
 20
2.947553343169974
 30
0.0
 10
12.50106047451372
 20
2.947654221698572
 30
0.0
  0
LINE
  5
210
330
1F
100
AcDbEntity
  8
0
  6
Continuous
 62
     7
370
    25
100
AcDbLine
 10
11.5110620015
 20
3.5236877751
 30
0.0
 11
12.4810620015
 21
3.5236877751
 31
0.0
  0
LINE
  5
211
330
1F
100
AcDbEntity
  8
0
  6
Continuous
 62
     7
370
    25
100
AcDbLine
 10
10.5410620015
 20
3.5236877751
 30
0.0
 11
11.5110620015
 21
3.5236877751
 31
0.0
  0
SPLINE
  5
212
330
1F
100
AcDbEntity
  8
0
  6
Continuous
 62
     7
370
    25
100
AcDbSpline
210
0.0
220
0.0
230
1.0
 70
     8
 71
     3
 72
    22
 73
    18
 74
     0
 42
0.00000001
 43
0.00000001
 40
0.0
 40
0.0
 40
0.0
 40
0.0
 40
0.0438798423565798
 40
0.1127691620740855
 40
0.1816587066609156
 40
0.2506191240586941
 40
0.3195793063436789
 40
0.388541566045586
 40
0.4575034955508727
 40
0.5263952393272129
 40
0.5952870740048293
 40
0.6641460758972739
 40
0.7330054454355807
 40
0.801920509630061
 40
0.8708356452935467
 40
0.9398081149218364
 40
1.0
 40
1.0
 40
1.0
 40
1.0
 10
11.02955947211382
 20
1.850206597775341
 30
0.0
 10
11.02824604435172
 20
1.849666504102688
 30
0.0
 10
11.02487059584913
 20
1.848278488384407
 30
0.0
 10
11.01997672863821
 20
1.844694471688815
 30
0.0
 10
11.01499108474787
 20
1.839772448554269
 30
0.0
 10
11.01083126033806
 20
1.833870573811427
 30
0.0
 10
11.00755223126512
 20
1.827251330833214
 30
0.0
 10
11.00528603485892
 20
1.820060756326653
 30
0.0
 10
11.00404975105402
 20
1.81252875936624
 30
0.0
 10
11.00391798660874
 20
1.804858593938092
 30
0.0
 10
11.0048490308364
 20
1.797271207002723
 30
0.0
 10
11.00686084995849
 20
1.789986272363486
 30
0.0
 10
11.00986033475782
 20
1.783194559374924
 30
0.0
 10
11.01380555964615
 20
1.777101349024876
 30
0.0
 10
11.01857266978019
 20
1.771886056270577
 30
0.0
 10
11.02378303165081
 20
1.767770886513301
 30
0.0
 10
11.02758611602908
 20
1.765995873949997
 30
0.0
 10
11.02935839150214
 20
1.76516870028846
 30
0.0
  0
LINE
  5
213
330
1F
100
AcDbEntity
  8
0
  6
Continuous
 62
     7
370
    25
100
AcDbLine
 10
11.5110620015
 20
3.5036877751
 30
0.0
 11
10.5210620015
 21
3.5036877751
 31
0.0
  0
LINE
  5
214
330
1F
100
AcDbEntity
  8
0
  6
Continuous
 62
     7
370
    25
100
AcDbLine
 10
12.5010620015
 20
3.5036877751
 30
0.0
 11
11.5110620015
 21
3.5036877751
 31
0.0
  0
INSERT
  5
215
330
1F
100
AcDbEntity
  8
0
  6
Continuous
 62
     7
100
AcDbBlockReference
  2
Block2
 10
10.9983152341
 20
0.5756258622
 30
0.0
 41
0.5
 42
0.5
 43
0.5
  0
DIMENSION
  5
216
330
1F
100
AcDbEntity
  8
0
  6
Continuous
 62
     7
370
    18
100
AcDbDimension
  2
_D_5
 10
9.426979165
 20
1.6410211085
 30
0.0
 11
9.426979165
 21
2.5823544418
 31
0.0
 70
   160
  1
<>
 71
     2
 42
-1.0
  3
SLDDIMSTYLE5
100
AcDbAlignedDimension
 13
10.5793953348
 23
3.5236877751
 33
0.0
 14
10.5210620015
 24
1.6410211085
 34
0.0
 50
90.0
100
AcDbRotatedDimension
  0
ARC
  5
22B
330
1F
100
AcDbEntity
  8
0
  6
Continuous
 62
     7
370
    25
100
AcDbCircle
 10
15.5046007072
 20
2.8370211085
 30
0.0
 40
0.0199999999999996
100
AcDbArc
 50
90.0
 51
180.0
  0
ARC
  5
22C
330
1F
100
AcDbEntity
  8
0
  6
Continuous
 62
     7
370
    25
100
AcDbCircle
 10
17.4446007072
 20
2.8370211085
 30
0.0
 40
0.0200000000000031
100
AcDbArc
 50
0.0
 51
90.0
  0
LINE
  5
22D
330
1F
100
AcDbEntity
  8
0
  6
Continuous
 62
     7
370
    25
100
AcDbLine
 10
17.4646007072
 20
1.8530052675
 30
0.0
 11
17.4646007072
 21
2.8370211085
 31
0.0
  0
LINE
  5
22E
330
1F
100
AcDbEntity
  8
0
  6
Continuous
 62
     7
370
    25
100
AcDbLine
 10
17.4646007072
 20
1.6410211085
 30
0.0
 11
17.4646007072
 21
1.7623924031
 31
0.0
  0
LINE
  5
22F
330
1F
100
AcDbEntity
  8
0
  6
Continuous
 62
     7
370
    25
100
AcDbLine
 10
15.4846007072
 20
2.8370211085
 30
0.0
 11
15.4846007072
 21
1.6410211085
 31
0.0
  0
LINE
  5
230
330
1F
100
AcDbEntity
  8
0
  6
Continuous
 62
     7
370
    25
100
AcDbLine
 10
16.4746007072
 20
2.8570211085
 30
0.0
 11
17.4446007072
 21
2.8570211085
 31
0.0
  0
LINE
  5
231
330
1F
100
AcDbEntity
  8
0
  6
Continuous
 62
     7
370
    25
100
AcDbLine
 10
15.5046007072
 20
2.8570211085
 30
0.0
 11
16.4746007072
 21
2.8570211085
 31
0.0
  0
LINE
  5
232
330
1F
100
AcDbEntity
  8
0
  6
Continuous
 62
     7
370
    25
100
AcDbLine
 10
16.4746007072
 20
1.6410211085
 30
0.0
 11
17.4646007072
 21
1.6410211085
 31
0.0
  0
LINE
  5
233
330
1F
100
AcDbEntity
  8
0
  6
Continuous
 62
     7
370
    25
100
AcDbLine
 10
15.4846007072
 20
1.6410211085
 30
0.0
 11
16.4746007072
 21
1.6410211085
 31
0.0
  0
SPLINE
  5
234
330
1F
100
AcDbEntity
  8
0
  6
Continuous
 62
     7
370
    25
100
AcDbSpline
210
0.0
220
0.0
230
1.0
 70
     8
 71
     3
 72
    45
 73
    41
 74
     0
 42
0.00000001
 43
0.00000001
 40
0.0
 40
0.0
 40
0.0
 40
0.0
 40
0.0095528775845902
 40
0.0367750308310244
 40
0.0632084228823067
 40
0.0896418261220636
 40
0.1168426162587664
 40
0.1440434238726211
 40
0.1704873454169136
 40
0.1969312801702885
 40
0.2241420524335326
 40
0.2513528303280073
 40
0.277820505335755
 40
0.3042881749612164
 40
0.3315247209226089
 40
0.3587612517862683
 40
0.3852288699275717
 40
0.4116964723990192
 40
0.4389344084130569
 40
0.4661723321134774
 40
0.4926161064928493
 40
0.5190598794098776
 40
0.5462725757040913
 40
0.5734852817064221
 40
0.599918660114128
 40
0.6263520534735674
 40
0.653552299814197
 40
0.680752562622456
 40
0.7072051984503265
 40
0.7336578423212201
 40
0.7608778360168559
 40
0.7880978272954858
 40
0.8145693292249292
 40
0.8410408197143744
 40
0.8682819484407635
 40
0.8955230595577541
 40
0.9219836041062104
 40
0.9484441355731471
 40
0.975674815232022
 40
1.0
 40
1.0
 40
1.0
 40
1.0
 10
17.46459896096398
 20
1.762392403052222
 30
0.0
 10
17.46459942320372
 20
1.762382253410376
 30
0.0
 10
17.46460120265505
 20
1.762343181058772
 30
0.0
 10
17.46458891282947
 20
1.762612295175028
 30
0.0
 10
17.46456263076236
 20
1.76319129157501
 30
0.0
 10
17.46452213986943
 20
1.764099840593087
 30
0.0
 10
17.46446884930287
 20
1.765323636156655
 30
0.0
 10
17.46440441711969
 20
1.766853807367466
 30
0.0
 10
17.46433142914686
 20
1.768658920972737
 30
0.0
 10
17.46425154944501
 20
1.7707346436223
 30
0.0
 10
17.46416598946256
 20
1.773095265752102
 30
0.0
 10
17.46407798546996
 20
1.775705501203409
 30
0.0
 10
17.46399090918095
 20
1.77851884275832
 30
0.0
 10
17.46390629675215
 20
1.781535523966327
 30
0.0
 10
17.46382589280097
 20
1.784769348281653
 30
0.0
 10
17.46375280331218
 20
1.788168510900235
 30
0.0
 10
17.46368980927329
 20
1.791674099961982
 30
0.0
 10
17.46363761434327
 20
1.795291048906273
 30
0.0
 10
17.46359770526335
 20
1.799032315240179
 30
0.0
 10
17.46357166692814
 20
1.802835000628068
 30
0.0
 10
17.46356044280517
 20
1.806634579946809
 30
0.0
 10
17.46356357436293
 20
1.810440277463284
 30
0.0
 10
17.46358165410465
 20
1.814263076843684
 30
0.0
 10
17.46361402793762
 20
1.81803796439918
 30
0.0
 10
17.46365940236922
 20
1.821702494000612
 30
0.0
 10
17.46371638022231
 20
1.82526928225537
 30
0.0
 10
17.46378441734852
 20
1.828744430012307
 30
0.0
 10
17.46386095369277
 20
1.83206882731614
 30
0.0
 10
17.46394303988779
 20
1.835188943188058
 30
0.0
 10
17.46402895342566
 20
1.838119153769462
 30
0.0
 10
17.46411722146854
 20
1.840859369346391
 30
0.0
 10
17.4642044840189
 20
1.843361370401148
 30
0.0
 10
17.46428740423421
 20
1.845586386986064
 30
0.0
 10
17.46436466578108
 20
1.847548958123494
 30
0.0
 10
17.46443453402428
 20
1.849244353218751
 30
0.0
 10
17.46449425722162
 20
1.850639342674921
 30
0.0
 10
17.464541706871
 20
1.851717352580776
 30
0.0
 10
17.46457610657724
 20
1.852481841414881
 30
0.0
 10
17.46459720453919
 20
1.852945219308652
 30
0.0
 10
17.4645990911557
 20
1.852986017829433
 30
0.0
 10
17.46459998130264
 20
1.853005267464121
 30
0.0
  0
SPLINE
  5
235
330
1F
100
AcDbEntity
  8
0
  6
Continuous
 62
     7
370
    25
100
AcDbSpline
210
0.0
220
0.0
230
1.0
 70
    11
 71
     3
 72
    56
 73
    52
 74
     0
 42
0.00000001
 43
0.00000001
 40
0.0
 40
0.0
 40
0.0
 40
0.0
 40
0.0312499999999997
 40
0.0312499999999997
 40
0.0624999999999994
 40
0.0624999999999994
 40
0.0937499999999992
 40
0.0937499999999992
 40
0.1249999999999989
 40
0.1249999999999989
 40
0.1874999999999994
 40
0.1874999999999994
 40
0.2499999999999999
 40
0.2499999999999999
 40
0.2812500000000001
 40
0.2812500000000001
 40
0.3125000000000002
 40
0.3125000000000002
 40
0.3437500000000004
 40
0.3437500000000004
 40
0.3750000000000006
 40
0.3750000000000006
 40
0.4062500000000007
 40
0.4062500000000007
 40
0.4375000000000009
 40
0.4375000000000009
 40
0.4687500000000011
 40
0.4687500000000011
 40
0.5000000000000012
 40
0.5000000000000012
 40
0.5625000000000019
 40
0.5625000000000019
 40
0.6250000000000024
 40
0.6250000000000024
 40
0.6562500000000024
 40
0.6562500000000024
 40
0.6875000000000026
 40
0.6875000000000026
 40
0.7187500000000026
 40
0.7187500000000026
 40
0.7500000000000027
 40
0.7500000000000027
 40
0.8125000000000029
 40
0.8125000000000029
 40
0.8437500000000026
 40
0.8437500000000026
 40
0.8750000000000022
 40
0.8750000000000022
 40
0.9375000000000011
 40
0.9375000000000011
 40
1.0
 40
1.0
 40
1.0
 40
1.0
 10
16.0193797652715
 20
1.807687775129529
 30
0.0
 10
16.0193797652715
 20
1.804692415756032
 30
0.0
 10
16.01911839396206
 20
1.801747189234446
 30
0.0
 10
16.01809510371261
 20
1.795952877369468
 30
0.0
 10
16.01732075685184
 20
1.793073756826202
 30
0.0
 10
16.01530188345023
 20
1.787583975036959
 30
0.0
 10
16.01406743639551
 20
1.784980303015292
 30
0.0
 10
16.01115575550669
 20
1.780052740059956
 30
0.0
 10
16.00946331602634
 20
1.777719988578659
 30
0.0
 10
16.0039289726867
 20
1.771447959002788
 30
0.0
 10
15.99948166373303
 20
1.768070560572294
 30
0.0
 10
15.98993814512496
 20
1.7635485407267
 30
0.0
 10
15.98474319994305
 20
1.762357607540388
 30
0.0
 10
15.97706092147112
 20
1.762352868627629
 30
0.0
 10
15.97446671997089
 20
1.762647116304156
 30
0.0
 10
15.96945723990927
 20
1.763803564371305
 30
0.0
 10
15.96702881443091
 20
1.7646592321146
 30
0.0
 10
15.96232326021189
 20
1.76692864352204
 30
0.0
 10
15.96005331416532
 20
1.768347847104487
 30
0.0
 10
15.95586124217503
 20
1.771628681164588
 30
0.0
 10
15.95391185999413
 20
1.773501629496781
 30
0.0
 10
15.95031396420799
 20
1.777731063909959
 30
0.0
 10
15.94872037231807
 20
1.78002423004827
 30
0.0
 10
15.94593875032103
 20
1.784932697888735
 30
0.0
 10
15.94473847626388
 20
1.787581389620555
 30
0.0
 10
15.94281474017703
 20
1.79307422778934
 30
0.0
 10
15.94209093554236
 20
1.79589997234992
 30
0.0
 10
15.94111180501898
 20
1.801708336500238
 30
0.0
 10
15.9408610201759
 20
1.804712995856899
 30
0.0
 10
15.94085835291676
 20
1.81358885938765
 30
0.0
 10
15.94185711106451
 20
1.819553051365689
 30
0.0
 10
15.9456697756837
 20
1.830467156707435
 30
0.0
 10
15.94852447563378
 20
1.835528452874048
 30
0.0
 10
15.95384723541143
 20
1.841804066328826
 30
0.0
 10
15.95583005352824
 20
1.843719705154043
 30
0.0
 10
15.96003559250947
 20
1.84701655666427
 30
0.0
 10
15.96226073025751
 20
1.848410735771294
 30
0.0
 10
15.96695990509521
 20
1.85068893227741
 30
0.0
 10
15.96943685478367
 20
1.851564991835348
 30
0.0
 10
15.97442954123894
 20
1.852722113052903
 30
0.0
 10
15.97697150185505
 20
1.853018072080494
 30
0.0
 10
15.98474043323694
 20
1.853027112176559
 30
0.0
 10
15.98986574318233
 20
1.851855319487088
 30
0.0
 10
15.99708055547514
 20
1.848445676675009
 30
0.0
 10
15.99936522581543
 20
1.847054840273909
 30
0.0
 10
16.00369448216712
 20
1.843772057348618
 30
0.0
 10
16.00575142179272
 20
1.841859288377942
 30
0.0
 10
16.01129298867045
 20
1.835587830317321
 30
0.0
 10
16.01428768562307
 20
1.830536068703874
 30
0.0
 10
16.01830826951463
 20
1.819629774694656
 30
0.0
 10
16.0193797652715
 20
1.813678493876522
 30
0.0
 10
16.0193797652715
 20
1.807687775129529
 30
0.0
  0
SPLINE
  5
236
330
1F
100
AcDbEntity
  8
0
  6
Continuous
 62
     7
370
    25
100
AcDbSpline
210
0.0
220
0.0
230
1.0
 70
     8
 71
     3
 72
    29
 73
    25
 74
     0
 42
0.00000001
 43
0.00000001
 40
0.0
 40
0.0
 40
0.0
 40
0.0
 40
0.042921448640315
 40
0.0887724858635276
 40
0.1347695122160149
 40
0.1806207047758492
 40
0.2265190286240017
 40
0.2725636415009415
 40
0.3184618029362825
 40
0.3643613154473705
 40
0.4104073898546776
 40
0.4563066742701115
 40
0.5021592711375474
 40
0.5481582480531595
 40
0.5940109077140171
 40
0.6398417576760443
 40
0.6858186354698136
 40
0.7316497393965591
 40
0.7775179050167311
 40
0.8235321255733467
 40
0.8694003405633293
 40
0.9153066694206715
 40
0.9613594167409685
 40
1.0
 40
1.0
 40
1.0
 40
1.0
 10
15.99297242952508
 20
1.850294353276485
 30
0.0
 10
15.99170396439932
 20
1.849716516198003
 30
0.0
 10
15.9890804555008
 20
1.848521401971761
 30
0.0
 10
15.98537004597563
 20
1.846049634092897
 30
0.0
 10
15.98183299411221
 20
1.843091395013186
 30
0.0
 10
15.97860831023519
 20
1.839678367939557
 30
0.0
 10
15.97574237818164
 20
1.835853843297608
 30
0.0
 10
15.97325836817224
 20
1.83167627442538
 30
0.0
 10
15.97118475321163
 20
1.827198241020441
 30
0.0
 10
15.96956161160489
 20
1.822467292946485
 30
0.0
 10
15.96839244804476
 20
1.817552490948646
 30
0.0
 10
15.96769056570639
 20
1.81251485060949
 30
0.0
 10
15.96748052835467
 20
1.807416396266527
 30
0.0
 10
15.96774733188591
 20
1.802324168550316
 30
0.0
 10
15.96848782678384
 20
1.797298641898866
 30
0.0
 10
15.96970960904013
 20
1.792408354416215
 30
0.0
 10
15.97138159197595
 20
1.78771040645775
 30
0.0
 10
15.97348594923282
 20
1.783259354252672
 30
0.0
 10
15.97601285169596
 20
1.779122438321097
 30
0.0
 10
15.97891871800877
 20
1.77534259865579
 30
0.0
 10
15.98216925414624
 20
1.771960270739053
 30
0.0
 10
15.98574379197497
 20
1.769053999941203
 30
0.0
 10
15.98936249287208
 20
1.766704257069516
 30
0.0
 10
15.99187403706327
 20
1.765589464796776
 30
0.0
 10
15.99301990689463
 20
1.765080850678798
 30
0.0
  0
LINE
  5
237
330
1F
100
AcDbEntity
  8
0
  6
Continuous
 62
     7
370
    25
100
AcDbLine
 10
16.4746007072
 20
2.8370211085
 30
0.0
 11
15.4846007072
 21
2.8370211085
 31
0.0
  0
LINE
  5
238
330
1F
100
AcDbEntity
  8
0
  6
Continuous
 62
     7
370
    25
100
AcDbLine
 10
17.4646007072
 20
2.8370211085
 30
0.0
 11
16.4746007072
 21
2.8370211085
 31
0.0
  0
INSERT
  5
239
330
1F
100
AcDbEntity
  8
0
  6
Continuous
 62
     7
100
AcDbBlockReference
  2
Block3
 10
16.094274662
 20
0.8758364086
 30
0.0
 41
0.5
 42
0.5
 43
0.5
  0
DIMENSION
  5
23A
330
1F
100
AcDbEntity
  8
0
  6
Continuous
 62
     7
370
    18
100
AcDbDimension
  2
_D_6
 10
14.2247581875
 20
1.6410211085
 30
0.0
 11
14.2247581875
 21
2.2490211085
 31
0.0
 70
   160
  1
<>
 71
     2
 42
-1.0
  3
SLDDIMSTYLE5
100
AcDbAlignedDimension
 13
15.6312673738
 23
2.8570211085
 33
0.0
 14
15.4846007072
 24
1.6410211085
 34
0.0
 50
90.0
100
AcDbRotatedDimension
  0
LINE
  5
24E
330
1F
100
AcDbEntity
  8
0
  6
Continuous
 62
     7
370
    25
100
AcDbLine
 10
19.1001144889
 20
10.6587281907
 30
0.0
 11
16.6043657776
 21
14.1882498666
 31
0.0
  0
LINE
  5
24F
330
1F
100
AcDbEntity
  8
0
  6
Continuous
 62
     7
370
    25
100
AcDbLine
 10
15.3918683549
 20
10.7587892676
 30
0.0
 11
16.6751196435
 21
8.9439978912
 31
0.0
  0
LINE
  5
250
330
1F
100
AcDbEntity
  8
0
  6
Continuous
 62
     7
370
    25
100
AcDbLine
 10
19.0719030192
 20
10.4472069329
 30
0.0
 11
19.0736626225
 21
10.4525087625
 31
0.0
  0
LINE
  5
251
330
1F
100
AcDbEntity
  8
0
  6
Continuous
 62
     7
370
    25
100
AcDbLine
 10
19.0293472118
 20
10.5606010328
 30
0.0
 11
19.0243722948
 21
10.5631418599
 31
0.0
  0
LINE
  5
252
330
1F
100
AcDbEntity
  8
0
  6
Continuous
 62
     7
370
    25
100
AcDbLine
 10
16.9657503995
 20
8.9473666111
 30
0.0
 11
16.9672837329
 21
8.9430296895
 31
0.0
  0
LINE
  5
253
330
1F
100
AcDbEntity
  8
0
  6
Continuous
 62
     7
370
    25
100
AcDbLine
 10
17.0518170662
 20
8.8832555963
 30
0.0
 11
17.0564170662
 21
8.8832555963
 31
0.0
  0
LINE
  5
254
330
1F
100
AcDbEntity
  8
0
  6
Continuous
 62
     7
370
    25
100
AcDbLine
 10
18.5863106677
 20
7.6671047372
 30
0.0
 11
18.5863106677
 21
8.6421047372
 31
0.0
  0
LINE
  5
255
330
1F
100
AcDbEntity
  8
0
  6
Continuous
 62
     7
370
    25
100
AcDbLine
 10
17.5963106677
 20
8.6421047372
 30
0.0
 11
17.5963106677
 21
7.6671047372
 31
0.0
  0
LINE
  5
256
330
1F
100
AcDbEntity
  8
0
  6
Continuous
 62
     7
370
    25
100
AcDbLine
 10
18.4963106677
 20
7.4171047372
 30
0.0
 11
18.4463106677
 21
7.4421047372
 31
0.0
  0
LINE
  5
257
330
1F
100
AcDbEntity
  8
0
  6
Continuous
 62
     7
370
    25
100
AcDbLine
 10
17.7363106677
 20
7.4421047372
 30
0.0
 11
17.6863106677
 21
7.4171047372
 31
0.0
  0
LINE
  5
258
330
1F
100
AcDbEntity
  8
0
  6
Continuous
 62
     7
370
    25
100
AcDbLine
 10
17.6863106677
 20
7.2671047372
 30
0.0
 11
17.7363106677
 21
7.2421047372
 31
0.0
  0
LINE
  5
259
330
1F
100
AcDbEntity
  8
0
  6
Continuous
 62
     7
370
    25
100
AcDbLine
 10
18.4463106677
 20
7.2421047372
 30
0.0
 11
18.4963106677
 21
7.2671047372
 31
0.0
  0
LINE
  5
25A
330
1F
100
AcDbEntity
  8
0
  6
Continuous
 62
     7
370
    25
100
AcDbLine
 10
18.4963106677
 20
7.3671047372
 30
0.0
 11
18.4463106677
 21
7.3921047372
 31
0.0
  0
LINE
  5
25B
330
1F
100
AcDbEntity
  8
0
  6
Continuous
 62
     7
370
    25
100
AcDbLine
 10
17.7363106677
 20
7.3921047372
 30
0.0
 11
17.6863106677
 21
7.3671047372
 31
0.0
  0
LINE
  5
25C
330
1F
100
AcDbEntity
  8
0
  6
Continuous
 62
     7
370
    25
100
AcDbLine
 10
18.4963106677
 20
7.1171047372
 30
0.0
 11
18.4463106677
 21
7.1421047372
 31
0.0
  0
LINE
  5
25D
330
1F
100
AcDbEntity
  8
0
  6
Continuous
 62
     7
370
    25
100
AcDbLine
 10
17.7363106677
 20
7.1421047372
 30
0.0
 11
17.6863106677
 21
7.1171047372
 31
0.0
  0
LINE
  5
25E
330
1F
100
AcDbEntity
  8
0
  6
Continuous
 62
     7
370
    25
100
AcDbLine
 10
17.6863106677
 20
7.4671047372
 30
0.0
 11
17.7363106677
 21
7.4421047372
 31
0.0
  0
LINE
  5
25F
330
1F
100
AcDbEntity
  8
0
  6
Continuous
 62
     7
370
    25
100
AcDbLine
 10
18.4463106677
 20
7.4421047372
 30
0.0
 11
18.4963106677
 21
7.4671047372
 31
0.0
  0
LINE
  5
260
330
1F
100
AcDbEntity
  8
0
  6
Continuous
 62
     7
370
    25
100
AcDbLine
 10
18.4963106677
 20
7.2671047372
 30
0.0
 11
18.4463106677
 21
7.2921047372
 31
0.0
  0
LINE
  5
261
330
1F
100
AcDbEntity
  8
0
  6
Continuous
 62
     7
370
    25
100
AcDbLine
 10
17.7363106677
 20
7.2921047372
 30
0.0
 11
17.6863106677
 21
7.2671047372
 31
0.0
  0
LINE
  5
262
330
1F
100
AcDbEntity
  8
0
  6
Continuous
 62
     7
370
    25
100
AcDbLine
 10
17.6863106677
 20
7.3671047372
 30
0.0
 11
17.7363106677
 21
7.3421047372
 31
0.0
  0
LINE
  5
263
330
1F
100
AcDbEntity
  8
0
  6
Continuous
 62
     7
370
    25
100
AcDbLine
 10
18.4463106677
 20
7.3421047372
 30
0.0
 11
18.4963106677
 21
7.3671047372
 31
0.0
  0
LINE
  5
264
330
1F
100
AcDbEntity
  8
0
  6
Continuous
 62
     7
370
    25
100
AcDbLine
 10
18.4963106677
 20
7.3171047372
 30
0.0
 11
18.4463106677
 21
7.3421047372
 31
0.0
  0
LINE
  5
265
330
1F
100
AcDbEntity
  8
0
  6
Continuous
 62
     7
370
    25
100
AcDbLine
 10
17.7363106677
 20
7.3421047372
 30
0.0
 11
17.6863106677
 21
7.3171047372
 31
0.0
  0
LINE
  5
266
330
1F
100
AcDbEntity
  8
0
  6
Continuous
 62
     7
370
    25
100
AcDbLine
 10
17.6863106677
 20
7.1171047372
 30
0.0
 11
17.7363106677
 21
7.0921047372
 31
0.0
  0
LINE
  5
267
330
1F
100
AcDbEntity
  8
0
  6
Continuous
 62
     7
370
    25
100
AcDbLine
 10
18.4463106677
 20
7.0921047372
 30
0.0
 11
18.4963106677
 21
7.1171047372
 31
0.0
  0
LINE
  5
268
330
1F
100
AcDbEntity
  8
0
  6
Continuous
 62
     7
370
    25
100
AcDbLine
 10
17.6863106677
 20
7.1671047372
 30
0.0
 11
17.7363106677
 21
7.1421047372
 31
0.0
  0
LINE
  5
269
330
1F
100
AcDbEntity
  8
0
  6
Continuous
 62
     7
370
    25
100
AcDbLine
 10
18.4463106677
 20
7.1421047372
 30
0.0
 11
18.4963106677
 21
7.1671047372
 31
0.0
  0
LINE
  5
26A
330
1F
100
AcDbEntity
  8
0
  6
Continuous
 62
     7
370
    25
100
AcDbLine
 10
18.4963106677
 20
7.4671047372
 30
0.0
 11
18.4463106677
 21
7.4921047372
 31
0.0
  0
LINE
  5
26B
330
1F
100
AcDbEntity
  8
0
  6
Continuous
 62
     7
370
    25
100
AcDbLine
 10
17.7363106677
 20
7.4921047372
 30
0.0
 11
17.6863106677
 21
7.4671047372
 31
0.0
  0
LINE
  5
26C
330
1F
100
AcDbEntity
  8
0
  6
Continuous
 62
     7
370
    25
100
AcDbLine
 10
18.4963106677
 20
7.2171047372
 30
0.0
 11
18.4463106677
 21
7.2421047372
 31
0.0
  0
LINE
  5
26D
330
1F
100
AcDbEntity
  8
0
  6
Continuous
 62
     7
370
    25
100
AcDbLine
 10
17.7363106677
 20
7.2421047372
 30
0.0
 11
17.6863106677
 21
7.2171047372
 31
0.0
  0
LINE
  5
26E
330
1F
100
AcDbEntity
  8
0
  6
Continuous
 62
     7
370
    25
100
AcDbLine
 10
17.6863106677
 20
7.4171047372
 30
0.0
 11
17.7363106677
 21
7.3921047372
 31
0.0
  0
LINE
  5
26F
330
1F
100
AcDbEntity
  8
0
  6
Continuous
 62
     7
370
    25
100
AcDbLine
 10
18.4463106677
 20
7.3921047372
 30
0.0
 11
18.4963106677
 21
7.4171047372
 31
0.0
  0
LINE
  5
270
330
1F
100
AcDbEntity
  8
0
  6
Continuous
 62
     7
370
    25
100
AcDbLine
 10
17.6863106677
 20
7.3171047372
 30
0.0
 11
17.7363106677
 21
7.2921047372
 31
0.0
  0
LINE
  5
271
330
1F
100
AcDbEntity
  8
0
  6
Continuous
 62
     7
370
    25
100
AcDbLine
 10
18.4463106677
 20
7.2921047372
 30
0.0
 11
18.4963106677
 21
7.3171047372
 31
0.0
  0
LINE
  5
272
330
1F
100
AcDbEntity
  8
0
  6
Continuous
 62
     7
370
    25
100
AcDbLine
 10
18.4963106677
 20
7.1671047372
 30
0.0
 11
18.4463106677
 21
7.1921047372
 31
0.0
  0
LINE
  5
273
330
1F
100
AcDbEntity
  8
0
  6
Continuous
 62
     7
370
    25
100
AcDbLine
 10
17.7363106677
 20
7.1921047372
 30
0.0
 11
17.6863106677
 21
7.1671047372
 31
0.0
  0
LINE
  5
274
330
1F
100
AcDbEntity
  8
0
  6
Continuous
 62
     7
370
    25
100
AcDbLine
 10
17.7283106677
 20
7.4961047372
 30
0.0
 11
17.7363106677
 21
7.4921047372
 31
0.0
  0
LINE
  5
275
330
1F
100
AcDbEntity
  8
0
  6
Continuous
 62
     7
370
    25
100
AcDbLine
 10
18.4463106677
 20
7.4921047372
 30
0.0
 11
18.4543106677
 21
7.4961047372
 31
0.0
  0
LINE
  5
276
330
1F
100
AcDbEntity
  8
0
  6
Continuous
 62
     7
370
    25
100
AcDbLine
 10
17.6863106677
 20
7.2171047372
 30
0.0
 11
17.7363106677
 21
7.1921047372
 31
0.0
  0
LINE
  5
277
330
1F
100
AcDbEntity
  8
0
  6
Continuous
 62
     7
370
    25
100
AcDbLine
 10
18.4463106677
 20
7.1921047372
 30
0.0
 11
18.4963106677
 21
7.2171047372
 31
0.0
  0
LINE
  5
278
330
1F
100
AcDbEntity
  8
0
  6
Continuous
 62
     7
370
    25
100
AcDbLine
 10
17.689644001
 20
7.0687714038
 30
0.0
 11
17.7163106677
 21
7.0421047372
 31
0.0
  0
LINE
  5
279
330
1F
100
AcDbEntity
  8
0
  6
Continuous
 62
     7
370
    25
100
AcDbLine
 10
18.4663106677
 20
7.0421047372
 30
0.0
 11
18.4929773344
 21
7.0687714038
 31
0.0
  0
LINE
  5
27A
330
1F
100
AcDbEntity
  8
0
  6
Continuous
 62
     7
370
    25
100
AcDbLine
 10
18.4929773344
 20
7.0687714038
 30
0.0
 11
18.4463106677
 21
7.0921047372
 31
0.0
  0
LINE
  5
27B
330
1F
100
AcDbEntity
  8
0
  6
Continuous
 62
     7
370
    25
100
AcDbLine
 10
17.7363106677
 20
7.0921047372
 30
0.0
 11
17.689644001
 21
7.0687714038
 31
0.0
  0
LINE
  5
27C
330
1F
100
AcDbEntity
  8
0
  6
Continuous
 62
     7
370
    25
100
AcDbLine
 10
17.7413106677
 20
7.6421047372
 30
0.0
 11
17.7413106677
 21
7.6321047372
 31
0.0
  0
LINE
  5
27D
330
1F
100
AcDbEntity
  8
0
  6
Continuous
 62
     7
370
    25
100
AcDbLine
 10
18.4413106677
 20
7.6321047372
 30
0.0
 11
18.4413106677
 21
7.6421047372
 31
0.0
  0
LINE
  5
27E
330
1F
100
AcDbEntity
  8
0
  6
Continuous
 62
     7
370
    25
100
AcDbLine
 10
18.5863106677
 20
8.6421047372
 30
0.0
 11
18.5863106677
 21
8.7261382085
 31
0.0
  0
LINE
  5
27F
330
1F
100
AcDbEntity
  8
0
  6
Continuous
 62
     7
370
    25
100
AcDbLine
 10
17.5963106677
 20
8.6988603898
 30
0.0
 11
17.5963106677
 21
8.6421047372
 31
0.0
  0
ARC
  5
280
330
1F
100
AcDbEntity
  8
0
  6
Continuous
 62
     7
370
    25
100
AcDbCircle
 10
18.5306919336
 20
7.7946769896
 30
0.0
 40
0.2999999999999995
100
AcDbArc
 50
275.5921022903
 51
277.9142345778
  0
ARC
  5
281
330
1F
100
AcDbEntity
  8
0
  6
Continuous
 62
     7
370
    25
100
AcDbCircle
 10
17.6519294018
 20
7.7946769896
 30
0.0
 40
0.3000000000000004
100
AcDbArc
 50
262.0857654222
 51
264.4078977097
  0
LINE
  5
282
330
1F
100
AcDbEntity
  8
0
  6
Continuous
 62
     7
370
    25
100
AcDbLine
 10
18.0131672448
 20
7.6607694796
 30
0.0
 11
18.0071524241
 21
7.6607694796
 31
0.0
  0
LINE
  5
283
330
1F
100
AcDbEntity
  8
0
  6
Continuous
 62
     7
370
    25
100
AcDbLine
 10
18.2589593082
 20
7.5227640564
 30
0.0
 11
18.2594167762
 21
7.5252030369
 31
0.0
  0
SPLINE
  5
284
330
1F
100
AcDbEntity
  8
0
  6
Continuous
 62
     7
370
    25
100
AcDbSpline
210
0.0
220
0.0
230
1.0
 70
     8
 71
     3
 72
    12
 73
     8
 74
     0
 42
0.00000001
 43
0.00000001
 40
0.0
 40
0.0
 40
0.0
 40
0.0
 40
0.069423306684124
 40
0.3543127105842108
 40
0.6296850599902787
 40
0.8911991224285136
 40
1.0
 40
1.0
 40
1.0
 40
1.0
 10
18.25248192395468
 20
7.500631793252341
 30
0.0
 10
18.25267412139947
 20
7.500947355647356
 30
0.0
 10
18.25365503113832
 20
7.50255787771662
 30
0.0
 10
18.25499182623398
 20
7.506257309329296
 30
0.0
 10
18.2567405255271
 20
7.512220427566495
 30
0.0
 10
18.25803681456687
 20
7.517733146010141
 30
0.0
 10
18.25874982205945
 20
7.521621603064455
 30
0.0
 10
18.258959308182
 20
7.522764056404029
 30
0.0
  0
LINE
  5
285
330
1F
100
AcDbEntity
  8
0
  6
Continuous
 62
     7
370
    25
100
AcDbLine
 10
18.5327477794
 20
7.6607694796
 30
0.0
 11
18.4644165984
 21
7.6607694796
 31
0.0
  0
SPLINE
  5
286
330
1F
100
AcDbEntity
  8
0
  6
Continuous
 62
     7
370
    25
100
AcDbSpline
210
0.0
220
0.0
230
1.0
 70
     8
 71
     3
 72
    10
 73
     6
 74
     0
 42
0.00000001
 43
0.00000001
 40
0.0
 40
0.0
 40
0.0
 40
0.0
 40
0.4278956992706571
 40
0.8787497079903948
 40
1.0
 40
1.0
 40
1.0
 40
1.0
 10
17.65193917063572
 20
7.64655613242247
 30
0.0
 10
17.64923312401982
 20
7.648379507116715
 30
0.0
 10
17.64367584060336
 20
7.652124087823782
 30
0.0
 10
17.63801770950062
 20
7.656975589453463
 30
0.0
 10
17.63524820688035
 20
7.66014928194045
 30
0.0
 10
17.63466124572484
 20
7.660821906041171
 30
0.0
  0
LINE
  5
287
330
1F
100
AcDbEntity
  8
0
  6
Continuous
 62
     7
370
    25
100
AcDbLine
 10
17.6340464934
 20
7.6607694796
 30
0.0
 11
17.5717301332
 21
7.6607694796
 31
0.0
  0
ARC
  5
288
330
1F
100
AcDbEntity
  8
0
  6
Continuous
 62
     7
370
    25
100
AcDbCircle
 10
17.6113106677
 20
7.5024867802
 30
0.0
 40
0.0049999999999992
100
AcDbArc
 50
180.0
 51
262.0857654223
  0
LINE
  5
289
330
1F
100
AcDbEntity
  8
0
  6
Continuous
 62
     7
370
    25
100
AcDbLine
 10
17.6063106677
 20
7.5058841413
 30
0.0
 11
17.6063106677
 21
7.5024867802
 31
0.0
  0
ARC
  5
28A
330
1F
100
AcDbEntity
  8
0
  6
Continuous
 62
     7
370
    25
100
AcDbCircle
 10
18.5713106677
 20
7.5024867802
 30
0.0
 40
0.0050000000000006
100
AcDbArc
 50
277.9142345778
 51
327.3381938093
  0
LINE
  5
28B
330
1F
100
AcDbEntity
  8
0
  6
Continuous
 62
     7
370
    25
100
AcDbLine
 10
18.6108912023
 20
7.6607694796
 30
0.0
 11
18.557764817
 21
7.6607694796
 31
0.0
  0
ARC
  5
28C
330
1F
100
AcDbEntity
  8
0
  6
Continuous
 62
     7
370
    25
100
AcDbCircle
 10
18.5268106677
 20
7.6771047372
 30
0.0
 40
0.0349999999999994
100
AcDbArc
 50
311.1005846262
 51
343.398450401
  0
LWPOLYLINE
  5
28D
330
1F
100
AcDbEntity
  8
0
  6
Continuous
 62
     7
370
    25
100
AcDbPolyline
 90
        3
 70
   128
 43
0.0
 10
17.622269648
 20
7.6671047372
 10
17.6225236896
 20
7.6662891423
 10
17.6248565184
 20
7.6607694796
  0
LINE
  5
28E
330
1F
100
AcDbEntity
  8
0
  6
Continuous
 62
     7
370
    25
100
AcDbLine
 10
17.659028951
 20
7.6421047372
 30
0.0
 11
18.0039558177
 21
7.6421047372
 31
0.0
  0
LINE
  5
28F
330
1F
100
AcDbEntity
  8
0
  6
Continuous
 62
     7
370
    25
100
AcDbLine
 10
18.0769037718
 20
7.6421047372
 30
0.0
 11
18.4607864802
 21
7.6421047372
 31
0.0
  0
LINE
  5
290
330
1F
100
AcDbEntity
  8
0
  6
Continuous
 62
     7
370
    25
100
AcDbLine
 10
19.1742969718
 20
10.5624785713
 30
0.0
 11
19.1116969718
 21
10.6510083403
 31
0.0
  0
LINE
  5
291
330
1F
100
AcDbEntity
  8
0
  6
Continuous
 62
     7
370
    25
100
AcDbLine
 10
16.6785371606
 20
8.9305045382
 30
0.0
 11
16.7411371606
 21
8.8419747691
 31
0.0
  0
LINE
  5
292
330
1F
100
AcDbEntity
  8
0
  6
Continuous
 62
     7
370
    25
100
AcDbLine
 10
17.2127170662
 20
8.6486375663
 30
0.0
 11
17.2427170662
 21
8.6486375663
 31
0.0
  0
LINE
  5
293
330
1F
100
AcDbEntity
  8
0
  6
Continuous
 62
     7
370
    25
100
AcDbLine
 10
19.1893837329
 20
10.025138767
 30
0.0
 11
19.1993837329
 21
10.0534230382
 31
0.0
  0
ARC
  5
294
330
1F
100
AcDbEntity
  8
0
  6
Continuous
 62
     7
370
    25
100
AcDbCircle
 10
18.2477170662
 20
9.2921047372
 30
0.0
 40
0.4950000000000004
100
AcDbArc
 50
254.2515314714
 51
8.9883531781
  0
ELLIPSE
  5
295
330
1F
100
AcDbEntity
  8
0
  6
Continuous
 62
     7
370
    25
100
AcDbEllipse
 10
15.9981170662
 20
12.4735195671
 30
0.0
 11
0.0
 21
2.100107140124045
 31
0.0
210
0.0
220
0.0
230
1.0
 40
0.5
 41
0.0
 42
6.283185307179586
  0
SPLINE
  5
296
330
1F
100
AcDbEntity
  8
0
  6
Continuous
 62
     7
370
    25
100
AcDbSpline
210
0.0
220
0.0
230
1.0
 70
    11
 71
     3
 72
    44
 73
    40
 74
     0
 42
0.00000001
 43
0.00000001
 40
0.0
 40
0.0
 40
0.0
 40
0.0
 40
0.0268283843171015
 40
0.0536568489742633
 40
0.0804843602019093
 40
0.1073119868157047
 40
0.1341573061540468
 40
0.1610025960821433
 40
0.1878597184739297
 40
0.2147167121645586
 40
0.241554579158421
 40
0.2683924190851204
 40
0.2952100576824582
 40
0.322027812364053
 40
0.3488557554504098
 40
0.3756837768926983
 40
0.4025365051125261
 40
0.4293891513265189
 40
0.4562425066235434
 40
0.4830957469051935
 40
0.5099245215280176
 40
0.5367533278964636
 40
0.5635707021997227
 40
0.5903882046885641
 40
0.6172251299283738
 40
0.6440620800005884
 40
0.6709190048091681
 40
0.6977758119438873
 40
0.7246219843421796
 40
0.7514680801573984
 40
0.7782895607010039
 40
0.8051111247872241
 40
0.8319324759059584
 40
0.858753940132574
 40
0.8855999010418367
 40
0.9124458283078705
 40
0.9393028102145748
 40
0.9661596632562645
 40
1.0
 40
1.0
 40
1.0
 40
1.0
 10
16.24797918701101
 20
10.09025697482663
 30
0.0
 10
16.24975042840201
 20
10.08754914939727
 30
0.0
 10
16.25329291648816
 20
10.08213349042973
 30
0.0
 10
16.25669733794143
 20
10.0741606608757
 30
0.0
 10
16.25852285192004
 20
10.0666045194329
 30
0.0
 10
16.25866548583438
 20
10.05966358767218
 30
0.0
 10
16.25709573144123
 20
10.05358031686888
 30
0.0
 10
16.25392634014589
 20
10.04850396266798
 30
0.0
 10
16.24919511852883
 20
10.04464203544953
 30
0.0
 10
16.24310433108152
 20
10.04206576370844
 30
0.0
 10
16.23578293290885
 20
10.04091495325019
 30
0.0
 10
16.22748889347204
 20
10.04116511751431
 30
0.0
 10
16.21842169432714
 20
10.04286763782557
 30
0.0
 10
16.20885844088795
 20
10.0459074462079
 30
0.0
 10
16.19904591290581
 20
10.05024433199854
 30
0.0
 10
16.18925279445392
 20
10.05569311156347
 30
0.0
 10
16.17975312289634
 20
10.06212796484297
 30
0.0
 10
16.17078839334437
 20
10.06931681340556
 30
0.0
 10
16.16263304675248
 20
10.07706613131688
 30
0.0
 10
16.15547758162211
 20
10.08512671528971
 30
0.0
 10
16.14956511541535
 20
10.09326938145002
 30
0.0
 10
16.14501034903024
 20
10.10126444559235
 30
0.0
 10
16.14200142994338
 20
10.10887928099293
 30
0.0
 10
16.14056574209664
 20
10.11593071031775
 30
0.0
 10
16.14081989291278
 20
10.12220412925933
 30
0.0
 10
16.14270142100132
 20
10.12757329308936
 30
0.0
 10
16.14623724995223
 20
10.13185894252995
 30
0.0
 10
16.151272982581
 20
10.13499761444636
 30
0.0
 10
16.15773407743439
 20
10.13686263202337
 30
0.0
 10
16.1653841845635
 20
10.13745907133529
 30
0.0
 10
16.17405443664195
 20
10.13672235248674
 30
0.0
 10
16.18345783855701
 20
10.13472338948156
 30
0.0
 10
16.19335109389165
 20
10.13146087793362
 30
0.0
 10
16.2034343829389
 20
10.12706214188627
 30
0.0
 10
16.21341187951376
 20
10.12159114292878
 30
0.0
 10
16.22301091040689
 20
10.1152257942267
 30
0.0
 10
16.2318865591117
 20
10.10809546632212
 30
0.0
 10
16.24064535237577
 20
10.09976075551705
 30
0.0
 10
16.24535399209856
 20
10.09365891636995
 30
0.0
 10
16.24797918701101
 20
10.09025697482663
 30
0.0
  0
SPLINE
  5
297
330
1F
100
AcDbEntity
  8
0
  6
Continuous
 62
     7
370
    25
100
AcDbSpline
210
0.0
220
0.0
230
1.0
 70
    11
 71
     3
 72
    44
 73
    40
 74
     0
 42
0.00000001
 43
0.00000001
 40
0.0
 40
0.0
 40
0.0
 40
0.0
 40
0.0268283843171042
 40
0.0536568489742675
 40
0.0804843602019149
 40
0.1073119868157121
 40
0.1341573061540527
 40
0.1610025960821469
 40
0.1878597184739339
 40
0.2147167121645658
 40
0.2415545791584266
 40
0.2683924190851242
 40
0.2952100576824636
 40
0.3220278123640589
 40
0.3488557554504157
 40
0.3756837768927043
 40
0.4025365051125304
 40
0.4293891513265211
 40
0.4562425066235475
 40
0.4830957469051992
 40
0.5099245215280231
 40
0.5367533278964688
 40
0.5635707021997274
 40
0.5903882046885682
 40
0.6172251299283797
 40
0.6440620800005947
 40
0.670919004809172
 40
0.6977758119438866
 40
0.7246219843421804
 40
0.7514680801574026
 40
0.778289560701006
 40
0.8051111247872247
 40
0.8319324759059571
 40
0.8587539401325724
 40
0.8855999010418381
 40
0.912445828307877
 40
0.9393028102145803
 40
0.9661596632562675
 40
1.0
 40
1.0
 40
1.0
 40
1.0
 10
19.0473000321527
 20
10.54425710995812
 30
0.0
 10
19.04920287184775
 20
10.54144223925702
 30
0.0
 10
19.05300855693607
 20
10.53581248942543
 30
0.0
 10
19.05845828309677
 20
10.52616146003239
 30
0.0
 10
19.06350028273766
 20
10.51594166539268
 30
0.0
 10
19.06798952852317
 20
10.50534767463827
 30
0.0
 10
19.07175752285107
 20
10.49469206446383
 30
0.0
 10
19.07470917790407
 20
10.4842560023872
 30
0.0
 10
19.07670381066333
 20
10.47434720440382
 30
0.0
 10
19.07770971506622
 20
10.46521620127454
 30
0.0
 10
19.07764280804457
 20
10.45715615742945
 30
0.0
 10
19.0765467132479
 20
10.45034802094837
 30
0.0
 10
19.0744093226833
 20
10.44503816154614
 30
0.0
 10
19.07134251052742
 20
10.44131557610796
 30
0.0
 10
19.0674063872946
 20
10.43935812896805
 30
0.0
 10
19.06276134822388
 20
10.43915662787158
 30
0.0
 10
19.05753068928725
 20
10.44080044134981
 30
0.0
 10
19.05190068455197
 20
10.44417919266766
 30
0.0
 10
19.04603769355083
 20
10.44927555444971
 30
0.0
 10
19.04012654504035
 20
10.45588114449193
 30
0.0
 10
19.03434668658279
 20
10.46387058694974
 30
0.0
 10
19.02885252709571
 20
10.47296216105477
 30
0.0
 10
19.02381014705862
 20
10.48293938521631
 30
0.0
 10
19.01932660473927
 20
10.49348602428883
 30
0.0
 10
19.01553982644506
 20
10.50431697299131
 30
0.0
 10
19.01250749847359
 20
10.51511560877634
 30
0.0
 10
19.01033069530387
 20
10.52555752091003
 30
0.0
 10
19.00902007202217
 20
10.53535867144442
 30
0.0
 10
19.0086340820511
 20
10.54419880124124
 30
0.0
 10
19.00913915212234
 20
10.55186587410241
 30
0.0
 10
19.01055157510631
 20
10.558088154535
 30
0.0
 10
19.01280043439872
 20
10.56275514916979
 30
0.0
 10
19.01586353965844
 20
10.56567162981742
 30
0.0
 10
19.01964009398824
 20
10.56683522306524
 30
0.0
 10
19.02406883171093
 20
10.56614206273168
 30
0.0
 10
19.02902148139947
 20
10.56369983342638
 30
0.0
 10
19.03439377633527
 20
10.55948210387392
 30
0.0
 10
19.04052878990785
 20
10.55330211175058
 30
0.0
 10
19.0448762209303
 20
10.54749482854186
 30
0.0
 10
19.0473000321527
 20
10.54425710995812
 30
0.0
  0
SPLINE
  5
298
330
1F
100
AcDbEntity
  8
0
  6
Continuous
 62
     7
370
    25
100
AcDbSpline
210
0.0
220
0.0
230
1.0
 70
    11
 71
     3
 72
    44
 73
    40
 74
     0
 42
0.00000001
 43
0.00000001
 40
0.0
 40
0.0
 40
0.0
 40
0.0
 40
0.0268283843171065
 40
0.0536568489742694
 40
0.0804843602019155
 40
0.10731198681571
 40
0.1341573061540523
 40
0.1610025960821491
 40
0.1878597184739356
 40
0.2147167121645647
 40
0.2415545791584267
 40
0.2683924190851262
 40
0.2952100576824644
 40
0.3220278123640591
 40
0.348855755450416
 40
0.3756837768927039
 40
0.4025365051125302
 40
0.4293891513265207
 40
0.4562425066235465
 40
0.4830957469051984
 40
0.5099245215280217
 40
0.536753327896466
 40
0.5635707021997265
 40
0.5903882046885687
 40
0.6172251299283791
 40
0.6440620800005942
 40
0.6709190048091725
 40
0.6977758119438909
 40
0.7246219843421837
 40
0.7514680801574034
 40
0.7782895607010086
 40
0.8051111247872289
 40
0.8319324759059632
 40
0.8587539401325783
 40
0.885599901041841
 40
0.9124458283078769
 40
0.939302810214583
 40
0.9661596632562743
 40
1.0
 40
1.0
 40
1.0
 40
1.0
 10
17.06897918701101
 20
8.929187640118316
 30
0.0
 10
17.07075042840201
 20
8.926479814688962
 30
0.0
 10
17.07429291648816
 20
8.921064155721421
 30
0.0
 10
17.07769733794143
 20
8.913091326167388
 30
0.0
 10
17.07952285192005
 20
8.905535184724593
 30
0.0
 10
17.07966548583438
 20
8.898594252963873
 30
0.0
 10
17.07809573144123
 20
8.892510982160566
 30
0.0
 10
17.07492634014589
 20
8.887434627959667
 30
0.0
 10
17.07019511852883
 20
8.883572700741214
 30
0.0
 10
17.06410433108152
 20
8.880996429000131
 30
0.0
 10
17.05678293290885
 20
8.879845618541875
 30
0.0
 10
17.04848889347204
 20
8.880095782806002
 30
0.0
 10
17.03942169432714
 20
8.881798303117257
 30
0.0
 10
17.02985844088796
 20
8.884838111499587
 30
0.0
 10
17.02004591290581
 20
8.889174997290223
 30
0.0
 10
17.01025279445393
 20
8.894623776855163
 30
0.0
 10
17.00075312289635
 20
8.901058630134658
 30
0.0
 10
16.99178839334437
 20
8.908247478697245
 30
0.0
 10
16.98363304675248
 20
8.915996796608571
 30
0.0
 10
16.97647758162211
 20
8.924057380581397
 30
0.0
 10
16.97056511541535
 20
8.932200046741714
 30
0.0
 10
16.96601034903025
 20
8.940195110884039
 30
0.0
 10
16.96300142994338
 20
8.947809946284616
 30
0.0
 10
16.96156574209665
 20
8.954861375609434
 30
0.0
 10
16.96181989291279
 20
8.961134794551024
 30
0.0
 10
16.96370142100132
 20
8.966503958381045
 30
0.0
 10
16.96723724995223
 20
8.970789607821636
 30
0.0
 10
16.972272982581
 20
8.973928279738042
 30
0.0
 10
16.9787340774344
 20
8.975793297315056
 30
0.0
 10
16.98638418456351
 20
8.976389736626981
 30
0.0
 10
16.99505443664195
 20
8.975653017778425
 30
0.0
 10
17.00445783855702
 20
8.973654054773245
 30
0.0
 10
17.01435109389165
 20
8.97039154322531
 30
0.0
 10
17.0244343829389
 20
8.96599280717796
 30
0.0
 10
17.03441187951377
 20
8.960521808220463
 30
0.0
 10
17.0440109104069
 20
8.95415645951839
 30
0.0
 10
17.05288655911171
 20
8.947026131613814
 30
0.0
 10
17.06164535237577
 20
8.938691420808734
 30
0.0
 10
17.06635399209857
 20
8.932589581661638
 30
0.0
 10
17.06897918701101
 20
8.929187640118316
 30
0.0
  0
LWPOLYLINE
  5
299
330
1F
100
AcDbEntity
  8
0
  6
Continuous
 62
     7
370
    25
100
AcDbPolyline
 90
      106
 70
   128
 43
0.0
 10
16.6751196435
 20
8.9439978912
 10
16.6800531305
 20
8.9371858945
 10
16.6939655293
 20
8.9195640873
 10
16.7089670528
 20
8.9027468608
 10
16.7250440132
 20
8.8867495596
 10
16.7421817413
 20
8.8715867801
 10
16.7603646001
 20
8.8572723573
 10
16.779575999
 20
8.8438193521
 10
16.799798409
 20
8.8312400395
 10
16.8210133784
 20
8.8195458973
 10
16.8432015502
 20
8.8087475954
 10
16.866342679
 20
8.7988549867
 10
16.8904156503
 20
8.7898770974
 10
16.9153984991
 20
8.7818221193
 10
16.9412684303
 20
8.7746974019
 10
16.9680018393
 20
8.7685094461
 10
16.9955743338
 20
8.763263898
 10
17.0239607558
 20
8.7589655437
 10
17.0531352045
 20
8.7556183052
 10
17.0830710604
 20
8.7532252367
 10
17.1137410091
 20
8.7517885216
 10
17.1451170662
 20
8.7513094709
 10
17.1771706034
 20
8.7517885216
 10
17.209872374
 20
8.7532252367
 10
17.2431925398
 20
8.7556183052
 10
17.2771006986
 20
8.7589655437
 10
17.3115659115
 20
8.763263898
 10
17.3465567313
 20
8.7685094461
 10
17.3820412313
 20
8.7746974019
 10
17.4179870344
 20
8.7818221193
 10
17.4543613426
 20
8.7898770974
 10
17.4911309666
 20
8.7988549867
 10
17.5282623569
 20
8.8087475954
 10
17.5657216336
 20
8.8195458973
 10
17.6034746177
 20
8.8312400395
 10
17.6414868621
 20
8.8438193521
 10
17.6797236834
 20
8.8572723573
 10
17.7181501931
 20
8.8715867801
 10
17.7567313295
 20
8.8867495596
 10
17.7954318902
 20
8.9027468608
 10
17.8342165635
 20
8.9195640873
 10
17.8730499611
 20
8.9371858945
 10
17.9118966502
 20
8.9555962037
 10
17.9507211858
 20
8.9747782169
 10
17.9894881432
 20
8.9947144316
 10
18.0281621504
 20
9.0153866576
 10
18.0667079198
 20
9.0367760328
 10
18.1050902812
 20
9.058863041
 10
18.1432742133
 20
9.0816275291
 10
18.1812248758
 20
9.1050487263
 10
18.2189076415
 20
9.1291052622
 10
18.2562881274
 20
9.153775187
 10
18.2933322264
 20
9.1790359911
 10
18.3300061382
 20
9.2048646256
 10
18.3662764006
 20
9.2312375238
 10
18.4021099194
 20
9.2581306223
 10
18.4374739989
 20
9.2855193828
 10
18.4723363718
 20
9.3133788151
 10
18.5066652288
 20
9.3416834993
 10
18.540429247
 20
9.3704076094
 10
18.5735976191
 20
9.3995249366
 10
18.6061400813
 20
9.4290089134
 10
18.6380269408
 20
9.4588326376
 10
18.669229103
 20
9.4889688972
 10
18.6997180982
 20
9.5193901948
 10
18.7294661072
 20
9.5500687733
 10
18.758445987
 20
9.5809766405
 10
18.7866312955
 20
9.612085595
 10
18.8139963155
 20
9.6433672521
 10
18.8405160784
 20
9.6747930695
 10
18.8661663866
 20
9.7063343733
 10
18.8909238361
 20
9.7379623842
 10
18.9147658374
 20
9.7696482438
 10
18.9376706363
 20
9.801363041
 10
18.9596173337
 20
9.8330778381
 10
18.9805859048
 20
9.8647636977
 10
19.0005572173
 20
9.8963917086
 10
19.0195130486
 20
9.9279330124
 10
19.0374361029
 20
9.9593588298
 10
19.0543100267
 20
9.9906404869
 10
19.0701194236
 20
10.0217494415
 10
19.0848498687
 20
10.0526573086
 10
19.0984879214
 20
10.0833358871
 10
19.111021138
 20
10.1137571848
 10
19.1224380828
 20
10.1438934443
 10
19.1327283385
 20
10.1737171686
 10
19.1418825162
 20
10.2032011453
 10
19.1498922631
 20
10.2323184725
 10
19.156750271
 20
10.2610425826
 10
19.1624502823
 20
10.2893472669
 10
19.1669870963
 20
10.3172066991
 10
19.1703565734
 20
10.3445954597
 10
19.1725556392
 20
10.3714885581
 10
19.1735822871
 20
10.3978614563
 10
19.1734355805
 20
10.4236900908
 10
19.1721156532
 20
10.4489508949
 10
19.1696237096
 20
10.4736208197
 10
19.1659620233
 20
10.4976773556
 10
19.1611339354
 20
10.5210985528
 10
19.1551438512
 20
10.543863041
 10
19.1479972363
 20
10.5659500491
 10
19.1397006114
 20
10.5873394243
 10
19.1302615466
 20
10.6080116503
 10
19.1196886545
 20
10.6279478651
 10
19.107991582
 20
10.6471298782
 10
19.1001144889
 20
10.6587281907
  0
ELLIPSE
  5
29A
330
1F
100
AcDbEntity
  8
0
  6
Continuous
 62
     7
370
    25
100
AcDbEllipse
 10
15.9981170662
 20
12.4735195671
 30
0.0
 11
0.0
 21
1.976363453416399
 31
0.0
210
0.0
220
0.0
230
1.0
 40
0.5
 41
0.0
 42
6.283185307179586
  0
LWPOLYLINE
  5
29B
330
1F
100
AcDbEntity
  8
0
  6
Continuous
 62
     7
370
    25
100
AcDbPolyline
 90
       51
 70
   128
 43
0.0
 10
16.9408856685
 20
11.8812679732
 10
16.9299731928
 20
11.8758820776
 10
16.8923828029
 20
11.8568254439
 10
16.8548729367
 20
11.8370280452
 10
16.8174798827
 20
11.8165090343
 10
16.7802398162
 20
11.795288262
 10
16.7431887645
 20
11.7733862579
 10
16.7063625723
 20
11.750824211
 10
16.6697968663
 20
11.7276239484
 10
16.6335270217
 20
11.703807915
 10
16.5975881271
 20
11.6793991513
 10
16.5620149511
 20
11.654421271
 10
16.5268419084
 20
11.6288984388
 10
16.4921030266
 20
11.6028553464
 10
16.4578319135
 20
11.5763171886
 10
16.4240617241
 20
11.5493096395
 10
16.3908251289
 20
11.5218588271
 10
16.358154282
 20
11.4939913084
 10
16.3260807906
 20
11.4657340433
 10
16.2946356835
 20
11.437114369
 10
16.263849382
 20
11.408159973
 10
16.2337516697
 20
11.378898867
 10
16.2043716643
 20
11.3493593592
 10
16.175737789
 20
11.319570027
 10
16.1478777452
 20
11.2895596898
 10
16.1208184858
 20
11.2593573807
 10
16.0945861888
 20
11.2289923184
 10
16.0692062323
 20
11.1984938791
 10
16.0447031697
 20
11.1678915682
 10
16.0211007061
 20
11.1372149914
 10
15.9984216756
 20
11.1064938262
 10
15.9766880184
 20
11.0757577935
 10
15.9559207606
 20
11.0450366283
 10
15.9361399931
 20
11.0143600515
 10
15.9173648525
 20
10.9837577406
 10
15.8996135026
 20
10.9532593013
 10
15.8829031167
 20
10.922894239
 10
15.8672498609
 20
10.8926919299
 10
15.8526688788
 20
10.8626815927
 10
15.8391742766
 20
10.8328922605
 10
15.8267791094
 20
10.8033527527
 10
15.8154953687
 20
10.7740916467
 10
15.8053339708
 20
10.7451372507
 10
15.7963047462
 20
10.7165175764
 10
15.7884164302
 20
10.6882603113
 10
15.781676654
 20
10.6603927926
 10
15.7760919382
 20
10.6329419802
 10
15.7716676854
 20
10.6059344311
 10
15.7684081758
 20
10.5793962733
 10
15.766316563
 20
10.5533531808
 10
15.7662575549
 20
10.552327966
  0
LWPOLYLINE
  5
29C
330
1F
100
AcDbEntity
  8
0
  6
Continuous
 62
     7
370
    25
100
AcDbPolyline
 90
       51
 70
   128
 43
0.0
 10
15.8846620065
 20
10.5102253207
 10
15.8829131331
 20
10.5236673115
 10
15.880928771
 20
10.5465947516
 10
15.8801166285
 20
10.5701052892
 10
15.8804775753
 20
10.5941737487
 10
15.8820112249
 20
10.6187743568
 10
15.8847159351
 20
10.6438807707
 10
15.8885888095
 20
10.6694661059
 10
15.8936257009
 20
10.6955029647
 10
15.8998212159
 20
10.7219634665
 10
15.90716872
 20
10.7488192765
 10
15.9156603453
 20
10.7760416369
 10
15.9252869988
 20
10.8036013974
 10
15.9360383721
 20
10.8314690462
 10
15.9479029523
 20
10.859614742
 10
15.9608680345
 20
10.8880083456
 10
15.9749197354
 20
10.9166194525
 10
15.990043008
 20
10.9454174251
 10
16.0062216581
 20
10.974371426
 10
16.023438361
 20
11.0034504503
 10
16.0416746807
 20
11.0326233597
 10
16.0609110893
 20
11.0618589149
 10
16.081126988
 20
11.0911258098
 10
16.1023007291
 20
11.1203927048
 10
16.1244096392
 20
11.14962826
 10
16.1474300435
 20
11.1788011694
 10
16.1713372912
 20
11.2078801937
 10
16.1961057819
 20
11.2368341946
 10
16.2217089927
 20
11.2656321672
 10
16.2481195072
 20
11.2942432741
 10
16.2753090443
 20
11.3226368777
 10
16.3032484888
 20
11.3507825735
 10
16.3319079224
 20
11.3786502223
 10
16.3612566559
 20
11.4062099828
 10
16.3912632619
 20
11.4334323432
 10
16.4218956086
 20
11.4602881532
 10
16.4531208941
 20
11.4867486549
 10
16.4849056815
 20
11.5127855138
 10
16.5172159351
 20
11.5383708489
 10
16.550017056
 20
11.5634772629
 10
16.5832739201
 20
11.588077871
 10
16.616950915
 20
11.6121463305
 10
16.6510119787
 20
11.6356568681
 10
16.6854206376
 20
11.6585843082
 10
16.7201400461
 20
11.6809040996
 10
16.7551330258
 20
11.7025923415
 10
16.7903621053
 20
11.7236258098
 10
16.8257895605
 20
11.7439819813
 10
16.8613774547
 20
11.763639058
 10
16.8970876796
 20
11.7825759907
 10
16.9267290413
 20
11.7977002875
  0
LWPOLYLINE
  5
29D
330
1F
100
AcDbEntity
  8
0
  6
Continuous
 62
     7
370
    25
100
AcDbPolyline
 90
       46
 70
   128
 43
0.0
 10
15.9300996328
 20
10.5018433728
 10
15.9304775753
 20
10.5234630705
 10
15.9320112249
 20
10.5480636787
 10
15.9347159351
 20
10.5731700926
 10
15.9385888095
 20
10.5987554277
 10
15.9436257009
 20
10.6247922866
 10
15.9498212159
 20
10.6512527884
 10
15.95716872
 20
10.6781085984
 10
15.9656603453
 20
10.7053309588
 10
15.9752869988
 20
10.7328907193
 10
15.9860383721
 20
10.7607583681
 10
15.9979029523
 20
10.7889040638
 10
16.0108680345
 20
10.8172976674
 10
16.0249197354
 20
10.8459087743
 10
16.040043008
 20
10.874706747
 10
16.0562216581
 20
10.9036607478
 10
16.073438361
 20
10.9327397722
 10
16.0916746807
 20
10.9619126815
 10
16.1109110893
 20
10.9911482368
 10
16.131126988
 20
11.0204151317
 10
16.1523007291
 20
11.0496820267
 10
16.1744096392
 20
11.0789175819
 10
16.1974300435
 20
11.1080904912
 10
16.2213372912
 20
11.1371695156
 10
16.2461057819
 20
11.1661235165
 10
16.2717089927
 20
11.1949214891
 10
16.2981195072
 20
11.223532596
 10
16.3253090443
 20
11.2519261996
 10
16.3532484888
 20
11.2800718954
 10
16.3819079224
 20
11.3079395442
 10
16.4112566559
 20
11.3354993046
 10
16.4412632619
 20
11.3627216651
 10
16.4718956086
 20
11.3895774751
 10
16.5031208941
 20
11.4160379768
 10
16.5349056815
 20
11.4420748357
 10
16.5672159351
 20
11.4676601708
 10
16.600017056
 20
11.4927665848
 10
16.6332739201
 20
11.5173671929
 10
16.666950915
 20
11.5414356524
 10
16.7010119787
 20
11.56494619
 10
16.7354206376
 20
11.5878736301
 10
16.7701400461
 20
11.6101934214
 10
16.8051330258
 20
11.6318816634
 10
16.8403621053
 20
11.6529151317
 10
16.8757895605
 20
11.6732713032
 10
16.9052377982
 20
11.6895932886
  0
LWPOLYLINE
  5
29E
330
1F
100
AcDbEntity
  8
0
  6
Continuous
 62
     7
370
    25
100
AcDbPolyline
 90
       44
 70
   128
 43
0.0
 10
19.0243879375
 20
10.5623193822
 10
19.0208063921
 20
10.5623076721
 10
19.0177029829
 20
10.561035471
 10
19.0151438537
 20
10.5585298938
 10
19.0131835479
 20
10.5548443424
 10
19.0118638461
 20
10.5500573679
 10
19.0112128754
 20
10.5442709965
 10
19.01124451
 20
10.5376085545
 10
19.0119580758
 20
10.5302120404
 10
19.0133383644
 20
10.522239098
 10
19.0153559572
 20
10.5138596568
 10
19.0179678529
 20
10.5052523099
 10
19.0211183833
 20
10.4966005081
 10
19.0247404004
 20
10.4880886494
 10
19.0287567072
 20
10.4798981494
 10
19.0330817031
 20
10.4722035744
 10
19.0376232083
 20
10.4651689208
 10
19.0422844285
 20
10.4589441201
 10
19.0469660178
 20
10.4536618431
 10
19.0515681964
 20
10.4494346724
 10
19.0559928769
 20
10.4463527027
 10
19.0601457547
 20
10.4444816209
 10
19.0639383185
 20
10.443861306
 10
19.0672897365
 20
10.4445049787
 10
19.0701285789
 20
10.4463989203
 10
19.0723943408
 20
10.4495027648
 10
19.0740387313
 20
10.4537503591
 10
19.0750267033
 20
10.4590511731
 10
19.0753371996
 20
10.4652922292
 10
19.0749636027
 20
10.4723405101
 10
19.0739138752
 20
10.4800457938
 10
19.0722103901
 20
10.4882438557
 10
19.0698894542
 20
10.4967599684
 10
19.0670005344
 20
10.5054126256
 10
19.0636052028
 20
10.5140174109
 10
19.0597758252
 20
10.5223909284
 10
19.055594018
 20
10.5303547111
 10
19.0511489091
 20
10.5377390246
 10
19.0465352385
 20
10.5443864853
 10
19.0418513384
 20
10.550155414
 10
19.037197038
 20
10.5549228561
 10
19.0326715358
 20
10.5585872017
 10
19.0283712848
 20
10.5610703518
 10
19.0243879375
 20
10.5623193822
  0
LINE
  5
29F
330
1F
100
AcDbEntity
  8
0
  6
Continuous
 62
     7
370
    25
100
AcDbLine
 10
19.0339552963
 20
10.4847719839
 30
0.0
 11
19.0566309373
 21
10.4611499634
 31
0.0
  0
LINE
  5
2A0
330
1F
100
AcDbEntity
  8
0
  6
Continuous
 62
     7
370
    25
100
AcDbLine
 10
19.0659157742
 20
10.4795445008
 30
0.0
 11
19.0566309373
 21
10.4611499634
 31
0.0
  0
LINE
  5
2A1
330
1F
100
AcDbEntity
  8
0
  6
Continuous
 62
     7
370
    25
100
AcDbLine
 10
19.0525249701
 20
10.5215610587
 30
0.0
 11
19.0659157742
 21
10.4795445008
 31
0.0
  0
LINE
  5
2A2
330
1F
100
AcDbEntity
  8
0
  6
Continuous
 62
     7
370
    25
100
AcDbLine
 10
19.0525249701
 20
10.5215610587
 30
0.0
 11
19.0298493291
 21
10.5451830792
 31
0.0
  0
LINE
  5
2A3
330
1F
100
AcDbEntity
  8
0
  6
Continuous
 62
     7
370
    25
100
AcDbLine
 10
19.0205644922
 20
10.5267885418
 30
0.0
 11
19.0298493291
 21
10.5451830792
 31
0.0
  0
LINE
  5
2A4
330
1F
100
AcDbEntity
  8
0
  6
Continuous
 62
     7
370
    25
100
AcDbLine
 10
19.0205644922
 20
10.5267885418
 30
0.0
 11
19.0339552963
 21
10.4847719839
 31
0.0
  0
LINE
  5
2A5
330
1F
100
AcDbEntity
  8
0
  6
Continuous
 62
     7
370
    25
100
AcDbLine
 10
19.046582146
 20
10.4716181461
 30
0.0
 11
19.0659157742
 21
10.4795445008
 31
0.0
  0
LINE
  5
2A6
330
1F
100
AcDbEntity
  8
0
  6
Continuous
 62
     7
370
    25
100
AcDbLine
 10
19.0257313862
 20
10.5105762892
 30
0.0
 11
19.0525249701
 21
10.5215610587
 31
0.0
  0
LWPOLYLINE
  5
2A7
330
1F
100
AcDbEntity
  8
0
  6
Continuous
 62
     7
370
    25
100
AcDbPolyline
 90
       44
 70
   128
 43
0.0
 10
17.0294036208
 20
8.9597850886
 10
17.0214254547
 20
8.9640629988
 10
17.0134194025
 20
8.9675741252
 10
17.0055560995
 20
8.9702436343
 10
16.9980031381
 20
8.9720146303
 10
16.9909214967
 20
8.9728493672
 10
16.9844621083
 20
8.9727300543
 10
16.9787626433
 20
8.9716592344
 10
16.9739445761
 20
8.9696597301
 10
16.9701105953
 20
8.9667741576
 10
16.9673424156
 20
8.9630640177
 10
16.965699036
 20
8.9586083856
 10
16.9652154823
 20
8.9535022254
 10
16.9659020604
 20
8.947854366
 10
16.9677441373
 20
8.9417851817
 10
16.9707024523
 20
8.9354240267
 10
16.9747139539
 20
8.928906478
 10
16.9796931441
 20
8.9223714458
 10
16.9855339
 20
8.9159582128
 10
16.992111736
 20
8.9098034662
 10
16.999286457
 20
8.9040383836
 10
17.0069051463
 20
8.8987858377
 10
17.0148054247
 20
8.8941577774
 10
17.0228189116
 20
8.8902528418
 10
17.0307748133
 20
8.8871542579
 10
17.0385035636
 20
8.8849280665
 10
17.0458404377
 20
8.8836217151
 10
17.0526290627
 20
8.8832630463
 10
17.058724751
 20
8.8838597044
 10
17.0639975835
 20
8.8853989728
 10
17.068335179
 20
8.8878480446
 10
17.0716450891
 20
8.8911547222
 10
17.0738567689
 20
8.8952485293
 10
17.0749230802
 20
8.9000422136
 10
17.0748212965
 20
8.9054336061
 10
17.073553587
 20
8.9113077986
 10
17.0711469709
 20
8.9175395929
 10
17.067652741
 20
8.9239961691
 10
17.0631453707
 20
8.9305399164
 10
17.0577209268
 20
8.9370313664
 10
17.0514950219
 20
8.9433321649
 10
17.0446003504
 20
8.9493080214
 10
17.0371838601
 20
8.9548315709
 10
17.0294036208
 20
8.9597850886
  0
LINE
  5
2A8
330
1F
100
AcDbEntity
  8
0
  6
Continuous
 62
     7
370
    25
100
AcDbLine
 10
16.9835305362
 20
8.9363288815
 30
0.0
 11
17.0135207824
 21
8.9055702711
 31
0.0
  0
LINE
  5
2A9
330
1F
100
AcDbEntity
  8
0
  6
Continuous
 62
     7
370
    25
100
AcDbLine
 10
17.0501073124
 20
8.8973275558
 30
0.0
 11
17.0135207824
 21
8.9055702711
 31
0.0
  0
LINE
  5
2AA
330
1F
100
AcDbEntity
  8
0
  6
Continuous
 62
     7
370
    25
100
AcDbLine
 10
17.0567035962
 20
8.9198434509
 30
0.0
 11
17.0501073124
 21
8.8973275558
 31
0.0
  0
LINE
  5
2AB
330
1F
100
AcDbEntity
  8
0
  6
Continuous
 62
     7
370
    25
100
AcDbLine
 10
17.0567035962
 20
8.9198434509
 30
0.0
 11
17.02671335
 21
8.9506020613
 31
0.0
  0
LINE
  5
2AC
330
1F
100
AcDbEntity
  8
0
  6
Continuous
 62
     7
370
    25
100
AcDbLine
 10
16.9901268201
 20
8.9588447766
 30
0.0
 11
17.02671335
 21
8.9506020613
 31
0.0
  0
LINE
  5
2AD
330
1F
100
AcDbEntity
  8
0
  6
Continuous
 62
     7
370
    25
100
AcDbLine
 10
16.9901268201
 20
8.9588447766
 30
0.0
 11
16.9835305362
 21
8.9363288815
 31
0.0
  0
LINE
  5
2AE
330
1F
100
AcDbEntity
  8
0
  6
Continuous
 62
     7
370
    25
100
AcDbLine
 10
16.9981702982
 20
8.9570326315
 30
0.0
 11
16.9835305362
 21
8.9363288815
 31
0.0
  0
LINE
  5
2AF
330
1F
100
AcDbEntity
  8
0
  6
Continuous
 62
     7
370
    25
100
AcDbLine
 10
17.0375233812
 20
8.939515072
 30
0.0
 11
17.0135207824
 21
8.9055702711
 31
0.0
  0
LINE
  5
2B0
330
1F
100
AcDbEntity
  8
0
  6
Continuous
 62
     7
370
    25
100
AcDbLine
 10
17.5963106677
 20
7.6671047372
 30
0.0
 11
18.5863106677
 21
7.6671047372
 31
0.0
  0
LINE
  5
2B1
330
1F
100
AcDbEntity
  8
0
  6
Continuous
 62
     7
370
    25
100
AcDbLine
 10
17.5963106677
 20
8.6421047372
 30
0.0
 11
18.5863106677
 21
8.6421047372
 31
0.0
  0
SPLINE
  5
2B2
330
1F
100
AcDbEntity
  8
0
  6
Continuous
 62
     7
370
    25
100
AcDbSpline
210
0.0
220
0.0
230
1.0
 70
     8
 71
     3
 72
     9
 73
     5
 74
     0
 42
0.00000001
 43
0.00000001
 40
0.0
 40
0.0
 40
0.0
 40
0.0
 40
0.4994682272929111
 40
1.0
 40
1.0
 40
1.0
 40
1.0
 10
18.20261200906933
 20
7.430022705668715
 30
0.0
 10
18.19088967357228
 20
7.428329043147568
 30
0.0
 10
18.16742004155869
 20
7.424938111695679
 30
0.0
 10
18.14420347576226
 20
7.419717712710886
 30
0.0
 10
18.13258284692801
 20
7.417104737152791
 30
0.0
  0
LINE
  5
2B3
330
1F
100
AcDbEntity
  8
0
  6
Continuous
 62
     7
370
    25
100
AcDbLine
 10
18.4942022254
 20
7.4171047372
 30
0.0
 11
18.4963106677
 21
7.4171047372
 31
0.0
  0
LINE
  5
2B4
330
1F
100
AcDbEntity
  8
0
  6
Continuous
 62
     7
370
    25
100
AcDbLine
 10
17.6863106677
 20
7.4171047372
 30
0.0
 11
18.1325828469
 21
7.4171047372
 31
0.0
  0
SPLINE
  5
2B5
330
1F
100
AcDbEntity
  8
0
  6
Continuous
 62
     7
370
    25
100
AcDbSpline
210
0.0
220
0.0
230
1.0
 70
     8
 71
     3
 72
     9
 73
     5
 74
     0
 42
0.00000001
 43
0.00000001
 40
0.0
 40
0.0
 40
0.0
 40
0.0
 40
0.4995093295825079
 40
1.0
 40
1.0
 40
1.0
 40
1.0
 10
18.49420222535272
 20
7.417104737152791
 30
0.0
 10
18.48750678951959
 20
7.419712645498006
 30
0.0
 10
18.47410276393568
 20
7.424933585710263
 30
0.0
 10
18.46055260024774
 20
7.428325222898541
 30
0.0
 10
18.4537708697393
 20
7.430022705668715
 30
0.0
  0
LINE
  5
2B6
330
1F
100
AcDbEntity
  8
0
  6
Continuous
 62
     7
370
    25
100
AcDbLine
 10
18.411257678
 20
7.4421047372
 30
0.0
 11
18.4537708697
 21
7.4300227057
 31
0.0
  0
LINE
  5
2B7
330
1F
100
AcDbEntity
  8
0
  6
Continuous
 62
     7
370
    25
100
AcDbLine
 10
18.411257678
 20
7.4421047372
 30
0.0
 11
18.4463106677
 21
7.4421047372
 31
0.0
  0
LINE
  5
2B8
330
1F
100
AcDbEntity
  8
0
  6
Continuous
 62
     7
370
    25
100
AcDbLine
 10
17.7363106677
 20
7.4421047372
 30
0.0
 11
18.2451252008
 21
7.4421047372
 31
0.0
  0
LINE
  5
2B9
330
1F
100
AcDbEntity
  8
0
  6
Continuous
 62
     7
370
    25
100
AcDbLine
 10
18.2026120091
 20
7.4300227057
 30
0.0
 11
18.2451252008
 21
7.4421047372
 31
0.0
  0
LINE
  5
2BA
330
1F
100
AcDbEntity
  8
0
  6
Continuous
 62
     7
370
    25
100
AcDbLine
 10
18.411257678
 20
7.2421047372
 30
0.0
 11
18.4463106677
 21
7.2421047372
 31
0.0
  0
LINE
  5
2BB
330
1F
100
AcDbEntity
  8
0
  6
Continuous
 62
     7
370
    25
100
AcDbLine
 10
17.7363106677
 20
7.2421047372
 30
0.0
 11
18.2451252008
 21
7.2421047372
 31
0.0
  0
LINE
  5
2BC
330
1F
100
AcDbEntity
  8
0
  6
Continuous
 62
     7
370
    25
100
AcDbLine
 10
18.4537708697
 20
7.2541867686
 30
0.0
 11
18.411257678
 21
7.2421047372
 31
0.0
  0
SPLINE
  5
2BD
330
1F
100
AcDbEntity
  8
0
  6
Continuous
 62
     7
370
    25
100
AcDbSpline
210
0.0
220
0.0
230
1.0
 70
     8
 71
     3
 72
     9
 73
     5
 74
     0
 42
0.00000001
 43
0.00000001
 40
0.0
 40
0.0
 40
0.0
 40
0.0
 40
0.4994682272929171
 40
1.0
 40
1.0
 40
1.0
 40
1.0
 10
18.4537708697393
 20
7.254186768636867
 30
0.0
 10
18.46053876329405
 20
7.255880431158013
 30
0.0
 10
18.47408896165488
 20
7.259271362609901
 30
0.0
 10
18.48749305216711
 20
7.264491761594694
 30
0.0
 10
18.49420222535272
 20
7.26710473715279
 30
0.0
  0
LINE
  5
2BE
330
1F
100
AcDbEntity
  8
0
  6
Continuous
 62
     7
370
    25
100
AcDbLine
 10
18.4942022254
 20
7.2671047372
 30
0.0
 11
18.4963106677
 21
7.2671047372
 31
0.0
  0
LINE
  5
2BF
330
1F
100
AcDbEntity
  8
0
  6
Continuous
 62
     7
370
    25
100
AcDbLine
 10
17.6863106677
 20
7.2671047372
 30
0.0
 11
18.1325828469
 21
7.2671047372
 31
0.0
  0
SPLINE
  5
2C0
330
1F
100
AcDbEntity
  8
0
  6
Continuous
 62
     7
370
    25
100
AcDbSpline
210
0.0
220
0.0
230
1.0
 70
     8
 71
     3
 72
     9
 73
     5
 74
     0
 42
0.00000001
 43
0.00000001
 40
0.0
 40
0.0
 40
0.0
 40
0.0
 40
0.4995093295825074
 40
1.0
 40
1.0
 40
1.0
 40
1.0
 10
18.13258284692801
 20
7.26710473715279
 30
0.0
 10
18.1441796819698
 20
7.264496828807576
 30
0.0
 10
18.16739613530708
 20
7.259275888595318
 30
0.0
 10
18.19086570726547
 20
7.25588425140704
 30
0.0
 10
18.20261200906933
 20
7.254186768636867
 30
0.0
  0
LINE
  5
2C1
330
1F
100
AcDbEntity
  8
0
  6
Continuous
 62
     7
370
    25
100
AcDbLine
 10
18.2451252008
 20
7.2421047372
 30
0.0
 11
18.2026120091
 21
7.2541867686
 31
0.0
  0
SPLINE
  5
2C2
330
1F
100
AcDbEntity
  8
0
  6
Continuous
 62
     7
370
    25
100
AcDbSpline
210
0.0
220
0.0
230
1.0
 70
     8
 71
     3
 72
     9
 73
     5
 74
     0
 42
0.00000001
 43
0.00000001
 40
0.0
 40
0.0
 40
0.0
 40
0.0
 40
0.4994682272929112
 40
1.0
 40
1.0
 40
1.0
 40
1.0
 10
18.20261200906933
 20
7.380022705668714
 30
0.0
 10
18.19088967357228
 20
7.378329043147567
 30
0.0
 10
18.16742004155869
 20
7.37493811169568
 30
0.0
 10
18.14420347576226
 20
7.369717712710886
 30
0.0
 10
18.13258284692801
 20
7.367104737152791
 30
0.0
  0
LINE
  5
2C3
330
1F
100
AcDbEntity
  8
0
  6
Continuous
 62
     7
370
    25
100
AcDbLine
 10
18.4942022254
 20
7.3671047372
 30
0.0
 11
18.4963106677
 21
7.3671047372
 31
0.0
  0
LINE
  5
2C4
330
1F
100
AcDbEntity
  8
0
  6
Continuous
 62
     7
370
    25
100
AcDbLine
 10
17.6863106677
 20
7.3671047372
 30
0.0
 11
18.1325828469
 21
7.3671047372
 31
0.0
  0
SPLINE
  5
2C5
330
1F
100
AcDbEntity
  8
0
  6
Continuous
 62
     7
370
    25
100
AcDbSpline
210
0.0
220
0.0
230
1.0
 70
     8
 71
     3
 72
     9
 73
     5
 74
     0
 42
0.00000001
 43
0.00000001
 40
0.0
 40
0.0
 40
0.0
 40
0.0
 40
0.4995093295825075
 40
1.0
 40
1.0
 40
1.0
 40
1.0
 10
18.49420222535272
 20
7.367104737152791
 30
0.0
 10
18.48750678951959
 20
7.369712645498006
 30
0.0
 10
18.47410276393568
 20
7.374933585710262
 30
0.0
 10
18.46055260024774
 20
7.378325222898539
 30
0.0
 10
18.4537708697393
 20
7.380022705668714
 30
0.0
  0
LINE
  5
2C6
330
1F
100
AcDbEntity
  8
0
  6
Continuous
 62
     7
370
    25
100
AcDbLine
 10
18.411257678
 20
7.3921047372
 30
0.0
 11
18.4537708697
 21
7.3800227057
 31
0.0
  0
LINE
  5
2C7
330
1F
100
AcDbEntity
  8
0
  6
Continuous
 62
     7
370
    25
100
AcDbLine
 10
18.411257678
 20
7.3921047372
 30
0.0
 11
18.4463106677
 21
7.3921047372
 31
0.0
  0
LINE
  5
2C8
330
1F
100
AcDbEntity
  8
0
  6
Continuous
 62
     7
370
    25
100
AcDbLine
 10
17.7363106677
 20
7.3921047372
 30
0.0
 11
18.2451252008
 21
7.3921047372
 31
0.0
  0
LINE
  5
2C9
330
1F
100
AcDbEntity
  8
0
  6
Continuous
 62
     7
370
    25
100
AcDbLine
 10
18.2026120091
 20
7.3800227057
 30
0.0
 11
18.2451252008
 21
7.3921047372
 31
0.0
  0
SPLINE
  5
2CA
330
1F
100
AcDbEntity
  8
0
  6
Continuous
 62
     7
370
    25
100
AcDbSpline
210
0.0
220
0.0
230
1.0
 70
     8
 71
     3
 72
     9
 73
     5
 74
     0
 42
0.00000001
 43
0.00000001
 40
0.0
 40
0.0
 40
0.0
 40
0.0
 40
0.499468227292911
 40
1.0
 40
1.0
 40
1.0
 40
1.0
 10
18.20261200906933
 20
7.130022705668714
 30
0.0
 10
18.19088967357228
 20
7.128329043147568
 30
0.0
 10
18.16742004155869
 20
7.124938111695679
 30
0.0
 10
18.14420347576226
 20
7.119717712710887
 30
0.0
 10
18.13258284692801
 20
7.117104737152791
 30
0.0
  0
LINE
  5
2CB
330
1F
100
AcDbEntity
  8
0
  6
Continuous
 62
     7
370
    25
100
AcDbLine
 10
18.4942022254
 20
7.1171047372
 30
0.0
 11
18.4963106677
 21
7.1171047372
 31
0.0
  0
LINE
  5
2CC
330
1F
100
AcDbEntity
  8
0
  6
Continuous
 62
     7
370
    25
100
AcDbLine
 10
17.6863106677
 20
7.1171047372
 30
0.0
 11
18.1325828469
 21
7.1171047372
 31
0.0
  0
SPLINE
  5
2CD
330
1F
100
AcDbEntity
  8
0
  6
Continuous
 62
     7
370
    25
100
AcDbSpline
210
0.0
220
0.0
230
1.0
 70
     8
 71
     3
 72
     9
 73
     5
 74
     0
 42
0.00000001
 43
0.00000001
 40
0.0
 40
0.0
 40
0.0
 40
0.0
 40
0.4995093295825077
 40
1.0
 40
1.0
 40
1.0
 40
1.0
 10
18.49420222535272
 20
7.117104737152791
 30
0.0
 10
18.48750678951959
 20
7.119712645498005
 30
0.0
 10
18.47410276393568
 20
7.124933585710262
 30
0.0
 10
18.46055260024774
 20
7.12832522289854
 30
0.0
 10
18.4537708697393
 20
7.130022705668714
 30
0.0
  0
LINE
  5
2CE
330
1F
100
AcDbEntity
  8
0
  6
Continuous
 62
     7
370
    25
100
AcDbLine
 10
18.411257678
 20
7.1421047372
 30
0.0
 11
18.4537708697
 21
7.1300227057
 31
0.0
  0
LINE
  5
2CF
330
1F
100
AcDbEntity
  8
0
  6
Continuous
 62
     7
370
    25
100
AcDbLine
 10
18.411257678
 20
7.1421047372
 30
0.0
 11
18.4463106677
 21
7.1421047372
 31
0.0
  0
LINE
  5
2D0
330
1F
100
AcDbEntity
  8
0
  6
Continuous
 62
     7
370
    25
100
AcDbLine
 10
17.7363106677
 20
7.1421047372
 30
0.0
 11
18.2451252008
 21
7.1421047372
 31
0.0
  0
LINE
  5
2D1
330
1F
100
AcDbEntity
  8
0
  6
Continuous
 62
     7
370
    25
100
AcDbLine
 10
18.2026120091
 20
7.1300227057
 30
0.0
 11
18.2451252008
 21
7.1421047372
 31
0.0
  0
LINE
  5
2D2
330
1F
100
AcDbEntity
  8
0
  6
Continuous
 62
     7
370
    25
100
AcDbLine
 10
18.4537708697
 20
7.4541867686
 30
0.0
 11
18.411257678
 21
7.4421047372
 31
0.0
  0
SPLINE
  5
2D3
330
1F
100
AcDbEntity
  8
0
  6
Continuous
 62
     7
370
    25
100
AcDbSpline
210
0.0
220
0.0
230
1.0
 70
     8
 71
     3
 72
     9
 73
     5
 74
     0
 42
0.00000001
 43
0.00000001
 40
0.0
 40
0.0
 40
0.0
 40
0.0
 40
0.4994682272929177
 40
1.0
 40
1.0
 40
1.0
 40
1.0
 10
18.4537708697393
 20
7.454186768636867
 30
0.0
 10
18.46053876329405
 20
7.455880431158014
 30
0.0
 10
18.47408896165488
 20
7.459271362609901
 30
0.0
 10
18.48749305216711
 20
7.464491761594695
 30
0.0
 10
18.49420222535272
 20
7.46710473715279
 30
0.0
  0
LINE
  5
2D4
330
1F
100
AcDbEntity
  8
0
  6
Continuous
 62
     7
370
    25
100
AcDbLine
 10
18.4942022254
 20
7.4671047372
 30
0.0
 11
18.4963106677
 21
7.4671047372
 31
0.0
  0
LINE
  5
2D5
330
1F
100
AcDbEntity
  8
0
  6
Continuous
 62
     7
370
    25
100
AcDbLine
 10
17.6863106677
 20
7.4671047372
 30
0.0
 11
18.1325828469
 21
7.4671047372
 31
0.0
  0
SPLINE
  5
2D6
330
1F
100
AcDbEntity
  8
0
  6
Continuous
 62
     7
370
    25
100
AcDbSpline
210
0.0
220
0.0
230
1.0
 70
     8
 71
     3
 72
     9
 73
     5
 74
     0
 42
0.00000001
 43
0.00000001
 40
0.0
 40
0.0
 40
0.0
 40
0.0
 40
0.4995093295825077
 40
1.0
 40
1.0
 40
1.0
 40
1.0
 10
18.13258284692801
 20
7.46710473715279
 30
0.0
 10
18.1441796819698
 20
7.464496828807575
 30
0.0
 10
18.16739613530708
 20
7.459275888595319
 30
0.0
 10
18.19086570726547
 20
7.455884251407042
 30
0.0
 10
18.20261200906933
 20
7.454186768636867
 30
0.0
  0
LINE
  5
2D7
330
1F
100
AcDbEntity
  8
0
  6
Continuous
 62
     7
370
    25
100
AcDbLine
 10
18.2451252008
 20
7.4421047372
 30
0.0
 11
18.2026120091
 21
7.4541867686
 31
0.0
  0
SPLINE
  5
2D8
330
1F
100
AcDbEntity
  8
0
  6
Continuous
 62
     7
370
    25
100
AcDbSpline
210
0.0
220
0.0
230
1.0
 70
     8
 71
     3
 72
     9
 73
     5
 74
     0
 42
0.00000001
 43
0.00000001
 40
0.0
 40
0.0
 40
0.0
 40
0.0
 40
0.499468227292911
 40
1.0
 40
1.0
 40
1.0
 40
1.0
 10
18.20261200906933
 20
7.280022705668713
 30
0.0
 10
18.19088967357228
 20
7.278329043147568
 30
0.0
 10
18.16742004155869
 20
7.274938111695679
 30
0.0
 10
18.14420347576226
 20
7.269717712710887
 30
0.0
 10
18.13258284692801
 20
7.26710473715279
 30
0.0
  0
SPLINE
  5
2D9
330
1F
100
AcDbEntity
  8
0
  6
Continuous
 62
     7
370
    25
100
AcDbSpline
210
0.0
220
0.0
230
1.0
 70
     8
 71
     3
 72
     9
 73
     5
 74
     0
 42
0.00000001
 43
0.00000001
 40
0.0
 40
0.0
 40
0.0
 40
0.0
 40
0.4995093295825077
 40
1.0
 40
1.0
 40
1.0
 40
1.0
 10
18.49420222535272
 20
7.26710473715279
 30
0.0
 10
18.48750678951959
 20
7.269712645498005
 30
0.0
 10
18.47410276393568
 20
7.274933585710262
 30
0.0
 10
18.46055260024774
 20
7.27832522289854
 30
0.0
 10
18.4537708697393
 20
7.280022705668713
 30
0.0
  0
LINE
  5
2DA
330
1F
100
AcDbEntity
  8
0
  6
Continuous
 62
     7
370
    25
100
AcDbLine
 10
18.411257678
 20
7.2921047372
 30
0.0
 11
18.4537708697
 21
7.2800227057
 31
0.0
  0
LINE
  5
2DB
330
1F
100
AcDbEntity
  8
0
  6
Continuous
 62
     7
370
    25
100
AcDbLine
 10
18.411257678
 20
7.2921047372
 30
0.0
 11
18.4463106677
 21
7.2921047372
 31
0.0
  0
LINE
  5
2DC
330
1F
100
AcDbEntity
  8
0
  6
Continuous
 62
     7
370
    25
100
AcDbLine
 10
17.7363106677
 20
7.2921047372
 30
0.0
 11
18.2451252008
 21
7.2921047372
 31
0.0
  0
LINE
  5
2DD
330
1F
100
AcDbEntity
  8
0
  6
Continuous
 62
     7
370
    25
100
AcDbLine
 10
18.2026120091
 20
7.2800227057
 30
0.0
 11
18.2451252008
 21
7.2921047372
 31
0.0
  0
LINE
  5
2DE
330
1F
100
AcDbEntity
  8
0
  6
Continuous
 62
     7
370
    25
100
AcDbLine
 10
18.411257678
 20
7.3421047372
 30
0.0
 11
18.4463106677
 21
7.3421047372
 31
0.0
  0
LINE
  5
2DF
330
1F
100
AcDbEntity
  8
0
  6
Continuous
 62
     7
370
    25
100
AcDbLine
 10
17.7363106677
 20
7.3421047372
 30
0.0
 11
18.2451252008
 21
7.3421047372
 31
0.0
  0
LINE
  5
2E0
330
1F
100
AcDbEntity
  8
0
  6
Continuous
 62
     7
370
    25
100
AcDbLine
 10
18.4537708697
 20
7.3541867686
 30
0.0
 11
18.411257678
 21
7.3421047372
 31
0.0
  0
SPLINE
  5
2E1
330
1F
100
AcDbEntity
  8
0
  6
Continuous
 62
     7
370
    25
100
AcDbSpline
210
0.0
220
0.0
230
1.0
 70
     8
 71
     3
 72
     9
 73
     5
 74
     0
 42
0.00000001
 43
0.00000001
 40
0.0
 40
0.0
 40
0.0
 40
0.0
 40
0.4994682272929176
 40
1.0
 40
1.0
 40
1.0
 40
1.0
 10
18.4537708697393
 20
7.354186768636866
 30
0.0
 10
18.46053876329405
 20
7.355880431158013
 30
0.0
 10
18.47408896165488
 20
7.359271362609902
 30
0.0
 10
18.48749305216711
 20
7.364491761594695
 30
0.0
 10
18.49420222535272
 20
7.367104737152791
 30
0.0
  0
SPLINE
  5
2E2
330
1F
100
AcDbEntity
  8
0
  6
Continuous
 62
     7
370
    25
100
AcDbSpline
210
0.0
220
0.0
230
1.0
 70
     8
 71
     3
 72
     9
 73
     5
 74
     0
 42
0.00000001
 43
0.00000001
 40
0.0
 40
0.0
 40
0.0
 40
0.0
 40
0.4995093295825074
 40
1.0
 40
1.0
 40
1.0
 40
1.0
 10
18.13258284692801
 20
7.367104737152791
 30
0.0
 10
18.1441796819698
 20
7.364496828807575
 30
0.0
 10
18.16739613530708
 20
7.359275888595318
 30
0.0
 10
18.19086570726547
 20
7.355884251407041
 30
0.0
 10
18.20261200906933
 20
7.354186768636866
 30
0.0
  0
LINE
  5
2E3
330
1F
100
AcDbEntity
  8
0
  6
Continuous
 62
     7
370
    25
100
AcDbLine
 10
18.2451252008
 20
7.3421047372
 30
0.0
 11
18.2026120091
 21
7.3541867686
 31
0.0
  0
SPLINE
  5
2E4
330
1F
100
AcDbEntity
  8
0
  6
Continuous
 62
     7
370
    25
100
AcDbSpline
210
0.0
220
0.0
230
1.0
 70
     8
 71
     3
 72
     9
 73
     5
 74
     0
 42
0.00000001
 43
0.00000001
 40
0.0
 40
0.0
 40
0.0
 40
0.0
 40
0.499468227292911
 40
1.0
 40
1.0
 40
1.0
 40
1.0
 10
18.20261200906933
 20
7.330022705668714
 30
0.0
 10
18.19088967357228
 20
7.328329043147567
 30
0.0
 10
18.16742004155869
 20
7.32493811169568
 30
0.0
 10
18.14420347576226
 20
7.319717712710887
 30
0.0
 10
18.13258284692801
 20
7.31710473715279
 30
0.0
  0
LINE
  5
2E5
330
1F
100
AcDbEntity
  8
0
  6
Continuous
 62
     7
370
    25
100
AcDbLine
 10
18.4942022254
 20
7.3171047372
 30
0.0
 11
18.4963106677
 21
7.3171047372
 31
0.0
  0
LINE
  5
2E6
330
1F
100
AcDbEntity
  8
0
  6
Continuous
 62
     7
370
    25
100
AcDbLine
 10
17.6863106677
 20
7.3171047372
 30
0.0
 11
18.1325828469
 21
7.3171047372
 31
0.0
  0
SPLINE
  5
2E7
330
1F
100
AcDbEntity
  8
0
  6
Continuous
 62
     7
370
    25
100
AcDbSpline
210
0.0
220
0.0
230
1.0
 70
     8
 71
     3
 72
     9
 73
     5
 74
     0
 42
0.00000001
 43
0.00000001
 40
0.0
 40
0.0
 40
0.0
 40
0.0
 40
0.4995093295825077
 40
1.0
 40
1.0
 40
1.0
 40
1.0
 10
18.49420222535272
 20
7.31710473715279
 30
0.0
 10
18.48750678951959
 20
7.319712645498005
 30
0.0
 10
18.47410276393568
 20
7.324933585710262
 30
0.0
 10
18.46055260024774
 20
7.32832522289854
 30
0.0
 10
18.4537708697393
 20
7.330022705668714
 30
0.0
  0
LINE
  5
2E8
330
1F
100
AcDbEntity
  8
0
  6
Continuous
 62
     7
370
    25
100
AcDbLine
 10
18.411257678
 20
7.3421047372
 30
0.0
 11
18.4537708697
 21
7.3300227057
 31
0.0
  0
LINE
  5
2E9
330
1F
100
AcDbEntity
  8
0
  6
Continuous
 62
     7
370
    25
100
AcDbLine
 10
18.2026120091
 20
7.3300227057
 30
0.0
 11
18.2451252008
 21
7.3421047372
 31
0.0
  0
LINE
  5
2EA
330
1F
100
AcDbEntity
  8
0
  6
Continuous
 62
     7
370
    25
100
AcDbLine
 10
18.411257678
 20
7.0921047372
 30
0.0
 11
18.4463106677
 21
7.0921047372
 31
0.0
  0
LINE
  5
2EB
330
1F
100
AcDbEntity
  8
0
  6
Continuous
 62
     7
370
    25
100
AcDbLine
 10
17.7363106677
 20
7.0921047372
 30
0.0
 11
18.2451252008
 21
7.0921047372
 31
0.0
  0
LINE
  5
2EC
330
1F
100
AcDbEntity
  8
0
  6
Continuous
 62
     7
370
    25
100
AcDbLine
 10
18.4537708697
 20
7.1041867686
 30
0.0
 11
18.411257678
 21
7.0921047372
 31
0.0
  0
SPLINE
  5
2ED
330
1F
100
AcDbEntity
  8
0
  6
Continuous
 62
     7
370
    25
100
AcDbSpline
210
0.0
220
0.0
230
1.0
 70
     8
 71
     3
 72
     9
 73
     5
 74
     0
 42
0.00000001
 43
0.00000001
 40
0.0
 40
0.0
 40
0.0
 40
0.0
 40
0.4994682272929171
 40
1.0
 40
1.0
 40
1.0
 40
1.0
 10
18.4537708697393
 20
7.104186768636866
 30
0.0
 10
18.46053876329405
 20
7.105880431158014
 30
0.0
 10
18.47408896165488
 20
7.109271362609901
 30
0.0
 10
18.48749305216711
 20
7.114491761594694
 30
0.0
 10
18.49420222535272
 20
7.117104737152791
 30
0.0
  0
SPLINE
  5
2EE
330
1F
100
AcDbEntity
  8
0
  6
Continuous
 62
     7
370
    25
100
AcDbSpline
210
0.0
220
0.0
230
1.0
 70
     8
 71
     3
 72
     9
 73
     5
 74
     0
 42
0.00000001
 43
0.00000001
 40
0.0
 40
0.0
 40
0.0
 40
0.0
 40
0.4995093295825111
 40
1.0
 40
1.0
 40
1.0
 40
1.0
 10
18.13258284692801
 20
7.117104737152791
 30
0.0
 10
18.1441796819698
 20
7.114496828807575
 30
0.0
 10
18.16739613530708
 20
7.109275888595319
 30
0.0
 10
18.19086570726547
 20
7.105884251407041
 30
0.0
 10
18.20261200906933
 20
7.104186768636866
 30
0.0
  0
LINE
  5
2EF
330
1F
100
AcDbEntity
  8
0
  6
Continuous
 62
     7
370
    25
100
AcDbLine
 10
18.2451252008
 20
7.0921047372
 30
0.0
 11
18.2026120091
 21
7.1041867686
 31
0.0
  0
LINE
  5
2F0
330
1F
100
AcDbEntity
  8
0
  6
Continuous
 62
     7
370
    25
100
AcDbLine
 10
18.4537708697
 20
7.1541867686
 30
0.0
 11
18.411257678
 21
7.1421047372
 31
0.0
  0
SPLINE
  5
2F1
330
1F
100
AcDbEntity
  8
0
  6
Continuous
 62
     7
370
    25
100
AcDbSpline
210
0.0
220
0.0
230
1.0
 70
     8
 71
     3
 72
     9
 73
     5
 74
     0
 42
0.00000001
 43
0.00000001
 40
0.0
 40
0.0
 40
0.0
 40
0.0
 40
0.4994682272929171
 40
1.0
 40
1.0
 40
1.0
 40
1.0
 10
18.4537708697393
 20
7.154186768636868
 30
0.0
 10
18.46053876329405
 20
7.155880431158014
 30
0.0
 10
18.47408896165488
 20
7.159271362609902
 30
0.0
 10
18.48749305216711
 20
7.164491761594694
 30
0.0
 10
18.49420222535272
 20
7.167104737152791
 30
0.0
  0
LINE
  5
2F2
330
1F
100
AcDbEntity
  8
0
  6
Continuous
 62
     7
370
    25
100
AcDbLine
 10
18.4942022254
 20
7.1671047372
 30
0.0
 11
18.4963106677
 21
7.1671047372
 31
0.0
  0
LINE
  5
2F3
330
1F
100
AcDbEntity
  8
0
  6
Continuous
 62
     7
370
    25
100
AcDbLine
 10
17.6863106677
 20
7.1671047372
 30
0.0
 11
18.1325828469
 21
7.1671047372
 31
0.0
  0
SPLINE
  5
2F4
330
1F
100
AcDbEntity
  8
0
  6
Continuous
 62
     7
370
    25
100
AcDbSpline
210
0.0
220
0.0
230
1.0
 70
     8
 71
     3
 72
     9
 73
     5
 74
     0
 42
0.00000001
 43
0.00000001
 40
0.0
 40
0.0
 40
0.0
 40
0.0
 40
0.4995093295825074
 40
1.0
 40
1.0
 40
1.0
 40
1.0
 10
18.13258284692801
 20
7.167104737152791
 30
0.0
 10
18.1441796819698
 20
7.164496828807575
 30
0.0
 10
18.16739613530708
 20
7.159275888595318
 30
0.0
 10
18.19086570726547
 20
7.155884251407041
 30
0.0
 10
18.20261200906933
 20
7.154186768636868
 30
0.0
  0
LINE
  5
2F5
330
1F
100
AcDbEntity
  8
0
  6
Continuous
 62
     7
370
    25
100
AcDbLine
 10
18.2451252008
 20
7.1421047372
 30
0.0
 11
18.2026120091
 21
7.1541867686
 31
0.0
  0
SPLINE
  5
2F6
330
1F
100
AcDbEntity
  8
0
  6
Continuous
 62
     7
370
    25
100
AcDbSpline
210
0.0
220
0.0
230
1.0
 70
     8
 71
     3
 72
     9
 73
     5
 74
     0
 42
0.00000001
 43
0.00000001
 40
0.0
 40
0.0
 40
0.0
 40
0.0
 40
0.4994682272929111
 40
1.0
 40
1.0
 40
1.0
 40
1.0
 10
18.20261200906933
 20
7.480022705668715
 30
0.0
 10
18.19088967357228
 20
7.478329043147568
 30
0.0
 10
18.16742004155869
 20
7.474938111695679
 30
0.0
 10
18.14420347576226
 20
7.469717712710887
 30
0.0
 10
18.13258284692801
 20
7.46710473715279
 30
0.0
  0
SPLINE
  5
2F7
330
1F
100
AcDbEntity
  8
0
  6
Continuous
 62
     7
370
    25
100
AcDbSpline
210
0.0
220
0.0
230
1.0
 70
     8
 71
     3
 72
     9
 73
     5
 74
     0
 42
0.00000001
 43
0.00000001
 40
0.0
 40
0.0
 40
0.0
 40
0.0
 40
0.4995093295825079
 40
1.0
 40
1.0
 40
1.0
 40
1.0
 10
18.49420222535272
 20
7.46710473715279
 30
0.0
 10
18.48750678951959
 20
7.469712645498006
 30
0.0
 10
18.47410276393568
 20
7.474933585710263
 30
0.0
 10
18.46055260024774
 20
7.47832522289854
 30
0.0
 10
18.4537708697393
 20
7.480022705668715
 30
0.0
  0
LINE
  5
2F8
330
1F
100
AcDbEntity
  8
0
  6
Continuous
 62
     7
370
    25
100
AcDbLine
 10
18.411257678
 20
7.4921047372
 30
0.0
 11
18.4537708697
 21
7.4800227057
 31
0.0
  0
LINE
  5
2F9
330
1F
100
AcDbEntity
  8
0
  6
Continuous
 62
     7
370
    25
100
AcDbLine
 10
18.411257678
 20
7.4921047372
 30
0.0
 11
18.4463106677
 21
7.4921047372
 31
0.0
  0
LINE
  5
2FA
330
1F
100
AcDbEntity
  8
0
  6
Continuous
 62
     7
370
    25
100
AcDbLine
 10
17.7363106677
 20
7.4921047372
 30
0.0
 11
18.2451252008
 21
7.4921047372
 31
0.0
  0
LINE
  5
2FB
330
1F
100
AcDbEntity
  8
0
  6
Continuous
 62
     7
370
    25
100
AcDbLine
 10
18.2026120091
 20
7.4800227057
 30
0.0
 11
18.2451252008
 21
7.4921047372
 31
0.0
  0
SPLINE
  5
2FC
330
1F
100
AcDbEntity
  8
0
  6
Continuous
 62
     7
370
    25
100
AcDbSpline
210
0.0
220
0.0
230
1.0
 70
     8
 71
     3
 72
     9
 73
     5
 74
     0
 42
0.00000001
 43
0.00000001
 40
0.0
 40
0.0
 40
0.0
 40
0.0
 40
0.499468227292911
 40
1.0
 40
1.0
 40
1.0
 40
1.0
 10
18.20261200906933
 20
7.230022705668714
 30
0.0
 10
18.19088967357228
 20
7.228329043147568
 30
0.0
 10
18.16742004155869
 20
7.224938111695679
 30
0.0
 10
18.14420347576226
 20
7.219717712710888
 30
0.0
 10
18.13258284692801
 20
7.21710473715279
 30
0.0
  0
LINE
  5
2FD
330
1F
100
AcDbEntity
  8
0
  6
Continuous
 62
     7
370
    25
100
AcDbLine
 10
18.4942022254
 20
7.2171047372
 30
0.0
 11
18.4963106677
 21
7.2171047372
 31
0.0
  0
LINE
  5
2FE
330
1F
100
AcDbEntity
  8
0
  6
Continuous
 62
     7
370
    25
100
AcDbLine
 10
17.6863106677
 20
7.2171047372
 30
0.0
 11
18.1325828469
 21
7.2171047372
 31
0.0
  0
SPLINE
  5
2FF
330
1F
100
AcDbEntity
  8
0
  6
Continuous
 62
     7
370
    25
100
AcDbSpline
210
0.0
220
0.0
230
1.0
 70
     8
 71
     3
 72
     9
 73
     5
 74
     0
 42
0.00000001
 43
0.00000001
 40
0.0
 40
0.0
 40
0.0
 40
0.0
 40
0.4995093295825077
 40
1.0
 40
1.0
 40
1.0
 40
1.0
 10
18.49420222535272
 20
7.21710473715279
 30
0.0
 10
18.48750678951959
 20
7.219712645498006
 30
0.0
 10
18.47410276393568
 20
7.224933585710263
 30
0.0
 10
18.46055260024774
 20
7.22832522289854
 30
0.0
 10
18.4537708697393
 20
7.230022705668714
 30
0.0
  0
LINE
  5
300
330
1F
100
AcDbEntity
  8
0
  6
Continuous
 62
     7
370
    25
100
AcDbLine
 10
18.411257678
 20
7.2421047372
 30
0.0
 11
18.4537708697
 21
7.2300227057
 31
0.0
  0
LINE
  5
301
330
1F
100
AcDbEntity
  8
0
  6
Continuous
 62
     7
370
    25
100
AcDbLine
 10
18.2026120091
 20
7.2300227057
 30
0.0
 11
18.2451252008
 21
7.2421047372
 31
0.0
  0
LINE
  5
302
330
1F
100
AcDbEntity
  8
0
  6
Continuous
 62
     7
370
    25
100
AcDbLine
 10
18.4537708697
 20
7.4041867686
 30
0.0
 11
18.411257678
 21
7.3921047372
 31
0.0
  0
SPLINE
  5
303
330
1F
100
AcDbEntity
  8
0
  6
Continuous
 62
     7
370
    25
100
AcDbSpline
210
0.0
220
0.0
230
1.0
 70
     8
 71
     3
 72
     9
 73
     5
 74
     0
 42
0.00000001
 43
0.00000001
 40
0.0
 40
0.0
 40
0.0
 40
0.0
 40
0.4994682272929177
 40
1.0
 40
1.0
 40
1.0
 40
1.0
 10
18.4537708697393
 20
7.404186768636867
 30
0.0
 10
18.46053876329405
 20
7.405880431158013
 30
0.0
 10
18.47408896165488
 20
7.409271362609902
 30
0.0
 10
18.48749305216711
 20
7.414491761594695
 30
0.0
 10
18.49420222535272
 20
7.417104737152791
 30
0.0
  0
SPLINE
  5
304
330
1F
100
AcDbEntity
  8
0
  6
Continuous
 62
     7
370
    25
100
AcDbSpline
210
0.0
220
0.0
230
1.0
 70
     8
 71
     3
 72
     9
 73
     5
 74
     0
 42
0.00000001
 43
0.00000001
 40
0.0
 40
0.0
 40
0.0
 40
0.0
 40
0.4995093295825077
 40
1.0
 40
1.0
 40
1.0
 40
1.0
 10
18.13258284692801
 20
7.417104737152791
 30
0.0
 10
18.1441796819698
 20
7.414496828807575
 30
0.0
 10
18.16739613530708
 20
7.409275888595318
 30
0.0
 10
18.19086570726547
 20
7.40588425140704
 30
0.0
 10
18.20261200906933
 20
7.404186768636866
 30
0.0
  0
LINE
  5
305
330
1F
100
AcDbEntity
  8
0
  6
Continuous
 62
     7
370
    25
100
AcDbLine
 10
18.2451252008
 20
7.3921047372
 30
0.0
 11
18.2026120091
 21
7.4041867686
 31
0.0
  0
LINE
  5
306
330
1F
100
AcDbEntity
  8
0
  6
Continuous
 62
     7
370
    25
100
AcDbLine
 10
18.4537708697
 20
7.3041867686
 30
0.0
 11
18.411257678
 21
7.2921047372
 31
0.0
  0
SPLINE
  5
307
330
1F
100
AcDbEntity
  8
0
  6
Continuous
 62
     7
370
    25
100
AcDbSpline
210
0.0
220
0.0
230
1.0
 70
     8
 71
     3
 72
     9
 73
     5
 74
     0
 42
0.00000001
 43
0.00000001
 40
0.0
 40
0.0
 40
0.0
 40
0.0
 40
0.4994682272929171
 40
1.0
 40
1.0
 40
1.0
 40
1.0
 10
18.4537708697393
 20
7.304186768636867
 30
0.0
 10
18.46053876329405
 20
7.305880431158013
 30
0.0
 10
18.47408896165488
 20
7.309271362609903
 30
0.0
 10
18.48749305216711
 20
7.314491761594694
 30
0.0
 10
18.49420222535272
 20
7.31710473715279
 30
0.0
  0
SPLINE
  5
308
330
1F
100
AcDbEntity
  8
0
  6
Continuous
 62
     7
370
    25
100
AcDbSpline
210
0.0
220
0.0
230
1.0
 70
     8
 71
     3
 72
     9
 73
     5
 74
     0
 42
0.00000001
 43
0.00000001
 40
0.0
 40
0.0
 40
0.0
 40
0.0
 40
0.4995093295825074
 40
1.0
 40
1.0
 40
1.0
 40
1.0
 10
18.13258284692801
 20
7.31710473715279
 30
0.0
 10
18.1441796819698
 20
7.314496828807576
 30
0.0
 10
18.16739613530708
 20
7.309275888595319
 30
0.0
 10
18.19086570726547
 20
7.305884251407042
 30
0.0
 10
18.20261200906933
 20
7.304186768636867
 30
0.0
  0
LINE
  5
309
330
1F
100
AcDbEntity
  8
0
  6
Continuous
 62
     7
370
    25
100
AcDbLine
 10
18.2451252008
 20
7.2921047372
 30
0.0
 11
18.2026120091
 21
7.3041867686
 31
0.0
  0
SPLINE
  5
30A
330
1F
100
AcDbEntity
  8
0
  6
Continuous
 62
     7
370
    25
100
AcDbSpline
210
0.0
220
0.0
230
1.0
 70
     8
 71
     3
 72
     9
 73
     5
 74
     0
 42
0.00000001
 43
0.00000001
 40
0.0
 40
0.0
 40
0.0
 40
0.0
 40
0.499468227292911
 40
1.0
 40
1.0
 40
1.0
 40
1.0
 10
18.20261200906933
 20
7.180022705668714
 30
0.0
 10
18.19088967357228
 20
7.178329043147568
 30
0.0
 10
18.16742004155869
 20
7.174938111695679
 30
0.0
 10
18.14420347576226
 20
7.169717712710886
 30
0.0
 10
18.13258284692801
 20
7.167104737152791
 30
0.0
  0
SPLINE
  5
30B
330
1F
100
AcDbEntity
  8
0
  6
Continuous
 62
     7
370
    25
100
AcDbSpline
210
0.0
220
0.0
230
1.0
 70
     8
 71
     3
 72
     9
 73
     5
 74
     0
 42
0.00000001
 43
0.00000001
 40
0.0
 40
0.0
 40
0.0
 40
0.0
 40
0.4995093295825077
 40
1.0
 40
1.0
 40
1.0
 40
1.0
 10
18.49420222535272
 20
7.167104737152791
 30
0.0
 10
18.48750678951959
 20
7.169712645498005
 30
0.0
 10
18.47410276393568
 20
7.174933585710263
 30
0.0
 10
18.46055260024774
 20
7.178325222898541
 30
0.0
 10
18.4537708697393
 20
7.180022705668714
 30
0.0
  0
LINE
  5
30C
330
1F
100
AcDbEntity
  8
0
  6
Continuous
 62
     7
370
    25
100
AcDbLine
 10
18.411257678
 20
7.1921047372
 30
0.0
 11
18.4537708697
 21
7.1800227057
 31
0.0
  0
LINE
  5
30D
330
1F
100
AcDbEntity
  8
0
  6
Continuous
 62
     7
370
    25
100
AcDbLine
 10
18.411257678
 20
7.1921047372
 30
0.0
 11
18.4463106677
 21
7.1921047372
 31
0.0
  0
LINE
  5
30E
330
1F
100
AcDbEntity
  8
0
  6
Continuous
 62
     7
370
    25
100
AcDbLine
 10
17.7363106677
 20
7.1921047372
 30
0.0
 11
18.2451252008
 21
7.1921047372
 31
0.0
  0
LINE
  5
30F
330
1F
100
AcDbEntity
  8
0
  6
Continuous
 62
     7
370
    25
100
AcDbLine
 10
18.2026120091
 20
7.1800227057
 30
0.0
 11
18.2451252008
 21
7.1921047372
 31
0.0
  0
LINE
  5
310
330
1F
100
AcDbEntity
  8
0
  6
Continuous
 62
     7
370
    25
100
AcDbLine
 10
18.4253325269
 20
7.4961047372
 30
0.0
 11
18.411257678
 21
7.4921047372
 31
0.0
  0
LINE
  5
311
330
1F
100
AcDbEntity
  8
0
  6
Continuous
 62
     7
370
    25
100
AcDbLine
 10
18.2451252008
 20
7.4921047372
 30
0.0
 11
18.2310503519
 21
7.4961047372
 31
0.0
  0
LINE
  5
312
330
1F
100
AcDbEntity
  8
0
  6
Continuous
 62
     7
370
    25
100
AcDbLine
 10
18.4537708697
 20
7.2041867686
 30
0.0
 11
18.411257678
 21
7.1921047372
 31
0.0
  0
SPLINE
  5
313
330
1F
100
AcDbEntity
  8
0
  6
Continuous
 62
     7
370
    25
100
AcDbSpline
210
0.0
220
0.0
230
1.0
 70
     8
 71
     3
 72
     9
 73
     5
 74
     0
 42
0.00000001
 43
0.00000001
 40
0.0
 40
0.0
 40
0.0
 40
0.0
 40
0.4994682272929171
 40
1.0
 40
1.0
 40
1.0
 40
1.0
 10
18.4537708697393
 20
7.204186768636867
 30
0.0
 10
18.46053876329405
 20
7.205880431158013
 30
0.0
 10
18.47408896165488
 20
7.209271362609902
 30
0.0
 10
18.48749305216711
 20
7.214491761594694
 30
0.0
 10
18.49420222535272
 20
7.21710473715279
 30
0.0
  0
SPLINE
  5
314
330
1F
100
AcDbEntity
  8
0
  6
Continuous
 62
     7
370
    25
100
AcDbSpline
210
0.0
220
0.0
230
1.0
 70
     8
 71
     3
 72
     9
 73
     5
 74
     0
 42
0.00000001
 43
0.00000001
 40
0.0
 40
0.0
 40
0.0
 40
0.0
 40
0.4995093295825074
 40
1.0
 40
1.0
 40
1.0
 40
1.0
 10
18.13258284692801
 20
7.21710473715279
 30
0.0
 10
18.1441796819698
 20
7.214496828807577
 30
0.0
 10
18.16739613530708
 20
7.209275888595318
 30
0.0
 10
18.19086570726547
 20
7.205884251407041
 30
0.0
 10
18.20261200906933
 20
7.204186768636867
 30
0.0
  0
LINE
  5
315
330
1F
100
AcDbEntity
  8
0
  6
Continuous
 62
     7
370
    25
100
AcDbLine
 10
18.2451252008
 20
7.1921047372
 30
0.0
 11
18.2026120091
 21
7.2041867686
 31
0.0
  0
LINE
  5
316
330
1F
100
AcDbEntity
  8
0
  6
Continuous
 62
     7
370
    25
100
AcDbLine
 10
18.2026120091
 20
7.0462688001
 30
0.0
 11
18.2090276865
 21
7.0421047372
 31
0.0
  0
LINE
  5
317
330
1F
100
AcDbEntity
  8
0
  6
Continuous
 62
     7
370
    25
100
AcDbLine
 10
18.2090276865
 20
7.0421047372
 30
0.0
 11
17.7163106677
 21
7.0421047372
 31
0.0
  0
LINE
  5
318
330
1F
100
AcDbEntity
  8
0
  6
Continuous
 62
     7
370
    25
100
AcDbLine
 10
18.4663106677
 20
7.0421047372
 30
0.0
 11
18.4473551923
 21
7.0421047372
 31
0.0
  0
LINE
  5
319
330
1F
100
AcDbEntity
  8
0
  6
Continuous
 62
     7
370
    25
100
AcDbLine
 10
18.4473551923
 20
7.0421047372
 30
0.0
 11
18.4537708697
 21
7.0462688001
 31
0.0
  0
SPLINE
  5
31A
330
1F
100
AcDbEntity
  8
0
  6
Continuous
 62
     7
370
    25
100
AcDbSpline
210
0.0
220
0.0
230
1.0
 70
     8
 71
     3
 72
     9
 73
     5
 74
     0
 42
0.00000001
 43
0.00000001
 40
0.0
 40
0.0
 40
0.0
 40
0.0
 40
0.4986069248211317
 40
0.9999999999999999
 40
0.9999999999999999
 40
0.9999999999999999
 40
0.9999999999999999
 10
18.49004093393264
 20
7.068771403819457
 30
0.0
 10
18.48412046317702
 20
7.064337325979976
 30
0.0
 10
18.47224643884864
 20
7.055444393253318
 30
0.0
 10
18.45994082120937
 20
7.049333006912123
 30
0.0
 10
18.45377086973924
 20
7.046268800120905
 30
0.0
  0
LINE
  5
31B
330
1F
100
AcDbEntity
  8
0
  6
Continuous
 62
     7
370
    25
100
AcDbLine
 10
18.1397904151
 20
7.0687714038
 30
0.0
 11
17.689644001
 21
7.0687714038
 31
0.0
  0
LINE
  5
31C
330
1F
100
AcDbEntity
  8
0
  6
Continuous
 62
     7
370
    25
100
AcDbLine
 10
18.4929773344
 20
7.0687714038
 30
0.0
 11
18.4900409339
 21
7.0687714038
 31
0.0
  0
SPLINE
  5
31D
330
1F
100
AcDbEntity
  8
0
  6
Continuous
 62
     7
370
    25
100
AcDbSpline
210
0.0
220
0.0
230
1.0
 70
     8
 71
     3
 72
     9
 73
     5
 74
     0
 42
0.00000001
 43
0.00000001
 40
0.0
 40
0.0
 40
0.0
 40
0.0
 40
0.4984518282721884
 40
1.0
 40
1.0
 40
1.0
 40
1.0
 10
18.20261200906932
 20
7.04626880012095
 30
0.0
 10
18.19198774161771
 20
7.049313408308946
 30
0.0
 10
18.17067320960276
 20
7.055421537550941
 30
0.0
 10
18.15010590773954
 20
7.064312272140664
 30
0.0
 10
18.13979041509267
 20
7.068771403819457
 30
0.0
  0
SPLINE
  5
31E
330
1F
100
AcDbEntity
  8
0
  6
Continuous
 62
     7
370
    25
100
AcDbSpline
210
0.0
220
0.0
230
1.0
 70
     8
 71
     3
 72
     9
 73
     5
 74
     0
 42
0.00000001
 43
0.00000001
 40
0.0
 40
0.0
 40
0.0
 40
0.0
 40
0.4995639083588218
 40
1.0
 40
1.0
 40
1.0
 40
1.0
 10
18.20261200906933
 20
7.080022705668714
 30
0.0
 10
18.19210088528727
 20
7.078521327651356
 30
0.0
 10
18.1710602864646
 20
7.075515950376822
 30
0.0
 10
18.15021976446828
 20
7.071020892843257
 30
0.0
 10
18.13979041509267
 20
7.068771403819457
 30
0.0
  0
SPLINE
  5
31F
330
1F
100
AcDbEntity
  8
0
  6
Continuous
 62
     7
370
    25
100
AcDbSpline
210
0.0
220
0.0
230
1.0
 70
     8
 71
     3
 72
     9
 73
     5
 74
     0
 42
0.00000001
 43
0.00000001
 40
0.0
 40
0.0
 40
0.0
 40
0.0
 40
0.4995935708809258
 40
1.0
 40
1.0
 40
1.0
 40
1.0
 10
18.49004093393264
 20
7.068771403819457
 30
0.0
 10
18.48402970463867
 20
7.071017290523551
 30
0.0
 10
18.47199746554606
 20
7.07551271807706
 30
0.0
 10
18.45984969314718
 20
7.078518562029823
 30
0.0
 10
18.4537708697393
 20
7.080022705668714
 30
0.0
  0
LINE
  5
320
330
1F
100
AcDbEntity
  8
0
  6
Continuous
 62
     7
370
    25
100
AcDbLine
 10
18.411257678
 20
7.0921047372
 30
0.0
 11
18.4537708697
 21
7.0800227057
 31
0.0
  0
LINE
  5
321
330
1F
100
AcDbEntity
  8
0
  6
Continuous
 62
     7
370
    25
100
AcDbLine
 10
18.2026120091
 20
7.0800227057
 30
0.0
 11
18.2451252008
 21
7.0921047372
 31
0.0
  0
LINE
  5
322
330
1F
100
AcDbEntity
  8
0
  6
Continuous
 62
     7
370
    25
100
AcDbLine
 10
18.3998677953
 20
7.6421047372
 30
0.0
 11
18.3998677953
 21
7.6321047372
 31
0.0
  0
LINE
  5
323
330
1F
100
AcDbEntity
  8
0
  6
Continuous
 62
     7
370
    25
100
AcDbLine
 10
18.2565150835
 20
7.6321047372
 30
0.0
 11
18.2565150835
 21
7.6421047372
 31
0.0
  0
LINE
  5
324
330
1F
100
AcDbEntity
  8
0
  6
Continuous
 62
     7
370
    25
100
AcDbLine
 10
18.2026120091
 20
7.1300227057
 30
0.0
 11
18.2026120091
 21
7.1041867686
 31
0.0
  0
LINE
  5
325
330
1F
100
AcDbEntity
  8
0
  6
Continuous
 62
     7
370
    25
100
AcDbLine
 10
18.2026120091
 20
7.2300227057
 30
0.0
 11
18.2026120091
 21
7.2041867686
 31
0.0
  0
LINE
  5
326
330
1F
100
AcDbEntity
  8
0
  6
Continuous
 62
     7
370
    25
100
AcDbLine
 10
18.2026120091
 20
7.4300227057
 30
0.0
 11
18.2026120091
 21
7.4041867686
 31
0.0
  0
LINE
  5
327
330
1F
100
AcDbEntity
  8
0
  6
Continuous
 62
     7
370
    25
100
AcDbLine
 10
18.2026120091
 20
7.4800227057
 30
0.0
 11
18.2026120091
 21
7.4541867686
 31
0.0
  0
LINE
  5
328
330
1F
100
AcDbEntity
  8
0
  6
Continuous
 62
     7
370
    25
100
AcDbLine
 10
18.2026120091
 20
7.3300227057
 30
0.0
 11
18.2026120091
 21
7.3041867686
 31
0.0
  0
LINE
  5
329
330
1F
100
AcDbEntity
  8
0
  6
Continuous
 62
     7
370
    25
100
AcDbLine
 10
18.2026120091
 20
7.2800227057
 30
0.0
 11
18.2026120091
 21
7.2541867686
 31
0.0
  0
LINE
  5
32A
330
1F
100
AcDbEntity
  8
0
  6
Continuous
 62
     7
370
    25
100
AcDbLine
 10
18.2026120091
 20
7.3800227057
 30
0.0
 11
18.2026120091
 21
7.3541867686
 31
0.0
  0
LINE
  5
32B
330
1F
100
AcDbEntity
  8
0
  6
Continuous
 62
     7
370
    25
100
AcDbLine
 10
18.2026120091
 20
7.1800227057
 30
0.0
 11
18.2026120091
 21
7.1541867686
 31
0.0
  0
LINE
  5
32C
330
1F
100
AcDbEntity
  8
0
  6
Continuous
 62
     7
370
    25
100
AcDbLine
 10
18.2026120091
 20
7.0800227057
 30
0.0
 11
18.2026120091
 21
7.0462688001
 31
0.0
  0
LINE
  5
32D
330
1F
100
AcDbEntity
  8
0
  6
Continuous
 62
     7
370
    25
100
AcDbLine
 10
18.4537708697
 20
7.4541867686
 30
0.0
 11
18.4537708697
 21
7.4800227057
 31
0.0
  0
LINE
  5
32E
330
1F
100
AcDbEntity
  8
0
  6
Continuous
 62
     7
370
    25
100
AcDbLine
 10
18.4537708697
 20
7.4041867686
 30
0.0
 11
18.4537708697
 21
7.4300227057
 31
0.0
  0
LINE
  5
32F
330
1F
100
AcDbEntity
  8
0
  6
Continuous
 62
     7
370
    25
100
AcDbLine
 10
18.4537708697
 20
7.3541867686
 30
0.0
 11
18.4537708697
 21
7.3800227057
 31
0.0
  0
LINE
  5
330
330
1F
100
AcDbEntity
  8
0
  6
Continuous
 62
     7
370
    25
100
AcDbLine
 10
18.4537708697
 20
7.3041867686
 30
0.0
 11
18.4537708697
 21
7.3300227057
 31
0.0
  0
LINE
  5
331
330
1F
100
AcDbEntity
  8
0
  6
Continuous
 62
     7
370
    25
100
AcDbLine
 10
18.4537708697
 20
7.2541867686
 30
0.0
 11
18.4537708697
 21
7.2800227057
 31
0.0
  0
LINE
  5
332
330
1F
100
AcDbEntity
  8
0
  6
Continuous
 62
     7
370
    25
100
AcDbLine
 10
18.4537708697
 20
7.2041867686
 30
0.0
 11
18.4537708697
 21
7.2300227057
 31
0.0
  0
LINE
  5
333
330
1F
100
AcDbEntity
  8
0
  6
Continuous
 62
     7
370
    25
100
AcDbLine
 10
18.4537708697
 20
7.1541867686
 30
0.0
 11
18.4537708697
 21
7.1800227057
 31
0.0
  0
LINE
  5
334
330
1F
100
AcDbEntity
  8
0
  6
Continuous
 62
     7
370
    25
100
AcDbLine
 10
18.4537708697
 20
7.1041867686
 30
0.0
 11
18.4537708697
 21
7.1300227057
 31
0.0
  0
LINE
  5
335
330
1F
100
AcDbEntity
  8
0
  6
Continuous
 62
     7
370
    25
100
AcDbLine
 10
18.4537708697
 20
7.0462688001
 30
0.0
 11
18.4537708697
 21
7.0800227057
 31
0.0
  0
LINE
  5
336
330
1F
100
AcDbEntity
  8
0
  6
Continuous
 62
     7
370
    25
100
AcDbLine
 10
18.2090276865
 20
7.0421047372
 30
0.0
 11
18.4473551923
 21
7.0421047372
 31
0.0
  0
ELLIPSE
  5
337
330
1F
100
AcDbEntity
  8
0
  6
Continuous
 62
     7
370
    25
100
AcDbEllipse
 10
18.0913106677
 20
8.7878558003
 30
0.0
 11
0.494940227448467
 21
-0.06266922884796423
 31
0.0
210
0.0
220
0.0
230
1.0
 40
0.1227442151
 41
4.138902741777663
 42
6.89100674836674
  0
LINE
  5
338
330
1F
100
AcDbEntity
  8
0
  6
Continuous
 62
     7
370
    25
100
AcDbLine
 10
18.5019970927
 20
8.8674087657
 30
0.0
 11
18.5019970927
 21
8.7711047372
 31
0.0
  0
LINE
  5
339
330
1F
100
AcDbEntity
  8
0
  6
Continuous
 62
     7
370
    25
100
AcDbLine
 10
17.8170296203
 20
8.7711047372
 30
0.0
 11
18.5019970927
 21
8.7711047372
 31
0.0
  0
LINE
  5
33A
330
1F
100
AcDbEntity
  8
0
  6
Continuous
 62
     7
370
    25
100
AcDbLine
 10
18.5599256483
 20
7.4961047372
 30
0.0
 11
17.6226956872
 21
7.4961047372
 31
0.0
  0
SPLINE
  5
33B
330
1F
100
AcDbEntity
  8
0
  6
Continuous
 62
     7
370
    25
100
AcDbSpline
210
0.0
220
0.0
230
1.0
 70
     8
 71
     3
 72
    11
 73
     7
 74
     0
 42
0.00000001
 43
0.00000001
 40
0.0
 40
0.0
 40
0.0
 40
0.0
 40
0.1232322645587262
 40
0.4425735845410362
 40
0.7726467083213898
 40
0.9999999999999999
 40
0.9999999999999999
 40
0.9999999999999999
 40
0.9999999999999999
 10
17.60717162024094
 20
7.499844928190598
 30
0.0
 10
17.604585462584
 20
7.500308028916921
 30
0.0
 10
17.59529759411447
 20
7.50197119845443
 30
0.0
 10
17.57938231941526
 20
7.50655698987522
 30
0.0
 10
17.56160751837497
 20
7.512784244393034
 30
0.0
 10
17.55064403326153
 20
7.517749880988894
 30
0.0
 10
17.54617243959519
 20
7.51977517759135
 30
0.0
  0
SPLINE
  5
33C
330
1F
100
AcDbEntity
  8
0
  6
Continuous
 62
     7
370
    25
100
AcDbSpline
210
0.0
220
0.0
230
1.0
 70
     8
 71
     3
 72
    10
 73
     6
 74
     0
 42
0.00000001
 43
0.00000001
 40
0.0
 40
0.0
 40
0.0
 40
0.0
 40
0.4665495905505004
 40
0.7778212346567644
 40
1.0
 40
1.0
 40
1.0
 40
1.0
 10
17.57302331462152
 20
7.51977517759135
 30
0.0
 10
17.58311900922085
 20
7.515073852587214
 30
0.0
 10
17.59995032961426
 20
7.507235906754009
 30
0.0
 10
17.62254291201623
 20
7.500751835779331
 30
0.0
 10
17.63475839842745
 20
7.498480430100772
 30
0.0
 10
17.63984607225962
 20
7.497534403815449
 30
0.0
  0
LINE
  5
33D
330
1F
100
AcDbEntity
  8
0
  6
Continuous
 62
     7
370
    25
100
AcDbLine
 10
17.7096539254
 20
7.5197751776
 30
0.0
 11
17.5730233146
 21
7.5197751776
 31
0.0
  0
SPLINE
  5
33E
330
1F
100
AcDbEntity
  8
0
  6
Continuous
 62
     7
370
    25
100
AcDbSpline
210
0.0
220
0.0
230
1.0
 70
     8
 71
     3
 72
    11
 73
     7
 74
     0
 42
0.00000001
 43
0.00000001
 40
0.0
 40
0.0
 40
0.0
 40
0.0
 40
0.2659881467325416
 40
0.5333341092149929
 40
0.8096645163528623
 40
1.0
 40
1.0
 40
1.0
 40
1.0
 10
17.77618305580993
 20
7.49753440381545
 30
0.0
 10
17.77012015891846
 20
7.498681192463523
 30
0.0
 10
17.75796341527182
 20
7.500980623884026
 30
0.0
 10
17.73983012751467
 20
7.50651103537671
 30
0.0
 10
17.72368568402312
 20
7.512791777457213
 30
0.0
 10
17.71371897255881
 20
7.517752063342646
 30
0.0
 10
17.70965392541396
 20
7.519775177591351
 30
0.0
  0
LINE
  5
33F
330
1F
100
AcDbEntity
  8
0
  6
Continuous
 62
     7
370
    25
100
AcDbLine
 10
18.008514828
 20
7.4975344038
 30
0.0
 11
17.7761830558
 21
7.4975344038
 31
0.0
  0
SPLINE
  5
340
330
1F
100
AcDbEntity
  8
0
  6
Continuous
 62
     7
370
    25
100
AcDbSpline
210
0.0
220
0.0
230
1.0
 70
     8
 71
     3
 72
    10
 73
     6
 74
     0
 42
0.00000001
 43
0.00000001
 40
0.0
 40
0.0
 40
0.0
 40
0.0
 40
0.4686381556240132
 40
0.7785358969781415
 40
1.0
 40
1.0
 40
1.0
 40
1.0
 10
18.0146924446488
 20
7.51977517759135
 30
0.0
 10
18.01375053920105
 20
7.515054461519073
 30
0.0
 10
18.01218577714777
 20
7.507212063546131
 30
0.0
 10
18.0100993429309
 20
7.500738688702829
 30
0.0
 10
18.00898095586495
 20
7.498477030834168
 30
0.0
 10
18.0085148279504
 20
7.497534403815449
 30
0.0
  0
LINE
  5
341
330
1F
100
AcDbEntity
  8
0
  6
Continuous
 62
     7
370
    25
100
AcDbLine
 10
18.2547921535
 20
7.5197751776
 30
0.0
 11
18.0146924446
 21
7.5197751776
 31
0.0
  0
SPLINE
  5
342
330
1F
100
AcDbEntity
  8
0
  6
Continuous
 62
     7
370
    25
100
AcDbSpline
210
0.0
220
0.0
230
1.0
 70
     8
 71
     3
 72
    11
 73
     7
 74
     0
 42
0.00000001
 43
0.00000001
 40
0.0
 40
0.0
 40
0.0
 40
0.0
 40
0.2660158427587918
 40
0.5333899299468752
 40
0.8096913350553235
 40
1.0
 40
1.0
 40
1.0
 40
1.0
 10
18.24809854838986
 20
7.497534403815449
 30
0.0
 10
18.24871179020294
 20
7.498681327516862
 30
0.0
 10
18.24994140496695
 20
7.500981030972139
 30
0.0
 10
18.25176690465728
 20
7.506511886374937
 30
0.0
 10
18.25338767015546
 20
7.512792620203212
 30
0.0
 10
18.254385276174
 20
7.517752338077661
 30
0.0
 10
18.25479215352559
 20
7.51977517759135
 30
0.0
  0
LINE
  5
343
330
1F
100
AcDbEntity
  8
0
  6
Continuous
 62
     7
370
    25
100
AcDbLine
 10
18.4599794234
 20
7.4975344038
 30
0.0
 11
18.2480985484
 21
7.4975344038
 31
0.0
  0
SPLINE
  5
344
330
1F
100
AcDbEntity
  8
0
  6
Continuous
 62
     7
370
    25
100
AcDbSpline
210
0.0
220
0.0
230
1.0
 70
     8
 71
     3
 72
    10
 73
     6
 74
     0
 42
0.00000001
 43
0.00000001
 40
0.0
 40
0.0
 40
0.0
 40
0.0
 40
0.4665495905504498
 40
0.7778212346567821
 40
1.0
 40
1.0
 40
1.0
 40
1.0
 10
18.53297979773411
 20
7.51977517759135
 30
0.0
 10
18.52194645203111
 20
7.515073852587215
 30
0.0
 10
18.50355190030301
 20
7.507235906754008
 30
0.0
 10
18.47887299631915
 20
7.500751835779333
 30
0.0
 10
18.46553472862491
 20
7.498480430100774
 30
0.0
 10
18.45997942339761
 20
7.49753440381545
 30
0.0
  0
LINE
  5
345
330
1F
100
AcDbEntity
  8
0
  6
Continuous
 62
     7
370
    25
100
AcDbLine
 10
18.6364488958
 20
7.5197751776
 30
0.0
 11
18.5329797977
 21
7.5197751776
 31
0.0
  0
SPLINE
  5
346
330
1F
100
AcDbEntity
  8
0
  6
Continuous
 62
     7
370
    25
100
AcDbSpline
210
0.0
220
0.0
230
1.0
 70
     8
 71
     3
 72
    11
 73
     7
 74
     0
 42
0.00000001
 43
0.00000001
 40
0.0
 40
0.0
 40
0.0
 40
0.0
 40
0.2659881467325335
 40
0.5333341092149669
 40
0.8096645163528474
 40
1.0
 40
1.0
 40
1.0
 40
1.0
 10
18.56322616028675
 20
7.497534403815449
 30
0.0
 10
18.56990223536975
 20
7.498681192463523
 30
0.0
 10
18.58328846555023
 20
7.500980623884026
 30
0.0
 10
18.60324719827311
 20
7.506511035376712
 30
0.0
 10
18.6210124757641
 20
7.512791777457212
 30
0.0
 10
18.63197691358042
 20
7.517752063342645
 30
0.0
 10
18.63644889581845
 20
7.51977517759135
 30
0.0
  0
SPLINE
  5
347
330
1F
100
AcDbEntity
  8
0
  6
Continuous
 62
     7
370
    25
100
AcDbSpline
210
0.0
220
0.0
230
1.0
 70
     8
 71
     3
 72
    11
 73
     7
 74
     0
 42
0.00000001
 43
0.00000001
 40
0.0
 40
0.0
 40
0.0
 40
0.0
 40
0.2419117138570452
 40
0.4852111676220157
 40
0.7416738302413198
 40
1.0
 40
1.0
 40
1.0
 40
1.0
 10
18.01414222648568
 20
7.660581577036082
 30
0.0
 10
18.02363727865757
 20
7.657279532322078
 30
0.0
 10
18.04268185189258
 20
7.650656500532187
 30
0.0
 10
18.07265328374435
 20
7.642686157188337
 30
0.0
 10
18.10373563084935
 20
7.636145786903507
 30
0.0
 10
18.12507587189734
 20
7.633455000568998
 30
0.0
 10
18.13578461766828
 20
7.632104737152789
 30
0.0
  0
SPLINE
  5
348
330
1F
100
AcDbEntity
  8
0
  6
Continuous
 62
     7
370
    25
100
AcDbSpline
210
0.0
220
0.0
230
1.0
 70
     8
 71
     3
 72
    10
 73
     6
 74
     0
 42
0.00000001
 43
0.00000001
 40
0.0
 40
0.0
 40
0.0
 40
0.0
 40
0.3969572999971191
 40
0.6975354737392562
 40
1.0
 40
1.0
 40
1.0
 40
1.0
 10
18.11272464113591
 20
7.632104737152789
 30
0.0
 10
18.09889293458081
 20
7.634559925404041
 30
0.0
 10
18.07458778643362
 20
7.638874195225926
 30
0.0
 10
18.04044025875096
 20
7.648118853516619
 30
0.0
 10
18.02044721696276
 20
7.655098525238572
 30
0.0
 10
18.0104194263719
 20
7.658599277508396
 30
0.0
  0
SPLINE
  5
349
330
1F
100
AcDbEntity
  8
0
  6
Continuous
 62
     7
370
    25
100
AcDbSpline
210
0.0
220
0.0
230
1.0
 70
     8
 71
     3
 72
    14
 73
    10
 74
     0
 42
0.00000001
 43
0.00000001
 40
0.0
 40
0.0
 40
0.0
 40
0.0
 40
0.0123665218958836
 40
0.0969757808093159
 40
0.3271475154409101
 40
0.5535950235600731
 40
0.7072875392087881
 40
0.8534794040913048
 40
1.0
 40
1.0
 40
1.0
 40
1.0
 10
18.01414222648568
 20
7.660581577036082
 30
0.0
 10
18.01412657085204
 20
7.660587736048058
 30
0.0
 10
18.0140038025176
 20
7.660636033782889
 30
0.0
 10
18.013577471328
 20
7.660765348597882
 30
0.0
 10
18.01282035496072
 20
7.660807385176803
 30
0.0
 10
18.01193563190608
 20
7.660524987729113
 30
0.0
 10
18.01123133223508
 20
7.660004952905698
 30
0.0
 10
18.01071215886623
 20
7.65937690815725
 30
0.0
 10
18.01051707689901
 20
7.658858681722922
 30
0.0
 10
18.0104194263719
 20
7.658599277508396
 30
0.0
  0
LINE
  5
34A
330
1F
100
AcDbEntity
  8
0
  6
Continuous
 62
     7
370
    25
100
AcDbLine
 10
18.0104194264
 20
7.6585992775
 30
0.0
 11
18.0103006333
 21
7.6577694796
 31
0.0
  0
LINE
  5
34B
330
1F
100
AcDbEntity
  8
0
  6
Continuous
 62
     7
370
    25
100
AcDbLine
 10
18.259509574
 20
7.5260993014
 30
0.0
 11
18.259509574
 21
7.6321047372
 31
0.0
  0
LINE
  5
34C
330
1F
100
AcDbEntity
  8
0
  6
Continuous
 62
     7
370
    25
100
AcDbLine
 10
18.2592462142
 20
7.5243568745
 30
0.0
 11
18.259509574
 21
7.5260993014
 31
0.0
  0
LINE
  5
34D
330
1F
100
AcDbEntity
  8
0
  6
Continuous
 62
     7
370
    25
100
AcDbLine
 10
18.0105737321
 20
7.5243568745
 30
0.0
 11
18.2592462142
 21
7.5243568745
 31
0.0
  0
LINE
  5
34E
330
1F
100
AcDbEntity
  8
0
  6
Continuous
 62
     7
370
    25
100
AcDbLine
 10
18.0103006333
 20
7.5260993014
 30
0.0
 11
18.0105737321
 21
7.5243568745
 31
0.0
  0
LINE
  5
34F
330
1F
100
AcDbEntity
  8
0
  6
Continuous
 62
     7
370
    25
100
AcDbLine
 10
18.0103006333
 20
7.5260993014
 30
0.0
 11
18.0103006333
 21
7.6577694796
 31
0.0
  0
LINE
  5
350
330
1F
100
AcDbEntity
  8
0
  6
Continuous
 62
     7
370
    25
100
AcDbLine
 10
18.259509574
 20
7.6321047372
 30
0.0
 11
18.1127246411
 21
7.6321047372
 31
0.0
  0
SPLINE
  5
351
330
1F
100
AcDbEntity
  8
0
  6
Continuous
 62
     7
370
    25
100
AcDbSpline
210
0.0
220
0.0
230
1.0
 70
     8
 71
     3
 72
    12
 73
     8
 74
     0
 42
0.00000001
 43
0.00000001
 40
0.0
 40
0.0
 40
0.0
 40
0.0
 40
0.2610466257360386
 40
0.5203567671405949
 40
0.8317512029539015
 40
0.9869218091725053
 40
1.0
 40
1.0
 40
1.0
 40
1.0
 10
18.25924621416995
 20
7.524356874457983
 30
0.0
 10
18.25901149392064
 20
7.523797048778254
 30
0.0
 10
18.25854361478307
 20
7.522681121383886
 30
0.0
 10
18.25728244327222
 20
7.521252640912147
 30
0.0
 10
18.25601822793044
 20
7.520326101450426
 30
0.0
 10
18.25513082786436
 20
7.519906238854672
 30
0.0
 10
18.25481658037833
 20
7.519784630371833
 30
0.0
 10
18.25479215352559
 20
7.51977517759135
 30
0.0
  0
SPLINE
  5
352
330
1F
100
AcDbEntity
  8
0
  6
Continuous
 62
     7
370
    25
100
AcDbSpline
210
0.0
220
0.0
230
1.0
 70
     8
 71
     3
 72
    12
 73
     8
 74
     0
 42
0.00000001
 43
0.00000001
 40
0.0
 40
0.0
 40
0.0
 40
0.0
 40
0.2610466257372692
 40
0.5203567671424156
 40
0.8317512029575886
 40
0.9869218091726911
 40
1.0
 40
1.0
 40
1.0
 40
1.0
 10
18.01057373206985
 20
7.524356874457983
 30
0.0
 10
18.01080755971183
 20
7.523797048778253
 30
0.0
 10
18.01127365957236
 20
7.522681121383885
 30
0.0
 10
18.01244691228559
 20
7.521252640912131
 30
0.0
 10
18.0135961803974
 20
7.520326101450419
 30
0.0
 10
18.01439073533937
 20
7.519906238854676
 30
0.0
 10
18.01467068389509
 20
7.519784630371833
 30
0.0
 10
18.0146924446488
 20
7.51977517759135
 30
0.0
  0
LINE
  5
353
330
1F
100
AcDbEntity
  8
0
  6
Continuous
 62
     7
370
    25
100
AcDbLine
 10
18.0039854806
 20
7.5024867802
 30
0.0
 11
18.0039558177
 21
7.5030304483
 31
0.0
  0
SPLINE
  5
354
330
1F
100
AcDbEntity
  8
0
  6
Continuous
 62
     7
370
    25
100
AcDbSpline
210
0.0
220
0.0
230
1.0
 70
     8
 71
     3
 72
    10
 73
     6
 74
     0
 42
0.00000001
 43
0.00000001
 40
0.0
 40
0.0
 40
0.0
 40
0.0
 40
0.4814410754569087
 40
0.7400705226207653
 40
1.0
 40
1.0
 40
1.0
 40
1.0
 10
18.00395581770387
 20
7.503030448331768
 30
0.0
 10
18.00500210849599
 20
7.505465629376978
 30
0.0
 10
18.00661046518346
 20
7.509208986146225
 30
0.0
 10
18.00871498026718
 20
7.517758092892044
 30
0.0
 10
18.00977119963747
 20
7.523314255458631
 30
0.0
 10
18.01030063329664
 20
7.526099301407729
 30
0.0
  0
SPLINE
  5
355
330
1F
100
AcDbEntity
  8
0
  6
Continuous
 62
     7
370
    25
100
AcDbSpline
210
0.0
220
0.0
230
1.0
 70
     8
 71
     3
 72
    13
 73
     9
 74
     0
 42
0.00000001
 43
0.00000001
 40
0.0
 40
0.0
 40
0.0
 40
0.0
 40
0.185861265955327
 40
0.370826861880427
 40
0.5778789813014119
 40
0.8292801638917568
 40
0.9889166448666631
 40
1.0
 40
1.0
 40
1.0
 40
1.0
 10
18.00398548055233
 20
7.502486780245015
 30
0.0
 10
18.00408297096679
 20
7.501983588004033
 30
0.0
 10
18.00427748198698
 20
7.500979628417904
 30
0.0
 10
18.00503907572044
 20
7.499655079631091
 30
0.0
 10
18.00610576537813
 20
7.498517539843413
 30
0.0
 10
18.00730091612146
 20
7.497824200162674
 30
0.0
 10
18.00814864443638
 20
7.497590400879531
 30
0.0
 10
18.00849250412923
 20
7.49753781759132
 30
0.0
 10
18.0085148279504
 20
7.497534403815449
 30
0.0
  0
SPLINE
  5
356
330
1F
100
AcDbEntity
  8
0
  6
Continuous
 62
     7
370
    25
100
AcDbSpline
210
0.0
220
0.0
230
1.0
 70
     8
 71
     3
 72
     9
 73
     5
 74
     0
 42
0.00000001
 43
0.00000001
 40
0.0
 40
0.0
 40
0.0
 40
0.0
 40
0.72686780131851
 40
1.0
 40
1.0
 40
1.0
 40
1.0
 10
18.00395581770386
 20
7.657769479626764
 30
0.0
 10
18.00398414410568
 20
7.658099214768858
 30
0.0
 10
18.00402311460591
 20
7.658552853162932
 30
0.0
 10
18.00420914115801
 20
7.658962643072834
 30
0.0
 10
18.0042599509992
 20
7.659074569891922
 30
0.0
  0
SPLINE
  5
357
330
1F
100
AcDbEntity
  8
0
  6
Continuous
 62
     7
370
    25
100
AcDbSpline
210
0.0
220
0.0
230
1.0
 70
     8
 71
     3
 72
    11
 73
     7
 74
     0
 42
0.00000001
 43
0.00000001
 40
0.0
 40
0.0
 40
0.0
 40
0.0
 40
0.3106988680913689
 40
0.6258554267722372
 40
0.8120479219963602
 40
1.0
 40
1.0
 40
1.0
 40
1.0
 10
18.00715683306161
 20
7.660695503304391
 30
0.0
 10
18.00684598766168
 20
7.660705897855471
 30
0.0
 10
18.0062198370689
 20
7.660726836091401
 30
0.0
 10
18.00536281033236
 20
7.660318061798706
 30
0.0
 10
18.00467438376959
 20
7.659759467665988
 30
0.0
 10
18.00439852770165
 20
7.659303583816083
 30
0.0
 10
18.0042599509992
 20
7.659074569891922
 30
0.0
  0
LINE
  5
358
330
1F
100
AcDbEntity
  8
0
  6
Continuous
 62
     7
370
    25
100
AcDbLine
 10
18.0103006333
 20
7.6577694796
 30
0.0
 11
18.0039558177
 21
7.6577694796
 31
0.0
  0
LINE
  5
359
330
1F
100
AcDbEntity
  8
0
  6
Continuous
 62
     7
370
    25
100
AcDbLine
 10
18.0039558177
 20
7.6577694796
 30
0.0
 11
18.0039558177
 21
7.6321047372
 31
0.0
  0
LINE
  5
35A
330
1F
100
AcDbEntity
  8
0
  6
Continuous
 62
     7
370
    25
100
AcDbLine
 10
18.0039558177
 20
7.5030304483
 30
0.0
 11
18.0039558177
 21
7.6321047372
 31
0.0
  0
SPLINE
  5
35B
330
1F
100
AcDbEntity
  8
0
  6
Continuous
 62
     7
370
    25
100
AcDbSpline
210
0.0
220
0.0
230
1.0
 70
     8
 71
     3
 72
    12
 73
     8
 74
     0
 42
0.00000001
 43
0.00000001
 40
0.0
 40
0.0
 40
0.0
 40
0.0
 40
0.1671913435648781
 40
0.4412570767308344
 40
0.7740257033845429
 40
0.9853294529941514
 40
0.9999999999999999
 40
0.9999999999999999
 40
0.9999999999999999
 40
0.9999999999999999
 10
18.25251017552636
 20
7.500614914551039
 30
0.0
 10
18.25234865291409
 20
7.500316834969568
 30
0.0
 10
18.25192235694565
 20
7.499530133206493
 30
0.0
 10
18.25079698243779
 20
7.498526110404652
 30
0.0
 10
18.24947164099191
 20
7.49782258398387
 30
0.0
 10
18.24851257008039
 20
7.497590416424095
 30
0.0
 10
18.24812378859272
 20
7.497537818538972
 30
0.0
 10
18.24809854838986
 20
7.497534403815449
 30
0.0
  0
LINE
  5
35C
330
1F
100
AcDbEntity
  8
0
  6
Continuous
 62
     7
370
    25
100
AcDbLine
 10
17.7762713671
 20
7.5024867802
 30
0.0
 11
18.0039854806
 21
7.5024867802
 31
0.0
  0
SPLINE
  5
35D
330
1F
100
AcDbEntity
  8
0
  6
Continuous
 62
     7
370
    25
100
AcDbSpline
210
0.0
220
0.0
230
1.0
 70
     8
 71
     3
 72
    13
 73
     9
 74
     0
 42
0.00000001
 43
0.00000001
 40
0.0
 40
0.0
 40
0.0
 40
0.0
 40
0.185861265955016
 40
0.3708268618804614
 40
0.5778789813016114
 40
0.8292801638910163
 40
0.9889166448666171
 40
1.0
 40
1.0
 40
1.0
 40
1.0
 10
17.77627136713594
 20
7.502486780245015
 30
0.0
 10
17.77623197378779
 20
7.501983588004033
 30
0.0
 10
17.776153376929
 20
7.500979628417901
 30
0.0
 10
17.77609037034989
 20
7.499655079631091
 30
0.0
 10
17.77607149161647
 20
7.498517539843417
 30
0.0
 10
17.77610694446802
 20
7.49782420016267
 30
0.0
 10
17.77615711446545
 20
7.497590400879531
 30
0.0
 10
17.7761814743353
 20
7.49753781759132
 30
0.0
 10
17.77618305580993
 20
7.49753440381545
 30
0.0
  0
LINE
  5
35E
330
1F
100
AcDbEntity
  8
0
  6
Continuous
 62
     7
370
    25
100
AcDbLine
 10
17.7762942954
 20
7.5030304483
 30
0.0
 11
17.7762942954
 21
7.6321047372
 31
0.0
  0
LINE
  5
35F
330
1F
100
AcDbEntity
  8
0
  6
Continuous
 62
     7
370
    25
100
AcDbLine
 10
17.7762942954
 20
7.5030304483
 30
0.0
 11
17.7762713671
 21
7.5024867802
 31
0.0
  0
LINE
  5
360
330
1F
100
AcDbEntity
  8
0
  6
Continuous
 62
     7
370
    25
100
AcDbLine
 10
18.0039558177
 20
7.6321047372
 30
0.0
 11
17.7762942954
 21
7.6321047372
 31
0.0
  0
LINE
  5
361
330
1F
100
AcDbEntity
  8
0
  6
Continuous
 62
     7
370
    25
100
AcDbLine
 10
18.253136331
 20
7.5024867802
 30
0.0
 11
18.4608060146
 21
7.5024867802
 31
0.0
  0
SPLINE
  5
362
330
1F
100
AcDbEntity
  8
0
  6
Continuous
 62
     7
370
    25
100
AcDbSpline
210
0.0
220
0.0
230
1.0
 70
     8
 71
     3
 72
    13
 73
     9
 74
     0
 42
0.00000001
 43
0.00000001
 40
0.0
 40
0.0
 40
0.0
 40
0.0
 40
0.1858612659550331
 40
0.3708268618810759
 40
0.5778789813018372
 40
0.8292801638919955
 40
0.9889166448683133
 40
0.9999999999999999
 40
0.9999999999999999
 40
0.9999999999999999
 40
0.9999999999999999
 10
18.46080601459101
 20
7.502486780245014
 30
0.0
 10
18.46083007341279
 20
7.501983588004031
 30
0.0
 10
18.46087807511629
 20
7.500979628417899
 30
0.0
 10
18.46079284169765
 20
7.499655079631097
 30
0.0
 10
18.46059603208915
 20
7.498517539843414
 30
0.0
 10
18.46031233605703
 20
7.497824200162666
 30
0.0
 10
18.46008317694923
 20
7.497590400879541
 30
0.0
 10
18.45998574857513
 20
7.49753781759132
 30
0.0
 10
18.45997942339761
 20
7.497534403815449
 30
0.0
  0
LINE
  5
363
330
1F
100
AcDbEntity
  8
0
  6
Continuous
 62
     7
370
    25
100
AcDbLine
 10
18.4607864802
 20
7.5030304483
 30
0.0
 11
18.4607864802
 21
7.6321047372
 31
0.0
  0
LINE
  5
364
330
1F
100
AcDbEntity
  8
0
  6
Continuous
 62
     7
370
    25
100
AcDbLine
 10
18.4608060146
 20
7.5024867802
 30
0.0
 11
18.4607864802
 21
7.5030304483
 31
0.0
  0
LINE
  5
365
330
1F
100
AcDbEntity
  8
0
  6
Continuous
 62
     7
370
    25
100
AcDbLine
 10
18.4607864802
 20
7.6321047372
 30
0.0
 11
18.259509574
 21
7.6321047372
 31
0.0
  0
LINE
  5
366
330
1F
100
AcDbEntity
  8
0
  6
Continuous
 62
     7
370
    25
100
AcDbLine
 10
17.5687891787
 20
7.6585992775
 30
0.0
 11
17.5687447433
 21
7.6577694796
 31
0.0
  0
SPLINE
  5
367
330
1F
100
AcDbEntity
  8
0
  6
Continuous
 62
     7
370
    25
100
AcDbSpline
210
0.0
220
0.0
230
1.0
 70
     8
 71
     3
 72
    11
 73
     7
 74
     0
 42
0.00000001
 43
0.00000001
 40
0.0
 40
0.0
 40
0.0
 40
0.0
 40
0.2519956718517845
 40
0.5058364467559898
 40
0.7521453372596011
 40
1.0
 40
1.0
 40
1.0
 40
1.0
 10
17.627977859482
 20
7.62910473715279
 30
0.0
 10
17.62200289353524
 20
7.630452218525705
 30
0.0
 10
17.61000921316055
 20
7.633157047480648
 30
0.0
 10
17.59440778745216
 20
7.639808249482884
 30
0.0
 10
17.58042287219034
 20
7.648087016103646
 30
0.0
 10
17.5726751549861
 20
7.655087890659681
 30
0.0
 10
17.56878917872974
 20
7.658599277508394
 30
0.0
  0
LINE
  5
368
330
1F
100
AcDbEntity
  8
0
  6
Continuous
 62
     7
370
    25
100
AcDbLine
 10
17.7105590335
 20
7.6291047372
 30
0.0
 11
17.6279778595
 21
7.6291047372
 31
0.0
  0
LINE
  5
369
330
1F
100
AcDbEntity
  8
0
  6
Continuous
 62
     7
370
    25
100
AcDbLine
 10
17.7105590335
 20
7.5260993014
 30
0.0
 11
17.7105590335
 21
7.6291047372
 31
0.0
  0
LINE
  5
36A
330
1F
100
AcDbEntity
  8
0
  6
Continuous
 62
     7
370
    25
100
AcDbLine
 10
17.7103559456
 20
7.5243568745
 30
0.0
 11
17.7105590335
 21
7.5260993014
 31
0.0
  0
LINE
  5
36B
330
1F
100
AcDbEntity
  8
0
  6
Continuous
 62
     7
370
    25
100
AcDbLine
 10
17.5688469314
 20
7.5243568745
 30
0.0
 11
17.7103559456
 21
7.5243568745
 31
0.0
  0
LINE
  5
36C
330
1F
100
AcDbEntity
  8
0
  6
Continuous
 62
     7
370
    25
100
AcDbLine
 10
17.5687447433
 20
7.5260993014
 30
0.0
 11
17.5688469314
 21
7.5243568745
 31
0.0
  0
LINE
  5
36D
330
1F
100
AcDbEntity
  8
0
  6
Continuous
 62
     7
370
    25
100
AcDbLine
 10
17.5687447433
 20
7.5260993014
 30
0.0
 11
17.5687447433
 21
7.6577694796
 31
0.0
  0
SPLINE
  5
36E
330
1F
100
AcDbEntity
  8
0
  6
Continuous
 62
     7
370
    25
100
AcDbSpline
210
0.0
220
0.0
230
1.0
 70
     8
 71
     3
 72
    12
 73
     8
 74
     0
 42
0.00000001
 43
0.00000001
 40
0.0
 40
0.0
 40
0.0
 40
0.0
 40
0.2610466257367428
 40
0.5203567671392736
 40
0.831751202953396
 40
0.986921809171769
 40
1.0
 40
1.0
 40
1.0
 40
1.0
 10
17.71035594559578
 20
7.524356874457983
 30
0.0
 10
17.71022725409606
 20
7.523797048778256
 30
0.0
 10
17.70997072715354
 20
7.522681121383897
 30
0.0
 10
17.7097335030791
 20
7.521252640912135
 30
0.0
 10
17.70964225086977
 20
7.520326101450434
 30
0.0
 10
17.70964464555667
 20
7.519906238854666
 30
0.0
 10
17.70965325610518
 20
7.519784630371833
 30
0.0
 10
17.70965392541396
 20
7.519775177591351
 30
0.0
  0
SPLINE
  5
36F
330
1F
100
AcDbEntity
  8
0
  6
Continuous
 62
     7
370
    25
100
AcDbSpline
210
0.0
220
0.0
230
1.0
 70
     8
 71
     3
 72
    12
 73
     8
 74
     0
 42
0.00000001
 43
0.00000001
 40
0.0
 40
0.0
 40
0.0
 40
0.0
 40
0.2610466257376929
 40
0.5203567671428283
 40
0.8317512029568198
 40
0.986921809171884
 40
1.0
 40
1.0
 40
1.0
 40
1.0
 10
17.56884693138017
 20
7.524356874457982
 30
0.0
 10
17.56898487071008
 20
7.523797048778251
 30
0.0
 10
17.56925983179633
 20
7.522681121383882
 30
0.0
 10
17.5704079358017
 20
7.521252640912131
 30
0.0
 10
17.57169009516352
 20
7.520326101450427
 30
0.0
 10
17.57264961945777
 20
7.519906238854664
 30
0.0
 10
17.57299636189529
 20
7.51978463037183
 30
0.0
 10
17.57302331462152
 20
7.51977517759135
 30
0.0
  0
SPLINE
  5
370
330
1F
100
AcDbEntity
  8
0
  6
Continuous
 62
     7
370
    25
100
AcDbSpline
210
0.0
220
0.0
230
1.0
 70
     8
 71
     3
 72
    13
 73
     9
 74
     0
 42
0.00000001
 43
0.00000001
 40
0.0
 40
0.0
 40
0.0
 40
0.0
 40
0.2142797061672976
 40
0.4285450239899318
 40
0.6429491528020937
 40
0.8576415051291926
 40
0.9549170214531412
 40
1.0
 40
1.0
 40
1.0
 40
1.0
 10
17.63053971121877
 20
7.63210473715279
 30
0.0
 10
17.63026110818984
 20
7.632071650310502
 30
0.0
 10
17.62970392083948
 20
7.632005478847624
 30
0.0
 10
17.62894943900641
 20
7.631489325369165
 30
0.0
 10
17.6283637370178
 20
7.630729751356899
 30
0.0
 10
17.62807808189704
 20
7.629951694405047
 30
0.0
 10
17.6279919074525
 20
7.629397805114801
 30
0.0
 10
17.62798123826654
 20
7.629175225163811
 30
0.0
 10
17.627977859482
 20
7.62910473715279
 30
0.0
  0
SPLINE
  5
371
330
1F
100
AcDbEntity
  8
0
  6
Continuous
 62
     7
370
    25
100
AcDbSpline
210
0.0
220
0.0
230
1.0
 70
     8
 71
     3
 72
    12
 73
     8
 74
     0
 42
0.00000001
 43
0.00000001
 40
0.0
 40
0.0
 40
0.0
 40
0.0
 40
0.2217181155141877
 40
0.4435284651950104
 40
0.6625812968593054
 40
0.8762617802484313
 40
1.0
 40
1.0
 40
1.0
 40
1.0
 10
17.71309336821612
 20
7.63210473715279
 30
0.0
 10
17.71280284889817
 20
7.632070334419677
 30
0.0
 10
17.712221689407
 20
7.632001514642002
 30
0.0
 10
17.7114495815798
 20
7.631463239337755
 30
0.0
 10
17.71087738866108
 20
7.630675022719907
 30
0.0
 10
17.71059533463407
 20
7.62983588122852
 30
0.0
 10
17.71056877385596
 20
7.62930091867327
 30
0.0
 10
17.71055903348481
 20
7.62910473715279
 30
0.0
  0
LINE
  5
372
330
1F
100
AcDbEntity
  8
0
  6
Continuous
 62
     7
370
    25
100
AcDbLine
 10
17.6305397112
 20
7.6321047372
 30
0.0
 11
17.7130933682
 21
7.6321047372
 31
0.0
  0
SPLINE
  5
373
330
1F
100
AcDbEntity
  8
0
  6
Continuous
 62
     7
370
    25
100
AcDbSpline
210
0.0
220
0.0
230
1.0
 70
     8
 71
     3
 72
    10
 73
     6
 74
     0
 42
0.00000001
 43
0.00000001
 40
0.0
 40
0.0
 40
0.0
 40
0.0
 40
0.2575958879154233
 40
0.5164821654171541
 40
1.0
 40
1.0
 40
1.0
 40
1.0
 10
17.71055903348481
 20
7.526099301407729
 30
0.0
 10
17.71599451499453
 20
7.523338140844632
 30
0.0
 10
17.72689270627756
 20
7.517801988081349
 30
0.0
 10
17.748692027279
 20
7.509236139212883
 30
0.0
 10
17.76540764071313
 20
7.50547804479179
 30
0.0
 10
17.77629429540676
 20
7.503030448331767
 30
0.0
  0
LINE
  5
374
330
1F
100
AcDbEntity
  8
0
  6
Continuous
 62
     7
370
    25
100
AcDbLine
 10
17.7762942954
 20
7.6321047372
 30
0.0
 11
17.7130933682
 21
7.6321047372
 31
0.0
  0
SPLINE
  5
375
330
1F
100
AcDbEntity
  8
0
  6
Continuous
 62
     7
370
    25
100
AcDbSpline
210
0.0
220
0.0
230
1.0
 70
     8
 71
     3
 72
    10
 73
     6
 74
     0
 42
0.00000001
 43
0.00000001
 40
0.0
 40
0.0
 40
0.0
 40
0.0
 40
0.4835178380785094
 40
0.7411166502025246
 40
1.0
 40
1.0
 40
1.0
 40
1.0
 10
18.46078648017992
 20
7.503030448331766
 30
0.0
 10
18.47272394836644
 20
7.505477934476194
 30
0.0
 10
18.49102121836883
 20
7.50922934257312
 30
0.0
 10
18.5149257969011
 20
7.517789936111527
 30
0.0
 10
18.52687639669064
 20
7.52332492430421
 30
0.0
 10
18.53286655769463
 20
7.526099301407728
 30
0.0
  0
LINE
  5
376
330
1F
100
AcDbEntity
  8
0
  6
Continuous
 62
     7
370
    25
100
AcDbLine
 10
18.5328665577
 20
7.5260993014
 30
0.0
 11
18.5330374684
 21
7.5243568745
 31
0.0
  0
SPLINE
  5
377
330
1F
100
AcDbEntity
  8
0
  6
Continuous
 62
     7
370
    25
100
AcDbSpline
210
0.0
220
0.0
230
1.0
 70
     8
 71
     3
 72
    12
 73
     8
 74
     0
 42
0.00000001
 43
0.00000001
 40
0.0
 40
0.0
 40
0.0
 40
0.0
 40
0.2610466257365736
 40
0.5203567671403673
 40
0.8317512029543099
 40
0.9869218091726412
 40
1.0
 40
1.0
 40
1.0
 40
1.0
 10
18.53303746839651
 20
7.524356874457983
 30
0.0
 10
18.53313335670857
 20
7.523797048778255
 30
0.0
 10
18.53332449548285
 20
7.522681121383891
 30
0.0
 10
18.53334964419073
 20
7.521252640912144
 30
0.0
 10
18.53321675294067
 20
7.520326101450423
 30
0.0
 10
18.53305178358845
 20
7.519906238854679
 30
0.0
 10
18.53298498970664
 20
7.519784630371833
 30
0.0
 10
18.53297979773411
 20
7.51977517759135
 30
0.0
  0
SPLINE
  5
378
330
1F
100
AcDbEntity
  8
0
  6
Continuous
 62
     7
370
    25
100
AcDbSpline
210
0.0
220
0.0
230
1.0
 70
     8
 71
     3
 72
     9
 73
     5
 74
     0
 42
0.00000001
 43
0.00000001
 40
0.0
 40
0.0
 40
0.0
 40
0.0
 40
0.7268678013214047
 40
1.0
 40
1.0
 40
1.0
 40
1.0
 10
18.46078648017992
 20
7.657769479626764
 30
0.0
 10
18.46080514395153
 20
7.658099214768857
 30
0.0
 10
18.46083082093374
 20
7.658552853162927
 30
0.0
 10
18.46095324917677
 20
7.658962643072833
 30
0.0
 10
18.46098668827197
 20
7.659074569891922
 30
0.0
  0
SPLINE
  5
379
330
1F
100
AcDbEntity
  8
0
  6
Continuous
 62
     7
370
    25
100
AcDbSpline
210
0.0
220
0.0
230
1.0
 70
     8
 71
     3
 72
    11
 73
     7
 74
     0
 42
0.00000001
 43
0.00000001
 40
0.0
 40
0.0
 40
0.0
 40
0.0
 40
0.3106988680966202
 40
0.6258554267723309
 40
0.812047921997378
 40
1.0
 40
1.0
 40
1.0
 40
1.0
 10
18.46441849836301
 20
7.660695503304391
 30
0.0
 10
18.46398470898719
 20
7.660705897855474
 30
0.0
 10
18.46311090652826
 20
7.660726836091405
 30
0.0
 10
18.46206959083961
 20
7.6603180617987
 30
0.0
 10
18.46131575714094
 20
7.659759467665991
 30
0.0
 10
18.46109672126646
 20
7.659303583816082
 30
0.0
 10
18.46098668827197
 20
7.659074569891922
 30
0.0
  0
SPLINE
  5
37A
330
1F
100
AcDbEntity
  8
0
  6
Continuous
 62
     7
370
    25
100
AcDbSpline
210
0.0
220
0.0
230
1.0
 70
     8
 71
     3
 72
    12
 73
     8
 74
     0
 42
0.00000001
 43
0.00000001
 40
0.0
 40
0.0
 40
0.0
 40
0.0
 40
0.1130801400944666
 40
0.4115717066516903
 40
0.6141613493671942
 40
0.8068640164388007
 40
0.9999999999999999
 40
0.9999999999999999
 40
0.9999999999999999
 40
0.9999999999999999
 10
18.53274701338992
 20
7.660728432813206
 30
0.0
 10
18.5327825037522
 20
7.660739396568885
 30
0.0
 10
18.53291167611581
 20
7.660779300761012
 30
0.0
 10
18.53303028482225
 20
7.660515708006933
 30
0.0
 10
18.53308893197686
 20
7.660006901467951
 30
0.0
 10
18.53306516662299
 20
7.659376429959078
 30
0.0
 10
18.53298236343771
 20
7.658858522204233
 30
0.0
 10
18.53294091534897
 20
7.658599277508395
 30
0.0
  0
LINE
  5
37B
330
1F
100
AcDbEntity
  8
0
  6
Continuous
 62
     7
370
    25
100
AcDbLine
 10
18.5329409153
 20
7.6585992775
 30
0.0
 11
18.5328665577
 21
7.6577694796
 31
0.0
  0
LINE
  5
37C
330
1F
100
AcDbEntity
  8
0
  6
Continuous
 62
     7
370
    25
100
AcDbLine
 10
18.5328665577
 20
7.6577694796
 30
0.0
 11
18.4607864802
 21
7.6577694796
 31
0.0
  0
LINE
  5
37D
330
1F
100
AcDbEntity
  8
0
  6
Continuous
 62
     7
370
    25
100
AcDbLine
 10
18.4607864802
 20
7.6577694796
 30
0.0
 11
18.4607864802
 21
7.6321047372
 31
0.0
  0
LINE
  5
37E
330
1F
100
AcDbEntity
  8
0
  6
Continuous
 62
     7
370
    25
100
AcDbLine
 10
18.5328665577
 20
7.5260993014
 30
0.0
 11
18.5328665577
 21
7.6577694796
 31
0.0
  0
SPLINE
  5
37F
330
1F
100
AcDbEntity
  8
0
  6
Continuous
 62
     7
370
    25
100
AcDbSpline
210
0.0
220
0.0
230
1.0
 70
     8
 71
     3
 72
    11
 73
     7
 74
     0
 42
0.00000001
 43
0.00000001
 40
0.0
 40
0.0
 40
0.0
 40
0.0
 40
0.2519956718517591
 40
0.5058364467559369
 40
0.7521453372595747
 40
1.0
 40
1.0
 40
1.0
 40
1.0
 10
18.59919567929686
 20
7.629104737152789
 30
0.0
 10
18.5943927845214
 20
7.630452218525704
 30
0.0
 10
18.58475182835137
 20
7.633157047480646
 30
0.0
 10
18.56852961592482
 20
7.639808249482885
 30
0.0
 10
18.55132402713539
 20
7.648087016103642
 30
0.0
 10
18.53908138450969
 20
7.655087890659681
 30
0.0
 10
18.53294091534897
 20
7.658599277508395
 30
0.0
  0
LINE
  5
380
330
1F
100
AcDbEntity
  8
0
  6
Continuous
 62
     7
370
    25
100
AcDbLine
 10
18.6402612082
 20
7.6291047372
 30
0.0
 11
18.5991956793
 21
7.6291047372
 31
0.0
  0
LINE
  5
381
330
1F
100
AcDbEntity
  8
0
  6
Continuous
 62
     7
370
    25
100
AcDbLine
 10
18.6402612082
 20
7.5260993014
 30
0.0
 11
18.6402612082
 21
7.6291047372
 31
0.0
  0
LINE
  5
382
330
1F
100
AcDbEntity
  8
0
  6
Continuous
 62
     7
370
    25
100
AcDbLine
 10
18.6402009363
 20
7.5243568745
 30
0.0
 11
18.6402612082
 21
7.5260993014
 31
0.0
  0
LINE
  5
383
330
1F
100
AcDbEntity
  8
0
  6
Continuous
 62
     7
370
    25
100
AcDbLine
 10
18.5330374684
 20
7.5243568745
 30
0.0
 11
18.6402009363
 21
7.5243568745
 31
0.0
  0
SPLINE
  5
384
330
1F
100
AcDbEntity
  8
0
  6
Continuous
 62
     7
370
    25
100
AcDbSpline
210
0.0
220
0.0
230
1.0
 70
     8
 71
     3
 72
    13
 73
     9
 74
     0
 42
0.00000001
 43
0.00000001
 40
0.0
 40
0.0
 40
0.0
 40
0.0
 40
0.214279706153477
 40
0.428545023985907
 40
0.6429491528100145
 40
0.8576415051480558
 40
0.9549170214506492
 40
0.9999999999999999
 40
0.9999999999999999
 40
0.9999999999999999
 40
0.9999999999999999
 10
18.59655557415654
 20
7.632104737152789
 30
0.0
 10
18.59685910992848
 20
7.632071650310483
 30
0.0
 10
18.59746616109072
 20
7.632005478847561
 30
0.0
 10
18.59826423598632
 20
7.631489325369082
 30
0.0
 10
18.59886367478578
 20
7.630729751356796
 30
0.0
 10
18.59913321783066
 20
7.629951694404963
 30
0.0
 10
18.59919667724403
 20
7.62939780511476
 30
0.0
 10
18.59919591932074
 20
7.629175225163811
 30
0.0
 10
18.59919567929686
 20
7.629104737152789
 30
0.0
  0
SPLINE
  5
385
330
1F
100
AcDbEntity
  8
0
  6
Continuous
 62
     7
370
    25
100
AcDbSpline
210
0.0
220
0.0
230
1.0
 70
     8
 71
     3
 72
    11
 73
     7
 74
     0
 42
0.00000001
 43
0.00000001
 40
0.0
 40
0.0
 40
0.0
 40
0.0
 40
0.241911713857045
 40
0.4852111676220169
 40
0.7416738302413178
 40
1.0
 40
1.0
 40
1.0
 40
1.0
 10
18.53243837946752
 20
7.660581577036081
 30
0.0
 10
18.53823475523368
 20
7.657279532322077
 30
0.0
 10
18.54986075799575
 20
7.650656500532189
 30
0.0
 10
18.56639494328281
 20
7.642686157188336
 30
0.0
 10
18.58226104841435
 20
7.636145786903508
 30
0.0
 10
18.59177924712461
 20
7.633455000568998
 30
0.0
 10
18.59655557415654
 20
7.632104737152789
 30
0.0
  0
SPLINE
  5
386
330
1F
100
AcDbEntity
  8
0
  6
Continuous
 62
     7
370
    25
100
AcDbSpline
210
0.0
220
0.0
230
1.0
 70
     8
 71
     3
 72
    12
 73
     8
 74
     0
 42
0.00000001
 43
0.00000001
 40
0.0
 40
0.0
 40
0.0
 40
0.0
 40
0.0130781908274189
 40
0.1682487970461898
 40
0.479643232859895
 40
0.7389533742638994
 40
1.0
 40
1.0
 40
1.0
 40
1.0
 10
18.63644889581845
 20
7.51977517759135
 30
0.0
 10
18.63647399197997
 20
7.519784630371832
 30
0.0
 10
18.63679685001448
 20
7.519906238854672
 30
0.0
 10
18.63768664476751
 20
7.520326101450426
 30
0.0
 10
18.63885960789996
 20
7.521252640912144
 30
0.0
 10
18.63988355533635
 20
7.522681121383889
 30
0.0
 10
18.64009490753141
 20
7.523797048778254
 30
0.0
 10
18.640200936281
 20
7.524356874457983
 30
0.0
  0
SPLINE
  5
387
330
1F
100
AcDbEntity
  8
0
  6
Continuous
 62
     7
370
    25
100
AcDbSpline
210
0.0
220
0.0
230
1.0
 70
     8
 71
     3
 72
    11
 73
     7
 74
     0
 42
0.00000001
 43
0.00000001
 40
0.0
 40
0.0
 40
0.0
 40
0.0
 40
0.2419117138570477
 40
0.4852111676220208
 40
0.7416738302412357
 40
1.0
 40
1.0
 40
1.0
 40
1.0
 10
17.573014514725
 20
7.66058157703608
 30
0.0
 10
17.57671319113071
 20
7.657279532322078
 30
0.0
 10
17.58413176160364
 20
7.65065650053219
 30
0.0
 10
17.59756900816837
 20
7.642686157188336
 30
0.0
 10
17.61278525014177
 20
7.636145786903509
 30
0.0
 10
17.62460729247967
 20
7.633455000569001
 30
0.0
 10
17.63053971121877
 20
7.63210473715279
 30
0.0
  0
SPLINE
  5
388
330
1F
100
AcDbEntity
  8
0
  6
Continuous
 62
     7
370
    25
100
AcDbSpline
210
0.0
220
0.0
230
1.0
 70
     8
 71
     3
 72
    14
 73
    10
 74
     0
 42
0.00000001
 43
0.00000001
 40
0.0
 40
0.0
 40
0.0
 40
0.0
 40
0.012366521896391
 40
0.0969757808090215
 40
0.3271475154414322
 40
0.5535950235602066
 40
0.7072875392103809
 40
0.8534794040908882
 40
1.0
 40
1.0
 40
1.0
 40
1.0
 10
17.573014514725
 20
7.66058157703608
 30
0.0
 10
17.57299290191479
 20
7.660587736048056
 30
0.0
 10
17.5728234185983
 20
7.660636033782885
 30
0.0
 10
17.5722450393524
 20
7.660765348597885
 30
0.0
 10
17.57126773005364
 20
7.6608073851768
 30
0.0
 10
17.57021400158727
 20
7.660524987729107
 30
0.0
 10
17.56945349069882
 20
7.660004952905704
 30
0.0
 10
17.56895755620664
 20
7.659376908157242
 30
0.0
 10
17.56884534656109
 20
7.658858681722919
 30
0.0
 10
17.56878917872974
 20
7.658599277508394
 30
0.0
  0
LINE
  5
389
330
1F
100
AcDbEntity
  8
0
  6
Continuous
 62
     7
370
    25
100
AcDbLine
 10
17.6335718433
 20
7.660581577
 30
0.0
 11
17.5730145147
 21
7.660581577
 31
0.0
  0
SPLINE
  5
38A
330
1F
100
AcDbEntity
  8
0
  6
Continuous
 62
     7
370
    25
100
AcDbSpline
210
0.0
220
0.0
230
1.0
 70
     8
 71
     3
 72
    10
 73
     6
 74
     0
 42
0.00000001
 43
0.00000001
 40
0.0
 40
0.0
 40
0.0
 40
0.0
 40
0.4104569623574675
 40
0.8244421385552652
 40
1.0
 40
1.0
 40
1.0
 40
1.0
 10
17.68942288352492
 20
7.63210473715279
 30
0.0
 10
17.683502143481
 20
7.633484931668613
 30
0.0
 10
17.67160976978217
 20
7.636257184602783
 30
0.0
 10
17.65895872394068
 20
7.6414908199156
 30
0.0
 10
17.65267344916639
 20
7.64566586546202
 30
0.0
 10
17.65080178021686
 20
7.646909136980407
 30
0.0
  0
SPLINE
  5
38B
330
1F
100
AcDbEntity
  8
0
  6
Continuous
 62
     7
370
    25
100
AcDbSpline
210
0.0
220
0.0
230
1.0
 70
     8
 71
     3
 72
    10
 73
     6
 74
     0
 42
0.00000001
 43
0.00000001
 40
0.0
 40
0.0
 40
0.0
 40
0.0
 40
0.0416190951352841
 40
0.5346278050002125
 40
1.0
 40
1.0
 40
1.0
 40
1.0
 10
17.63357184330906
 20
7.660581577036081
 30
0.0
 10
17.63357926090666
 20
7.660586479125402
 30
0.0
 10
17.63367454538877
 20
7.660649450058455
 30
0.0
 10
17.63385390527102
 20
7.660763729464472
 30
0.0
 10
17.63398523237278
 20
7.660717803911059
 30
0.0
 10
17.63404900240545
 20
7.66069550330439
 30
0.0
  0
SPLINE
  5
38C
330
1F
100
AcDbEntity
  8
0
  6
Continuous
 62
     7
370
    25
100
AcDbSpline
210
0.0
220
0.0
230
1.0
 70
     8
 71
     3
 72
    12
 73
     8
 74
     0
 42
0.00000001
 43
0.00000001
 40
0.0
 40
0.0
 40
0.0
 40
0.0
 40
0.2217181155137876
 40
0.443528465195593
 40
0.6625812968591444
 40
0.8762617802484884
 40
1.0
 40
1.0
 40
1.0
 40
1.0
 10
18.63748225766646
 20
7.632104737152789
 30
0.0
 10
18.6378008181216
 20
7.632070334419675
 30
0.0
 10
18.63843807155222
 20
7.632001514642
 30
0.0
 10
18.63928470379202
 20
7.631463239337758
 30
0.0
 10
18.63991212519004
 20
7.630675022719903
 30
0.0
 10
18.64022140327817
 20
7.62983588122852
 30
0.0
 10
18.64025052772203
 20
7.62930091867327
 30
0.0
 10
18.64026120824093
 20
7.629104737152789
 30
0.0
  0
LINE
  5
38D
330
1F
100
AcDbEntity
  8
0
  6
Continuous
 62
     7
370
    25
100
AcDbLine
 10
18.5965555742
 20
7.6321047372
 30
0.0
 11
18.6374822577
 21
7.6321047372
 31
0.0
  0
LINE
  5
38E
330
1F
100
AcDbEntity
  8
0
  6
Continuous
 62
     7
370
    25
100
AcDbLine
 10
17.5424203991
 20
7.5243568745
 30
0.0
 11
17.5423601272
 21
7.5260993014
 31
0.0
  0
SPLINE
  5
38F
330
1F
100
AcDbEntity
  8
0
  6
Continuous
 62
     7
370
    25
100
AcDbSpline
210
0.0
220
0.0
230
1.0
 70
     8
 71
     3
 72
    12
 73
     8
 74
     0
 42
0.00000001
 43
0.00000001
 40
0.0
 40
0.0
 40
0.0
 40
0.0
 40
0.2610466257363087
 40
0.5203567671399127
 40
0.8317512029543943
 40
0.9869218091727159
 40
0.9999999999999999
 40
0.9999999999999999
 40
0.9999999999999999
 40
0.9999999999999999
 10
17.54242039913265
 20
7.524356874457983
 30
0.0
 10
17.54252642788224
 20
7.523797048778255
 30
0.0
 10
17.5427377800773
 20
7.522681121383893
 30
0.0
 10
17.5437617275137
 20
7.52125264091214
 30
0.0
 10
17.54493469064611
 20
7.520326101450426
 30
0.0
 10
17.54582448539919
 20
7.519906238854674
 30
0.0
 10
17.54614734343368
 20
7.519784630371832
 30
0.0
 10
17.54617243959519
 20
7.51977517759135
 30
0.0
  0
SPLINE
  5
390
330
1F
100
AcDbEntity
  8
0
  6
Continuous
 62
     7
370
    25
100
AcDbSpline
210
0.0
220
0.0
230
1.0
 70
     8
 71
     3
 72
    12
 73
     8
 74
     0
 42
0.00000001
 43
0.00000001
 40
0.0
 40
0.0
 40
0.0
 40
0.0
 40
0.2217181155150774
 40
0.4435284651947841
 40
0.6625812968592413
 40
0.8762617802482836
 40
1.0
 40
1.0
 40
1.0
 40
1.0
 10
17.54513907774719
 20
7.63210473715279
 30
0.0
 10
17.54482051729205
 20
7.632070334419677
 30
0.0
 10
17.54418326386143
 20
7.632001514642005
 30
0.0
 10
17.54333663162164
 20
7.631463239337751
 30
0.0
 10
17.5427092102236
 20
7.630675022719908
 30
0.0
 10
17.54239993213549
 20
7.629835881228519
 30
0.0
 10
17.54237080769162
 20
7.62930091867327
 30
0.0
 10
17.54236012717273
 20
7.62910473715279
 30
0.0
  0
LINE
  5
391
330
1F
100
AcDbEntity
  8
0
  6
Continuous
 62
     7
370
    25
100
AcDbLine
 10
17.5423601272
 20
7.5260993014
 30
0.0
 11
17.5423601272
 21
7.6291047372
 31
0.0
  0
LINE
  5
392
330
1F
100
AcDbEntity
  8
0
  6
Continuous
 62
     7
370
    25
100
AcDbLine
 10
17.5687447433
 20
7.6321047372
 30
0.0
 11
17.5451390777
 21
7.6321047372
 31
0.0
  0
SPLINE
  5
393
330
1F
100
AcDbEntity
  8
0
  6
Continuous
 62
     7
370
    25
100
AcDbSpline
210
0.0
220
0.0
230
1.0
 70
     8
 71
     3
 72
    12
 73
     8
 74
     0
 42
0.00000001
 43
0.00000001
 40
0.0
 40
0.0
 40
0.0
 40
0.0
 40
0.1130801400971066
 40
0.4115717066519638
 40
0.614161349367966
 40
0.8068640164394365
 40
1.0
 40
1.0
 40
1.0
 40
1.0
 10
18.61089221372075
 20
7.660728432813212
 30
0.0
 10
18.61104571518266
 20
7.66073939656889
 30
0.0
 10
18.61160440620122
 20
7.660779300761019
 30
0.0
 10
18.61240697083474
 20
7.660515708006935
 30
0.0
 10
18.61316792093605
 20
7.660006901467956
 30
0.0
 10
18.6136637605015
 20
7.659376429959084
 30
0.0
 10
18.61377598261272
 20
7.658858522204239
 30
0.0
 10
18.61383215668391
 20
7.658599277508401
 30
0.0
  0
LINE
  5
394
330
1F
100
AcDbEntity
  8
0
  6
Continuous
 62
     7
370
    25
100
AcDbLine
 10
18.6138321567
 20
7.6585992775
 30
0.0
 11
18.6138765921
 21
7.6577694796
 31
0.0
  0
LINE
  5
395
330
1F
100
AcDbEntity
  8
0
  6
Continuous
 62
     7
370
    25
100
AcDbLine
 10
18.6138765921
 20
7.6321047372
 30
0.0
 11
18.6138765921
 21
7.6577694796
 31
0.0
  0
LINE
  5
396
330
1F
100
AcDbEntity
  8
0
  6
Continuous
 62
     7
370
    25
100
AcDbLine
 10
17.7218348552
 20
7.6421047372
 30
0.0
 11
17.7218348552
 21
7.6321047372
 31
0.0
  0
LWPOLYLINE
  5
397
330
1F
100
AcDbEntity
  8
0
  6
Continuous
 62
     7
370
    25
100
AcDbPolyline
 90
       77
 70
   128
 43
0.0
 10
18.9487061702
 20
9.7907564392
 10
18.9257242508
 20
9.7589348582
 10
18.9018019734
 20
9.7271423122
 10
18.8769611655
 20
9.6954078098
 10
18.8512244926
 20
9.6637603063
 10
18.8246154376
 20
9.6322286781
 10
18.7971582794
 20
9.6008416955
 10
18.7688780709
 20
9.569627997
 10
18.7398006157
 20
9.5386160629
 10
18.7099524451
 20
9.5078341896
 10
18.6793607934
 20
9.4773104633
 10
18.6480535733
 20
9.4470727348
 10
18.6160593507
 20
9.417148594
 10
18.5834073179
 20
9.3875653446
 10
18.5501272678
 20
9.3583499793
 10
18.516249566
 20
9.329529155
 10
18.4818051237
 20
9.3011291688
 10
18.446825369
 20
9.2731759337
 10
18.4113422185
 20
9.2456949552
 10
18.3753880482
 20
9.2187113076
 10
18.3389956637
 20
9.1922496117
 10
18.3021982707
 20
9.1663340121
 10
18.2650294441
 20
9.1409881548
 10
18.227523098
 20
9.1162351663
 10
18.1897134543
 20
9.0920976319
 10
18.1516350117
 20
9.0685975755
 10
18.1133225142
 20
9.0457564392
 10
18.0748109193
 20
9.0235950641
 10
18.0361353661
 20
9.0021336708
 10
17.9973311435
 20
8.9813918413
 10
17.9584336576
 20
8.9613885013
 10
17.9194783996
 20
8.9421419022
 10
17.8805009136
 20
8.9236696054
 10
17.8415367639
 20
8.9059884655
 10
17.8026215024
 20
8.8891146154
 10
17.7637906368
 20
8.8730634512
 10
17.7250795975
 20
8.8578496186
 10
17.6865237057
 20
8.8434869991
 10
17.6481581409
 20
8.8299886976
 10
17.6100179091
 20
8.8173670304
 10
17.5721378106
 20
8.8056335139
 10
17.5345524084
 20
8.7947988541
 10
17.4972959966
 20
8.784872937
 10
17.4604025691
 20
8.7758648191
 10
17.4239057885
 20
8.7677827198
 10
17.3878389558
 20
8.7606340135
 10
17.3522349793
 20
8.7544252228
 10
17.3171263453
 20
8.7491620129
 10
17.282545088
 20
8.7448491861
 10
17.2485227603
 20
8.7414906775
 10
17.2150904053
 20
8.7390895515
 10
17.1822785278
 20
8.737647999
 10
17.1501170662
 20
8.7371673353
 10
17.1186353658
 20
8.737647999
 10
17.0878621513
 20
8.7390895515
 10
17.0578255013
 20
8.7414906775
 10
17.0285528221
 20
8.7448491861
 10
17.0000708229
 20
8.7491620129
 10
16.9724054918
 20
8.7544252228
 10
16.9455820713
 20
8.7606340135
 10
16.9196250359
 20
8.7677827198
 10
16.8945580698
 20
8.7758648191
 10
16.8704040447
 20
8.784872937
 10
16.8471849996
 20
8.7947988541
 10
16.8249221202
 20
8.8056335139
 10
16.8036357199
 20
8.8173670304
 10
16.783345221
 20
8.8299886976
 10
16.7640691372
 20
8.8434869991
 10
16.7458250567
 20
8.8578496186
 10
16.7286296258
 20
8.8730634512
 10
16.7124985343
 20
8.8891146154
 10
16.6974465005
 20
8.9059884655
 10
16.6834872586
 20
8.9236696054
 10
16.6706335453
 20
8.9421419022
 10
16.6588970887
 20
8.9613885013
 10
16.6482885976
 20
8.9813918413
 10
16.6474119266
 20
8.9831825203
  0
LWPOLYLINE
  5
398
330
1F
100
AcDbEntity
  8
0
  6
Continuous
 62
     7
370
    25
100
AcDbPolyline
 90
       36
 70
   128
 43
0.0
 10
19.0724067719
 20
10.6979128198
 10
19.0777355982
 20
10.6923982631
 10
19.0927876319
 20
10.675524413
 10
19.1067468738
 20
10.6578432731
 10
19.1196005871
 20
10.6393709763
 10
19.1313370437
 20
10.6201243772
 10
19.1419455348
 20
10.6001210372
 10
19.1514163809
 20
10.5793792077
 10
19.1597409406
 20
10.5579178144
 10
19.1669116182
 20
10.5357564392
 10
19.172921871
 20
10.512915303
 10
19.1777662151
 20
10.4894152466
 10
19.1814402303
 20
10.4652777122
 10
19.1839405643
 20
10.4405247237
 10
19.1852649358
 20
10.4151788664
 10
19.1854121364
 20
10.3892632667
 10
19.1843820317
 20
10.3628015709
 10
19.1821755617
 20
10.3358179233
 10
19.1787947395
 20
10.3083369448
 10
19.1742426501
 20
10.2803837097
 10
19.1685234467
 20
10.2519837235
 10
19.1616423479
 20
10.2231628992
 10
19.1536056322
 20
10.1939475339
 10
19.1444206324
 20
10.1643642844
 10
19.1340957293
 20
10.1344401437
 10
19.1226403436
 20
10.1042024152
 10
19.1100649276
 20
10.0736786889
 10
19.0963809555
 20
10.0428968155
 10
19.081600913
 20
10.0118848815
 10
19.0657382858
 20
9.980671183
 10
19.0488075475
 20
9.9492842004
 10
19.0308241462
 20
9.9177525722
 10
19.0118044905
 20
9.8861050687
 10
18.9917659346
 20
9.8543705662
 10
18.9707267622
 20
9.8225780202
 10
18.9487061702
 20
9.7907564392
  0
LWPOLYLINE
  5
399
330
1F
100
AcDbEntity
  8
0
  6
Continuous
 62
     7
370
    25
100
AcDbPolyline
 90
       33
 70
   128
 43
0.0
 10
19.0113061702
 20
9.7022266702
 10
19.0333267622
 20
9.7340482512
 10
19.0543659346
 20
9.7658407972
 10
19.0744044905
 20
9.7975752997
 10
19.0934241462
 20
9.8292228032
 10
19.1114075475
 20
9.8607544314
 10
19.1283382858
 20
9.892141414
 10
19.144200913
 20
9.9233551125
 10
19.1589809555
 20
9.9543670465
 10
19.1726649276
 20
9.9851489199
 10
19.1852403436
 20
10.0156726462
 10
19.1966957293
 20
10.0459103746
 10
19.2070206324
 20
10.0758345154
 10
19.2162056322
 20
10.1054177648
 10
19.2242423479
 20
10.1346331302
 10
19.2311234467
 20
10.1634539545
 10
19.2368426501
 20
10.1918539407
 10
19.2413947395
 20
10.2198071758
 10
19.2447755617
 20
10.2472881543
 10
19.2469820317
 20
10.2742718019
 10
19.2480121364
 20
10.3007334977
 10
19.2478649358
 20
10.3266490974
 10
19.2465405643
 20
10.3519949547
 10
19.2440402303
 20
10.3767479432
 10
19.2403662151
 20
10.4008854776
 10
19.235521871
 20
10.424385534
 10
19.2295116182
 20
10.4472266702
 10
19.2223409406
 20
10.4693880454
 10
19.2140163809
 20
10.4908494387
 10
19.2045455348
 20
10.5115912682
 10
19.1939370437
 20
10.5315946082
 10
19.1822005871
 20
10.5508412073
 10
19.1742969718
 20
10.5624785713
  0
LWPOLYLINE
  5
39A
330
1F
100
AcDbEntity
  8
0
  6
Continuous
 62
     7
370
    25
100
AcDbPolyline
 90
       74
 70
   128
 43
0.0
 10
16.7411371606
 20
8.8419747691
 10
16.7460872586
 20
8.8351398364
 10
16.7600465005
 20
8.8174586965
 10
16.7750985343
 20
8.8005848464
 10
16.7912296258
 20
8.7845336822
 10
16.8084250567
 20
8.7693198496
 10
16.8266691372
 20
8.7549572301
 10
16.845945221
 20
8.7414589286
 10
16.8662357199
 20
8.7288372614
 10
16.8875221202
 20
8.7171037449
 10
16.9097849996
 20
8.7062690851
 10
16.9330040447
 20
8.696343168
 10
16.9571580698
 20
8.6873350501
 10
16.9822250359
 20
8.6792529508
 10
17.0081820713
 20
8.6721042445
 10
17.0350054918
 20
8.6658954538
 10
17.0626708229
 20
8.6606322439
 10
17.0911528221
 20
8.6563194171
 10
17.1204255013
 20
8.6529609085
 10
17.1504621513
 20
8.6505597825
 10
17.1812353658
 20
8.64911823
 10
17.2127170662
 20
8.6486375663
 10
17.2448785278
 20
8.64911823
 10
17.2776904053
 20
8.6505597825
 10
17.3111227603
 20
8.6529609085
 10
17.345145088
 20
8.6563194171
 10
17.3797263453
 20
8.6606322439
 10
17.4148349793
 20
8.6658954538
 10
17.4504389558
 20
8.6721042445
 10
17.4865057885
 20
8.6792529508
 10
17.5230025691
 20
8.6873350501
 10
17.5598959966
 20
8.696343168
 10
17.5971524084
 20
8.7062690851
 10
17.6347378106
 20
8.7171037449
 10
17.6726179091
 20
8.7288372614
 10
17.7107581409
 20
8.7414589286
 10
17.7491237057
 20
8.7549572301
 10
17.7876795975
 20
8.7693198496
 10
17.8263906368
 20
8.7845336822
 10
17.8652215024
 20
8.8005848464
 10
17.9041367639
 20
8.8174586965
 10
17.9431009136
 20
8.8351398364
 10
17.9820783996
 20
8.8536121332
 10
18.0210336576
 20
8.8728587322
 10
18.0599311435
 20
8.8928620723
 10
18.0987353661
 20
8.9136039018
 10
18.1374109193
 20
8.9350652951
 10
18.1759225142
 20
8.9572266702
 10
18.2142350117
 20
8.9800678065
 10
18.2523134543
 20
9.0035678629
 10
18.290123098
 20
9.0277053973
 10
18.3276294441
 20
9.0524583858
 10
18.3647982707
 20
9.0778042431
 10
18.4015956637
 20
9.1037198427
 10
18.4379880482
 20
9.1301815386
 10
18.4739422185
 20
9.1571651862
 10
18.509425369
 20
9.1846461647
 10
18.5444051237
 20
9.2125993998
 10
18.578849566
 20
9.240999386
 10
18.6127272678
 20
9.2698202103
 10
18.6460073179
 20
9.2990355756
 10
18.6786593507
 20
9.328618825
 10
18.7106535733
 20
9.3585429658
 10
18.7419607934
 20
9.3887806943
 10
18.7725524451
 20
9.4193044206
 10
18.8024006157
 20
9.4500862939
 10
18.8314780709
 20
9.481098228
 10
18.8597582794
 20
9.5123119265
 10
18.8872154376
 20
9.5436989091
 10
18.9138244926
 20
9.5752305373
 10
18.9395611655
 20
9.6068780407
 10
18.9644019734
 20
9.6386125432
 10
18.9883242508
 20
9.6704050892
 10
19.0113061702
 20
9.7022266702
  0
LWPOLYLINE
  5
39B
330
1F
100
AcDbEntity
  8
0
  6
Continuous
 62
     7
370
    25
100
AcDbPolyline
 90
       53
 70
   128
 43
0.0
 10
19.0050929667
 20
9.6810134668
 10
18.9823505873
 20
9.6495299552
 10
18.9586690137
 20
9.6180757307
 10
18.9340702752
 20
9.5866800528
 10
18.9085772546
 20
9.555372127
 10
18.8822136661
 20
9.5241810769
 10
18.8550040341
 20
9.4931359175
 10
18.8269736699
 20
9.4622655278
 10
18.7981486482
 20
9.4315986247
 10
18.768555783
 20
9.4011637354
 10
18.7382226025
 20
9.3709891715
 10
18.7071773238
 20
9.3411030024
 10
18.675448826
 20
9.3115330291
 10
18.6430666242
 20
9.2823067586
 10
18.6100608412
 20
9.2534513782
 10
18.5764621802
 20
9.22499373
 10
18.5423018957
 20
9.1969602863
 10
18.5076117647
 20
9.1693771247
 10
18.4724240572
 20
9.142269904
 10
18.4367715059
 20
9.1156638402
 10
18.4006872759
 20
9.0895836832
 10
18.364204934
 20
9.0640536935
 10
18.3273584173
 20
9.03909762
 10
18.2901820016
 20
9.0147386777
 10
18.2527102696
 20
8.9909995259
 10
18.2149780787
 20
8.9679022478
 10
18.1770205287
 20
8.9454683291
 10
18.138872929
 20
8.9237186385
 10
18.1005707656
 20
8.9026734084
 10
18.0621496685
 20
8.8823522157
 10
18.0236453783
 20
8.8627739639
 10
17.9850937129
 20
8.8439568652
 10
17.9465305344
 20
8.825918424
 10
17.9079917154
 20
8.8086754203
 10
17.869513106
 20
8.7922438939
 10
17.8311305004
 20
8.7766391301
 10
17.7928796032
 20
8.761875645
 10
17.7547959967
 20
8.747967172
 10
17.7169151076
 20
8.7349266491
 10
17.6792721737
 20
8.7227662073
 10
17.641902212
 20
8.7114971584
 10
17.604839985
 20
8.7011299853
 10
17.5681199694
 20
8.691674332
 10
17.5317763232
 20
8.6831389943
 10
17.4958428546
 20
8.6755319121
 10
17.46035299
 20
8.6688601618
 10
17.4253397432
 20
8.6631299497
 10
17.3908356847
 20
8.6583466061
 10
17.3568729114
 20
8.6545145808
 10
17.3234830164
 20
8.6516374383
 10
17.2906970602
 20
8.6497178552
 10
17.2585455414
 20
8.648757617
 10
17.2427170662
 20
8.6486375663
  0
ARC
  5
39C
330
1F
100
AcDbEntity
  8
0
  6
Continuous
 62
     7
370
    25
100
AcDbCircle
 10
17.8536289943
 20
10.5190710925
 30
0.0
 40
1.424152331644168
100
AcDbArc
 50
323.9521518745
 51
339.7067298451
  0
ARC
  5
39D
330
1F
100
AcDbEntity
  8
0
  6
Continuous
 62
     7
370
    25
100
AcDbCircle
 10
18.1935271404
 20
9.0913911476
 30
0.0
 40
0.2871221347918751
100
AcDbArc
 50
233.1520288424
 51
253.7883958053
  0
LINE
  5
39E
330
1F
100
AcDbEntity
  8
0
  6
Continuous
 62
     7
370
    25
100
AcDbLine
 10
18.5719991208
 20
7.4975344038
 30
0.0
 11
18.5632261603
 21
7.4975344038
 31
0.0
  0
LINE
  5
39F
330
1F
100
AcDbEntity
  8
0
  6
Continuous
 62
     7
370
    25
100
AcDbLine
 10
17.6398460723
 20
7.4975344038
 30
0.0
 11
17.6106222146
 21
7.4975344038
 31
0.0
  0
SPLINE
  5
3A0
330
1F
100
AcDbEntity
  8
0
  6
Continuous
 62
     7
370
    25
100
AcDbSpline
210
0.0
220
0.0
230
1.0
 70
     8
 71
     3
 72
     9
 73
     5
 74
     0
 42
0.00000001
 43
0.00000001
 40
0.0
 40
0.0
 40
0.0
 40
0.0
 40
0.347498286514735
 40
1.0
 40
1.0
 40
1.0
 40
1.0
 10
17.65080178021686
 20
7.646909136980407
 30
0.0
 10
17.64854483702857
 20
7.648258831837693
 30
0.0
 10
17.6420500044614
 20
7.652142864967245
 30
0.0
 10
17.6369195037889
 20
7.65724949329929
 30
0.0
 10
17.63357184330906
 20
7.660581577036081
 30
0.0
  0
LINE
  5
3A1
330
1F
100
AcDbEntity
  8
0
  6
Continuous
 62
     7
370
    25
100
AcDbLine
 10
17.6063106677
 20
7.5024867802
 30
0.0
 11
17.617579212
 21
7.5024867802
 31
0.0
  0
SPLINE
  5
3A2
330
1F
100
AcDbEntity
  8
0
  6
Continuous
 62
     7
370
    25
100
AcDbSpline
210
0.0
220
0.0
230
1.0
 70
     8
 71
     3
 72
    10
 73
     6
 74
     0
 42
0.00000001
 43
0.00000001
 40
0.0
 40
0.0
 40
0.0
 40
0.0
 40
0.2896039771437778
 40
0.5806586837975796
 40
1.0
 40
1.0
 40
1.0
 40
1.0
 10
17.54236012717273
 20
7.526099301407728
 30
0.0
 10
17.54832132652068
 20
7.523342964632248
 30
0.0
 10
17.56027358698813
 20
7.517816483608271
 30
0.0
 10
17.5815163798108
 20
7.510113830843187
 30
0.0
 10
17.59710740517743
 20
7.506873710427266
 30
0.0
 10
17.60631066770682
 20
7.504961092231004
 30
0.0
  0
LINE
  5
3A3
330
1F
100
AcDbEntity
  8
0
  6
Continuous
 62
     7
370
    25
100
AcDbLine
 10
18.6138765921
 20
7.6577694796
 30
0.0
 11
18.5559851054
 21
7.6577694796
 31
0.0
  0
LINE
  5
3A4
330
1F
100
AcDbEntity
  8
0
  6
Continuous
 62
     7
370
    25
100
AcDbLine
 10
17.6688791665
 20
7.6379759776
 30
0.0
 11
17.6792502216
 21
7.6421047372
 31
0.0
  0
SPLINE
  5
3A5
330
1F
100
AcDbEntity
  8
0
  6
Continuous
 62
     7
370
    25
100
AcDbSpline
210
0.0
220
0.0
230
1.0
 70
     8
 71
     3
 72
     9
 73
     5
 74
     0
 42
0.00000001
 43
0.00000001
 40
0.0
 40
0.0
 40
0.0
 40
0.0
 40
0.2315491909451942
 40
1.0
 40
1.0
 40
1.0
 40
1.0
 10
17.6886590937999
 20
7.64210473715279
 30
0.0
 10
17.68742879847143
 20
7.641505337215202
 30
0.0
 10
17.68211547682496
 20
7.638916686677744
 30
0.0
 10
17.67755073991865
 20
7.637325430524895
 30
0.0
 10
17.67404296414988
 20
7.636102628446825
 30
0.0
  0
ENDSEC
  0
SECTION
  2
OBJECTS
  0
DICTIONARY
  5
C
330
0
100
AcDbDictionary
281
     1
  3
ACAD_GROUP
350
D
  3
ACAD_LAYOUT
350
1A
  3
ACAD_MLINESTYLE
350
17
  3
ACAD_PLOTSETTINGS
350
19
  3
ACAD_PLOTSTYLENAME
350
E
  3
ACAD_SCALELIST
350
47
  3
DWGPROPS
350
3A6
  0
DICTIONARY
  5
D
102
{ACAD_REACTORS
330
C
102
}
330
C
100
AcDbDictionary
281
     1
  0
DICTIONARY
  5
1A
102
{ACAD_REACTORS
330
C
102
}
330
C
100
AcDbDictionary
281
     1
  3
Layout1
350
1E
  3
Layout2
350
26
  3
Model
350
22
  0
DICTIONARY
  5
17
102
{ACAD_REACTORS
330
C
102
}
330
C
100
AcDbDictionary
281
     1
  3
Standard
350
18
  0
DICTIONARY
  5
19
102
{ACAD_REACTORS
330
C
102
}
330
C
100
AcDbDictionary
281
     1
  0
ACDBDICTIONARYWDFLT
  5
E
102
{ACAD_REACTORS
330
C
102
}
330
C
100
AcDbDictionary
281
     1
  3
Normal
350
F
100
AcDbDictionaryWithDefault
340
F
  0
DICTIONARY
  5
47
102
{ACAD_REACTORS
330
C
102
}
330
C
100
AcDbDictionary
281
     1
  3
A0
350
48
  3
A1
350
49
  3
A2
350
4A
  3
A3
350
4B
  3
A4
350
4C
  3
A5
350
4D
  3
A6
350
4E
  3
A7
350
4F
  3
A8
350
50
  3
A9
350
51
  3
B1
350
52
  3
B2
350
53
  3
B3
350
54
  3
B4
350
55
  3
B5
350
56
  3
B6
350
57
  3
B7
350
58
  0
XRECORD
  5
3A6
102
{ACAD_REACTORS
330
C
102
}
330
C
100
AcDbXrecord
280
     1
  1
DWGPROPS COOKIE
  2

  3

  4

  6

  7

  8
shawnd
  9

300
=
301
=
302
=
303
=
304
=
305
=
306
=
307
=
308
=
309
=
 40
0.0
 41
2460858.723958635
 42
2460858.723959387
  1

 90
        0
  0
LAYOUT
  5
1E
102
{ACAD_REACTORS
330
1A
102
}
330
1A
100
AcDbPlotSettings
  1

  2
none_device
  4

  6

 40
0.0
 41
0.0
 42
0.0
 43
0.0
 44
0.0
 45
0.0
 46
0.0
 47
0.0
 48
0.0
 49
0.0
140
0.0
141
0.0
142
1.0
143
1.0
 70
   688
 72
     0
 73
     0
 74
     5
  7

 75
    16
147
1.0
148
0.0
149
0.0
100
AcDbLayout
  1
Layout1
 70
     1
 71
     1
 10
0.0
 20
0.0
 11
12.0
 21
9.0
 12
0.0
 22
0.0
 32
0.0
 14
1.0000000000E+20
 24
1.0000000000E+20
 34
1.0000000000E+20
 15
-1.0000000000E+20
 25
-1.0000000000E+20
 35
-1.0000000000E+20
146
0.0
 13
0.0
 23
0.0
 33
0.0
 16
1.0
 26
0.0
 36
0.0
 17
0.0
 27
1.0
 37
0.0
 76
     0
330
1B
  0
LAYOUT
  5
26
102
{ACAD_REACTORS
330
1A
102
}
330
1A
100
AcDbPlotSettings
  1

  2
none_device
  4

  6

 40
0.0
 41
0.0
 42
0.0
 43
0.0
 44
0.0
 45
0.0
 46
0.0
 47
0.0
 48
0.0
 49
0.0
140
0.0
141
0.0
142
1.0
143
1.0
 70
   688
 72
     0
 73
     0
 74
     5
  7

 75
    16
147
1.0
148
0.0
149
0.0
100
AcDbLayout
  1
Layout2
 70
     1
 71
     2
 10
0.0
 20
0.0
 11
0.0
 21
0.0
 12
0.0
 22
0.0
 32
0.0
 14
0.0
 24
0.0
 34
0.0
 15
0.0
 25
0.0
 35
0.0
146
0.0
 13
0.0
 23
0.0
 33
0.0
 16
1.0
 26
0.0
 36
0.0
 17
0.0
 27
1.0
 37
0.0
 76
     0
330
23
  0
LAYOUT
  5
22
102
{ACAD_REACTORS
330
1A
102
}
330
1A
100
AcDbPlotSettings
  1

  2
none_device
  4
Letter_(8.50_x_11.00_Inches)
  6

 40
6.35
 41
6.35
 42
6.35000508
 43
6.35000508
 44
215.9
 45
279.4
 46
0.0
 47
0.0
 48
0.0
 49
0.0
140
0.0
141
0.0
142
1.0
143
1.0
 70
  1712
 72
     0
 73
     0
 74
     0
  7

 75
     0
147
1.0
148
0.0
149
0.0
100
AcDbLayout
  1
Model
 70
     1
 71
     0
 10
0.0
 20
0.0
 11
22.0
 21
17.0
 12
0.0
 22
0.0
 32
0.0
 14
0.0
 24
0.0
 34
0.0
 15
22.0
 25
17.0
 35
0.0
146
0.0
 13
0.0
 23
0.0
 33
0.0
 16
1.0
 26
0.0
 36
0.0
 17
0.0
 27
1.0
 37
0.0
 76
     0
330
1F
331
29
  0
MLINESTYLE
  5
18
102
{ACAD_REACTORS
330
17
102
}
330
17
100
AcDbMlineStyle
  2
Standard
 70
     0
  3

 62
   256
 51
90.0
 52
90.0
 71
     2
 49
0.5
 62
   256
  6
BYLAYER
 49
-0.5
 62
   256
  6
BYLAYER
  0
ACDBPLACEHOLDER
  5
F
102
{ACAD_REACTORS
330
E
102
}
330
E
  0
SCALE
  5
48
102
{ACAD_REACTORS
330
47
102
}
330
47
100
AcDbScale
 70
     0
300
1:1
140
1.0
141
1.0
290
     1
  0
SCALE
  5
49
102
{ACAD_REACTORS
330
47
102
}
330
47
100
AcDbScale
 70
     0
300
1/128" = 1'-0"
140
0.0078125
141
12.0
290
     0
  0
SCALE
  5
4A
102
{ACAD_REACTORS
330
47
102
}
330
47
100
AcDbScale
 70
     0
300
1/64" = 1'-0"
140
0.015625
141
12.0
290
     0
  0
SCALE
  5
4B
102
{ACAD_REACTORS
330
47
102
}
330
47
100
AcDbScale
 70
     0
300
1/32" = 1'-0"
140
0.03125
141
12.0
290
     0
  0
SCALE
  5
4C
102
{ACAD_REACTORS
330
47
102
}
330
47
100
AcDbScale
 70
     0
300
1/16" = 1'-0"
140
0.0625
141
12.0
290
     0
  0
SCALE
  5
4D
102
{ACAD_REACTORS
330
47
102
}
330
47
100
AcDbScale
 70
     0
300
3/32" = 1'-0"
140
0.09375
141
12.0
290
     0
  0
SCALE
  5
4E
102
{ACAD_REACTORS
330
47
102
}
330
47
100
AcDbScale
 70
     0
300
1/8" = 1'-0"
140
0.125
141
12.0
290
     0
  0
SCALE
  5
4F
102
{ACAD_REACTORS
330
47
102
}
330
47
100
AcDbScale
 70
     0
300
3/16" = 1'-0"
140
0.1875
141
12.0
290
     0
  0
SCALE
  5
50
102
{ACAD_REACTORS
330
47
102
}
330
47
100
AcDbScale
 70
     0
300
1/4" = 1'-0"
140
0.25
141
12.0
290
     0
  0
SCALE
  5
51
102
{ACAD_REACTORS
330
47
102
}
330
47
100
AcDbScale
 70
     0
300
3/8" = 1'-0"
140
0.375
141
12.0
290
     0
  0
SCALE
  5
52
102
{ACAD_REACTORS
330
47
102
}
330
47
100
AcDbScale
 70
     0
300
1/2" = 1'-0"
140
0.5
141
12.0
290
     0
  0
SCALE
  5
53
102
{ACAD_REACTORS
330
47
102
}
330
47
100
AcDbScale
 70
     0
300
3/4" = 1'-0"
140
0.75
141
12.0
290
     0
  0
SCALE
  5
54
102
{ACAD_REACTORS
330
47
102
}
330
47
100
AcDbScale
 70
     0
300
1" = 1'-0"
140
1.0
141
12.0
290
     0
  0
SCALE
  5
55
102
{ACAD_REACTORS
330
47
102
}
330
47
100
AcDbScale
 70
     0
300
1-1/2" = 1'-0"
140
1.5
141
12.0
290
     0
  0
SCALE
  5
56
102
{ACAD_REACTORS
330
47
102
}
330
47
100
AcDbScale
 70
     0
300
3" = 1'-0"
140
3.0
141
12.0
290
     0
  0
SCALE
  5
57
102
{ACAD_REACTORS
330
47
102
}
330
47
100
AcDbScale
 70
     0
300
6" = 1'-0"
140
6.0
141
12.0
290
     0
  0
SCALE
  5
58
102
{ACAD_REACTORS
330
47
102
}
330
47
100
AcDbScale
 70
     0
300
1'-0" = 1'-0"
140
12.0
141
12.0
290
     0
  0
ENDSEC
  0
EOF
