  0
SECTION
  2
HEADER
  9
$ACADVER
  1
AC1015
  9
$ACADMAINTVER
 70
     6
  9
$DWGCODEPAGE
  3
ANSI_1252
  9
$INSBASE
 10
0.0
 20
0.0
 30
0.0
  9
$EXTMIN
 10
0.0
 20
0.0
 30
0.0
  9
$EXTMAX
 10
33.0
 20
25.5
 30
0.0
  9
$LIMMIN
 10
0.0
 20
0.0
  9
$LIMMAX
 10
33.0
 20
25.5
  9
$ORTHOMODE
 70
     0
  9
$REGENMODE
 70
     1
  9
$FILLMODE
 70
     1
  9
$QTEXTMODE
 70
     0
  9
$MIRRTEXT
 70
     1
  9
$LTSCALE
 40
3.0
  9
$ATTMODE
 70
     1
  9
$TEXTSIZE
 40
0.4133858268
  9
$TRACEWID
 40
0.05
  9
$TEXTSTYLE
  7
STANDARD
  9
$CLAYER
  8
0
  9
$CELTYPE
  6
ByLayer
  9
$CECOLOR
 62
   256
  9
$CELTSCALE
 40
1.0
  9
$DISPSILH
 70
     0
  9
$DIMSCALE
 40
1.0
  9
$DIMASZ
 40
0.39
  9
$DIMEXO
 40
0.375
  9
$DIMDLI
 40
0.38
  9
$DIMRND
 40
0.0
  9
$DIMDLE
 40
0.0
  9
$DIMEXE
 40
0.375
  9
$DIMTP
 40
0.0
  9
$DIMTM
 40
0.0
  9
$DIMTXT
 40
0.4133858268
  9
$DIMCEN
 40
0.09
  9
$DIMTSZ
 40
0.0
  9
$DIMTOL
 70
     0
  9
$DIMLIM
 70
     0
  9
$DIMTIH
 70
     1
  9
$DIMTOH
 70
     1
  9
$DIMSE1
 70
     0
  9
$DIMSE2
 70
     0
  9
$DIMTAD
 70
     1
  9
$DIMZIN
 70
     1
  9
$DIMBLK
  1

  9
$DIMASO
 70
     1
  9
$DIMSHO
 70
     1
  9
$DIMPOST
  1

  9
$DIMAPOST
  1

  9
$DIMALT
 70
     0
  9
$DIMALTD
 70
     2
  9
$DIMALTF
 40
25.4
  9
$DIMLFAC
 40
1.0
  9
$DIMTOFL
 70
     0
  9
$DIMTVP
 40
0.0
  9
$DIMTIX
 70
     0
  9
$DIMSOXD
 70
     0
  9
$DIMSAH
 70
     0
  9
$DIMBLK1
  1

  9
$DIMBLK2
  1

  9
$DIMSTYLE
  2
Standard
  9
$DIMCLRD
 70
     0
  9
$DIMCLRE
 70
     0
  9
$DIMCLRT
 70
     0
  9
$DIMTFAC
 40
1.0
  9
$DIMGAP
 40
0.18
  9
$DIMJUST
 70
     0
  9
$DIMSD1
 70
     0
  9
$DIMSD2
 70
     0
  9
$DIMTOLJ
 70
     1
  9
$DIMTZIN
 70
     1
  9
$DIMALTZ
 70
     0
  9
$DIMALTTZ
 70
     0
  9
$DIMUPT
 70
     0
  9
$DIMDEC
 70
     3
  9
$DIMTDEC
 70
     3
  9
$DIMALTU
 70
     2
  9
$DIMALTTD
 70
     2
  9
$DIMTXSTY
  7
STANDARD
  9
$DIMAUNIT
 70
     0
  9
$DIMADEC
 70
     3
  9
$DIMALTRND
 40
0.0
  9
$DIMAZIN
 70
     0
  9
$DIMDSEP
 70
    46
  9
$DIMATFIT
 70
     3
  9
$DIMFRAC
 70
     0
  9
$DIMLDRBLK
  1

  9
$DIMLUNIT
 70
     2
  9
$DIMLWD
 70
    -2
  9
$DIMLWE
 70
    -2
  9
$DIMTMOVE
 70
     0
  9
$LUNITS
 70
     2
  9
$LUPREC
 70
     3
  9
$SKETCHINC
 40
0.1
  9
$FILLETRAD
 40
0.0
  9
$AUNITS
 70
     0
  9
$AUPREC
 70
     3
  9
$MENU
  1
.
  9
$ELEVATION
 40
0.0
  9
$PELEVATION
 40
0.0
  9
$THICKNESS
 40
0.0
  9
$LIMCHECK
 70
     0
  9
$CHAMFERA
 40
0.0
  9
$CHAMFERB
 40
0.0
  9
$CHAMFERC
 40
0.0
  9
$CHAMFERD
 40
0.0
  9
$SKPOLY
 70
     0
  9
$TDCREATE
 40
2460535.866221771
  9
$TDUCREATE
 40
2460536.157888438
  9
$TDUPDATE
 40
2460535.866222755
  9
$TDUUPDATE
 40
2460536.157889421
  9
$TDINDWG
 40
0.0000000116
  9
$TDUSRTIMER
 40
0.0000000116
  9
$USRTIMER
 70
     1
  9
$ANGBASE
 50
0.0
  9
$ANGDIR
 70
     0
  9
$PDMODE
 70
     0
  9
$PDSIZE
 40
-1.0
  9
$PLINEWID
 40
0.0
  9
$SPLFRAME
 70
     0
  9
$SPLINETYPE
 70
     6
  9
$SPLINESEGS
 70
     8
  9
$HANDSEED
  5
1D6
  9
$SURFTAB1
 70
     6
  9
$SURFTAB2
 70
     6
  9
$SURFTYPE
 70
     6
  9
$SURFU
 70
     6
  9
$SURFV
 70
     6
  9
$UCSBASE
  2

  9
$UCSNAME
  2

  9
$UCSORG
 10
0.0
 20
0.0
 30
0.0
  9
$UCSXDIR
 10
1.0
 20
0.0
 30
0.0
  9
$UCSYDIR
 10
0.0
 20
1.0
 30
0.0
  9
$UCSORTHOREF
  2

  9
$UCSORTHOVIEW
 70
     0
  9
$UCSORGTOP
 10
0.0
 20
0.0
 30
0.0
  9
$UCSORGBOTTOM
 10
0.0
 20
0.0
 30
0.0
  9
$UCSORGLEFT
 10
0.0
 20
0.0
 30
0.0
  9
$UCSORGRIGHT
 10
0.0
 20
0.0
 30
0.0
  9
$UCSORGFRONT
 10
0.0
 20
0.0
 30
0.0
  9
$UCSORGBACK
 10
0.0
 20
0.0
 30
0.0
  9
$PUCSBASE
  2

  9
$PUCSNAME
  2

  9
$PUCSORG
 10
0.0
 20
0.0
 30
0.0
  9
$PUCSXDIR
 10
1.0
 20
0.0
 30
0.0
  9
$PUCSYDIR
 10
0.0
 20
1.0
 30
0.0
  9
$PUCSORTHOREF
  2

  9
$PUCSORTHOVIEW
 70
     0
  9
$PUCSORGTOP
 10
0.0
 20
0.0
 30
0.0
  9
$PUCSORGBOTTOM
 10
0.0
 20
0.0
 30
0.0
  9
$PUCSORGLEFT
 10
0.0
 20
0.0
 30
0.0
  9
$PUCSORGRIGHT
 10
0.0
 20
0.0
 30
0.0
  9
$PUCSORGFRONT
 10
0.0
 20
0.0
 30
0.0
  9
$PUCSORGBACK
 10
0.0
 20
0.0
 30
0.0
  9
$USERI1
 70
     0
  9
$USERI2
 70
     0
  9
$USERI3
 70
     0
  9
$USERI4
 70
     0
  9
$USERI5
 70
     0
  9
$USERR1
 40
0.0
  9
$USERR2
 40
0.0
  9
$USERR3
 40
0.0
  9
$USERR4
 40
0.0
  9
$USERR5
 40
0.0
  9
$WORLDVIEW
 70
     1
  9
$SHADEDGE
 70
     3
  9
$SHADEDIF
 70
    70
  9
$TILEMODE
 70
     1
  9
$MAXACTVP
 70
    64
  9
$PINSBASE
 10
0.0
 20
0.0
 30
0.0
  9
$PLIMCHECK
 70
     0
  9
$PEXTMIN
 10
1.0000000000E+20
 20
1.0000000000E+20
 30
1.0000000000E+20
  9
$PEXTMAX
 10
-1.0000000000E+20
 20
-1.0000000000E+20
 30
-1.0000000000E+20
  9
$PLIMMIN
 10
0.0
 20
0.0
  9
$PLIMMAX
 10
12.0
 20
9.0
  9
$UNITMODE
 70
     0
  9
$VISRETAIN
 70
     1
  9
$PLINEGEN
 70
     0
  9
$PSLTSCALE
 70
     1
  9
$TREEDEPTH
 70
  3020
  9
$CMLSTYLE
  2
Standard
  9
$CMLJUST
 70
     0
  9
$CMLSCALE
 40
1.0
  9
$PROXYGRAPHICS
 70
     1
  9
$MEASUREMENT
 70
     0
  9
$CELWEIGHT
370
    -1
  9
$ENDCAPS
280
     0
  9
$JOINSTYLE
280
     0
  9
$LWDISPLAY
290
     1
  9
$INSUNITS
 70
     1
  9
$HYPERLINKBASE
  1

  9
$STYLESHEET
  1

  9
$XEDIT
290
     1
  9
$CEPSNTYPE
380
     0
  9
$PSTYLEMODE
290
     1
  9
$FINGERPRINTGUID
  2
{19a588aa-0f6f-4c50-9f2e-f076ec3d0498}
  9
$VERSIONGUID
  2
{FAEB1C32-E019-11D5-929B-00C0DF256EC4}
  9
$EXTNAMES
290
     1
  9
$PSVPSCALE
 40
0.0
  9
$OLESTARTUP
290
     0
  0
ENDSEC
  0
SECTION
  2
CLASSES
  0
CLASS
  1
ACDBDICTIONARYWDFLT
  2
AcDbDictionaryWithDefault
  3
ObjectDBX Classes
 90
        0
280
     0
281
     0
  0
CLASS
  1
VISUALSTYLE
  2
AcDbVisualStyle
  3
ObjectDBX Classes
 90
     4095
280
     0
281
     0
  0
CLASS
  1
MATERIAL
  2
AcDbMaterial
  3
ObjectDBX Classes
 90
     1153
280
     0
281
     0
  0
CLASS
  1
SCALE
  2
AcDbScale
  3
ObjectDBX Classes
 90
     1153
280
     0
281
     0
  0
CLASS
  1
TABLESTYLE
  2
AcDbTableStyle
  3
ObjectDBX Classes
 90
     4095
280
     0
281
     0
  0
CLASS
  1
MLEADERSTYLE
  2
AcDbMLeaderStyle
  3
ACDB_MLEADERSTYLE_CLASS
 90
     4095
280
     0
281
     0
  0
CLASS
  1
SUN
  2
AcDbSun
  3
SCENEOE
 90
     1153
280
     0
281
     0
  0
CLASS
  1
ACDBPLACEHOLDER
  2
AcDbPlaceHolder
  3
ObjectDBX Classes
 90
        0
280
     0
281
     0
  0
CLASS
  1
LAYOUT
  2
AcDbLayout
  3
ObjectDBX Classes
 90
        0
280
     0
281
     0
  0
ENDSEC
  0
SECTION
  2
TABLES
  0
TABLE
  2
VPORT
  5
8
330
0
100
AcDbSymbolTable
 70
     1
  0
VPORT
  5
29
330
8
100
AcDbSymbolTableRecord
100
AcDbViewportTableRecord
  2
*Active
 70
     0
 10
0.0
 20
0.0
 11
1.0
 21
1.0
 12
16.5
 22
12.75
 13
0.0
 23
0.0
 14
0.5
 24
0.5
 15
0.5
 25
0.5
 16
0.0
 26
0.0
 36
1.0
 17
0.0
 27
0.0
 37
0.0
 40
25.5
 41
1.2941176471
 42
50.0
 43
0.0
 44
0.0
 50
0.0
 51
0.0
 71
     0
 72
  2000
 73
     1
 74
     3
 75
     0
 76
     0
 77
     0
 78
     0
281
     0
 65
     1
110
0.0
120
0.0
130
0.0
111
1.0
121
0.0
131
0.0
112
0.0
122
1.0
132
0.0
 79
     0
146
0.0
  0
ENDTAB
  0
TABLE
  2
LTYPE
  5
5
330
0
100
AcDbSymbolTable
 70
     6
  0
LTYPE
  5
14
330
5
100
AcDbSymbolTableRecord
100
AcDbLinetypeTableRecord
  2
ByBlock
 70
     0
  3

 72
    65
 73
     0
 40
0.0
  0
LTYPE
  5
15
330
5
100
AcDbSymbolTableRecord
100
AcDbLinetypeTableRecord
  2
ByLayer
 70
     0
  3

 72
    65
 73
     0
 40
0.0
  0
LTYPE
  5
16
330
5
100
AcDbSymbolTableRecord
100
AcDbLinetypeTableRecord
  2
Continuous
 70
     0
  3
Solid line
 72
    65
 73
     0
 40
0.0
  0
LTYPE
  5
5E
330
5
100
AcDbSymbolTableRecord
100
AcDbLinetypeTableRecord
  2
HIDDEN
 70
     0
  3
Hidden __ __ __ __ __ __ __ __ __ __ __ __ __ __
 72
    65
 73
     2
 40
0.075
 49
0.05
 74
     0
 49
-0.025
 74
     0
  0
LTYPE
  5
5F
330
5
100
AcDbSymbolTableRecord
100
AcDbLinetypeTableRecord
  2
PHANTOM
 70
     0
  3
Phantom ______  __  __  ______  __  __  ______
 72
    65
 73
     6
 40
0.5
 49
0.25
 74
     0
 49
-0.05
 74
     0
 49
0.05
 74
     0
 49
-0.05
 74
     0
 49
0.05
 74
     0
 49
-0.05
 74
     0
  0
LTYPE
  5
60
330
5
100
AcDbSymbolTableRecord
100
AcDbLinetypeTableRecord
  2
CENTER
 70
     0
  3
Center ____ _ ____ _ ____ _ ____ _ ____ _ ____
 72
    65
 73
     4
 40
0.4
 49
0.25
 74
     0
 49
-0.05
 74
     0
 49
0.05
 74
     0
 49
-0.05
 74
     0
  0
LTYPE
  5
61
330
5
100
AcDbSymbolTableRecord
100
AcDbLinetypeTableRecord
  2
CENTERX2
 70
     0
  3
Center (2x) ________  __  ________  __  _____
 72
    65
 73
     4
 40
0.8
 49
0.5
 74
     0
 49
-0.1
 74
     0
 49
0.1
 74
     0
 49
-0.1
 74
     0
  0
LTYPE
  5
62
330
5
100
AcDbSymbolTableRecord
100
AcDbLinetypeTableRecord
  2
DOT2
 70
     0
  3
Dot (.5x) ........................................
 72
    65
 73
     2
 40
0.025
 49
0.0
 74
     0
 49
-0.025
 74
     0
  0
ENDTAB
  0
TABLE
  2
LAYER
  5
2
330
0
100
AcDbSymbolTable
 70
    12
  0
LAYER
  5
10
330
2
100
AcDbSymbolTableRecord
100
AcDbLayerTableRecord
  2
0
 70
     0
 62
     7
  6
Continuous
370
    -3
390
F
  0
LAYER
  5
63
330
2
100
AcDbSymbolTableRecord
100
AcDbLayerTableRecord
  2
SLD-0
 70
     0
 62
     7
  6
Continuous
370
    -3
390
F
  0
LAYER
  5
64
330
2
100
AcDbSymbolTableRecord
100
AcDbLayerTableRecord
  2
DIM
 70
     0
 62
     7
  6
Continuous
370
    -3
390
F
  0
LAYER
  5
65
330
2
100
AcDbSymbolTableRecord
100
AcDbLayerTableRecord
  2
CEN
 70
     0
 62
     1
  6
CENTER
370
    -3
390
F
  0
LAYER
  5
66
330
2
100
AcDbSymbolTableRecord
100
AcDbLayerTableRecord
  2
HAT
 70
     0
 62
     4
  6
Continuous
370
    -3
390
F
  0
LAYER
  5
67
330
2
100
AcDbSymbolTableRecord
100
AcDbLayerTableRecord
  2
OBJ
 70
     0
 62
     5
  6
Continuous
370
    -3
390
F
  0
LAYER
  5
68
330
2
100
AcDbSymbolTableRecord
100
AcDbLayerTableRecord
  2
SLD-DEFPOINTS
 70
     0
 62
     7
  6
Continuous
370
    -3
390
F
  0
LAYER
  5
69
330
2
100
AcDbSymbolTableRecord
100
AcDbLayerTableRecord
  2
HID
 70
     0
 62
     4
  6
HIDDEN
370
    -3
390
F
  0
LAYER
  5
6A
330
2
100
AcDbSymbolTableRecord
100
AcDbLayerTableRecord
  2
NOTE
 70
     0
 62
     7
  6
Continuous
370
    -3
390
F
  0
LAYER
  5
6B
330
2
100
AcDbSymbolTableRecord
100
AcDbLayerTableRecord
  2
VP
 70
     0
 62
    -5
  6
Continuous
290
     0
370
    -3
390
F
  0
LAYER
  5
6C
330
2
100
AcDbSymbolTableRecord
100
AcDbLayerTableRecord
  2
TITLE
 70
     0
 62
     7
  6
Continuous
370
    -3
390
F
  0
LAYER
  5
6D
330
2
100
AcDbSymbolTableRecord
100
AcDbLayerTableRecord
  2
THICK_TITLE
 70
     0
 62
     7
  6
Continuous
370
   100
390
F
  0
ENDTAB
  0
TABLE
  2
STYLE
  5
3
330
0
100
AcDbSymbolTable
 70
     2
  0
STYLE
  5
11
330
3
100
AcDbSymbolTableRecord
100
AcDbTextStyleTableRecord
  2
STANDARD
 70
     0
 40
0.0
 41
1.0
 50
0.0
 71
     0
 42
0.4133858268
  3
Acumin Pro
  4

1001
ACAD
1000
ACUMIN PRO
1071
      256
  0
STYLE
  5
8A
330
3
100
AcDbSymbolTableRecord
100
AcDbTextStyleTableRecord
  2
SLDTEXTSTYLE0
 70
     0
 40
0.0
 41
1.0
 50
0.0
 71
     0
 42
0.4133858268
  3
Acumin Pro
  4

1001
ACAD
1000
Acumin Pro
1071
      256
  0
ENDTAB
  0
TABLE
  2
VIEW
  5
6
330
0
100
AcDbSymbolTable
 70
     0
  0
ENDTAB
  0
TABLE
  2
UCS
  5
7
330
0
100
AcDbSymbolTable
 70
     0
  0
ENDTAB
  0
TABLE
  2
APPID
  5
9
330
0
100
AcDbSymbolTable
 70
     1
  0
APPID
  5
12
330
9
100
AcDbSymbolTableRecord
100
AcDbRegAppTableRecord
  2
ACAD
 70
     0
  0
ENDTAB
  0
TABLE
  2
DIMSTYLE
  5
A
330
0
100
AcDbSymbolTable
 70
     6
100
AcDbDimStyleTable
  0
DIMSTYLE
105
27
330
A
100
AcDbSymbolTableRecord
100
AcDbDimStyleTableRecord
  2
Standard
 70
     0
178
     0
340
11
  0
DIMSTYLE
105
8B
102
{ACAD_REACTORS
330
89
330
A0
330
DC
330
EF
102
}
330
A
100
AcDbSymbolTableRecord
100
AcDbDimStyleTableRecord
  2
SLDDIMSTYLE0
 70
     0
 41
0.39
 44
0.0
 45
0.000000001
 78
    12
 79
     3
140
0.4133858268
147
0.1033464567
148
0.000000001
170
     1
171
     0
172
     1
173
     1
178
     0
271
     6
272
     3
274
     0
276
     2
277
     5
284
    12
289
     0
340
8A
  0
DIMSTYLE
105
B6
102
{ACAD_REACTORS
330
B5
102
}
330
A
100
AcDbSymbolTableRecord
100
AcDbDimStyleTableRecord
  2
SLDDIMSTYLE1
 70
     0
 41
0.39
 44
0.0
 45
0.000000001
 78
    12
 79
     3
140
0.4133858268
147
0.1033464567
148
0.000000001
170
     1
171
     0
172
     1
173
     1
178
     0
271
     3
272
     3
274
     0
276
     2
277
     5
284
    12
289
     0
340
8A
  0
DIMSTYLE
105
C8
102
{ACAD_REACTORS
330
C7
330
104
102
}
330
A
100
AcDbSymbolTableRecord
100
AcDbDimStyleTableRecord
  2
SLDDIMSTYLE2
 70
     0
 41
0.39
 44
0.0
 45
0.000000001
 78
    12
 79
     3
140
0.4133858268
147
0.1033464567
148
0.000000001
170
     1
171
     0
173
     1
178
     0
271
     6
272
     3
274
     0
276
     2
277
     5
284
    12
340
8A
  0
DIMSTYLE
105
1A5
102
{ACAD_REACTORS
330
1A4
102
}
330
A
100
AcDbSymbolTableRecord
100
AcDbDimStyleTableRecord
  2
SLDDIMSTYLE3
 70
     0
 41
0.39
 44
0.0
 45
0.000000001
 78
    12
 79
     3
140
0.4133858268
147
0.1033464567
148
0.000000001
170
     1
171
     0
173
     1
178
     0
271
     3
272
     3
274
     0
276
     2
277
     5
284
    12
340
8A
  0
DIMSTYLE
105
1B2
102
{ACAD_REACTORS
330
1B1
330
1C5
102
}
330
A
100
AcDbSymbolTableRecord
100
AcDbDimStyleTableRecord
  2
SLDDIMSTYLE4
 70
     0
 41
0.39
 44
0.0
 45
0.000000001
 78
    12
 79
     3
140
0.4133858268
141
0.0
147
0.1033464567
148
0.000000001
170
     1
171
     0
172
     1
173
     1
178
     0
271
     3
272
     3
274
     0
276
     2
277
     5
284
    12
340
8A
341
1B3
343
1B3
  0
ENDTAB
  0
TABLE
  2
BLOCK_RECORD
  5
1
330
0
100
AcDbSymbolTable
 70
    12
  0
BLOCK_RECORD
  5
1F
330
1
100
AcDbSymbolTableRecord
100
AcDbBlockTableRecord
  2
*Model_Space
340
22
  0
BLOCK_RECORD
  5
1B
330
1
100
AcDbSymbolTableRecord
100
AcDbBlockTableRecord
  2
*Paper_Space
340
1E
  0
BLOCK_RECORD
  5
23
330
1
100
AcDbSymbolTableRecord
100
AcDbBlockTableRecord
  2
*Paper_Space0
340
26
  0
BLOCK_RECORD
  5
8C
330
1
100
AcDbSymbolTableRecord
100
AcDbBlockTableRecord
  2
_D
340
0
  0
BLOCK_RECORD
  5
A1
330
1
100
AcDbSymbolTableRecord
100
AcDbBlockTableRecord
  2
_D_1
340
0
  0
BLOCK_RECORD
  5
B7
330
1
100
AcDbSymbolTableRecord
100
AcDbBlockTableRecord
  2
_D_2
340
0
  0
BLOCK_RECORD
  5
C9
330
1
100
AcDbSymbolTableRecord
100
AcDbBlockTableRecord
  2
_D_3
340
0
  0
BLOCK_RECORD
  5
DD
330
1
100
AcDbSymbolTableRecord
100
AcDbBlockTableRecord
  2
_D_4
340
0
  0
BLOCK_RECORD
  5
F0
330
1
100
AcDbSymbolTableRecord
100
AcDbBlockTableRecord
  2
_D_5
340
0
  0
BLOCK_RECORD
  5
105
330
1
100
AcDbSymbolTableRecord
100
AcDbBlockTableRecord
  2
_D_6
340
0
  0
BLOCK_RECORD
  5
1A6
330
1
100
AcDbSymbolTableRecord
100
AcDbBlockTableRecord
  2
_D_7
340
0
  0
BLOCK_RECORD
  5
1B3
330
1
100
AcDbSymbolTableRecord
100
AcDbBlockTableRecord
  2
_None
340
0
  0
BLOCK_RECORD
  5
1B6
330
1
100
AcDbSymbolTableRecord
100
AcDbBlockTableRecord
  2
_D_8
340
0
  0
BLOCK_RECORD
  5
1C6
330
1
100
AcDbSymbolTableRecord
100
AcDbBlockTableRecord
  2
_D_9
340
0
  0
ENDTAB
  0
ENDSEC
  0
SECTION
  2
BLOCKS
  0
BLOCK
  5
20
330
1F
100
AcDbEntity
  8
0
100
AcDbBlockBegin
  2
*Model_Space
 70
     0
 10
0.0
 20
0.0
 30
0.0
  3
*Model_Space
  1

  0
ENDBLK
  5
21
330
1F
100
AcDbEntity
  8
0
100
AcDbBlockEnd
  0
BLOCK
  5
1C
330
1B
100
AcDbEntity
 67
     1
  8
0
100
AcDbBlockBegin
  2
*Paper_Space
 70
     0
 10
0.0
 20
0.0
 30
0.0
  3
*Paper_Space
  1

  0
ENDBLK
  5
1D
330
1B
100
AcDbEntity
 67
     1
  8
0
100
AcDbBlockEnd
  0
BLOCK
  5
24
330
23
100
AcDbEntity
  8
0
100
AcDbBlockBegin
  2
*Paper_Space0
 70
     0
 10
0.0
 20
0.0
 30
0.0
  3
*Paper_Space0
  1

  0
ENDBLK
  5
25
330
23
100
AcDbEntity
  8
0
100
AcDbBlockEnd
  0
BLOCK
  5
8D
330
8C
100
AcDbEntity
  8
0
100
AcDbBlockBegin
  2
_D
 70
     0
 10
0.0
 20
0.0
 30
0.0
  3
_D
  1

  0
SOLID
  5
8F
330
8C
100
AcDbEntity
  8
SLD-0
100
AcDbTrace
 10
5.6993133738
 20
13.3740874619
 30
0.0
 11
5.7593133738
 21
13.7640874619
 31
0.0
 12
5.6393133738
 22
13.7640874619
 32
0.0
 13
5.6393133738
 23
13.7640874619
 33
0.0
  0
SOLID
  5
90
330
8C
100
AcDbEntity
  8
SLD-0
100
AcDbTrace
 10
5.6993133738
 20
13.2490874619
 30
0.0
 11
5.6393133738
 21
12.8590874619
 31
0.0
 12
5.7593133738
 22
12.8590874619
 32
0.0
 13
5.7593133738
 23
12.8590874619
 33
0.0
  0
LINE
  5
91
330
8C
100
AcDbEntity
  8
SLD-0
100
AcDbLine
 10
2.9612984451
 20
14.5546157407
 30
0.0
 11
2.8191970679
 21
14.5546157407
 31
0.0
  0
LINE
  5
92
330
8C
100
AcDbEntity
  8
SLD-0
100
AcDbLine
 10
2.8191970679
 20
14.5546157407
 30
0.0
 11
2.8191970679
 21
13.9201833298
 31
0.0
  0
LINE
  5
93
330
8C
100
AcDbEntity
  8
SLD-0
100
AcDbLine
 10
2.8191970679
 20
13.9201833298
 30
0.0
 11
2.9612984451
 21
13.9201833298
 31
0.0
  0
LINE
  5
94
330
8C
100
AcDbEntity
  8
SLD-0
100
AcDbLine
 10
4.2232734967
 20
14.5546157407
 30
0.0
 11
4.3653748738
 21
14.5546157407
 31
0.0
  0
LINE
  5
95
330
8C
100
AcDbEntity
  8
SLD-0
100
AcDbLine
 10
4.3653748738
 20
14.5546157407
 30
0.0
 11
4.3653748738
 21
13.9201833298
 31
0.0
  0
LINE
  5
96
330
8C
100
AcDbEntity
  8
SLD-0
100
AcDbLine
 10
4.3653748738
 20
13.9201833298
 30
0.0
 11
4.2232734967
 21
13.9201833298
 31
0.0
  0
LINE
  5
97
330
8C
100
AcDbEntity
  8
SLD-0
100
AcDbLine
 10
6.7988723088
 20
13.3740874619
 30
0.0
 11
5.3243133738
 21
13.3740874619
 31
0.0
  0
LINE
  5
98
330
8C
100
AcDbEntity
  8
SLD-0
100
AcDbLine
 10
6.5338723088
 20
13.2490874619
 30
0.0
 11
5.3243133738
 21
13.2490874619
 31
0.0
  0
LINE
  5
99
330
8C
100
AcDbEntity
  8
SLD-0
100
AcDbLine
 10
4.9493133738
 20
14.5551898241
 30
0.0
 11
5.6993133738
 21
14.5551898241
 31
0.0
  0
LINE
  5
9A
330
8C
100
AcDbEntity
  8
SLD-0
100
AcDbLine
 10
5.6993133738
 20
14.5551898241
 30
0.0
 11
5.6993133738
 21
13.3740874619
 31
0.0
  0
LINE
  5
9B
330
8C
100
AcDbEntity
  8
SLD-0
100
AcDbLine
 10
5.6993133738
 20
13.2490874619
 30
0.0
 11
5.6993133738
 21
12.4990874619
 31
0.0
  0
MTEXT
  5
9C
330
8C
100
AcDbEntity
  8
SLD-0
100
AcDbMText
 10
2.5192052747
 20
15.183380584
 30
0.0
 40
0.4133858268
 41
0.0
 71
     1
 72
     1
  1
 
  7
SLDTEXTSTYLE0
 73
     1
 44
1.0
  0
MTEXT
  5
9D
330
8C
100
AcDbEntity
  8
SLD-0
100
AcDbMText
 10
3.0967971623
 20
15.1822323347
 30
0.0
 40
0.4133858268
 41
0.0
 71
     1
 72
     1
  1
1/8"
  7
SLDTEXTSTYLE0
 73
     1
 44
1.0
  0
MTEXT
  5
9E
330
8C
100
AcDbEntity
  8
SLD-0
100
AcDbMText
 10
2.9612984451
 20
14.4530656906
 30
0.0
 40
0.4133858268
 41
0.0
 71
     1
 72
     1
  1
3mm
  7
SLDTEXTSTYLE0
 73
     1
 44
1.0
  0
MTEXT
  5
9F
330
8C
100
AcDbEntity
  8
SLD-0
100
AcDbMText
 10
4.507476306
 20
15.183380584
 30
0.0
 40
0.4133858268
 41
0.0
 71
     1
 72
     1
  1
 
  7
SLDTEXTSTYLE0
 73
     1
 44
1.0
  0
ENDBLK
  5
8E
330
8C
100
AcDbEntity
  8
0
100
AcDbBlockEnd
  0
BLOCK
  5
A2
330
A1
100
AcDbEntity
  8
0
100
AcDbBlockBegin
  2
_D_1
 70
     0
 10
0.0
 20
0.0
 30
0.0
  3
_D_1
  1

  0
SOLID
  5
A4
330
A1
100
AcDbEntity
  8
SLD-0
100
AcDbTrace
 10
6.1981651392
 20
13.3740874619
 30
0.0
 11
6.2581651392
 21
13.7640874619
 31
0.0
 12
6.1381651392
 22
13.7640874619
 32
0.0
 13
6.1381651392
 23
13.7640874619
 33
0.0
  0
SOLID
  5
A5
330
A1
100
AcDbEntity
  8
SLD-0
100
AcDbTrace
 10
6.1981651392
 20
11.6240874619
 30
0.0
 11
6.1381651392
 21
11.2340874619
 31
0.0
 12
6.2581651392
 22
11.2340874619
 32
0.0
 13
6.2581651392
 23
11.2340874619
 33
0.0
  0
LINE
  5
A6
330
A1
100
AcDbEntity
  8
SLD-0
100
AcDbLine
 10
2.7317651168
 20
10.4968489209
 30
0.0
 11
2.5896637396
 21
10.4968489209
 31
0.0
  0
LINE
  5
A7
330
A1
100
AcDbEntity
  8
SLD-0
100
AcDbLine
 10
2.5896637396
 20
10.4968489209
 30
0.0
 11
2.5896637396
 21
9.8624165099
 31
0.0
  0
LINE
  5
A8
330
A1
100
AcDbEntity
  8
SLD-0
100
AcDbLine
 10
2.5896637396
 20
9.8624165099
 30
0.0
 11
2.7317651168
 21
9.8624165099
 31
0.0
  0
LINE
  5
A9
330
A1
100
AcDbEntity
  8
SLD-0
100
AcDbLine
 10
4.3095208904
 20
10.4968489209
 30
0.0
 11
4.4516222676
 21
10.4968489209
 31
0.0
  0
LINE
  5
AA
330
A1
100
AcDbEntity
  8
SLD-0
100
AcDbLine
 10
4.4516222676
 20
10.4968489209
 30
0.0
 11
4.4516222676
 21
9.8624165099
 31
0.0
  0
LINE
  5
AB
330
A1
100
AcDbEntity
  8
SLD-0
100
AcDbLine
 10
4.4516222676
 20
9.8624165099
 30
0.0
 11
4.3095208904
 21
9.8624165099
 31
0.0
  0
LINE
  5
AC
330
A1
100
AcDbEntity
  8
SLD-0
100
AcDbLine
 10
6.7988723088
 20
13.3740874619
 30
0.0
 11
5.8231651392
 21
13.3740874619
 31
0.0
  0
LINE
  5
AD
330
A1
100
AcDbEntity
  8
SLD-0
100
AcDbLine
 10
6.7988723088
 20
11.6240874619
 30
0.0
 11
5.8231651392
 21
11.6240874619
 31
0.0
  0
LINE
  5
AE
330
A1
100
AcDbEntity
  8
SLD-0
100
AcDbLine
 10
5.0355606575
 20
10.4974230042
 30
0.0
 11
6.1981651392
 21
10.4974230042
 31
0.0
  0
LINE
  5
AF
330
A1
100
AcDbEntity
  8
SLD-0
100
AcDbLine
 10
6.1981651392
 20
10.4974230042
 30
0.0
 11
6.1981651392
 21
11.6240874619
 31
0.0
  0
LINE
  5
B0
330
A1
100
AcDbEntity
  8
SLD-0
100
AcDbLine
 10
6.1981651392
 20
13.3740874619
 30
0.0
 11
6.1981651392
 21
14.1240874619
 31
0.0
  0
MTEXT
  5
B1
330
A1
100
AcDbEntity
  8
SLD-0
100
AcDbMText
 10
2.2896719464
 20
11.1256137641
 30
0.0
 40
0.4133858268
 41
0.0
 71
     1
 72
     1
  1
 
  7
SLDTEXTSTYLE0
 73
     1
 44
1.0
  0
MTEXT
  5
B2
330
A1
100
AcDbEntity
  8
SLD-0
100
AcDbMText
 10
2.788318516
 20
11.1244655148
 30
0.0
 40
0.4133858268
 41
0.0
 71
     1
 72
     1
  1
1 3/4"
  7
SLDTEXTSTYLE0
 73
     1
 44
1.0
  0
MTEXT
  5
B3
330
A1
100
AcDbEntity
  8
SLD-0
100
AcDbMText
 10
2.7317651168
 20
10.3952988707
 30
0.0
 40
0.4133858268
 41
0.0
 71
     1
 72
     1
  1
44mm
  7
SLDTEXTSTYLE0
 73
     1
 44
1.0
  0
MTEXT
  5
B4
330
A1
100
AcDbEntity
  8
SLD-0
100
AcDbMText
 10
4.5937235898
 20
11.1256137641
 30
0.0
 40
0.4133858268
 41
0.0
 71
     1
 72
     1
  1
 
  7
SLDTEXTSTYLE0
 73
     1
 44
1.0
  0
ENDBLK
  5
A3
330
A1
100
AcDbEntity
  8
0
100
AcDbBlockEnd
  0
BLOCK
  5
B8
330
B7
100
AcDbEntity
  8
0
100
AcDbBlockBegin
  2
_D_2
 70
     0
 10
0.0
 20
0.0
 30
0.0
  3
_D_2
  1

  0
SOLID
  5
BA
330
B7
100
AcDbEntity
  8
SLD-0
100
AcDbTrace
 10
7.1738723088
 20
12.2959554686
 30
0.0
 11
6.7838723088
 21
12.3559554686
 31
0.0
 12
6.7838723088
 22
12.2359554686
 32
0.0
 13
6.7838723088
 23
12.2359554686
 33
0.0
  0
SOLID
  5
BB
330
B7
100
AcDbEntity
  8
SLD-0
100
AcDbTrace
 10
13.1438723088
 20
12.2959554686
 30
0.0
 11
13.5338723088
 21
12.2359554686
 31
0.0
 12
13.5338723088
 22
12.3559554686
 32
0.0
 13
13.5338723088
 23
12.3559554686
 33
0.0
  0
LINE
  5
BC
330
B7
100
AcDbEntity
  8
SLD-0
100
AcDbLine
 10
2.6694544762
 20
12.2959555236
 30
0.0
 11
2.527353099
 21
12.2959555236
 31
0.0
  0
LINE
  5
BD
330
B7
100
AcDbEntity
  8
SLD-0
100
AcDbLine
 10
2.527353099
 20
12.2959555236
 30
0.0
 11
2.527353099
 21
11.6615231126
 31
0.0
  0
LINE
  5
BE
330
B7
100
AcDbEntity
  8
SLD-0
100
AcDbLine
 10
2.527353099
 20
11.6615231126
 30
0.0
 11
2.6694544762
 21
11.6615231126
 31
0.0
  0
LINE
  5
BF
330
B7
100
AcDbEntity
  8
SLD-0
100
AcDbLine
 10
4.5629910819
 20
12.2959555236
 30
0.0
 11
4.7050924591
 21
12.2959555236
 31
0.0
  0
LINE
  5
C0
330
B7
100
AcDbEntity
  8
SLD-0
100
AcDbLine
 10
4.7050924591
 20
12.2959555236
 30
0.0
 11
4.7050924591
 21
11.6615231126
 31
0.0
  0
LINE
  5
C1
330
B7
100
AcDbEntity
  8
SLD-0
100
AcDbLine
 10
4.7050924591
 20
11.6615231126
 30
0.0
 11
4.5629910819
 21
11.6615231126
 31
0.0
  0
LINE
  5
C2
330
B7
100
AcDbEntity
  8
SLD-0
100
AcDbLine
 10
7.1738723088
 20
12.2959554686
 30
0.0
 11
4.9418426652
 21
12.2959554686
 31
0.0
  0
LINE
  5
C3
330
B7
100
AcDbEntity
  8
SLD-0
100
AcDbLine
 10
13.1438723088
 20
12.2959554686
 30
0.0
 11
13.8938723088
 21
12.2959554686
 31
0.0
  0
MTEXT
  5
C4
330
B7
100
AcDbEntity
  8
SLD-0
100
AcDbMText
 10
3.0562141608
 20
12.9235721176
 30
0.0
 40
0.4133858268
 41
0.0
 71
     1
 72
     1
  1
%%c
  7
SLDTEXTSTYLE0
 73
     1
 44
1.0
  0
MTEXT
  5
C5
330
B7
100
AcDbEntity
  8
SLD-0
100
AcDbMText
 10
3.6589249732
 20
12.9235721176
 30
0.0
 40
0.4133858268
 41
0.0
 71
     1
 72
     1
  1
6"
  7
SLDTEXTSTYLE0
 73
     1
 44
1.0
  0
MTEXT
  5
C6
330
B7
100
AcDbEntity
  8
SLD-0
100
AcDbMText
 10
2.6694544762
 20
12.1944054735
 30
0.0
 40
0.4133858268
 41
0.0
 71
     1
 72
     1
  1
152mm
  7
SLDTEXTSTYLE0
 73
     1
 44
1.0
  0
ENDBLK
  5
B9
330
B7
100
AcDbEntity
  8
0
100
AcDbBlockEnd
  0
BLOCK
  5
CA
330
C9
100
AcDbEntity
  8
0
100
AcDbBlockBegin
  2
_D_3
 70
     0
 10
0.0
 20
0.0
 30
0.0
  3
_D_3
  1

  0
SOLID
  5
CC
330
C9
100
AcDbEntity
  8
SLD-0
100
AcDbTrace
 10
17.3414408966
 20
13.3740874619
 30
0.0
 11
17.2814408966
 21
12.9840874619
 31
0.0
 12
17.4014408966
 22
12.9840874619
 32
0.0
 13
17.4014408966
 23
12.9840874619
 33
0.0
  0
SOLID
  5
CD
330
C9
100
AcDbEntity
  8
SLD-0
100
AcDbTrace
 10
17.3414408966
 20
2.2490874619
 30
0.0
 11
17.4014408966
 21
2.6390874619
 31
0.0
 12
17.2814408966
 22
2.6390874619
 32
0.0
 13
17.2814408966
 23
2.6390874619
 33
0.0
  0
LINE
  5
CE
330
C9
100
AcDbEntity
  8
SLD-0
100
AcDbLine
 10
16.3946726212
 20
7.8110133785
 30
0.0
 11
16.2525712441
 21
7.8110133785
 31
0.0
  0
LINE
  5
CF
330
C9
100
AcDbEntity
  8
SLD-0
100
AcDbLine
 10
16.2525712441
 20
7.8110133785
 30
0.0
 11
16.2525712441
 21
7.1765809676
 31
0.0
  0
LINE
  5
D0
330
C9
100
AcDbEntity
  8
SLD-0
100
AcDbLine
 10
16.2525712441
 20
7.1765809676
 30
0.0
 11
16.3946726212
 21
7.1765809676
 31
0.0
  0
LINE
  5
D1
330
C9
100
AcDbEntity
  8
SLD-0
100
AcDbLine
 10
18.288209227
 20
7.8110133785
 30
0.0
 11
18.4303106041
 21
7.8110133785
 31
0.0
  0
LINE
  5
D2
330
C9
100
AcDbEntity
  8
SLD-0
100
AcDbLine
 10
18.4303106041
 20
7.8110133785
 30
0.0
 11
18.4303106041
 21
7.1765809676
 31
0.0
  0
LINE
  5
D3
330
C9
100
AcDbEntity
  8
SLD-0
100
AcDbLine
 10
18.4303106041
 20
7.1765809676
 30
0.0
 11
18.288209227
 21
7.1765809676
 31
0.0
  0
LINE
  5
D4
330
C9
100
AcDbEntity
  8
SLD-0
100
AcDbLine
 10
13.5188723088
 20
13.3740874619
 30
0.0
 11
17.7164408966
 21
13.3740874619
 31
0.0
  0
LINE
  5
D5
330
C9
100
AcDbEntity
  8
SLD-0
100
AcDbLine
 10
13.3151223088
 20
2.2490874619
 30
0.0
 11
17.7164408966
 21
2.2490874619
 31
0.0
  0
LINE
  5
D6
330
C9
100
AcDbEntity
  8
SLD-0
100
AcDbLine
 10
17.3414408966
 20
13.3740874619
 30
0.0
 11
17.3414408966
 21
8.5413282719
 31
0.0
  0
LINE
  5
D7
330
C9
100
AcDbEntity
  8
SLD-0
100
AcDbLine
 10
17.3414408966
 20
2.2490874619
 30
0.0
 11
17.3414408966
 21
7.0818466519
 31
0.0
  0
MTEXT
  5
D8
330
C9
100
AcDbEntity
  8
SLD-0
100
AcDbMText
 10
15.9525794508
 20
8.4397782218
 30
0.0
 40
0.4133858268
 41
0.0
 71
     1
 72
     1
  1
 
  7
SLDTEXTSTYLE0
 73
     1
 44
1.0
  0
MTEXT
  5
D9
330
C9
100
AcDbEntity
  8
SLD-0
100
AcDbMText
 10
16.4512260204
 20
8.4386299725
 30
0.0
 40
0.4133858268
 41
0.0
 71
     1
 72
     1
  1
11 1/8"
  7
SLDTEXTSTYLE0
 73
     1
 44
1.0
  0
MTEXT
  5
DA
330
C9
100
AcDbEntity
  8
SLD-0
100
AcDbMText
 10
16.3946726212
 20
7.7094633284
 30
0.0
 40
0.4133858268
 41
0.0
 71
     1
 72
     1
  1
283mm
  7
SLDTEXTSTYLE0
 73
     1
 44
1.0
  0
MTEXT
  5
DB
330
C9
100
AcDbEntity
  8
SLD-0
100
AcDbMText
 10
18.5724119263
 20
8.4397782218
 30
0.0
 40
0.4133858268
 41
0.0
 71
     1
 72
     1
  1
 
  7
SLDTEXTSTYLE0
 73
     1
 44
1.0
  0
ENDBLK
  5
CB
330
C9
100
AcDbEntity
  8
0
100
AcDbBlockEnd
  0
BLOCK
  5
DE
330
DD
100
AcDbEntity
  8
0
100
AcDbBlockBegin
  2
_D_4
 70
     0
 10
0.0
 20
0.0
 30
0.0
  3
_D_4
  1

  0
SOLID
  5
E0
330
DD
100
AcDbEntity
  8
SLD-0
100
AcDbTrace
 10
5.8813723088
 20
4.7982092521
 30
0.0
 11
5.4913723088
 21
4.8582092521
 31
0.0
 12
5.4913723088
 22
4.7382092521
 32
0.0
 13
5.4913723088
 23
4.7382092521
 33
0.0
  0
SOLID
  5
E1
330
DD
100
AcDbEntity
  8
SLD-0
100
AcDbTrace
 10
14.4363723088
 20
4.7982092521
 30
0.0
 11
14.8263723088
 21
4.7382092521
 31
0.0
 12
14.8263723088
 22
4.8582092521
 32
0.0
 13
14.8263723088
 23
4.8582092521
 33
0.0
  0
LINE
  5
E2
330
DD
100
AcDbEntity
  8
SLD-0
100
AcDbLine
 10
2.6694544762
 20
4.7982093071
 30
0.0
 11
2.527353099
 21
4.7982093071
 31
0.0
  0
LINE
  5
E3
330
DD
100
AcDbEntity
  8
SLD-0
100
AcDbLine
 10
2.527353099
 20
4.7982093071
 30
0.0
 11
2.527353099
 21
4.1637768961
 31
0.0
  0
LINE
  5
E4
330
DD
100
AcDbEntity
  8
SLD-0
100
AcDbLine
 10
2.527353099
 20
4.1637768961
 30
0.0
 11
2.6694544762
 21
4.1637768961
 31
0.0
  0
LINE
  5
E5
330
DD
100
AcDbEntity
  8
SLD-0
100
AcDbLine
 10
4.5629910819
 20
4.7982093071
 30
0.0
 11
4.7050924591
 21
4.7982093071
 31
0.0
  0
LINE
  5
E6
330
DD
100
AcDbEntity
  8
SLD-0
100
AcDbLine
 10
4.7050924591
 20
4.7982093071
 30
0.0
 11
4.7050924591
 21
4.1637768961
 31
0.0
  0
LINE
  5
E7
330
DD
100
AcDbEntity
  8
SLD-0
100
AcDbLine
 10
4.7050924591
 20
4.1637768961
 30
0.0
 11
4.5629910819
 21
4.1637768961
 31
0.0
  0
LINE
  5
E8
330
DD
100
AcDbEntity
  8
SLD-0
100
AcDbLine
 10
5.8813723088
 20
6.8490874619
 30
0.0
 11
5.8813723088
 21
4.4232092521
 31
0.0
  0
LINE
  5
E9
330
DD
100
AcDbEntity
  8
SLD-0
100
AcDbLine
 10
14.4363723088
 20
6.8490874619
 30
0.0
 11
14.4363723088
 21
4.4232092521
 31
0.0
  0
LINE
  5
EA
330
DD
100
AcDbEntity
  8
SLD-0
100
AcDbLine
 10
5.8813723088
 20
4.7982092521
 30
0.0
 11
4.9418426652
 21
4.7982092521
 31
0.0
  0
LINE
  5
EB
330
DD
100
AcDbEntity
  8
SLD-0
100
AcDbLine
 10
14.4363723088
 20
4.7982092521
 30
0.0
 11
15.1863723088
 21
4.7982092521
 31
0.0
  0
MTEXT
  5
EC
330
DD
100
AcDbEntity
  8
SLD-0
100
AcDbMText
 10
2.4246524967
 20
5.4258259011
 30
0.0
 40
0.4133858268
 41
0.0
 71
     1
 72
     1
  1
%%c
  7
SLDTEXTSTYLE0
 73
     1
 44
1.0
  0
MTEXT
  5
ED
330
DD
100
AcDbEntity
  8
SLD-0
100
AcDbMText
 10
3.0273633091
 20
5.4258259011
 30
0.0
 40
0.4133858268
 41
0.0
 71
     1
 72
     1
  1
8 9/16"
  7
SLDTEXTSTYLE0
 73
     1
 44
1.0
  0
MTEXT
  5
EE
330
DD
100
AcDbEntity
  8
SLD-0
100
AcDbMText
 10
2.6694544762
 20
4.696659257
 30
0.0
 40
0.4133858268
 41
0.0
 71
     1
 72
     1
  1
217mm
  7
SLDTEXTSTYLE0
 73
     1
 44
1.0
  0
ENDBLK
  5
DF
330
DD
100
AcDbEntity
  8
0
100
AcDbBlockEnd
  0
BLOCK
  5
F1
330
F0
100
AcDbEntity
  8
0
100
AcDbBlockBegin
  2
_D_5
 70
     0
 10
0.0
 20
0.0
 30
0.0
  3
_D_5
  1

  0
SOLID
  5
F3
330
F0
100
AcDbEntity
  8
SLD-0
100
AcDbTrace
 10
5.2767469719
 20
6.3490874619
 30
0.0
 11
5.2167469719
 21
5.9590874619
 31
0.0
 12
5.3367469719
 22
5.9590874619
 32
0.0
 13
5.3367469719
 23
5.9590874619
 33
0.0
  0
SOLID
  5
F4
330
F0
100
AcDbEntity
  8
SLD-0
100
AcDbTrace
 10
5.2767469719
 20
7.2240874619
 30
0.0
 11
5.3367469719
 21
7.6140874619
 31
0.0
 12
5.2167469719
 22
7.6140874619
 32
0.0
 13
5.2167469719
 23
7.6140874619
 33
0.0
  0
LINE
  5
F5
330
F0
100
AcDbEntity
  8
SLD-0
100
AcDbLine
 10
2.7121480993
 20
8.0274625264
 30
0.0
 11
2.5700467221
 21
8.0274625264
 31
0.0
  0
LINE
  5
F6
330
F0
100
AcDbEntity
  8
SLD-0
100
AcDbLine
 10
2.5700467221
 20
8.0274625264
 30
0.0
 11
2.5700467221
 21
7.3930301154
 31
0.0
  0
LINE
  5
F7
330
F0
100
AcDbEntity
  8
SLD-0
100
AcDbLine
 10
2.5700467221
 20
7.3930301154
 30
0.0
 11
2.7121480993
 21
7.3930301154
 31
0.0
  0
LINE
  5
F8
330
F0
100
AcDbEntity
  8
SLD-0
100
AcDbLine
 10
4.2899038729
 20
8.0274625264
 30
0.0
 11
4.4320052501
 21
8.0274625264
 31
0.0
  0
LINE
  5
F9
330
F0
100
AcDbEntity
  8
SLD-0
100
AcDbLine
 10
4.4320052501
 20
8.0274625264
 30
0.0
 11
4.4320052501
 21
7.3930301154
 31
0.0
  0
LINE
  5
FA
330
F0
100
AcDbEntity
  8
SLD-0
100
AcDbLine
 10
4.4320052501
 20
7.3930301154
 30
0.0
 11
4.2899038729
 21
7.3930301154
 31
0.0
  0
LINE
  5
FB
330
F0
100
AcDbEntity
  8
SLD-0
100
AcDbLine
 10
5.5369279821
 20
6.3490874619
 30
0.0
 11
4.9017469719
 21
6.3490874619
 31
0.0
  0
LINE
  5
FC
330
F0
100
AcDbEntity
  8
SLD-0
100
AcDbLine
 10
5.5063723088
 20
7.2240874619
 30
0.0
 11
4.9017469719
 21
7.2240874619
 31
0.0
  0
LINE
  5
FD
330
F0
100
AcDbEntity
  8
SLD-0
100
AcDbLine
 10
5.01594364
 20
8.0280366098
 30
0.0
 11
5.2767469719
 21
8.0280366098
 31
0.0
  0
LINE
  5
FE
330
F0
100
AcDbEntity
  8
SLD-0
100
AcDbLine
 10
5.2767469719
 20
8.0280366098
 30
0.0
 11
5.2767469719
 21
7.2240874619
 31
0.0
  0
LINE
  5
FF
330
F0
100
AcDbEntity
  8
SLD-0
100
AcDbLine
 10
5.2767469719
 20
6.3490874619
 30
0.0
 11
5.2767469719
 21
5.5990874619
 31
0.0
  0
MTEXT
  5
100
330
F0
100
AcDbEntity
  8
SLD-0
100
AcDbMText
 10
2.2700549289
 20
8.6562273697
 30
0.0
 40
0.4133858268
 41
0.0
 71
     1
 72
     1
  1
 
  7
SLDTEXTSTYLE0
 73
     1
 44
1.0
  0
MTEXT
  5
101
330
F0
100
AcDbEntity
  8
SLD-0
100
AcDbMText
 10
3.0055371225
 20
8.6550791204
 30
0.0
 40
0.4133858268
 41
0.0
 71
     1
 72
     1
  1
7/8"
  7
SLDTEXTSTYLE0
 73
     1
 44
1.0
  0
MTEXT
  5
102
330
F0
100
AcDbEntity
  8
SLD-0
100
AcDbMText
 10
2.7121480993
 20
7.9259124763
 30
0.0
 40
0.4133858268
 41
0.0
 71
     1
 72
     1
  1
22mm
  7
SLDTEXTSTYLE0
 73
     1
 44
1.0
  0
MTEXT
  5
103
330
F0
100
AcDbEntity
  8
SLD-0
100
AcDbMText
 10
4.5741065723
 20
8.6562273697
 30
0.0
 40
0.4133858268
 41
0.0
 71
     1
 72
     1
  1
 
  7
SLDTEXTSTYLE0
 73
     1
 44
1.0
  0
ENDBLK
  5
F2
330
F0
100
AcDbEntity
  8
0
100
AcDbBlockEnd
  0
BLOCK
  5
106
330
105
100
AcDbEntity
  8
0
100
AcDbBlockBegin
  2
_D_6
 70
     0
 10
0.0
 20
0.0
 30
0.0
  3
_D_6
  1

  0
SOLID
  5
108
330
105
100
AcDbEntity
  8
SLD-0
100
AcDbTrace
 10
7.3776223088
 20
1.0679850997
 30
0.0
 11
7.7676223088
 21
1.0079850997
 31
0.0
 12
7.7676223088
 22
1.1279850997
 32
0.0
 13
7.7676223088
 23
1.1279850997
 33
0.0
  0
SOLID
  5
109
330
105
100
AcDbEntity
  8
SLD-0
100
AcDbTrace
 10
12.9401223088
 20
1.0679850997
 30
0.0
 11
12.5501223088
 21
1.1279850997
 31
0.0
 12
12.5501223088
 22
1.0079850997
 32
0.0
 13
12.5501223088
 23
1.0079850997
 33
0.0
  0
LINE
  5
10A
330
105
100
AcDbEntity
  8
SLD-0
100
AcDbLine
 10
9.2121040335
 20
1.0679851547
 30
0.0
 11
9.0700026563
 21
1.0679851547
 31
0.0
  0
LINE
  5
10B
330
105
100
AcDbEntity
  8
SLD-0
100
AcDbLine
 10
9.0700026563
 20
1.0679851547
 30
0.0
 11
9.0700026563
 21
0.4335527437
 31
0.0
  0
LINE
  5
10C
330
105
100
AcDbEntity
  8
SLD-0
100
AcDbLine
 10
9.0700026563
 20
0.4335527437
 30
0.0
 11
9.2121040335
 21
0.4335527437
 31
0.0
  0
LINE
  5
10D
330
105
100
AcDbEntity
  8
SLD-0
100
AcDbLine
 10
11.1056406392
 20
1.0679851547
 30
0.0
 11
11.2477420164
 21
1.0679851547
 31
0.0
  0
LINE
  5
10E
330
105
100
AcDbEntity
  8
SLD-0
100
AcDbLine
 10
11.2477420164
 20
1.0679851547
 30
0.0
 11
11.2477420164
 21
0.4335527437
 31
0.0
  0
LINE
  5
10F
330
105
100
AcDbEntity
  8
SLD-0
100
AcDbLine
 10
11.2477420164
 20
0.4335527437
 30
0.0
 11
11.1056406392
 21
0.4335527437
 31
0.0
  0
LINE
  5
110
330
105
100
AcDbEntity
  8
SLD-0
100
AcDbLine
 10
7.3776223088
 20
1.8740874619
 30
0.0
 11
7.3776223088
 21
0.6929850997
 31
0.0
  0
LINE
  5
111
330
105
100
AcDbEntity
  8
SLD-0
100
AcDbLine
 10
12.9401223088
 20
1.8740874619
 30
0.0
 11
12.9401223088
 21
0.6929850997
 31
0.0
  0
LINE
  5
112
330
105
100
AcDbEntity
  8
SLD-0
100
AcDbLine
 10
7.3776223088
 20
1.0679850997
 30
0.0
 11
8.8332523952
 21
1.0679850997
 31
0.0
  0
LINE
  5
113
330
105
100
AcDbEntity
  8
SLD-0
100
AcDbLine
 10
12.9401223088
 20
1.0679850997
 30
0.0
 11
11.4844922224
 21
1.0679850997
 31
0.0
  0
MTEXT
  5
114
330
105
100
AcDbEntity
  8
SLD-0
100
AcDbMText
 10
8.9673020539
 20
1.6956017487
 30
0.0
 40
0.4133858268
 41
0.0
 71
     1
 72
     1
  1
%%c
  7
SLDTEXTSTYLE0
 73
     1
 44
1.0
  0
MTEXT
  5
115
330
105
100
AcDbEntity
  8
SLD-0
100
AcDbMText
 10
9.5700128664
 20
1.6956017487
 30
0.0
 40
0.4133858268
 41
0.0
 71
     1
 72
     1
  1
5 9/16"
  7
SLDTEXTSTYLE0
 73
     1
 44
1.0
  0
MTEXT
  5
116
330
105
100
AcDbEntity
  8
SLD-0
100
AcDbMText
 10
9.2121040335
 20
0.9664351046
 30
0.0
 40
0.4133858268
 41
0.0
 71
     1
 72
     1
  1
141mm
  7
SLDTEXTSTYLE0
 73
     1
 44
1.0
  0
ENDBLK
  5
107
330
105
100
AcDbEntity
  8
0
100
AcDbBlockEnd
  0
BLOCK
  5
1A7
330
1A6
100
AcDbEntity
  8
0
100
AcDbBlockBegin
  2
_D_7
 70
     0
 10
0.0
 20
0.0
 30
0.0
  3
_D_7
  1

  0
SOLID
  5
1A9
330
1A6
100
AcDbEntity
  8
SLD-0
100
AcDbTrace
 10
7.6588723088
 20
24.5579497124
 30
0.0
 11
8.0488723088
 21
24.4979497124
 31
0.0
 12
8.0488723088
 22
24.6179497124
 32
0.0
 13
8.0488723088
 23
24.6179497124
 33
0.0
  0
SOLID
  5
1AA
330
1A6
100
AcDbEntity
  8
SLD-0
100
AcDbTrace
 10
12.6588723088
 20
24.5579497124
 30
0.0
 11
12.2688723088
 21
24.6179497124
 31
0.0
 12
12.2688723088
 22
24.4979497124
 32
0.0
 13
12.2688723088
 23
24.4979497124
 33
0.0
  0
LINE
  5
1AB
330
1A6
100
AcDbEntity
  8
SLD-0
100
AcDbLine
 10
7.6588723088
 20
20.5930890228
 30
0.0
 11
7.6588723088
 21
24.9329497124
 31
0.0
  0
LINE
  5
1AC
330
1A6
100
AcDbEntity
  8
SLD-0
100
AcDbLine
 10
12.6588723088
 20
20.5930890228
 30
0.0
 11
12.6588723088
 21
24.9329497124
 31
0.0
  0
LINE
  5
1AD
330
1A6
100
AcDbEntity
  8
SLD-0
100
AcDbLine
 10
7.6588723088
 20
24.5579497124
 30
0.0
 11
8.959564706
 21
24.5579497124
 31
0.0
  0
LINE
  5
1AE
330
1A6
100
AcDbEntity
  8
SLD-0
100
AcDbLine
 10
12.6588723088
 20
24.5579497124
 30
0.0
 11
11.3581799116
 21
24.5579497124
 31
0.0
  0
MTEXT
  5
1AF
330
1A6
100
AcDbEntity
  8
SLD-0
100
AcDbMText
 10
9.2376534658
 20
25.0908320733
 30
0.0
 40
0.4133858268
 41
0.0
 71
     1
 72
     1
  1
5" O.C.
  7
SLDTEXTSTYLE0
 73
     1
 44
1.0
  0
MTEXT
  5
1B0
330
1A6
100
AcDbEntity
  8
SLD-0
100
AcDbMText
 10
9.0542135899
 20
24.4563996623
 30
0.0
 40
0.4133858268
 41
0.0
 71
     1
 72
     1
  1
[127mm]
  7
SLDTEXTSTYLE0
 73
     1
 44
1.0
  0
ENDBLK
  5
1A8
330
1A6
100
AcDbEntity
  8
0
100
AcDbBlockEnd
  0
BLOCK
  5
1B4
330
1B3
100
AcDbEntity
  8
0
100
AcDbBlockBegin
  2
_None
 70
     0
 10
0.0
 20
0.0
 30
0.0
  3
_None
  1

  0
ENDBLK
  5
1B5
330
1B3
100
AcDbEntity
  8
0
100
AcDbBlockEnd
  0
BLOCK
  5
1B7
330
1B6
100
AcDbEntity
  8
0
100
AcDbBlockBegin
  2
_D_8
 70
     0
 10
0.0
 20
0.0
 30
0.0
  3
_D_8
  1

  0
SOLID
  5
1B9
330
1B6
100
AcDbEntity
  8
SLD-0
100
AcDbTrace
 10
8.4137133965
 20
19.4668098665
 30
0.0
 11
8.0317719622
 21
19.3677102158
 31
0.0
 12
8.0792211721
 22
19.2574896529
 32
0.0
 13
8.0792211721
 23
19.2574896529
 33
0.0
  0
LINE
  5
1BA
330
1B6
100
AcDbEntity
  8
SLD-0
100
AcDbLine
 10
4.2090553337
 20
18.9001432294
 30
0.0
 11
4.0669539565
 21
18.9001432294
 31
0.0
  0
LINE
  5
1BB
330
1B6
100
AcDbEntity
  8
SLD-0
100
AcDbLine
 10
4.0669539565
 20
18.9001432294
 30
0.0
 11
4.0669539565
 21
18.2657108184
 31
0.0
  0
LINE
  5
1BC
330
1B6
100
AcDbEntity
  8
SLD-0
100
AcDbLine
 10
4.0669539565
 20
18.2657108184
 30
0.0
 11
4.2090553337
 21
18.2657108184
 31
0.0
  0
LINE
  5
1BD
330
1B6
100
AcDbEntity
  8
SLD-0
100
AcDbLine
 10
5.7868111073
 20
18.9001432294
 30
0.0
 11
5.9289124845
 21
18.9001432294
 31
0.0
  0
LINE
  5
1BE
330
1B6
100
AcDbEntity
  8
SLD-0
100
AcDbLine
 10
5.9289124845
 20
18.9001432294
 30
0.0
 11
5.9289124845
 21
18.2657108184
 31
0.0
  0
LINE
  5
1BF
330
1B6
100
AcDbEntity
  8
SLD-0
100
AcDbLine
 10
5.9289124845
 20
18.2657108184
 30
0.0
 11
5.7868111073
 21
18.2657108184
 31
0.0
  0
LINE
  5
1C0
330
1B6
100
AcDbEntity
  8
SLD-0
100
AcDbLine
 10
8.4137133965
 20
19.4668098665
 30
0.0
 11
7.0973938639
 21
18.9001431744
 31
0.0
  0
LINE
  5
1C1
330
1B6
100
AcDbEntity
  8
SLD-0
100
AcDbLine
 10
7.0973938639
 20
18.9001431744
 30
0.0
 11
6.3473938639
 21
18.9001431744
 31
0.0
  0
MTEXT
  5
1C2
330
1B6
100
AcDbEntity
  8
SLD-0
100
AcDbMText
 10
3.6484725221
 20
19.5277598234
 30
0.0
 40
0.4133858268
 41
0.0
 71
     1
 72
     1
  1
%%c
  7
SLDTEXTSTYLE0
 73
     1
 44
1.0
  0
MTEXT
  5
1C3
330
1B6
100
AcDbEntity
  8
SLD-0
100
AcDbMText
 10
4.2511833345
 20
19.5277598234
 30
0.0
 40
0.4133858268
 41
0.0
 71
     1
 72
     1
  1
3 13/16"
  7
SLDTEXTSTYLE0
 73
     1
 44
1.0
  0
MTEXT
  5
1C4
330
1B6
100
AcDbEntity
  8
SLD-0
100
AcDbMText
 10
4.2090553337
 20
18.7985931793
 30
0.0
 40
0.4133858268
 41
0.0
 71
     1
 72
     1
  1
97mm
  7
SLDTEXTSTYLE0
 73
     1
 44
1.0
  0
ENDBLK
  5
1B8
330
1B6
100
AcDbEntity
  8
0
100
AcDbBlockEnd
  0
BLOCK
  5
1C7
330
1C6
100
AcDbEntity
  8
0
100
AcDbBlockBegin
  2
_D_9
 70
     0
 10
0.0
 20
0.0
 30
0.0
  3
_D_9
  1

  0
SOLID
  5
1C9
330
1C6
100
AcDbEntity
  8
SLD-0
100
AcDbTrace
 10
7.86077527
 20
17.919991984
 30
0.0
 11
7.5425772184
 21
17.6866467462
 31
0.0
 12
7.6274300322
 22
17.6017939324
 32
0.0
 13
7.6274300322
 23
17.6017939324
 33
0.0
  0
LINE
  5
1CA
330
1C6
100
AcDbEntity
  8
SLD-0
100
AcDbLine
 10
4.0511649176
 20
17.0381209917
 30
0.0
 11
3.9090635405
 21
17.0381209917
 31
0.0
  0
LINE
  5
1CB
330
1C6
100
AcDbEntity
  8
SLD-0
100
AcDbLine
 10
3.9090635405
 20
17.0381209917
 30
0.0
 11
3.9090635405
 21
16.4036885807
 31
0.0
  0
LINE
  5
1CC
330
1C6
100
AcDbEntity
  8
SLD-0
100
AcDbLine
 10
3.9090635405
 20
16.4036885807
 30
0.0
 11
4.0511649176
 21
16.4036885807
 31
0.0
  0
LINE
  5
1CD
330
1C6
100
AcDbEntity
  8
SLD-0
100
AcDbLine
 10
5.9447015233
 20
17.0381209917
 30
0.0
 11
6.0868029005
 21
17.0381209917
 31
0.0
  0
LINE
  5
1CE
330
1C6
100
AcDbEntity
  8
SLD-0
100
AcDbLine
 10
6.0868029005
 20
17.0381209917
 30
0.0
 11
6.0868029005
 21
16.4036885807
 31
0.0
  0
LINE
  5
1CF
330
1C6
100
AcDbEntity
  8
SLD-0
100
AcDbLine
 10
6.0868029005
 20
16.4036885807
 30
0.0
 11
5.9447015233
 21
16.4036885807
 31
0.0
  0
LINE
  5
1D0
330
1C6
100
AcDbEntity
  8
SLD-0
100
AcDbLine
 10
7.86077527
 20
17.919991984
 30
0.0
 11
6.9789042227
 21
17.0381209367
 31
0.0
  0
LINE
  5
1D1
330
1C6
100
AcDbEntity
  8
SLD-0
100
AcDbLine
 10
6.9789042227
 20
17.0381209367
 30
0.0
 11
6.2289042227
 21
17.0381209367
 31
0.0
  0
MTEXT
  5
1D2
330
1C6
100
AcDbEntity
  8
SLD-0
100
AcDbMText
 10
3.9642533542
 20
17.6657375857
 30
0.0
 40
0.4133858268
 41
0.0
 71
     1
 72
     1
  1
%%c
  7
SLDTEXTSTYLE0
 73
     1
 44
1.0
  0
MTEXT
  5
1D3
330
1C6
100
AcDbEntity
  8
SLD-0
100
AcDbMText
 10
4.5669641666
 20
17.6657375857
 30
0.0
 40
0.4133858268
 41
0.0
 71
     1
 72
     1
  1
6 1/2"
  7
SLDTEXTSTYLE0
 73
     1
 44
1.0
  0
MTEXT
  5
1D4
330
1C6
100
AcDbEntity
  8
SLD-0
100
AcDbMText
 10
4.0511649176
 20
16.9365709416
 30
0.0
 40
0.4133858268
 41
0.0
 71
     1
 72
     1
  1
165mm
  7
SLDTEXTSTYLE0
 73
     1
 44
1.0
  0
ENDBLK
  5
1C8
330
1C6
100
AcDbEntity
  8
0
100
AcDbBlockEnd
  0
ENDSEC
  0
SECTION
  2
ENTITIES
  0
LINE
  5
6E
330
1F
100
AcDbEntity
  8
0
  6
Continuous
 62
     7
370
    25
100
AcDbLine
 10
13.1438723088
 20
11.6190874619
 30
0.0
 11
13.1438723088
 21
13.2490874619
 31
0.0
  0
LINE
  5
6F
330
1F
100
AcDbEntity
  8
0
  6
Continuous
 62
     7
370
    25
100
AcDbLine
 10
7.1738723088
 20
13.2490874619
 30
0.0
 11
7.1738723088
 21
11.6190874619
 31
0.0
  0
LINE
  5
70
330
1F
100
AcDbEntity
  8
0
  6
Continuous
 62
     7
370
    25
100
AcDbLine
 10
5.8813723088
 20
7.2240874619
 30
0.0
 11
5.9119279821
 21
6.3490874619
 31
0.0
  0
LINE
  5
71
330
1F
100
AcDbEntity
  8
0
  6
Continuous
 62
     7
370
    25
100
AcDbLine
 10
14.4058166355
 20
6.3490874619
 30
0.0
 11
14.4363723088
 21
7.2240874619
 31
0.0
  0
LINE
  5
72
330
1F
100
AcDbEntity
  8
0
  6
Continuous
 62
     7
370
    25
100
AcDbLine
 10
13.4088723088
 20
13.3428374619
 30
0.0
 11
13.1438723088
 21
13.3740874619
 31
0.0
  0
LINE
  5
73
330
1F
100
AcDbEntity
  8
0
  6
Continuous
 62
     7
370
    25
100
AcDbLine
 10
7.1738723088
 20
13.3740874619
 30
0.0
 11
6.9088723088
 21
13.3428374619
 31
0.0
  0
LINE
  5
74
330
1F
100
AcDbEntity
  8
0
  6
Continuous
 62
     7
370
    25
100
AcDbLine
 10
13.4088723088
 20
13.2490874619
 30
0.0
 11
13.4088723088
 21
13.3428374619
 31
0.0
  0
LINE
  5
75
330
1F
100
AcDbEntity
  8
0
  6
Continuous
 62
     7
370
    25
100
AcDbLine
 10
6.9088723088
 20
13.3428374619
 30
0.0
 11
6.9088723088
 21
13.2490874619
 31
0.0
  0
LINE
  5
76
330
1F
100
AcDbEntity
  8
0
  6
Continuous
 62
     7
370
    25
100
AcDbLine
 10
13.1438723088
 20
11.6240874619
 30
0.0
 11
13.1438723088
 21
13.2490874619
 31
0.0
  0
LINE
  5
77
330
1F
100
AcDbEntity
  8
0
  6
Continuous
 62
     7
370
    25
100
AcDbLine
 10
7.1738723088
 20
13.2490874619
 30
0.0
 11
7.1738723088
 21
11.6240874619
 31
0.0
  0
LINE
  5
78
330
1F
100
AcDbEntity
  8
0
  6
Continuous
 62
     7
370
    25
100
AcDbLine
 10
7.3776223088
 20
11.6190874619
 30
0.0
 11
7.3776223088
 21
7.2240874619
 31
0.0
  0
LINE
  5
79
330
1F
100
AcDbEntity
  8
0
  6
Continuous
 62
     7
370
    25
100
AcDbLine
 10
7.3776223088
 20
6.3490874619
 30
0.0
 11
7.3776223088
 21
2.2490874619
 31
0.0
  0
LINE
  5
7A
330
1F
100
AcDbEntity
  8
0
  6
Continuous
 62
     7
370
    25
100
AcDbLine
 10
12.9401223088
 20
2.2490874619
 30
0.0
 11
12.9401223088
 21
6.3490874619
 31
0.0
  0
LINE
  5
7B
330
1F
100
AcDbEntity
  8
0
  6
Continuous
 62
     7
370
    25
100
AcDbLine
 10
12.9401223088
 20
7.2240874619
 30
0.0
 11
12.9401223088
 21
11.6190874619
 31
0.0
  0
LINE
  5
7C
330
1F
100
AcDbEntity
  8
0
  6
Continuous
 62
     7
370
    25
100
AcDbLine
 10
10.1588723088
 20
11.6190874619
 30
0.0
 11
13.1438723088
 21
11.6190874619
 31
0.0
  0
LINE
  5
7D
330
1F
100
AcDbEntity
  8
0
  6
Continuous
 62
     7
370
    25
100
AcDbLine
 10
7.1738723088
 20
11.6190874619
 30
0.0
 11
10.1588723088
 21
11.6190874619
 31
0.0
  0
LINE
  5
7E
330
1F
100
AcDbEntity
  8
0
  6
Continuous
 62
     7
370
    25
100
AcDbLine
 10
5.9119279821
 20
6.3490874619
 30
0.0
 11
14.4058166355
 21
6.3490874619
 31
0.0
  0
LINE
  5
7F
330
1F
100
AcDbEntity
  8
0
  6
Continuous
 62
     7
370
    25
100
AcDbLine
 10
5.8813723088
 20
7.2240874619
 30
0.0
 11
14.4363723088
 21
7.2240874619
 31
0.0
  0
LINE
  5
80
330
1F
100
AcDbEntity
  8
0
  6
Continuous
 62
     7
370
    25
100
AcDbLine
 10
10.1588723088
 20
13.3428374619
 30
0.0
 11
6.9088723088
 21
13.3428374619
 31
0.0
  0
LINE
  5
81
330
1F
100
AcDbEntity
  8
0
  6
Continuous
 62
     7
370
    25
100
AcDbLine
 10
13.4088723088
 20
13.3428374619
 30
0.0
 11
10.1588723088
 21
13.3428374619
 31
0.0
  0
LINE
  5
82
330
1F
100
AcDbEntity
  8
0
  6
Continuous
 62
     7
370
    25
100
AcDbLine
 10
10.1588723088
 20
13.3740874619
 30
0.0
 11
7.1738723088
 21
13.3740874619
 31
0.0
  0
LINE
  5
83
330
1F
100
AcDbEntity
  8
0
  6
Continuous
 62
     7
370
    25
100
AcDbLine
 10
13.1438723088
 20
13.3740874619
 30
0.0
 11
10.1588723088
 21
13.3740874619
 31
0.0
  0
LINE
  5
84
330
1F
100
AcDbEntity
  8
0
  6
Continuous
 62
     7
370
    25
100
AcDbLine
 10
10.1588723088
 20
13.2490874619
 30
0.0
 11
6.9088723088
 21
13.2490874619
 31
0.0
  0
LINE
  5
85
330
1F
100
AcDbEntity
  8
0
  6
Continuous
 62
     7
370
    25
100
AcDbLine
 10
13.4088723088
 20
13.2490874619
 30
0.0
 11
10.1588723088
 21
13.2490874619
 31
0.0
  0
LINE
  5
86
330
1F
100
AcDbEntity
  8
0
  6
Continuous
 62
     7
370
    25
100
AcDbLine
 10
7.1738723088
 20
11.6240874619
 30
0.0
 11
13.1438723088
 21
11.6240874619
 31
0.0
  0
LINE
  5
87
330
1F
100
AcDbEntity
  8
0
  6
Continuous
 62
     7
370
    25
100
AcDbLine
 10
8.0216309757
 20
2.2490874619
 30
0.0
 11
7.3776223088
 21
2.2490874619
 31
0.0
  0
LINE
  5
88
330
1F
100
AcDbEntity
  8
0
  6
Continuous
 62
     7
370
    25
100
AcDbLine
 10
12.9401223088
 20
2.2490874619
 30
0.0
 11
8.0216309757
 21
2.2490874619
 31
0.0
  0
DIMENSION
  5
89
330
1F
100
AcDbEntity
  8
SLD-0
100
AcDbDimension
  2
_D
 10
5.6993133738
 20
13.2490874619
 30
0.0
 11
5.6993133738
 21
14.5551898241
 31
0.0
 70
   160
  1
<>
 71
     2
 42
-1.0
  3
SLDDIMSTYLE0
100
AcDbAlignedDimension
 13
7.1738723088
 23
13.3740874619
 33
0.0
 14
6.9088723088
 24
13.2490874619
 34
0.0
 50
90.0
100
AcDbRotatedDimension
  0
DIMENSION
  5
A0
330
1F
100
AcDbEntity
  8
SLD-0
100
AcDbDimension
  2
_D_1
 10
6.1981651392
 20
11.6240874619
 30
0.0
 11
6.1981651392
 21
10.4974230042
 31
0.0
 70
   160
  1
<>
 71
     2
 42
-1.0
  3
SLDDIMSTYLE0
100
AcDbAlignedDimension
 13
7.1738723088
 23
13.3740874619
 33
0.0
 14
7.1738723088
 24
11.6240874619
 34
0.0
 50
90.0
100
AcDbRotatedDimension
  0
DIMENSION
  5
B5
330
1F
100
AcDbEntity
  8
SLD-0
100
AcDbDimension
  2
_D_2
 10
13.1438723088
 20
12.2959554686
 30
0.0
 11
3.6162227515
 21
12.2959554686
 31
0.0
 70
   160
  1
%%c<>
 71
     2
 42
-1.0
  3
SLDDIMSTYLE1
100
AcDbAlignedDimension
 13
7.1738723088
 23
11.6240874619
 33
0.0
 14
13.1438723088
 24
11.6240874619
 34
0.0
100
AcDbRotatedDimension
  0
DIMENSION
  5
C7
330
1F
100
AcDbEntity
  8
SLD-0
100
AcDbDimension
  2
_D_3
 10
17.3414408966
 20
2.2490874619
 30
0.0
 11
17.3414408966
 21
7.8115874619
 31
0.0
 70
   160
  1
<>
 71
     2
 42
-1.0
  3
SLDDIMSTYLE2
100
AcDbAlignedDimension
 13
13.1438723088
 23
13.3740874619
 33
0.0
 14
12.9401223088
 24
2.2490874619
 34
0.0
 50
90.0
100
AcDbRotatedDimension
  0
DIMENSION
  5
DC
330
1F
100
AcDbEntity
  8
SLD-0
100
AcDbDimension
  2
_D_4
 10
14.4363723088
 20
4.7982092521
 30
0.0
 11
3.6162227515
 21
4.7982092521
 31
0.0
 70
   160
  1
%%c<>
 71
     2
 42
-1.0
  3
SLDDIMSTYLE0
100
AcDbAlignedDimension
 13
5.8813723088
 23
7.2240874619
 33
0.0
 14
14.4363723088
 24
7.2240874619
 34
0.0
100
AcDbRotatedDimension
  0
DIMENSION
  5
EF
330
1F
100
AcDbEntity
  8
SLD-0
100
AcDbDimension
  2
_D_5
 10
5.2767469719
 20
7.2240874619
 30
0.0
 11
5.2767469719
 21
8.0280366098
 31
0.0
 70
   160
  1
<>
 71
     2
 42
-1.0
  3
SLDDIMSTYLE0
100
AcDbAlignedDimension
 13
5.9119279821
 23
6.3490874619
 33
0.0
 14
5.8813723088
 24
7.2240874619
 34
0.0
 50
90.0
100
AcDbRotatedDimension
  0
DIMENSION
  5
104
330
1F
100
AcDbEntity
  8
SLD-0
100
AcDbDimension
  2
_D_6
 10
12.9401223088
 20
1.0679850997
 30
0.0
 11
10.1588723088
 21
1.0679850997
 31
0.0
 70
   160
  1
%%c<>
 71
     2
 42
-1.0
  3
SLDDIMSTYLE2
100
AcDbAlignedDimension
 13
7.3776223088
 23
2.2490874619
 33
0.0
 14
12.9401223088
 24
2.2490874619
 34
0.0
 50
0.0
100
AcDbRotatedDimension
  0
LINE
  5
117
330
1F
100
AcDbEntity
  8
0
  6
Continuous
 62
     7
370
    25
100
AcDbLine
 10
29.9457181684
 20
20.6702393404
 30
0.0
 11
29.9457181684
 21
21.2591503344
 31
0.0
  0
LINE
  5
118
330
1F
100
AcDbEntity
  8
0
  6
Continuous
 62
     7
370
    25
100
AcDbLine
 10
23.9757181684
 20
21.2591503344
 30
0.0
 11
23.9757181684
 21
20.6702393404
 31
0.0
  0
LINE
  5
119
330
1F
100
AcDbEntity
  8
0
  6
Continuous
 62
     7
370
    25
100
AcDbLine
 10
22.6845220035
 20
17.0205774756
 30
0.0
 11
22.7150683631
 21
16.3065397595
 31
0.0
  0
LINE
  5
11A
330
1F
100
AcDbEntity
  8
0
  6
Continuous
 62
     7
370
    25
100
AcDbLine
 10
31.2063679738
 20
16.3065397595
 30
0.0
 11
31.2369143334
 21
17.0205774756
 31
0.0
  0
LINE
  5
11B
330
1F
100
AcDbEntity
  8
0
  6
Continuous
 62
     7
370
    25
100
AcDbLine
 10
25.288426142
 20
23.164996003
 30
0.0
 11
25.2771105951
 21
23.1715304526
 31
0.0
  0
LINE
  5
11C
330
1F
100
AcDbEntity
  8
0
  6
Continuous
 62
     7
370
    25
100
AcDbLine
 10
25.1087918358
 20
23.1715304526
 30
0.0
 11
25.0974762889
 21
23.164996003
 31
0.0
  0
LINE
  5
11D
330
1F
100
AcDbEntity
  8
0
  6
Continuous
 62
     7
370
    25
100
AcDbLine
 10
25.0579512155
 20
23.1098974113
 30
0.0
 11
25.0579512155
 21
23.0932314107
 31
0.0
  0
LINE
  5
11E
330
1F
100
AcDbEntity
  8
0
  6
Continuous
 62
     7
370
    25
100
AcDbLine
 10
25.3279512155
 20
23.0932314107
 30
0.0
 11
25.3279512155
 21
23.1098974113
 31
0.0
  0
LINE
  5
11F
330
1F
100
AcDbEntity
  8
0
  6
Continuous
 62
     7
370
    25
100
AcDbLine
 10
28.8239600479
 20
21.1239757235
 30
0.0
 11
28.8126445011
 21
21.130510173
 31
0.0
  0
LINE
  5
120
330
1F
100
AcDbEntity
  8
0
  6
Continuous
 62
     7
370
    25
100
AcDbLine
 10
28.6443257417
 20
21.130510173
 30
0.0
 11
28.6330101949
 21
21.1239757235
 31
0.0
  0
LINE
  5
121
330
1F
100
AcDbEntity
  8
0
  6
Continuous
 62
     7
370
    25
100
AcDbLine
 10
28.5934851214
 20
21.0688771317
 30
0.0
 11
28.5934851214
 21
21.0522111311
 31
0.0
  0
LINE
  5
122
330
1F
100
AcDbEntity
  8
0
  6
Continuous
 62
     7
370
    25
100
AcDbLine
 10
28.8634851214
 20
21.0522111311
 30
0.0
 11
28.8634851214
 21
21.0688771317
 31
0.0
  0
LINE
  5
123
330
1F
100
AcDbEntity
  8
0
  6
Continuous
 62
     7
370
    25
100
AcDbLine
 10
30.2107181684
 20
22.0012008638
 30
0.0
 11
30.2107181684
 21
22.0777515649
 31
0.0
  0
LINE
  5
124
330
1F
100
AcDbEntity
  8
0
  6
Continuous
 62
     7
370
    25
100
AcDbLine
 10
23.7107181684
 20
22.0777515649
 30
0.0
 11
23.7107181684
 21
22.0012008638
 31
0.0
  0
LINE
  5
125
330
1F
100
AcDbEntity
  8
0
  6
Continuous
 62
     7
370
    25
100
AcDbLine
 10
29.9457181684
 20
20.6743220445
 30
0.0
 11
29.9457181684
 21
21.2591503344
 31
0.0
  0
LINE
  5
126
330
1F
100
AcDbEntity
  8
0
  6
Continuous
 62
     7
370
    25
100
AcDbLine
 10
23.9757181684
 20
21.2591503344
 30
0.0
 11
23.9757181684
 21
20.6743220445
 31
0.0
  0
LINE
  5
127
330
1F
100
AcDbEntity
  8
0
  6
Continuous
 62
     7
370
    25
100
AcDbLine
 10
28.8257181684
 20
21.9930354557
 30
0.0
 11
28.8257181684
 21
22.0951030572
 31
0.0
  0
LINE
  5
128
330
1F
100
AcDbEntity
  8
0
  6
Continuous
 62
     7
370
    25
100
AcDbLine
 10
25.0957181684
 20
22.0951030572
 30
0.0
 11
25.0957181684
 21
21.9930354557
 31
0.0
  0
LINE
  5
129
330
1F
100
AcDbEntity
  8
0
  6
Continuous
 62
     7
370
    25
100
AcDbLine
 10
29.8044681684
 20
21.8592246085
 30
0.0
 11
29.8044681684
 21
22.1032684653
 31
0.0
  0
LINE
  5
12A
330
1F
100
AcDbEntity
  8
0
  6
Continuous
 62
     7
370
    25
100
AcDbLine
 10
24.1169681684
 20
22.1032684653
 30
0.0
 11
24.1169681684
 21
21.8592246085
 31
0.0
  0
LINE
  5
12B
330
1F
100
AcDbEntity
  8
0
  6
Continuous
 62
     7
370
    25
100
AcDbLine
 10
24.1794681684
 20
20.0445080746
 30
0.0
 11
24.1794681684
 21
17.0815424722
 31
0.0
  0
LINE
  5
12C
330
1F
100
AcDbEntity
  8
0
  6
Continuous
 62
     7
370
    25
100
AcDbLine
 10
24.1794681684
 20
14.5142378823
 30
0.0
 11
24.1794681684
 21
13.0192519331
 31
0.0
  0
LINE
  5
12D
330
1F
100
AcDbEntity
  8
0
  6
Continuous
 62
     7
370
    25
100
AcDbLine
 10
29.7419681684
 20
13.0192519331
 30
0.0
 11
29.7419681684
 21
14.5142378823
 31
0.0
  0
LINE
  5
12E
330
1F
100
AcDbEntity
  8
0
  6
Continuous
 62
     7
370
    25
100
AcDbLine
 10
29.7419681684
 20
17.0815424722
 30
0.0
 11
29.7419681684
 21
20.0445080746
 31
0.0
  0
LWPOLYLINE
  5
12F
330
1F
100
AcDbEntity
  8
0
  6
Continuous
 62
     7
370
    25
100
AcDbPolyline
 90
       48
 70
   128
 43
0.0
 10
23.9757181684
 20
20.6702393404
 10
23.9774583567
 20
20.6114072489
 10
23.991367691
 20
20.4940173683
 10
24.019121508
 20
20.3774491158
 10
24.0605904066
 20
20.2622459865
 10
24.1155810395
 20
20.1489451106
 10
24.1838370151
 20
20.038074749
 10
24.2650400924
 20
19.9301518305
 10
24.3588116654
 20
19.8256795417
 10
24.4647145275
 20
19.7251449805
 10
24.5822549109
 20
19.6290168855
 10
24.7108847878
 20
19.5377434502
 10
24.8500044266
 20
19.4517502335
 10
24.9989651872
 20
19.3714381756
 10
25.1570725457
 20
19.2971817282
 10
25.3235893327
 20
19.2293271092
 10
25.4977391702
 20
19.1681906882
 10
25.678710091
 20
19.1140575114
 10
25.8656583253
 20
19.0671799727
 10
26.057712234
 20
19.0277766367
 10
26.2539763733
 20
18.99603122
 10
26.4535356691
 20
18.9720917345
 10
26.6554596838
 20
18.956069797
 10
26.8588069545
 20
18.9480401092
 10
27.0626293823
 20
18.9480401092
 10
27.265976653
 20
18.956069797
 10
27.4679006677
 20
18.9720917345
 10
27.6674599635
 20
18.99603122
 10
27.8637241028
 20
19.0277766367
 10
28.0557780116
 20
19.0671799727
 10
28.2427262459
 20
19.1140575114
 10
28.4236971667
 20
19.1681906882
 10
28.5978470041
 20
19.2293271092
 10
28.7643637911
 20
19.2971817282
 10
28.9224711497
 20
19.3714381756
 10
29.0714319103
 20
19.4517502335
 10
29.210551549
 20
19.5377434502
 10
29.339181426
 20
19.6290168855
 10
29.4567218093
 20
19.7251449805
 10
29.5626246715
 20
19.8256795417
 10
29.6563962444
 20
19.9301518305
 10
29.7375993218
 20
20.038074749
 10
29.8058552974
 20
20.1489451106
 10
29.8608459303
 20
20.2622459865
 10
29.9023148288
 20
20.3774491158
 10
29.9300686458
 20
20.4940173683
 10
29.9439779802
 20
20.6114072489
 10
29.9457181684
 20
20.6702393404
  0
LWPOLYLINE
  5
130
330
1F
100
AcDbEntity
  8
0
  6
Continuous
 62
     7
370
    25
100
AcDbPolyline
 90
       48
 70
   128
 43
0.0
 10
23.9757181684
 20
22.0991857612
 10
23.9774583567
 20
22.0403536697
 10
23.991367691
 20
21.9229637891
 10
24.019121508
 20
21.8063955366
 10
24.0605904066
 20
21.6911924073
 10
24.1155810395
 20
21.5778915314
 10
24.1838370151
 20
21.4670211698
 10
24.2650400924
 20
21.3590982513
 10
24.3588116654
 20
21.2546259625
 10
24.4647145275
 20
21.1540914013
 10
24.5822549109
 20
21.0579633063
 10
24.7108847878
 20
20.966689871
 10
24.8500044266
 20
20.8806966543
 10
24.9989651872
 20
20.8003845964
 10
25.1570725457
 20
20.726128149
 10
25.3235893327
 20
20.65827353
 10
25.4977391702
 20
20.597137109
 10
25.678710091
 20
20.5430039322
 10
25.8656583253
 20
20.4961263935
 10
26.057712234
 20
20.4567230575
 10
26.2539763733
 20
20.4249776408
 10
26.4535356691
 20
20.4010381553
 10
26.6554596838
 20
20.3850162178
 10
26.8588069545
 20
20.37698653
 10
27.0626293823
 20
20.37698653
 10
27.265976653
 20
20.3850162178
 10
27.4679006677
 20
20.4010381553
 10
27.6674599635
 20
20.4249776408
 10
27.8637241028
 20
20.4567230575
 10
28.0557780116
 20
20.4961263935
 10
28.2427262459
 20
20.5430039322
 10
28.4236971667
 20
20.597137109
 10
28.5978470041
 20
20.65827353
 10
28.7643637911
 20
20.726128149
 10
28.9224711497
 20
20.8003845964
 10
29.0714319103
 20
20.8806966543
 10
29.210551549
 20
20.966689871
 10
29.339181426
 20
21.0579633063
 10
29.4567218093
 20
21.1540914013
 10
29.5626246715
 20
21.2546259625
 10
29.6563962444
 20
21.3590982513
 10
29.7375993218
 20
21.4670211698
 10
29.8058552974
 20
21.5778915314
 10
29.8608459303
 20
21.6911924073
 10
29.9023148288
 20
21.8063955366
 10
29.9300686458
 20
21.9229637891
 10
29.9439779802
 20
22.0403536697
 10
29.9457181684
 20
22.0991857612
  0
LWPOLYLINE
  5
131
330
1F
100
AcDbEntity
  8
0
  6
Continuous
 62
     7
370
    25
100
AcDbPolyline
 90
       13
 70
   128
 43
0.0
 10
24.9277861725
 20
23.272772422
 10
24.7909281253
 20
23.1880483568
 10
24.664641077
 20
23.0980194625
 10
24.5495402856
 20
23.0031243507
 10
24.4461865104
 20
22.9038253411
 10
24.3550832807
 20
22.8006062083
 10
24.2766744422
 20
22.6939698256
 10
24.211341995
 20
22.5844357147
 10
24.1594042322
 20
22.4725375148
 10
24.1211141892
 20
22.3588203827
 10
24.0966584114
 20
22.2438383368
 10
24.0861560449
 20
22.1281515581
 10
24.0857181684
 20
22.0991857612
  0
LWPOLYLINE
  5
132
330
1F
100
AcDbEntity
  8
0
  6
Continuous
 62
     7
370
    25
100
AcDbPolyline
 90
       35
 70
   128
 43
0.0
 10
29.8357181684
 20
22.0991857612
 10
29.8317780808
 20
22.1860478615
 10
29.8142883544
 20
22.3014525752
 10
29.7828963208
 20
22.4158718654
 10
29.737754919
 20
22.5287482926
 10
29.6790840733
 20
22.6395319344
 10
29.6071696221
 20
22.747683064
 10
29.5223619255
 20
22.8526747798
 10
29.4250741579
 20
22.953995573
 10
29.3157802958
 20
23.0511518186
 10
29.1950128076
 20
23.1436701813
 10
29.0633600606
 20
23.2310999209
 10
28.9214634536
 20
23.3130150885
 10
28.7700142927
 20
23.3890166016
 10
28.6097504229
 20
23.4587341885
 10
28.4414526338
 20
23.5218281922
 10
28.2659408552
 20
23.5779912249
 10
28.0840701628
 20
23.6269496661
 10
27.8967266125
 20
23.6684649951
 10
27.7048229231
 20
23.7023349534
 10
27.5092940301
 20
23.7283945299
 10
27.3110925307
 20
23.7465167652
 10
27.1111840426
 20
23.7566133693
 10
26.9105424999
 20
23.7586351528
 10
26.710145408
 20
23.7525722656
 10
26.5109690814
 20
23.7384542456
 10
26.3139838872
 20
23.7163498743
 10
26.1201495174
 20
23.686366842
 10
25.9304103135
 20
23.6486512231
 10
25.7456906659
 20
23.6033867641
 10
25.5668905102
 20
23.5507939891
 10
25.3948809428
 20
23.4911291247
 10
25.2304999769
 20
23.4246828521
 10
25.0745484601
 20
23.351778891
 10
24.9277861725
 20
23.272772422
  0
LWPOLYLINE
  5
133
330
1F
100
AcDbEntity
  8
0
  6
Continuous
 62
     7
370
    25
100
AcDbPolyline
 90
       15
 70
   128
 43
0.0
 10
29.9637613012
 20
14.6334493624
 10
30.1303038113
 20
14.7352470148
 10
30.2865077919
 20
14.8423673323
 10
30.431863738
 20
14.9544609105
 10
30.5658975288
 20
15.0711621235
 10
30.6881719738
 20
15.1920903163
 10
30.7982882393
 20
15.3168510461
 10
30.8958871489
 20
15.4450373695
 10
30.9806503551
 20
15.5762311693
 10
31.0523013782
 20
15.7100045185
 10
31.1106065072
 20
15.8459210764
 10
31.1553755631
 20
15.9835375114
 10
31.1864625184
 20
16.1224049471
 10
31.2037659739
 20
16.2620704271
 10
31.2063679738
 20
16.3065397595
  0
LWPOLYLINE
  5
134
330
1F
100
AcDbEntity
  8
0
  6
Continuous
 62
     7
370
    25
100
AcDbPolyline
 90
       42
 70
   128
 43
0.0
 10
22.7150683631
 20
16.3065397595
 10
22.7245945691
 20
16.1921663604
 10
22.7487996456
 20
16.0528430856
 10
22.7867431248
 20
15.9145447511
 10
22.838301243
 20
15.7777224576
 10
22.9033058284
 20
15.6428224909
 10
22.9815448494
 20
15.5102848666
 10
23.0727631068
 20
15.3805418949
 10
23.1766630655
 20
15.2540167704
 10
23.2929058254
 20
15.1311221918
 10
23.4211122267
 20
15.0122590157
 10
23.560864087
 20
14.8978149489
 10
23.7117055646
 20
14.7881632844
 10
23.873144646
 20
14.6836616829
 10
24.0446547505
 20
14.5846510071
 10
24.2256764477
 20
14.4914542092
 10
24.4156192825
 20
14.4043752777
 10
24.6138637009
 20
14.323698246
 10
24.8197630708
 20
14.2496862659
 10
25.0326457912
 20
14.182580749
 10
25.2518174829
 20
14.1226005796
 10
25.4765632535
 20
14.0699414005
 10
25.7061500289
 20
14.024774975
 10
25.9398289448
 20
13.9872486266
 10
26.1768377892
 20
13.9574847585
 10
26.4164034885
 20
13.9355804543
 10
26.6577446291
 20
13.9216071611
 10
26.9000740064
 20
13.9156104569
 10
27.1426011923
 20
13.9176099019
 10
27.3845351137
 20
13.9275989742
 10
27.6250866322
 20
13.9455450915
 10
27.8634711189
 20
13.9713897173
 10
28.0989110132
 20
14.0050485518
 10
28.3306383589
 20
14.046411807
 10
28.5578973098
 20
14.0953445644
 10
28.7799465942
 20
14.1516872156
 10
28.9960619337
 20
14.2152559826
 10
29.2055384048
 20
14.2858435172
 10
29.4076927389
 20
14.3632195776
 10
29.6018655506
 20
14.4471317792
 10
29.7874234885
 20
14.5373064178
 10
29.9637613012
 20
14.6334493624
  0
LWPOLYLINE
  5
135
330
1F
100
AcDbEntity
  8
0
  6
Continuous
 62
     7
370
    25
100
AcDbPolyline
 90
       30
 70
   128
 43
0.0
 10
29.985367425
 20
15.335449623
 10
30.1531081657
 20
15.4379796834
 10
30.3104359938
 20
15.545870704
 10
30.4568377386
 20
15.6587707667
 10
30.5918358681
 20
15.776311615
 10
30.7149900463
 20
15.898109855
 10
30.82589857
 20
16.0237682063
 10
30.9241996787
 20
16.1528767973
 10
31.0095727344
 20
16.2850145028
 10
31.0817392681
 20
16.4197503169
 10
31.1404638876
 20
16.5566447595
 10
31.1855550453
 20
16.6952513093
 10
31.2168656633
 20
16.8351178607
 10
31.2342936128
 20
16.9757881978
 10
31.2377820474
 20
17.1168034835
 10
31.2273195887
 20
17.257703755
 10
31.2029403629
 20
17.3980294251
 10
31.1647238902
 20
17.5373227805
 10
31.1127948245
 20
17.6751294752
 10
31.0473225479
 20
17.8110000126
 10
30.9685206171
 20
17.944491211
 10
30.8766460678
 20
18.0751676501
 10
30.7719985756
 20
18.2026030903
 10
30.654919479
 20
18.3263818638
 10
30.5257906655
 20
18.44610023
 10
30.3850333265
 20
18.5613676924
 10
30.2331065832
 20
18.6718082725
 10
30.0705059891
 20
18.7770617361
 10
29.8977619135
 20
18.8767847683
 10
29.7419681684
 20
18.9576524598
  0
LWPOLYLINE
  5
136
330
1F
100
AcDbEntity
  8
0
  6
Continuous
 62
     7
370
    25
100
AcDbPolyline
 90
       59
 70
   128
 43
0.0
 10
24.1794681684
 20
18.9576524598
 10
24.1136754298
 20
18.9244699898
 10
23.9360689119
 20
18.8276353214
 10
23.7683281712
 20
18.725105261
 10
23.6110003431
 20
18.6172142404
 10
23.4645985982
 20
18.5043141777
 10
23.3296004688
 20
18.3867733294
 10
23.2064462906
 20
18.2649750894
 10
23.0955377668
 20
18.1393167381
 10
22.9972366582
 20
18.0102081471
 10
22.9118636024
 20
17.8780704416
 10
22.8396970687
 20
17.7433346275
 10
22.7809724492
 20
17.6064401849
 10
22.7358812915
 20
17.4678336351
 10
22.7045706736
 20
17.3279670838
 10
22.6871427241
 20
17.1872967466
 10
22.6836542895
 20
17.0462814609
 10
22.6941167482
 20
16.9053811894
 10
22.7184959739
 20
16.7650555194
 10
22.7567124467
 20
16.625762164
 10
22.8086415123
 20
16.4879554692
 10
22.874113789
 20
16.3520849318
 10
22.9529157197
 20
16.2185937334
 10
23.044790269
 20
16.0879172943
 10
23.1494377612
 20
15.9604818541
 10
23.2665168579
 20
15.8367030806
 10
23.3956456714
 20
15.7169847144
 10
23.5364030104
 20
15.601717252
 10
23.6883297536
 20
15.4912766719
 10
23.8509303478
 20
15.3860232083
 10
24.0236744234
 20
15.2863001761
 10
24.2059985252
 20
15.1924328512
 10
24.3973079499
 20
15.1047274092
 10
24.596978686
 20
15.023469927
 10
24.8043594489
 20
14.9489254497
 10
25.0187738058
 20
14.8813371258
 10
25.2395223815
 20
14.8209254145
 10
25.4658851402
 20
14.7678873661
 10
25.6971237335
 20
14.7223959798
 10
25.9324839092
 20
14.684599639
 10
26.1711979713
 20
14.6546216275
 10
26.4124872842
 20
14.6325597274
 10
26.6555648123
 20
14.6184858999
 10
26.8996376872
 20
14.6124460511
 10
27.143909794
 20
14.6144598815
 10
27.3875843677
 20
14.6245208226
 10
27.6298665926
 20
14.6425960576
 10
27.8699661945
 20
14.6686266289
 10
28.1071000183
 20
14.7025276301
 10
28.3404945827
 20
14.7441884832
 10
28.5693886033
 20
14.7934732993
 10
28.7930354753
 20
14.8502213214
 10
29.0107057091
 20
14.9142474493
 10
29.2216893097
 20
14.9853428431
 10
29.4252980923
 20
15.0632756044
 10
29.6208679274
 20
15.1477915327
 10
29.807760907
 20
15.2386149546
 10
29.985367425
 20
15.335449623
 10
29.985367425
 20
15.335449623
  0
LWPOLYLINE
  5
137
330
1F
100
AcDbEntity
  8
0
  6
Continuous
 62
     7
370
    25
100
AcDbPolyline
 90
       24
 70
   128
 43
0.0
 10
29.3525068558
 20
15.7007922531
 10
29.3931937115
 20
15.7186037823
 10
29.4406960484
 20
15.7294178193
 10
29.4914908354
 20
15.7324323363
 10
29.5418108556
 20
15.7274237604
 10
29.5879241031
 20
15.7147635549
 10
29.6264105695
 20
15.6953906691
 10
29.6544158896
 20
15.6707419015
 10
29.6698630368
 20
15.6426453384
 10
29.6716063671
 20
15.6131847732
 10
29.6595165854
 20
15.5845451615
 10
29.6344903357
 20
15.5588505721
 10
29.5983837003
 20
15.5380066551
 10
29.5538745433
 20
15.5235593087
 10
29.5042639052
 20
15.5165800263
 10
29.4532311801
 20
15.5175864294
 10
29.4045612317
 20
15.5265038777
 10
29.3618636875
 20
15.5426710049
 10
29.328305229
 20
15.564888769
 10
29.3063747335
 20
15.5915093802
 10
29.2976986856
 20
15.6205585095
 10
29.302920548
 20
15.6498817158
 10
29.3216530391
 20
15.6773042312
 10
29.3525068558
 20
15.7007922531
  0
LWPOLYLINE
  5
138
330
1F
100
AcDbEntity
  8
0
  6
Continuous
 62
     7
370
    25
100
AcDbPolyline
 90
       10
 70
   128
 43
0.0
 10
24.1350379604
 20
16.9728650413
 10
24.1560909081
 20
16.8550170983
 10
24.1918723977
 20
16.7383587566
 10
24.2421945221
 20
16.6235026494
 10
24.306793014
 20
16.5110519451
 10
24.3853286334
 20
16.4015971804
 10
24.4773889493
 20
16.2957131584
 10
24.5824905056
 20
16.1939559309
 10
24.70008136
 20
16.0968598773
 10
24.8295439822
 20
16.004934899
  0
SPLINE
  5
139
330
1F
100
AcDbEntity
  8
0
  6
Continuous
 62
     7
370
    25
100
AcDbSpline
210
0.0
220
0.0
230
1.0
 70
     8
 71
     3
 72
    12
 73
     8
 74
     0
 42
0.00000001
 43
0.00000001
 40
0.0
 40
0.0
 40
0.0
 40
0.0
 40
0.0888752056292876
 40
0.3253856012821995
 40
0.5617172210769389
 40
0.7979577249634309
 40
1.0
 40
1.0
 40
1.0
 40
1.0
 10
24.90705119578324
 20
15.99884938921885
 30
0.0
 10
24.90495258954794
 20
15.99803476242501
 30
0.0
 10
24.89726927397199
 20
15.9950522902354
 30
0.0
 10
24.8813053360092
 20
15.99272637475086
 30
0.0
 10
24.86100737751387
 20
15.99336032778071
 30
0.0
 10
24.84270596043675
 20
15.99760113843816
 30
0.0
 10
24.83369699171589
 20
16.00262087166219
 30
0.0
 10
24.82954398223518
 20
16.00493489897385
 30
0.0
  0
SPLINE
  5
13A
330
1F
100
AcDbEntity
  8
0
  6
Continuous
 62
     7
370
    25
100
AcDbSpline
210
0.0
220
0.0
230
1.0
 70
     8
 71
     3
 72
    12
 73
     8
 74
     0
 42
0.00000001
 43
0.00000001
 40
0.0
 40
0.0
 40
0.0
 40
0.0
 40
0.2213612836167141
 40
0.4427300022086093
 40
0.6639313947278872
 40
0.8850474998519152
 40
1.0
 40
1.0
 40
1.0
 40
1.0
 10
25.09577708152937
 20
15.85124180220086
 30
0.0
 10
25.09113779359441
 20
15.85409367211857
 30
0.0
 10
25.08185906190234
 20
15.8597975077412
 30
0.0
 10
25.07514361857776
 20
15.87112157570229
 30
0.0
 10
25.07495542125568
 20
15.88289009796098
 30
0.0
 10
25.08038165967231
 20
15.89240451489572
 30
0.0
 10
25.08631343424361
 20
15.89720372034719
 30
0.0
 10
25.0883424018609
 20
15.89884529190941
 30
0.0
  0
ARC
  5
13B
330
1F
100
AcDbEntity
  8
0
  6
Continuous
 62
     7
370
    25
100
AcDbCircle
 10
26.8741899467
 20
19.5821434382
 30
0.0
 40
4.133083514346652
100
AcDbArc
 50
244.5142130834
 51
268.589644547
  0
SPLINE
  5
13C
330
1F
100
AcDbEntity
  8
0
  6
Continuous
 62
     7
370
    25
100
AcDbSpline
210
0.0
220
0.0
230
1.0
 70
     8
 71
     3
 72
    12
 73
     8
 74
     0
 42
0.00000001
 43
0.00000001
 40
0.0
 40
0.0
 40
0.0
 40
0.0
 40
0.1474075839533764
 40
0.3687241049126518
 40
0.5898733349126623
 40
0.8109373024625407
 40
1.0
 40
1.0
 40
1.0
 40
1.0
 10
26.83602849867306
 20
15.48093789382458
 30
0.0
 10
26.8352267025628
 20
15.47838855271428
 30
0.0
 10
26.83322109643894
 20
15.4720116520569
 30
0.0
 10
26.82410101004585
 20
15.46279459810968
 30
0.0
 10
26.80886603356064
 20
15.45497475445852
 30
0.0
 10
26.79075746844866
 20
15.45049825701753
 30
0.0
 10
26.77823542615549
 20
15.45037077655953
 30
0.0
 10
26.7724629385409
 20
15.45031200983859
 30
0.0
  0
SPLINE
  5
13D
330
1F
100
AcDbEntity
  8
0
  6
Continuous
 62
     7
370
    25
100
AcDbSpline
210
0.0
220
0.0
230
1.0
 70
     8
 71
     3
 72
    12
 73
     8
 74
     0
 42
0.00000001
 43
0.00000001
 40
0.0
 40
0.0
 40
0.0
 40
0.0
 40
0.2213612836167148
 40
0.4427300022086149
 40
0.6639313947279005
 40
0.8850474998519282
 40
1.0
 40
1.0
 40
1.0
 40
1.0
 10
27.14897339831537
 20
15.45031200983859
 30
0.0
 10
27.14219973480651
 20
15.45043481024488
 30
0.0
 10
27.12865218027828
 20
15.450680415182
 30
0.0
 10
27.11003304769809
 20
15.45594646922557
 30
0.0
 10
27.09548497292008
 20
15.46419124820905
 30
0.0
 10
27.08766790682096
 20
15.47313396947265
 30
0.0
 10
27.08598386564023
 20
15.47894889463044
 30
0.0
 10
27.08540783818321
 20
15.48093789382458
 30
0.0
  0
ARC
  5
13E
330
1F
100
AcDbEntity
  8
0
  6
Continuous
 62
     7
370
    25
100
AcDbCircle
 10
27.0534173997
 20
19.5563363153
 30
0.0
 40
4.107136051575432
100
AcDbArc
 50
271.3331551264
 51
295.5629872432
  0
SPLINE
  5
13F
330
1F
100
AcDbEntity
  8
0
  6
Continuous
 62
     7
370
    25
100
AcDbSpline
210
0.0
220
0.0
230
1.0
 70
     8
 71
     3
 72
    12
 73
     8
 74
     0
 42
0.00000001
 43
0.00000001
 40
0.0
 40
0.0
 40
0.0
 40
0.0
 40
0.147407583953382
 40
0.3687241049126558
 40
0.5898733349126828
 40
0.8109373024625571
 40
1.0
 40
1.0
 40
1.0
 40
1.0
 10
28.83309393499539
 20
15.89884529190939
 30
0.0
 10
28.83564961032252
 20
15.89671533909851
 30
0.0
 10
28.84204235533718
 20
15.89138749284641
 30
0.0
 10
28.84688324322413
 20
15.88114719524184
 30
0.0
 10
28.84568883928138
 20
15.86939875157531
 30
0.0
 10
28.83836731148775
 20
15.85884140015338
 30
0.0
 10
28.82966903842404
 20
15.85363970940468
 30
0.0
 10
28.82565925532692
 20
15.85124180220084
 30
0.0
  0
SPLINE
  5
140
330
1F
100
AcDbEntity
  8
0
  6
Continuous
 62
     7
370
    25
100
AcDbSpline
210
0.0
220
0.0
230
1.0
 70
     8
 71
     3
 72
    12
 73
     8
 74
     0
 42
0.00000001
 43
0.00000001
 40
0.0
 40
0.0
 40
0.0
 40
0.0
 40
0.2365825384912955
 40
0.4731730232018835
 40
0.7095846761566741
 40
0.9459051771803643
 40
1.0
 40
1.0
 40
1.0
 40
1.0
 10
29.09189235462111
 20
16.00493489897382
 30
0.0
 10
29.08695335086023
 20
16.00225774802183
 30
0.0
 10
29.0770751774496
 20
15.99690335619902
 30
0.0
 10
29.05744246788267
 20
15.99301082210891
 30
0.0
 10
29.03712007417733
 20
15.99296213353263
 30
0.0
 10
29.02236543468844
 20
15.99556660375123
 30
0.0
 10
29.01557725058797
 20
15.99827272225326
 30
0.0
 10
29.01431283515933
 20
15.9987767831236
 30
0.0
  0
LWPOLYLINE
  5
141
330
1F
100
AcDbEntity
  8
0
  6
Continuous
 62
     7
370
    25
100
AcDbPolyline
 90
       10
 70
   128
 43
0.0
 10
29.0918923546
 20
16.004934899
 10
29.2213549769
 20
16.0968598773
 10
29.3389458312
 20
16.1939559309
 10
29.4440473876
 20
16.2957131584
 10
29.5361077035
 20
16.4015971804
 10
29.6146433229
 20
16.5110519451
 10
29.6792418147
 20
16.6235026494
 10
29.7295639392
 20
16.7383587566
 10
29.7653454287
 20
16.8550170983
 10
29.7863983764
 20
16.9728650413
  0
SPLINE
  5
142
330
1F
100
AcDbEntity
  8
0
  6
Continuous
 62
     7
370
    25
100
AcDbSpline
210
0.0
220
0.0
230
1.0
 70
     8
 71
     3
 72
    12
 73
     8
 74
     0
 42
0.00000001
 43
0.00000001
 40
0.0
 40
0.0
 40
0.0
 40
0.0
 40
0.0888752056292787
 40
0.3253856012821956
 40
0.5617172210769309
 40
0.7979577249634232
 40
1.0
 40
1.0
 40
1.0
 40
1.0
 10
29.73904650466291
 20
17.00880690540164
 30
0.0
 10
29.74152826146645
 20
17.00852627395469
 30
0.0
 10
29.75061434935836
 20
17.00749883968372
 30
0.0
 10
29.7647515198982
 20
17.00262696607057
 30
0.0
 10
29.77832782913547
 20
16.9938929845997
 30
0.0
 10
29.7860744113207
 20
16.98342356594628
 30
0.0
 10
29.78629615546371
 20
16.97619658097239
 30
0.0
 10
29.78639837643447
 20
16.9728650412542
 30
0.0
  0
SPLINE
  5
143
330
1F
100
AcDbEntity
  8
0
  6
Continuous
 62
     7
370
    25
100
AcDbSpline
210
0.0
220
0.0
230
1.0
 70
     8
 71
     3
 72
    12
 73
     8
 74
     0
 42
0.00000001
 43
0.00000001
 40
0.0
 40
0.0
 40
0.0
 40
0.0
 40
0.2450524024904823
 40
0.4901130356819335
 40
0.7349884347826529
 40
0.9797694186325776
 40
1.0
 40
1.0
 40
1.0
 40
1.0
 10
29.78639837643447
 20
17.19021990315368
 30
0.0
 10
29.78618478751579
 20
17.18631163116943
 30
0.0
 10
29.78575760250452
 20
17.17849495593181
 30
0.0
 10
29.77664857812834
 20
17.16771515514162
 30
0.0
 10
29.76231715542946
 20
17.15943520595966
 30
0.0
 10
29.74964201505551
 20
17.15539819239192
 30
0.0
 10
29.74251243013863
 20
17.15459660876254
 30
0.0
 10
29.74196816842817
 20
17.15453541708277
 30
0.0
  0
LWPOLYLINE
  5
144
330
1F
100
AcDbEntity
  8
0
  6
Continuous
 62
     7
370
    25
100
AcDbPolyline
 90
        3
 70
   128
 43
0.0
 10
29.7863983764
 20
17.1902199032
 10
29.7653454287
 20
17.3080678462
 10
29.7419681684
 20
17.3894902197
  0
LWPOLYLINE
  5
145
330
1F
100
AcDbEntity
  8
0
  6
Continuous
 62
     7
370
    25
100
AcDbPolyline
 90
        3
 70
   128
 43
0.0
 10
24.1794681684
 20
17.3894902197
 10
24.1560909081
 20
17.3080678462
 10
24.1350379604
 20
17.1902199032
  0
SPLINE
  5
146
330
1F
100
AcDbEntity
  8
0
  6
Continuous
 62
     7
370
    25
100
AcDbSpline
210
0.0
220
0.0
230
1.0
 70
     8
 71
     3
 72
    12
 73
     8
 74
     0
 42
0.00000001
 43
0.00000001
 40
0.0
 40
0.0
 40
0.0
 40
0.0
 40
0.0556407793979543
 40
0.3007781900830983
 40
0.5457303038351216
 40
0.7905879781111889
 40
1.0
 40
1.0
 40
1.0
 40
1.0
 10
24.17946816842817
 20
17.15466442830891
 30
0.0
 10
24.17797335772761
 20
17.15484239392458
 30
0.0
 10
24.1698928372551
 20
17.15580442530437
 30
0.0
 10
24.15670208857226
 20
17.16049254040098
 30
0.0
 10
24.14310388133922
 20
17.16918270199969
 30
0.0
 10
24.13536288881732
 20
17.17966330607551
 30
0.0
 10
24.13514048533767
 20
17.18688897165707
 30
0.0
 10
24.13503796042187
 20
17.19021990315371
 30
0.0
  0
SPLINE
  5
147
330
1F
100
AcDbEntity
  8
0
  6
Continuous
 62
     7
370
    25
100
AcDbSpline
210
0.0
220
0.0
230
1.0
 70
     8
 71
     3
 72
    12
 73
     8
 74
     0
 42
0.00000001
 43
0.00000001
 40
0.0
 40
0.0
 40
0.0
 40
0.0
 40
0.2365825384912997
 40
0.4731730232018914
 40
0.7095846761566798
 40
0.9459051771803728
 40
1.0
 40
1.0
 40
1.0
 40
1.0
 10
24.13503796042186
 20
16.97286504125423
 30
0.0
 10
24.13525118126888
 20
16.976774194214
 30
0.0
 10
24.13567763012448
 20
16.98459263143226
 30
0.0
 10
24.14479217441926
 20
16.99535922035712
 30
0.0
 10
24.1591026392723
 20
17.00368933191593
 30
0.0
 10
24.17272590211196
 20
17.00787059704583
 30
0.0
 10
24.18084053702883
 20
17.00872804658443
 30
0.0
 10
24.18235202661644
 20
17.00888776123121
 30
0.0
  0
LWPOLYLINE
  5
148
330
1F
100
AcDbEntity
  8
0
  6
Continuous
 62
     7
370
    25
100
AcDbPolyline
 90
       24
 70
   128
 43
0.0
 10
24.3037644381
 20
15.7007922531
 10
24.3444512939
 20
15.7186037823
 10
24.3919536308
 20
15.7294178193
 10
24.4427484178
 20
15.7324323363
 10
24.4930684379
 20
15.7274237604
 10
24.5391816855
 20
15.7147635549
 10
24.5776681518
 20
15.6953906691
 10
24.6056734719
 20
15.6707419015
 10
24.6211206192
 20
15.6426453384
 10
24.6228639494
 20
15.6131847732
 10
24.6107741677
 20
15.5845451615
 10
24.585747918
 20
15.5588505721
 10
24.5496412826
 20
15.5380066551
 10
24.5051321256
 20
15.5235593087
 10
24.4555214875
 20
15.5165800263
 10
24.4044887624
 20
15.5175864294
 10
24.355818814
 20
15.5265038777
 10
24.3131212698
 20
15.5426710049
 10
24.2795628113
 20
15.564888769
 10
24.2576323158
 20
15.5915093802
 10
24.2489562679
 20
15.6205585095
 10
24.2541781303
 20
15.6498817158
 10
24.2729106215
 20
15.6773042312
 10
24.3037644381
 20
15.7007922531
  0
LWPOLYLINE
  5
149
330
1F
100
AcDbEntity
  8
0
  6
Continuous
 62
     7
370
    25
100
AcDbPolyline
 90
       19
 70
   128
 43
0.0
 10
25.2739697227
 20
23.0726452173
 10
25.2988944511
 20
23.0916763147
 10
25.3110408618
 20
23.1144809352
 10
25.3089439184
 20
23.1383085051
 10
25.2928565431
 20
23.1602850677
 10
25.2647191108
 20
23.1777599253
 10
25.2279254112
 20
23.1886253521
 10
25.1869133074
 20
23.1915708173
 10
25.1466294644
 20
23.1862410543
 10
25.1119327083
 20
23.1732789113
 10
25.0870079798
 20
23.1542478139
 10
25.0748615691
 20
23.1314431933
 10
25.0769585126
 20
23.1076156234
 10
25.0930458879
 20
23.0856390608
 10
25.1211833201
 20
23.0681642032
 10
25.1579770198
 20
23.0572987764
 10
25.1989891235
 20
23.0543533112
 10
25.2392729665
 20
23.0596830742
 10
25.2739697227
 20
23.0726452173
  0
LWPOLYLINE
  5
14A
330
1F
100
AcDbEntity
  8
0
  6
Continuous
 62
     7
370
    25
100
AcDbPolyline
 90
        5
 70
   128
 43
0.0
 10
25.3197997537
 20
23.0832266668
 10
25.326215779
 20
23.0974414191
 10
25.3260010964
 20
23.123096097
 10
25.3113683947
 20
23.1473204926
 10
25.288426142
 20
23.164996003
  0
ARC
  5
14B
330
1F
100
AcDbEntity
  8
0
  6
Continuous
 62
     7
370
    25
100
AcDbCircle
 10
25.1176388457
 20
23.1103564968
 30
0.0
 40
0.058240916339523
100
AcDbArc
 50
110.2545951752
 51
207.7633555279
  0
LINE
  5
14C
330
1F
100
AcDbEntity
  8
0
  6
Continuous
 62
     7
370
    25
100
AcDbLine
 10
25.2521539208
 20
23.1547305853
 30
0.0
 11
25.1748946227
 21
23.1684444701
 31
0.0
  0
LINE
  5
14D
330
1F
100
AcDbEntity
  8
0
  6
Continuous
 62
     7
370
    25
100
AcDbLine
 10
25.1748946227
 20
23.1684444701
 30
0.0
 11
25.1156919174
 21
23.136675949
 31
0.0
  0
LINE
  5
14E
330
1F
100
AcDbEntity
  8
0
  6
Continuous
 62
     7
370
    25
100
AcDbLine
 10
25.1337485101
 20
23.0911935432
 30
0.0
 11
25.1156919174
 21
23.136675949
 31
0.0
  0
LINE
  5
14F
330
1F
100
AcDbEntity
  8
0
  6
Continuous
 62
     7
370
    25
100
AcDbLine
 10
25.2110078082
 20
23.0774796584
 30
0.0
 11
25.1337485101
 21
23.0911935432
 31
0.0
  0
LINE
  5
150
330
1F
100
AcDbEntity
  8
0
  6
Continuous
 62
     7
370
    25
100
AcDbLine
 10
25.2110078082
 20
23.0774796584
 30
0.0
 11
25.2702105135
 21
23.1092481795
 31
0.0
  0
LINE
  5
151
330
1F
100
AcDbEntity
  8
0
  6
Continuous
 62
     7
370
    25
100
AcDbLine
 10
25.2521539208
 20
23.1547305853
 30
0.0
 11
25.2702105135
 21
23.1092481795
 31
0.0
  0
ARC
  5
152
330
1F
100
AcDbEntity
  8
0
  6
Continuous
 62
     7
370
    25
100
AcDbCircle
 10
25.1930227251
 20
22.9913021433
 30
0.0
 40
0.1093507919773502
100
AcDbArc
 50
79.1939982351
 51
115.8795184414
  0
ARC
  5
153
330
1F
100
AcDbEntity
  8
0
  6
Continuous
 62
     7
370
    25
100
AcDbCircle
 10
25.1976717672
 20
23.005393077
 30
0.0
 40
0.0946576734530848
100
AcDbArc
 50
65.4058372445
 51
80.3591350512
  0
LINE
  5
154
330
1F
100
AcDbEntity
  8
0
  6
Continuous
 62
     7
370
    25
100
AcDbLine
 10
25.2521539208
 20
23.0995589053
 30
0.0
 11
25.2521539208
 21
23.1547305853
 31
0.0
  0
LINE
  5
155
330
1F
100
AcDbEntity
  8
0
  6
Continuous
 62
     7
370
    25
100
AcDbLine
 10
25.1748946227
 20
23.1055708276
 30
0.0
 11
25.1748946227
 21
23.1684444701
 31
0.0
  0
LINE
  5
156
330
1F
100
AcDbEntity
  8
0
  6
Continuous
 62
     7
370
    25
100
AcDbLine
 10
25.1748946227
 20
23.1055708276
 30
0.0
 11
25.1452932701
 21
23.0896865671
 31
0.0
  0
LINE
  5
157
330
1F
100
AcDbEntity
  8
0
  6
Continuous
 62
     7
370
    25
100
AcDbLine
 10
25.1452932701
 20
23.0896865671
 30
0.0
 11
25.1445339024
 21
23.0892790859
 31
0.0
  0
LINE
  5
158
330
1F
100
AcDbEntity
  8
0
  6
Continuous
 62
     7
370
    25
100
AcDbLine
 10
25.2413685285
 20
23.0937714001
 30
0.0
 11
25.2135242718
 21
23.0987138852
 31
0.0
  0
LINE
  5
159
330
1F
100
AcDbEntity
  8
0
  6
Continuous
 62
     7
370
    25
100
AcDbLine
 10
25.2135242718
 20
23.0987138852
 30
0.0
 11
25.1748946227
 21
23.1055708276
 31
0.0
  0
LWPOLYLINE
  5
15A
330
1F
100
AcDbEntity
  8
0
  6
Continuous
 62
     7
370
    25
100
AcDbPolyline
 90
       19
 70
   128
 43
0.0
 10
28.8024216906
 20
21.0281133544
 10
28.8298539865
 20
21.0459579399
 10
28.8450597011
 20
21.0681427081
 10
28.846204801
 20
21.0919918486
 10
28.8331511702
 20
21.114628803
 10
28.8074732692
 20
21.1333232207
 10
28.7722682318
 20
21.1458202789
 10
28.7317823052
 20
21.1506126479
 10
28.6908986895
 20
21.1471222974
 10
28.6545485522
 20
21.135770215
 10
28.6271162563
 20
21.1179256296
 10
28.6119105417
 20
21.0957408614
 10
28.6107654418
 20
21.0718917209
 10
28.6238190726
 20
21.0492547664
 10
28.6494969736
 20
21.0305603487
 10
28.684702011
 20
21.0180632905
 10
28.7251879376
 20
21.0132709215
 10
28.7660715533
 20
21.0167612721
 10
28.8024216906
 20
21.0281133544
  0
LWPOLYLINE
  5
15B
330
1F
100
AcDbEntity
  8
0
  6
Continuous
 62
     7
370
    25
100
AcDbPolyline
 90
        6
 70
   128
 43
0.0
 10
28.8553336596
 20
21.0422063872
 10
28.8596481663
 20
21.0504286958
 10
28.8629178412
 20
21.0760141417
 10
28.8516196449
 20
21.1008261818
 10
28.8269779125
 20
21.1221760466
 10
28.8239600479
 20
21.1239757235
  0
ARC
  5
15C
330
1F
100
AcDbEntity
  8
0
  6
Continuous
 62
     7
370
    25
100
AcDbCircle
 10
28.6542796202
 20
21.0689115292
 30
0.0
 40
0.0590292634890921
100
AcDbArc
 50
111.1198507315
 51
206.8980999528
  0
LINE
  5
15D
330
1F
100
AcDbEntity
  8
0
  6
Continuous
 62
     7
370
    25
100
AcDbLine
 10
28.7918195489
 20
21.1109333761
 30
0.0
 11
28.7166602356
 21
21.1281013629
 31
0.0
  0
LINE
  5
15E
330
1F
100
AcDbEntity
  8
0
  6
Continuous
 62
     7
370
    25
100
AcDbLine
 10
28.7166602356
 20
21.1281013629
 30
0.0
 11
28.6533258081
 21
21.0991097716
 31
0.0
  0
LINE
  5
15F
330
1F
100
AcDbEntity
  8
0
  6
Continuous
 62
     7
370
    25
100
AcDbLine
 10
28.6651506939
 20
21.0529501933
 30
0.0
 11
28.6533258081
 21
21.0991097716
 31
0.0
  0
LINE
  5
160
330
1F
100
AcDbEntity
  8
0
  6
Continuous
 62
     7
370
    25
100
AcDbLine
 10
28.7403100072
 20
21.0357822065
 30
0.0
 11
28.6651506939
 21
21.0529501933
 31
0.0
  0
LINE
  5
161
330
1F
100
AcDbEntity
  8
0
  6
Continuous
 62
     7
370
    25
100
AcDbLine
 10
28.7403100072
 20
21.0357822065
 30
0.0
 11
28.8036444347
 21
21.0647737979
 31
0.0
  0
LINE
  5
162
330
1F
100
AcDbEntity
  8
0
  6
Continuous
 62
     7
370
    25
100
AcDbLine
 10
28.7918195489
 20
21.1109333761
 30
0.0
 11
28.8036444347
 21
21.0647737979
 31
0.0
  0
LINE
  5
163
330
1F
100
AcDbEntity
  8
0
  6
Continuous
 62
     7
370
    25
100
AcDbLine
 10
28.6849930219
 20
21.0507319247
 30
0.0
 11
28.681757867
 21
21.0491567615
 31
0.0
  0
ARC
  5
164
330
1F
100
AcDbEntity
  8
0
  6
Continuous
 62
     7
370
    25
100
AcDbCircle
 10
28.7287221375
 20
20.9470300178
 30
0.0
 40
0.1125447513569846
100
AcDbArc
 50
76.8951181156
 51
112.8642247027
  0
ARC
  5
165
330
1F
100
AcDbEntity
  8
0
  6
Continuous
 62
     7
370
    25
100
AcDbCircle
 10
28.7348003091
 20
20.9687859295
 30
0.0
 40
0.0899827204297617
100
AcDbArc
 50
65.2512004638
 51
77.5236360917
  0
LINE
  5
166
330
1F
100
AcDbEntity
  8
0
  6
Continuous
 62
     7
370
    25
100
AcDbLine
 10
28.7918195489
 20
21.0593609084
 30
0.0
 11
28.7918195489
 21
21.1109333761
 31
0.0
  0
LINE
  5
167
330
1F
100
AcDbEntity
  8
0
  6
Continuous
 62
     7
370
    25
100
AcDbLine
 10
28.7753497429
 20
21.0518217878
 30
0.0
 11
28.7542398922
 21
21.056643727
 31
0.0
  0
LINE
  5
168
330
1F
100
AcDbEntity
  8
0
  6
Continuous
 62
     7
370
    25
100
AcDbLine
 10
28.7542398922
 20
21.056643727
 30
0.0
 11
28.7166602356
 21
21.0652277204
 31
0.0
  0
LINE
  5
169
330
1F
100
AcDbEntity
  8
0
  6
Continuous
 62
     7
370
    25
100
AcDbLine
 10
28.7166602356
 20
21.0652277204
 30
0.0
 11
28.7166602356
 21
21.1281013629
 31
0.0
  0
LINE
  5
16A
330
1F
100
AcDbEntity
  8
0
  6
Continuous
 62
     7
370
    25
100
AcDbLine
 10
28.7166602356
 20
21.0652277204
 30
0.0
 11
28.6849930219
 21
21.0507319247
 31
0.0
  0
LINE
  5
16B
330
1F
100
AcDbEntity
  8
0
  6
Continuous
 62
     7
370
    25
100
AcDbLine
 10
28.6849930219
 20
21.0507319247
 30
0.0
 11
28.6816204999
 21
21.0491881391
 31
0.0
  0
LWPOLYLINE
  5
16C
330
1F
100
AcDbEntity
  8
0
  6
Continuous
 62
     7
370
    25
100
AcDbPolyline
 90
       97
 70
   128
 43
0.0
 10
24.6626211296
 20
23.4044147466
 10
24.8178442694
 20
23.4883421825
 10
24.9822435241
 20
23.5662292527
 10
25.1551149111
 20
23.6377424329
 10
25.3357181684
 20
23.7025754928
 10
25.5232799252
 20
23.7604508072
 10
25.7169970132
 20
23.811120545
 10
25.9160399062
 20
23.8543677308
 10
26.1195562718
 20
23.8900071734
 10
26.3266746219
 20
23.9178862593
 10
26.5365080437
 20
23.9378856059
 10
26.7481579984
 20
23.949919573
 10
26.9607181684
 20
23.9539366292
 10
27.1732783384
 20
23.949919573
 10
27.3849282931
 20
23.9378856059
 10
27.594761715
 20
23.9178862593
 10
27.801880065
 20
23.8900071734
 10
28.0053964307
 20
23.8543677308
 10
28.2044393236
 20
23.811120545
 10
28.3981564116
 20
23.7604508072
 10
28.5857181684
 20
23.7025754928
 10
28.7663214257
 20
23.6377424329
 10
28.9391928127
 20
23.5662292527
 10
29.1035920675
 20
23.4883421825
 10
29.2588152073
 20
23.4044147466
 10
29.4041975427
 20
23.3148063354
 10
29.5391165244
 20
23.2199006657
 10
29.6629944084
 20
23.1201041383
 10
29.7753007307
 20
23.0158440971
 10
29.8755545784
 20
22.9075669996
 10
29.9633266491
 20
22.7957365051
 10
30.0382410893
 20
22.6808314888
 10
30.0999771039
 20
22.5633439917
 10
30.1482703297
 20
22.4437771133
 10
30.1829139679
 20
22.3226428573
 10
30.203759669
 20
22.2004599391
 10
30.2107181684
 20
22.0777515649
 10
30.203759669
 20
21.9550431907
 10
30.1829139679
 20
21.8328602726
 10
30.1482703297
 20
21.7117260166
 10
30.0999771039
 20
21.5921591382
 10
30.0382410893
 20
21.4746716411
 10
29.9633266491
 20
21.3597666248
 10
29.8755545784
 20
21.2479361302
 10
29.7753007307
 20
21.1396590328
 10
29.6629944084
 20
21.0353989916
 10
29.5391165244
 20
20.9356024641
 10
29.4041975427
 20
20.8406967944
 10
29.2588152073
 20
20.7510883832
 10
29.1035920675
 20
20.6671609474
 10
28.9391928127
 20
20.5892738772
 10
28.7663214257
 20
20.5177606969
 10
28.5857181684
 20
20.4529276371
 10
28.3981564116
 20
20.3950523227
 10
28.2044393236
 20
20.3443825848
 10
28.0053964307
 20
20.3011353991
 10
27.801880065
 20
20.2654959564
 10
27.594761715
 20
20.2376168706
 10
27.3849282931
 20
20.217617524
 10
27.1732783384
 20
20.2055835569
 10
26.9607181684
 20
20.2015665007
 10
26.7481579984
 20
20.2055835569
 10
26.5365080437
 20
20.217617524
 10
26.3266746219
 20
20.2376168706
 10
26.1195562718
 20
20.2654959564
 10
25.9160399062
 20
20.3011353991
 10
25.7169970132
 20
20.3443825848
 10
25.5232799252
 20
20.3950523227
 10
25.3357181684
 20
20.4529276371
 10
25.1551149111
 20
20.5177606969
 10
24.9822435241
 20
20.5892738772
 10
24.8178442694
 20
20.6671609474
 10
24.6626211296
 20
20.7510883832
 10
24.5172387941
 20
20.8406967944
 10
24.3823198125
 20
20.9356024641
 10
24.2584419284
 20
21.0353989916
 10
24.1461356061
 20
21.1396590328
 10
24.0458817584
 20
21.2479361302
 10
23.9581096878
 20
21.3597666248
 10
23.8831952476
 20
21.4746716411
 10
23.821459233
 20
21.5921591382
 10
23.7731660071
 20
21.7117260166
 10
23.738522369
 20
21.8328602726
 10
23.7176766679
 20
21.9550431907
 10
23.7107181684
 20
22.0777515649
 10
23.7176766679
 20
22.2004599391
 10
23.738522369
 20
22.3226428573
 10
23.7731660071
 20
22.4437771133
 10
23.821459233
 20
22.5633439917
 10
23.8831952476
 20
22.6808314888
 10
23.9581096878
 20
22.7957365051
 10
24.0458817584
 20
22.9075669996
 10
24.1461356061
 20
23.0158440971
 10
24.2584419284
 20
23.1201041383
 10
24.3823198125
 20
23.2199006657
 10
24.5172387941
 20
23.3148063354
 10
24.6626211296
 20
23.4044147466
  0
LWPOLYLINE
  5
16D
330
1F
100
AcDbEntity
  8
0
  6
Continuous
 62
     7
370
    25
100
AcDbPolyline
 90
       93
 70
   128
 43
0.0
 10
24.8500044266
 20
23.3217575722
 10
24.9989651872
 20
23.4020696302
 10
25.1570725457
 20
23.4763260775
 10
25.3235893327
 20
23.5441806965
 10
25.4977391702
 20
23.6053171175
 10
25.678710091
 20
23.6594502943
 10
25.8656583253
 20
23.7063278331
 10
26.057712234
 20
23.745731169
 10
26.2539763733
 20
23.7774765857
 10
26.4535356691
 20
23.8014160713
 10
26.6554596838
 20
23.8174380088
 10
26.8588069545
 20
23.8254676966
 10
27.0626293823
 20
23.8254676966
 10
27.265976653
 20
23.8174380088
 10
27.4679006677
 20
23.8014160713
 10
27.6674599635
 20
23.7774765857
 10
27.8637241028
 20
23.745731169
 10
28.0557780116
 20
23.7063278331
 10
28.2427262459
 20
23.6594502943
 10
28.4236971667
 20
23.6053171175
 10
28.5978470041
 20
23.5441806965
 10
28.7643637911
 20
23.4763260775
 10
28.9224711497
 20
23.4020696302
 10
29.0714319103
 20
23.3217575722
 10
29.210551549
 20
23.2357643555
 10
29.339181426
 20
23.1444909203
 10
29.4567218093
 20
23.0483628252
 10
29.5626246715
 20
22.947828264
 10
29.6563962444
 20
22.8433559752
 10
29.7375993218
 20
22.7354330568
 10
29.8058552974
 20
22.6245626952
 10
29.8608459303
 20
22.5112618192
 10
29.9023148288
 20
22.3960586899
 10
29.9300686458
 20
22.2794904375
 10
29.9439779802
 20
22.1621005568
 10
29.9439779802
 20
22.0444363738
 10
29.9300686458
 20
21.9270464931
 10
29.9023148288
 20
21.8104782407
 10
29.8608459303
 20
21.6952751114
 10
29.8058552974
 20
21.5819742354
 10
29.7375993218
 20
21.4711038738
 10
29.6563962444
 20
21.3631809554
 10
29.5626246715
 20
21.2587086666
 10
29.4567218093
 20
21.1581741054
 10
29.339181426
 20
21.0620460103
 10
29.210551549
 20
20.9707725751
 10
29.0714319103
 20
20.8847793584
 10
28.9224711497
 20
20.8044673004
 10
28.7643637911
 20
20.7302108531
 10
28.5978470041
 20
20.6623562341
 10
28.4236971667
 20
20.6012198131
 10
28.2427262459
 20
20.5470866363
 10
28.0557780116
 20
20.5002090975
 10
27.8637241028
 20
20.4608057616
 10
27.6674599635
 20
20.4290603449
 10
27.4679006677
 20
20.4051208593
 10
27.265976653
 20
20.3890989218
 10
27.0626293823
 20
20.381069234
 10
26.8588069545
 20
20.381069234
 10
26.6554596838
 20
20.3890989218
 10
26.4535356691
 20
20.4051208593
 10
26.2539763733
 20
20.4290603449
 10
26.057712234
 20
20.4608057616
 10
25.8656583253
 20
20.5002090975
 10
25.678710091
 20
20.5470866363
 10
25.4977391702
 20
20.6012198131
 10
25.3235893327
 20
20.6623562341
 10
25.1570725457
 20
20.7302108531
 10
24.9989651872
 20
20.8044673004
 10
24.8500044266
 20
20.8847793584
 10
24.7108847878
 20
20.9707725751
 10
24.5822549109
 20
21.0620460103
 10
24.4647145275
 20
21.1581741054
 10
24.3588116654
 20
21.2587086666
 10
24.2650400924
 20
21.3631809554
 10
24.1838370151
 20
21.4711038738
 10
24.1155810395
 20
21.5819742354
 10
24.0605904066
 20
21.6952751114
 10
24.019121508
 20
21.8104782407
 10
23.991367691
 20
21.9270464931
 10
23.9774583567
 20
22.0444363738
 10
23.9774583567
 20
22.1621005568
 10
23.991367691
 20
22.2794904375
 10
24.019121508
 20
22.3960586899
 10
24.0605904066
 20
22.5112618192
 10
24.1155810395
 20
22.6245626952
 10
24.1838370151
 20
22.7354330568
 10
24.2650400924
 20
22.8433559752
 10
24.3588116654
 20
22.947828264
 10
24.4647145275
 20
23.0483628252
 10
24.5822549109
 20
23.1444909203
 10
24.7108847878
 20
23.2357643555
 10
24.8500044266
 20
23.3217575722
  0
LWPOLYLINE
  5
16E
330
1F
100
AcDbEntity
  8
0
  6
Continuous
 62
     7
370
    25
100
AcDbPolyline
 90
       49
 70
   128
 43
0.0
 10
30.2107181684
 20
22.0012008638
 10
30.203759669
 20
21.8784924896
 10
30.1829139679
 20
21.7563095715
 10
30.1482703297
 20
21.6351753155
 10
30.0999771039
 20
21.515608437
 10
30.0382410893
 20
21.3981209399
 10
29.9633266491
 20
21.2832159237
 10
29.8755545784
 20
21.1713854291
 10
29.7753007307
 20
21.0631083317
 10
29.6629944084
 20
20.9588482905
 10
29.5391165244
 20
20.859051763
 10
29.4041975427
 20
20.7641460933
 10
29.2588152073
 20
20.6745376821
 10
29.1035920675
 20
20.5906102463
 10
28.9391928127
 20
20.5127231761
 10
28.7663214257
 20
20.4412099958
 10
28.5857181684
 20
20.3763769359
 10
28.3981564116
 20
20.3185016216
 10
28.2044393236
 20
20.2678318837
 10
28.0053964307
 20
20.2245846979
 10
27.801880065
 20
20.1889452553
 10
27.594761715
 20
20.1610661695
 10
27.3849282931
 20
20.1410668229
 10
27.1732783384
 20
20.1290328558
 10
26.9607181684
 20
20.1250157995
 10
26.7481579984
 20
20.1290328558
 10
26.5365080437
 20
20.1410668229
 10
26.3266746219
 20
20.1610661695
 10
26.1195562718
 20
20.1889452553
 10
25.9160399062
 20
20.2245846979
 10
25.7169970132
 20
20.2678318837
 10
25.5232799252
 20
20.3185016216
 10
25.3357181684
 20
20.3763769359
 10
25.1551149111
 20
20.4412099958
 10
24.9822435241
 20
20.5127231761
 10
24.8178442694
 20
20.5906102463
 10
24.6626211296
 20
20.6745376821
 10
24.5172387941
 20
20.7641460933
 10
24.3823198125
 20
20.859051763
 10
24.2584419284
 20
20.9588482905
 10
24.1461356061
 20
21.0631083317
 10
24.0458817584
 20
21.1713854291
 10
23.9581096878
 20
21.2832159237
 10
23.8831952476
 20
21.3981209399
 10
23.821459233
 20
21.515608437
 10
23.7731660071
 20
21.6351753155
 10
23.738522369
 20
21.7563095715
 10
23.7176766679
 20
21.8784924896
 10
23.7107181684
 20
22.0012008638
  0
LWPOLYLINE
  5
16F
330
1F
100
AcDbEntity
  8
0
  6
Continuous
 62
     7
370
    25
100
AcDbPolyline
 90
       91
 70
   128
 43
0.0
 10
28.9936501643
 20
20.9296818046
 10
29.1305082116
 20
21.0144058698
 10
29.2567952598
 20
21.1044347641
 10
29.3718960513
 20
21.1993298758
 10
29.4752498265
 20
21.2986288855
 10
29.5663530562
 20
21.4018480183
 10
29.6447618946
 20
21.508484401
 10
29.7100943418
 20
21.6180185119
 10
29.7620321047
 20
21.7299167118
 10
29.8003221476
 20
21.8436338439
 10
29.8247779254
 20
21.9586158897
 10
29.835280292
 20
22.0743026684
 10
29.8317780808
 20
22.1901305656
 10
29.8142883544
 20
22.3055352793
 10
29.7828963208
 20
22.4199545694
 10
29.737754919
 20
22.5328309967
 10
29.6790840733
 20
22.6436146385
 10
29.6071696221
 20
22.751765768
 10
29.5223619255
 20
22.8567574839
 10
29.4250741579
 20
22.958078277
 10
29.3157802958
 20
23.0552345227
 10
29.1950128076
 20
23.1477528854
 10
29.0633600606
 20
23.235182625
 10
28.9214634536
 20
23.3170977926
 10
28.7700142927
 20
23.3930993057
 10
28.6097504229
 20
23.4628168926
 10
28.4414526338
 20
23.5259108963
 10
28.2659408552
 20
23.582073929
 10
28.0840701628
 20
23.6310323701
 10
27.8967266125
 20
23.6725476991
 10
27.7048229231
 20
23.7064176574
 10
27.5092940301
 20
23.732477234
 10
27.3110925307
 20
23.7505994692
 10
27.1111840426
 20
23.7606960734
 10
26.9105424999
 20
23.7627178569
 10
26.710145408
 20
23.7566549697
 10
26.5109690814
 20
23.7425369497
 10
26.3139838872
 20
23.7204325784
 10
26.1201495174
 20
23.6904495461
 10
25.9304103135
 20
23.6527339271
 10
25.7456906659
 20
23.6074694682
 10
25.5668905102
 20
23.5548766931
 10
25.3948809428
 20
23.4952118287
 10
25.2304999769
 20
23.4287655562
 10
25.0745484601
 20
23.355861595
 10
24.9277861725
 20
23.276855126
 10
24.7909281253
 20
23.1921310608
 10
24.664641077
 20
23.1021021665
 10
24.5495402856
 20
23.0072070548
 10
24.4461865104
 20
22.9079080451
 10
24.3550832807
 20
22.8046889123
 10
24.2766744422
 20
22.6980525296
 10
24.211341995
 20
22.5885184187
 10
24.1594042322
 20
22.4766202188
 10
24.1211141892
 20
22.3629030867
 10
24.0966584114
 20
22.2479210409
 10
24.0861560449
 20
22.1322342622
 10
24.089658256
 20
22.016406365
 10
24.1071479825
 20
21.9010016513
 10
24.138540016
 20
21.7865823612
 10
24.1836814178
 20
21.6737059339
 10
24.2423522636
 20
21.5629222921
 10
24.3142667148
 20
21.4547711626
 10
24.3990744114
 20
21.3497794467
 10
24.4963621789
 20
21.2484586536
 10
24.6056560411
 20
21.1513024079
 10
24.7264235292
 20
21.0587840452
 10
24.8580762763
 20
20.9713543056
 10
24.9999728832
 20
20.889439138
 10
25.1514220442
 20
20.8134376249
 10
25.3116859139
 20
20.743720038
 10
25.4799837031
 20
20.6806260343
 10
25.6554954817
 20
20.6244630016
 10
25.837366174
 20
20.5755045605
 10
26.0247097244
 20
20.5339892315
 10
26.2166134138
 20
20.5001192732
 10
26.4121423067
 20
20.4740596966
 10
26.6103438061
 20
20.4559374614
 10
26.8102522942
 20
20.4458408572
 10
27.0108938369
 20
20.4438190737
 10
27.2112909288
 20
20.4498819609
 10
27.4104672554
 20
20.4639999809
 10
27.6074524497
 20
20.4861043522
 10
27.8012868195
 20
20.5160873845
 10
27.9910260234
 20
20.5538030035
 10
28.1757456709
 20
20.5990674624
 10
28.3545458266
 20
20.6516602375
 10
28.5265553941
 20
20.7113251019
 10
28.69093636
 20
20.7777713744
 10
28.8468878768
 20
20.8506753356
 10
28.9936501643
 20
20.9296818046
  0
LWPOLYLINE
  5
170
330
1F
100
AcDbEntity
  8
0
  6
Continuous
 62
     7
370
    25
100
AcDbPolyline
 90
       13
 70
   128
 43
0.0
 10
29.0714319103
 20
19.4558329376
 10
29.210551549
 20
19.5418261543
 10
29.339181426
 20
19.6330995895
 10
29.4567218093
 20
19.7292276846
 10
29.5626246715
 20
19.8297622458
 10
29.6563962444
 20
19.9342345346
 10
29.7375993218
 20
20.042157453
 10
29.8058552974
 20
20.1530278146
 10
29.8608459303
 20
20.2663286906
 10
29.9023148288
 20
20.3815318199
 10
29.9300686458
 20
20.4981000723
 10
29.9439779802
 20
20.615489953
 10
29.9457181684
 20
20.6743220445
  0
LWPOLYLINE
  5
171
330
1F
100
AcDbEntity
  8
0
  6
Continuous
 62
     7
370
    25
100
AcDbPolyline
 90
       36
 70
   128
 43
0.0
 10
23.9757181684
 20
20.6743220445
 10
23.9774583567
 20
20.615489953
 10
23.991367691
 20
20.4981000723
 10
24.019121508
 20
20.3815318199
 10
24.0605904066
 20
20.2663286906
 10
24.1155810395
 20
20.1530278146
 10
24.1838370151
 20
20.042157453
 10
24.2650400924
 20
19.9342345346
 10
24.3588116654
 20
19.8297622458
 10
24.4647145275
 20
19.7292276846
 10
24.5822549109
 20
19.6330995895
 10
24.7108847878
 20
19.5418261543
 10
24.8500044266
 20
19.4558329376
 10
24.9989651872
 20
19.3755208796
 10
25.1570725457
 20
19.3012644323
 10
25.3235893327
 20
19.2334098133
 10
25.4977391702
 20
19.1722733923
 10
25.678710091
 20
19.1181402155
 10
25.8656583253
 20
19.0712626767
 10
26.057712234
 20
19.0318593408
 10
26.2539763733
 20
19.0001139241
 10
26.4535356691
 20
18.9761744385
 10
26.6554596838
 20
18.960152501
 10
26.8588069545
 20
18.9521228132
 10
27.0626293823
 20
18.9521228132
 10
27.265976653
 20
18.960152501
 10
27.4679006677
 20
18.9761744385
 10
27.6674599635
 20
19.0001139241
 10
27.8637241028
 20
19.0318593408
 10
28.0557780116
 20
19.0712626767
 10
28.2427262459
 20
19.1181402155
 10
28.4236971667
 20
19.1722733923
 10
28.5978470041
 20
19.2334098133
 10
28.7643637911
 20
19.3012644323
 10
28.9224711497
 20
19.3755208796
 10
29.0714319103
 20
19.4558329376
  0
LWPOLYLINE
  5
172
330
1F
100
AcDbEntity
  8
0
  6
Continuous
 62
     7
370
    25
100
AcDbPolyline
 90
        3
 70
   128
 43
0.0
 10
29.8234597985
 20
21.9501670631
 10
29.8142883544
 20
21.9993324748
 10
29.8044681684
 20
22.0411095177
  0
LINE
  5
173
330
1F
100
AcDbEntity
  8
0
  6
Continuous
 62
     7
370
    25
100
AcDbLine
 10
24.1169681684
 20
22.0411095177
 30
0.0
 11
24.097651151
 21
21.948125711
 31
0.0
  0
LWPOLYLINE
  5
174
330
1F
100
AcDbEntity
  8
0
  6
Continuous
 62
     7
370
    25
100
AcDbPolyline
 90
       74
 70
   128
 43
0.0
 10
28.2794723153
 20
21.3338024929
 10
28.387956953
 20
21.4020657442
 10
28.4858748141
 20
21.4754600013
 10
28.5725009489
 20
21.5534418788
 10
28.647194008
 20
21.6354340261
 10
28.70940099
 20
21.7208294021
 10
28.7586613362
 20
21.8089957693
 10
28.7946103402
 20
21.8992803748
 10
28.8169818482
 20
21.9910147829
 10
28.8256102294
 20
22.0835198242
 10
28.8204316022
 20
22.1761106237
 10
28.8014843074
 20
22.2681016714
 10
28.7689086241
 20
22.358811898
 10
28.7229457314
 20
22.4475697166
 10
28.6639359223
 20
22.5337179954
 10
28.5923160849
 20
22.6166189226
 10
28.5086164673
 20
22.6956587288
 10
28.4134567523
 20
22.7702522309
 10
28.3075414691
 20
22.8398471648
 10
28.1916547774
 20
22.9039282738
 10
28.0666546617
 20
22.9620211239
 10
27.9334665791
 20
23.013695616
 10
27.7930766077
 20
23.0585691702
 10
27.6465241455
 20
23.0963095583
 10
27.4948942159
 20
23.1266373638
 10
27.3393094337
 20
23.1493280502
 10
27.1809216942
 20
23.1642136236
 10
27.0209036449
 20
23.1711838764
 10
26.8604400033
 20
23.1701872033
 10
26.7007187862
 20
23.1612309833
 10
26.5429225136
 20
23.1443815252
 10
26.3882194538
 20
23.1197635764
 10
26.2377549742
 20
23.0875593996
 10
26.0926430612
 20
23.0480074233
 10
25.9539580725
 20
23.0014004764
 10
25.8227267833
 20
22.9480836205
 10
25.6999207842
 20
22.888451595
 10
25.5864492879
 20
22.8229458945
 10
25.4831523975
 20
22.7520515003
 10
25.3907948871
 20
22.6762932896
 10
25.3100605394
 20
22.5962321498
 10
25.2415470833
 20
22.5124608255
 10
25.1857617685
 20
22.4255995303
 10
25.1431176098
 20
22.3362913549
 10
25.1139303297
 20
22.2451975057
 10
25.0984160207
 20
22.1529924097
 10
25.0966895451
 20
22.0603587212
 10
25.1087636854
 20
21.9679822676
 10
25.1345490487
 20
21.8765469718
 10
25.1738547292
 20
21.7867297889
 10
25.2263897215
 20
21.6991956937
 10
25.2917650748
 20
21.6145927582
 10
25.3694967729
 20
21.5335473527
 10
25.4590093175
 20
21.4566595093
 10
25.559639989
 20
21.3844984785
 10
25.6706437532
 20
21.3175985154
 10
25.791198777
 20
21.2564549238
 10
25.9204125132
 20
21.2015203897
 10
26.0573283084
 20
21.153201629
 10
26.2009324862
 20
21.1118563769
 10
26.3501618513
 20
21.0777907392
 10
26.5039115617
 20
21.051256926
 10
26.6610433085
 20
21.0324513843
 10
26.8203937431
 20
21.0215133439
 10
26.9807830906
 20
21.018523786
 10
27.1410238844
 20
21.0235048445
 10
27.2999297578
 20
21.0364196411
 10
27.4563242273
 20
21.0571725594
 10
27.6090494029
 20
21.085609952
 10
27.7569745609
 20
21.1215212783
 10
27.8990045152
 20
21.1646406635
 10
28.0340877256
 20
21.2146488667
 10
28.1612240834
 20
21.2711756446
 10
28.2794723153
 20
21.3338024929
  0
ARC
  5
175
330
1F
100
AcDbEntity
  8
0
  6
Continuous
 62
     7
370
    25
100
AcDbCircle
 10
28.1948917279
 20
21.9934665095
 30
0.0
 40
0.6308265877583581
100
AcDbArc
 50
346.7572101306
 51
359.9608488805
  0
ARC
  5
176
330
1F
100
AcDbEntity
  8
0
  6
Continuous
 62
     7
370
    25
100
AcDbCircle
 10
25.7282953728
 20
21.9936703486
 30
0.0
 40
0.6325775229332512
100
AcDbArc
 50
180.0575055049
 51
193.224435484
  0
LWPOLYLINE
  5
177
330
1F
100
AcDbEntity
  8
0
  6
Continuous
 62
     7
370
    25
100
AcDbPolyline
 90
       91
 70
   128
 43
0.0
 10
28.9715530774
 20
20.9424381813
 10
29.1069235372
 20
21.0262413328
 10
29.2318379001
 20
21.1152916521
 10
29.345687596
 20
21.2091552952
 10
29.4479179606
 20
21.3073749678
 10
29.5380309378
 20
21.4094721536
 10
29.6155875063
 20
21.5149494452
 10
29.6802098182
 20
21.6232929679
 10
29.7315830402
 20
21.733974883
 10
29.769456887
 20
21.8464559593
 10
29.7936468411
 20
21.9601882003
 10
29.8040350515
 20
22.074617514
 10
29.8005709079
 20
22.1891864123
 10
29.7832712872
 20
22.303336727
 10
29.7522204714
 20
22.4165123291
 10
29.7075697369
 20
22.5281618387
 10
29.6495366178
 20
22.6377413105
 10
29.5784038454
 20
22.7447168843
 10
29.4945179716
 20
22.8485673859
 10
29.3982876798
 20
22.948786866
 10
29.2901817944
 20
23.0448870655
 10
29.1707269963
 20
23.1363997938
 10
29.0405052574
 20
23.2228792102
 10
28.9001510049
 20
23.3039039955
 10
28.7503480305
 20
23.3790794052
 10
28.5918261593
 20
23.4480391923
 10
28.425357694
 20
23.5104473916
 10
28.2517536521
 20
23.5659999566
 10
28.0718598151
 20
23.6144262407
 10
27.8865526077
 20
23.6554903161
 10
27.6967348279
 20
23.6889921227
 10
27.503331249
 20
23.714768443
 10
27.3072841137
 20
23.7326936975
 10
27.109548544
 20
23.7426805559
 10
26.9110878876
 20
23.7446803635
 10
26.712869025
 20
23.7386833773
 10
26.5158576585
 20
23.724718814
 10
26.3210136076
 20
23.7028547076
 10
26.1292861331
 20
23.6731975778
 10
25.9416093119
 20
23.6358919112
 10
25.7588974866
 20
23.5911194573
 10
25.5820408109
 20
23.5390983428
 10
25.4119009126
 20
23.4800820096
 10
25.2493066963
 20
23.4143579791
 10
25.0950503047
 20
23.3422464523
 10
24.9498832594
 20
23.2640987493
 10
24.8145127997
 20
23.1802955978
 10
24.6895984367
 20
23.0912452785
 10
24.5757487408
 20
22.9973816354
 10
24.4735183763
 20
22.8991619628
 10
24.383405399
 20
22.797064777
 10
24.3058488306
 20
22.6915874854
 10
24.2412265187
 20
22.5832439627
 10
24.1898532967
 20
22.4725620476
 10
24.1519794499
 20
22.3600809713
 10
24.1277894957
 20
22.2463487303
 10
24.1174012853
 20
22.1319194166
 10
24.120865429
 20
22.0173505183
 10
24.1381650497
 20
21.9032002036
 10
24.1692158655
 20
21.7900246015
 10
24.2138665999
 20
21.6783750919
 10
24.2718997191
 20
21.5687956201
 10
24.3430324914
 20
21.4618200463
 10
24.4269183653
 20
21.3579695447
 10
24.5231486571
 20
21.2577500646
 10
24.6312545425
 20
21.1616498651
 10
24.7507093405
 20
21.0701371368
 10
24.8809310794
 20
20.9836577204
 10
25.021285332
 20
20.9026329351
 10
25.1710883064
 20
20.8274575254
 10
25.3296101776
 20
20.7584977383
 10
25.4960786429
 20
20.696089539
 10
25.6696826848
 20
20.6405369741
 10
25.8495765218
 20
20.5921106899
 10
26.0348837292
 20
20.5510466145
 10
26.2247015089
 20
20.5175448079
 10
26.4181050878
 20
20.4917684876
 10
26.6141522231
 20
20.4738432331
 10
26.8118877929
 20
20.4638563747
 10
27.0103484492
 20
20.4618565671
 10
27.2085673119
 20
20.4678535533
 10
27.4055786784
 20
20.4818181166
 10
27.6004227292
 20
20.503682223
 10
27.7921502037
 20
20.5333393528
 10
27.9798270249
 20
20.5706450194
 10
28.1625388503
 20
20.6154174733
 10
28.339395526
 20
20.6674385878
 10
28.5095354243
 20
20.7264549211
 10
28.6721296405
 20
20.7921789515
 10
28.8263860321
 20
20.8642904783
 10
28.9715530774
 20
20.9424381813
  0
LWPOLYLINE
  5
178
330
1F
100
AcDbEntity
  8
0
  6
Continuous
 62
     7
370
    25
100
AcDbPolyline
 90
       74
 70
   128
 43
0.0
 10
28.3042210527
 20
21.3276807591
 10
28.4147415951
 20
21.3972250902
 10
28.5144970567
 20
21.4719967194
 10
28.6027488831
 20
21.5514420637
 10
28.6788436886
 20
21.6349729377
 10
28.7422180939
 20
21.7219709079
 10
28.7924028969
 20
21.8117918718
 10
28.8290265472
 20
21.9037708264
 10
28.8518178958
 20
21.9972267918
 10
28.8606082037
 20
22.0914678526
 10
28.8553323905
 20
22.185796281
 10
28.8360295164
 20
22.2795137024
 10
28.8028424933
 20
22.3719262656
 10
28.7560170261
 20
22.4623497805
 10
28.6958997943
 20
22.550114783
 10
28.6229358849
 20
22.6345714917
 10
28.537665497
 20
22.7150946187
 10
28.4407199429
 20
22.7910879989
 10
28.3328169734
 20
22.8619890039
 10
28.2147554644
 20
22.9272727074
 10
28.087409502
 20
22.9864557719
 10
27.9517219112
 20
23.0391000266
 10
27.8086972754
 20
23.0848157118
 10
27.659394499
 20
23.1232643646
 10
27.5049189674
 20
23.1541613246
 10
27.3464143636
 20
23.1772778416
 10
27.1850542001
 20
23.1924427689
 10
27.022033131
 20
23.1995438307
 10
26.8585581075
 20
23.1985284533
 10
26.6958394413
 20
23.1894041541
 10
26.5350818445
 20
23.1722384863
 10
26.3774755101
 20
23.1471585385
 10
26.2241873003
 20
23.1143499937
 10
26.0763521074
 20
23.0740557551
 10
25.9350644514
 20
23.0265741471
 10
25.8013703766
 20
22.9722567068
 10
25.6762597073
 20
22.9115055816
 10
25.5606587191
 20
22.8447705516
 10
25.4554232811
 20
22.7725456995
 10
25.3613325199
 20
22.695365753
 10
25.2790830504
 20
22.6138021253
 10
25.209283819
 20
22.528458685
 10
25.1524515947
 20
22.4399672851
 10
25.1090071435
 20
22.3489830849
 10
25.0792721129
 20
22.2561796997
 10
25.0634666506
 20
22.1622442132
 10
25.0617077747
 20
22.0678720908
 10
25.0740085074
 20
21.9737620309
 10
25.1002777783
 20
21.8806107912
 10
25.140321099
 20
21.7891080311
 10
25.1938420027
 20
21.6999312049
 10
25.2604442393
 20
21.6137405467
 10
25.3396347092
 20
21.531174182
 10
25.4308271139
 20
21.4528434031
 10
25.5333462967
 20
21.3793281438
 10
25.6464332414
 20
21.3111726854
 10
25.7692506919
 20
21.248881627
 10
25.9008893507
 20
21.1929161499
 10
26.0403746113
 20
21.1436906028
 10
26.1866737736
 20
21.1015694344
 10
26.3387036898
 20
21.0668644952
 10
26.4953387836
 20
21.0398327284
 10
26.6554193835
 20
21.0206742678
 10
26.8177603088
 20
21.0095309558
 10
26.9811596441
 20
21.0064852936
 10
27.1444076378
 20
21.0115598304
 10
27.306295659
 20
21.0247169959
 10
27.4656251453
 20
21.0458593791
 10
27.6212164771
 20
21.0748304493
 10
27.7719177104
 20
21.1114157147
 10
27.9166131061
 20
21.1553443108
 10
28.0542313902
 20
21.2062910058
 10
28.183753685
 20
21.263878608
 10
28.3042210527
 20
21.3276807591
  0
LWPOLYLINE
  5
179
330
1F
100
AcDbEntity
  8
0
  6
Continuous
 62
     7
370
    25
100
AcDbPolyline
 90
       21
 70
   128
 43
0.0
 10
28.8310156047
 20
21.0235687374
 10
28.8576810674
 20
21.0447562707
 10
28.8716999308
 20
21.0696637098
 10
28.8716999308
 20
21.0958529412
 10
28.8576810674
 20
21.1207603804
 10
28.8310156047
 20
21.1419479136
 10
28.7943137439
 20
21.1573415576
 10
28.7511681188
 20
21.1654344752
 10
28.705802124
 20
21.1654344752
 10
28.6626564989
 20
21.1573415576
 10
28.6259546381
 20
21.1419479136
 10
28.5992891754
 20
21.1207603804
 10
28.585270312
 20
21.0958529412
 10
28.585270312
 20
21.0696637098
 10
28.5992891754
 20
21.0447562707
 10
28.6259546381
 20
21.0235687374
 10
28.6626564989
 20
21.0081750934
 10
28.705802124
 20
21.0000821759
 10
28.7511681188
 20
21.0000821759
 10
28.7943137439
 20
21.0081750934
 10
28.8310156047
 20
21.0235687374
  0
LWPOLYLINE
  5
17A
330
1F
100
AcDbEntity
  8
0
  6
Continuous
 62
     7
370
    25
100
AcDbPolyline
 90
       21
 70
   128
 43
0.0
 10
25.2954816987
 20
23.064589017
 10
25.3221471615
 20
23.0857765502
 10
25.3361660248
 20
23.1106839894
 10
25.3361660248
 20
23.1368732208
 10
25.3221471615
 20
23.1617806599
 10
25.2954816987
 20
23.1829681932
 10
25.2587798379
 20
23.1983618372
 10
25.2156342129
 20
23.2064547547
 10
25.170268218
 20
23.2064547547
 10
25.127122593
 20
23.1983618372
 10
25.0904207322
 20
23.1829681932
 10
25.0637552695
 20
23.1617806599
 10
25.0497364061
 20
23.1368732208
 10
25.0497364061
 20
23.1106839894
 10
25.0637552695
 20
23.0857765502
 10
25.0904207322
 20
23.064589017
 10
25.127122593
 20
23.049195373
 10
25.170268218
 20
23.0411024554
 10
25.2156342129
 20
23.0411024554
 10
25.2587798379
 20
23.049195373
 10
25.2954816987
 20
23.064589017
  0
ARC
  5
17B
330
1F
100
AcDbEntity
  8
0
  6
Continuous
 62
     7
370
    25
100
AcDbCircle
 10
28.1881605477
 20
21.9879767204
 30
0.0
 40
0.6728535236936282
100
AcDbArc
 50
5.1309829411
 51
23.7716222036
  0
ARC
  5
17C
330
1F
100
AcDbEntity
  8
0
  6
Continuous
 62
     7
370
    25
100
AcDbCircle
 10
25.7378827456
 20
21.986789457
 30
0.0
 40
0.6775486378635208
100
AcDbArc
 50
156.2935332236
 51
174.8038616317
  0
LWPOLYLINE
  5
17D
330
1F
100
AcDbEntity
  8
0
  6
Continuous
 62
     7
370
    25
100
AcDbPolyline
 90
       47
 70
   128
 43
0.0
 10
29.7419681684
 20
13.0192519331
 10
29.7419575406
 20
13.014813302
 10
29.7344871856
 20
12.9015687472
 10
29.7131980529
 20
12.7889104841
 10
29.6781962039
 20
12.6773997706
 10
29.629656016
 20
12.5675921473
 10
29.5678193139
 20
12.4600346703
 10
29.4929941651
 20
12.3552631857
 10
29.4055533447
 20
12.2537996595
 10
29.3059324784
 20
12.1561495781
 10
29.1946278724
 20
12.0627994292
 10
29.0721940406
 20
11.9742142786
 10
28.9392409422
 20
11.890835453
 10
28.7964309429
 20
11.8130783415
 10
28.6444755149
 20
11.7413303262
 10
28.4841316925
 20
11.675948852
 10
28.3161983005
 20
11.6172596463
 10
28.1415119747
 20
11.5655550956
 10
27.9609429935
 20
11.5210927894
 10
27.7753909426
 20
11.4840942367
 10
27.5857802329
 20
11.4547437624
 10
27.3930554954
 20
11.4331875891
 10
27.1981768752
 20
11.4195331087
 10
27.0021152475
 20
11.4138483469
 10
26.8058473818
 20
11.416161625
 10
26.6103510745
 20
11.4264614185
 10
26.4166002784
 20
11.4446964141
 10
26.2255602503
 20
11.4707757661
 10
26.0381827419
 20
11.5045695485
 10
25.8554012587
 20
11.5459094024
 10
25.6781264087
 20
11.5945893746
 10
25.5072413663
 20
11.6503669441
 10
25.3435974722
 20
11.7129642297
 10
25.1880099921
 20
11.7820693749
 10
25.041254055
 20
11.8573381014
 10
24.9040607915
 20
11.9383954242
 10
24.7771136916
 20
12.0248375197
 10
24.6610451994
 20
12.1162337378
 10
24.5564335623
 20
12.2121287471
 10
24.4637999501
 20
12.3120448036
 10
24.3836058589
 20
12.4154841304
 10
24.3162508115
 20
12.521931398
 10
24.2620703676
 20
12.6308562915
 10
24.2213344512
 20
12.7417161525
 10
24.1942460067
 20
12.8539586829
 10
24.1809399873
 20
12.9670246959
 10
24.1794681684
 20
13.0192519331
  0
LINE
  5
17E
330
1F
100
AcDbEntity
  8
0
  6
Continuous
 62
     7
370
    25
100
AcDbLine
 10
29.7394278898
 20
16.8753749906
 30
0.0
 11
29.7433624388
 21
16.7884228511
 31
0.0
  0
LINE
  5
17F
330
1F
100
AcDbEntity
  8
0
  6
Continuous
 62
     7
370
    25
100
AcDbLine
 10
24.1781936812
 20
16.7912072879
 30
0.0
 11
24.1820081015
 21
16.8753750301
 31
0.0
  0
CIRCLE
  5
180
330
1F
100
AcDbEntity
  8
0
  6
Continuous
 62
     7
370
    25
100
AcDbCircle
 10
7.6588723088
 20
20.2180890228
 30
0.0
 40
0.1189999999999991
  0
CIRCLE
  5
181
330
1F
100
AcDbEntity
  8
0
  6
Continuous
 62
     7
370
    25
100
AcDbCircle
 10
7.6588723088
 20
20.2180890228
 30
0.0
 40
0.134999999999999
  0
LINE
  5
182
330
1F
100
AcDbEntity
  8
0
  6
Continuous
 62
     7
370
    25
100
AcDbLine
 10
7.6618223938
 20
20.2988642067
 30
0.0
 11
7.59039399
 21
20.2610314633
 31
0.0
  0
LINE
  5
183
330
1F
100
AcDbEntity
  8
0
  6
Continuous
 62
     7
370
    25
100
AcDbLine
 10
7.59039399
 20
20.2610314633
 30
0.0
 11
7.5874439051
 21
20.1802562794
 31
0.0
  0
LINE
  5
184
330
1F
100
AcDbEntity
  8
0
  6
Continuous
 62
     7
370
    25
100
AcDbLine
 10
7.7273506276
 20
20.1751465824
 30
0.0
 11
7.7303007125
 21
20.2559217663
 31
0.0
  0
LINE
  5
185
330
1F
100
AcDbEntity
  8
0
  6
Continuous
 62
     7
370
    25
100
AcDbLine
 10
7.6559222239
 20
20.1373138389
 30
0.0
 11
7.5874439051
 21
20.1802562794
 31
0.0
  0
LINE
  5
186
330
1F
100
AcDbEntity
  8
0
  6
Continuous
 62
     7
370
    25
100
AcDbLine
 10
7.6618223938
 20
20.2988642067
 30
0.0
 11
7.7303007125
 21
20.2559217663
 31
0.0
  0
LINE
  5
187
330
1F
100
AcDbEntity
  8
0
  6
Continuous
 62
     7
370
    25
100
AcDbLine
 10
7.7273506276
 20
20.1751465824
 30
0.0
 11
7.6559222239
 21
20.1373138389
 31
0.0
  0
ARC
  5
188
330
1F
100
AcDbEntity
  8
0
  6
Continuous
 62
     7
370
    25
100
AcDbCircle
 10
7.6588723088
 20
20.2180890228
 30
0.0
 40
0.0700000000000001
100
AcDbArc
 50
57.9083635082
 51
117.9083635082
  0
ARC
  5
189
330
1F
100
AcDbEntity
  8
0
  6
Continuous
 62
     7
370
    25
100
AcDbCircle
 10
7.6588723088
 20
20.2180890228
 30
0.0
 40
0.0699999999999992
100
AcDbArc
 50
297.9083635082
 51
357.9083635082
  0
ARC
  5
18A
330
1F
100
AcDbEntity
  8
0
  6
Continuous
 62
     7
370
    25
100
AcDbCircle
 10
7.6588723088
 20
20.2180890228
 30
0.0
 40
0.0700000000000001
100
AcDbArc
 50
357.9083635082
 51
57.9083635082
  0
ARC
  5
18B
330
1F
100
AcDbEntity
  8
0
  6
Continuous
 62
     7
370
    25
100
AcDbCircle
 10
7.6588723088
 20
20.2180890228
 30
0.0
 40
0.0700000000000006
100
AcDbArc
 50
177.9083635082
 51
237.9083635082
  0
ARC
  5
18C
330
1F
100
AcDbEntity
  8
0
  6
Continuous
 62
     7
370
    25
100
AcDbCircle
 10
7.6588723088
 20
20.2180890228
 30
0.0
 40
0.0700000000000006
100
AcDbArc
 50
237.9083635082
 51
297.9083635082
  0
ARC
  5
18D
330
1F
100
AcDbEntity
  8
0
  6
Continuous
 62
     7
370
    25
100
AcDbCircle
 10
7.6588723088
 20
20.2180890228
 30
0.0
 40
0.0699999999999999
100
AcDbArc
 50
117.9083635082
 51
177.9083635082
  0
CIRCLE
  5
18E
330
1F
100
AcDbEntity
  8
0
  6
Continuous
 62
     7
370
    25
100
AcDbCircle
 10
12.6588723088
 20
20.2180890228
 30
0.0
 40
0.1189999999999996
  0
LINE
  5
18F
330
1F
100
AcDbEntity
  8
0
  6
Continuous
 62
     7
370
    25
100
AcDbLine
 10
12.7237735987
 20
20.1699106469
 30
0.0
 11
12.6495992562
 21
20.1377936691
 31
0.0
  0
LINE
  5
190
330
1F
100
AcDbEntity
  8
0
  6
Continuous
 62
     7
370
    25
100
AcDbLine
 10
12.6495992562
 20
20.1377936691
 30
0.0
 11
12.5846979664
 21
20.1859720451
 31
0.0
  0
LINE
  5
191
330
1F
100
AcDbEntity
  8
0
  6
Continuous
 62
     7
370
    25
100
AcDbLine
 10
12.6681453614
 20
20.2983843766
 30
0.0
 11
12.593971019
 21
20.2662673988
 31
0.0
  0
LINE
  5
192
330
1F
100
AcDbEntity
  8
0
  6
Continuous
 62
     7
370
    25
100
AcDbLine
 10
12.7237735987
 20
20.1699106469
 30
0.0
 11
12.7330466512
 21
20.2502060006
 31
0.0
  0
LINE
  5
193
330
1F
100
AcDbEntity
  8
0
  6
Continuous
 62
     7
370
    25
100
AcDbLine
 10
12.6681453614
 20
20.2983843766
 30
0.0
 11
12.7330466512
 21
20.2502060006
 31
0.0
  0
LINE
  5
194
330
1F
100
AcDbEntity
  8
0
  6
Continuous
 62
     7
370
    25
100
AcDbLine
 10
12.593971019
 20
20.2662673988
 30
0.0
 11
12.5846979664
 21
20.1859720451
 31
0.0
  0
CIRCLE
  5
195
330
1F
100
AcDbEntity
  8
0
  6
Continuous
 62
     7
370
    25
100
AcDbCircle
 10
12.6588723088
 20
20.2180890228
 30
0.0
 40
0.1350000000000006
  0
ARC
  5
196
330
1F
100
AcDbEntity
  8
0
  6
Continuous
 62
     7
370
    25
100
AcDbCircle
 10
12.6588723088
 20
20.2180890228
 30
0.0
 40
0.0700000000000007
100
AcDbArc
 50
53.4122781994
 51
113.4122781994
  0
ARC
  5
197
330
1F
100
AcDbEntity
  8
0
  6
Continuous
 62
     7
370
    25
100
AcDbCircle
 10
12.6588723088
 20
20.2180890228
 30
0.0
 40
0.0700000000000022
100
AcDbArc
 50
173.4122781994
 51
233.4122781994
  0
ARC
  5
198
330
1F
100
AcDbEntity
  8
0
  6
Continuous
 62
     7
370
    25
100
AcDbCircle
 10
12.6588723088
 20
20.2180890228
 30
0.0
 40
0.0700000000000001
100
AcDbArc
 50
293.4122781994
 51
353.4122781994
  0
ARC
  5
199
330
1F
100
AcDbEntity
  8
0
  6
Continuous
 62
     7
370
    25
100
AcDbCircle
 10
12.6588723088
 20
20.2180890228
 30
0.0
 40
0.0700000000000022
100
AcDbArc
 50
233.4122781994
 51
293.4122781994
  0
ARC
  5
19A
330
1F
100
AcDbEntity
  8
0
  6
Continuous
 62
     7
370
    25
100
AcDbCircle
 10
12.6588723088
 20
20.2180890228
 30
0.0
 40
0.0700000000000007
100
AcDbArc
 50
113.4122781994
 51
173.4122781994
  0
ARC
  5
19B
330
1F
100
AcDbEntity
  8
0
  6
Continuous
 62
     7
370
    25
100
AcDbCircle
 10
12.6588723088
 20
20.2180890228
 30
0.0
 40
0.0700000000000001
100
AcDbArc
 50
353.4122781994
 51
53.4122781994
  0
CIRCLE
  5
19C
330
1F
100
AcDbEntity
  8
0
  6
Continuous
 62
     7
370
    25
100
AcDbCircle
 10
10.1588723088
 20
20.2180890228
 30
0.0
 40
2.985000000000018
  0
CIRCLE
  5
19D
330
1F
100
AcDbEntity
  8
0
  6
Continuous
 62
     7
370
    25
100
AcDbCircle
 10
10.1588723088
 20
20.2180890228
 30
0.0
 40
2.875000000000018
  0
CIRCLE
  5
19E
330
1F
100
AcDbEntity
  8
0
  6
Continuous
 62
     7
370
    25
100
AcDbCircle
 10
10.1588723088
 20
20.2180890228
 30
0.0
 40
3.250000000000019
  0
CIRCLE
  5
19F
330
1F
100
AcDbEntity
  8
0
  6
Continuous
 62
     7
370
    25
100
AcDbCircle
 10
10.1588723088
 20
20.2180890228
 30
0.0
 40
1.865000000000018
  0
CIRCLE
  5
1A0
330
1F
100
AcDbEntity
  8
0
  6
Continuous
 62
     7
370
    25
100
AcDbCircle
 10
10.1588723088
 20
20.2180890228
 30
0.0
 40
2.843750000000036
  0
CIRCLE
  5
1A1
330
1F
100
AcDbEntity
  8
0
  6
Continuous
 62
     7
370
    25
100
AcDbCircle
 10
10.1588723088
 20
20.2180890228
 30
0.0
 40
1.900000000000023
  0
CIRCLE
  5
1A2
330
1F
100
AcDbEntity
  8
0
  6
Continuous
 62
     7
370
    25
100
AcDbCircle
 10
7.6588723088
 20
20.2180890228
 30
0.0
 40
0.1450000000000005
  0
CIRCLE
  5
1A3
330
1F
100
AcDbEntity
  8
0
  6
Continuous
 62
     7
370
    25
100
AcDbCircle
 10
12.6588723088
 20
20.2180890228
 30
0.0
 40
0.1450000000000014
  0
DIMENSION
  5
1A4
330
1F
100
AcDbEntity
  8
SLD-0
100
AcDbDimension
  2
_D_7
 10
12.6588723088
 20
24.5579497124
 30
0.0
 11
10.1588723088
 21
24.5579497124
 31
0.0
 70
   160
  1
5" O.C.\P[127mm]
 71
     2
 42
-1.0
  3
SLDDIMSTYLE3
100
AcDbAlignedDimension
 13
7.6588723088
 23
20.2180890228
 33
0.0
 14
12.6588723088
 24
20.2180890228
 34
0.0
100
AcDbRotatedDimension
  0
DIMENSION
  5
1B1
330
1F
100
AcDbEntity
  8
SLD-0
100
AcDbDimension
  2
_D_8
 10
11.9040312211
 20
20.9693681792
 30
0.0
 11
4.997933193
 21
18.9001431744
 31
0.0
 70
   163
  1
<>
 71
     1
 42
-1.0
  3
SLDDIMSTYLE4
100
AcDbDiametricDimension
 15
8.4137133965
 25
19.4668098665
 35
0.0
 40
0.0
  0
DIMENSION
  5
1C5
330
1F
100
AcDbEntity
  8
SLD-0
100
AcDbDimension
  2
_D_9
 10
12.4569693477
 20
22.5161860617
 30
0.0
 11
4.997933193
 21
17.0381209367
 31
0.0
 70
   163
  1
<>
 71
     1
 42
-1.0
  3
SLDDIMSTYLE4
100
AcDbDiametricDimension
 15
7.86077527
 25
17.919991984
 35
0.0
 40
0.0
  0
ENDSEC
  0
SECTION
  2
OBJECTS
  0
DICTIONARY
  5
C
330
0
100
AcDbDictionary
281
     1
  3
ACAD_GROUP
350
D
  3
ACAD_LAYOUT
350
1A
  3
ACAD_MLINESTYLE
350
17
  3
ACAD_PLOTSETTINGS
350
19
  3
ACAD_PLOTSTYLENAME
350
E
  3
ACAD_SCALELIST
350
47
  3
DWGPROPS
350
1D5
  0
DICTIONARY
  5
D
102
{ACAD_REACTORS
330
C
102
}
330
C
100
AcDbDictionary
281
     1
  0
DICTIONARY
  5
1A
102
{ACAD_REACTORS
330
C
102
}
330
C
100
AcDbDictionary
281
     1
  3
Layout1
350
1E
  3
Layout2
350
26
  3
Model
350
22
  0
DICTIONARY
  5
17
102
{ACAD_REACTORS
330
C
102
}
330
C
100
AcDbDictionary
281
     1
  3
Standard
350
18
  0
DICTIONARY
  5
19
102
{ACAD_REACTORS
330
C
102
}
330
C
100
AcDbDictionary
281
     1
  0
ACDBDICTIONARYWDFLT
  5
E
102
{ACAD_REACTORS
330
C
102
}
330
C
100
AcDbDictionary
281
     1
  3
Normal
350
F
100
AcDbDictionaryWithDefault
340
F
  0
DICTIONARY
  5
47
102
{ACAD_REACTORS
330
C
102
}
330
C
100
AcDbDictionary
281
     1
  3
A0
350
48
  3
A1
350
49
  3
A2
350
4A
  3
A3
350
4B
  3
A4
350
4C
  3
A5
350
4D
  3
A6
350
4E
  3
A7
350
4F
  3
A8
350
50
  3
A9
350
51
  3
B1
350
52
  3
B2
350
53
  3
B3
350
54
  3
B4
350
55
  3
B5
350
56
  3
B6
350
57
  3
B7
350
58
  0
XRECORD
  5
1D5
102
{ACAD_REACTORS
330
C
102
}
330
C
100
AcDbXrecord
280
     1
  1
DWGPROPS COOKIE
  2

  3

  4

  6

  7

  8
stevend
  9

300
=
301
=
302
=
303
=
304
=
305
=
306
=
307
=
308
=
309
=
 40
0.0
 41
2460536.157888438
 42
2460536.157889421
  1

 90
        0
  0
LAYOUT
  5
1E
102
{ACAD_REACTORS
330
1A
102
}
330
1A
100
AcDbPlotSettings
  1

  2
none_device
  4

  6

 40
0.0
 41
0.0
 42
0.0
 43
0.0
 44
0.0
 45
0.0
 46
0.0
 47
0.0
 48
0.0
 49
0.0
140
0.0
141
0.0
142
1.0
143
1.0
 70
   688
 72
     0
 73
     0
 74
     5
  7

 75
    16
147
1.0
148
0.0
149
0.0
100
AcDbLayout
  1
Layout1
 70
     1
 71
     1
 10
0.0
 20
0.0
 11
12.0
 21
9.0
 12
0.0
 22
0.0
 32
0.0
 14
1.0000000000E+20
 24
1.0000000000E+20
 34
1.0000000000E+20
 15
-1.0000000000E+20
 25
-1.0000000000E+20
 35
-1.0000000000E+20
146
0.0
 13
0.0
 23
0.0
 33
0.0
 16
1.0
 26
0.0
 36
0.0
 17
0.0
 27
1.0
 37
0.0
 76
     0
330
1B
  0
LAYOUT
  5
26
102
{ACAD_REACTORS
330
1A
102
}
330
1A
100
AcDbPlotSettings
  1

  2
none_device
  4

  6

 40
0.0
 41
0.0
 42
0.0
 43
0.0
 44
0.0
 45
0.0
 46
0.0
 47
0.0
 48
0.0
 49
0.0
140
0.0
141
0.0
142
1.0
143
1.0
 70
   688
 72
     0
 73
     0
 74
     5
  7

 75
    16
147
1.0
148
0.0
149
0.0
100
AcDbLayout
  1
Layout2
 70
     1
 71
     2
 10
0.0
 20
0.0
 11
0.0
 21
0.0
 12
0.0
 22
0.0
 32
0.0
 14
0.0
 24
0.0
 34
0.0
 15
0.0
 25
0.0
 35
0.0
146
0.0
 13
0.0
 23
0.0
 33
0.0
 16
1.0
 26
0.0
 36
0.0
 17
0.0
 27
1.0
 37
0.0
 76
     0
330
23
  0
LAYOUT
  5
22
102
{ACAD_REACTORS
330
1A
102
}
330
1A
100
AcDbPlotSettings
  1

  2
none_device
  4
Letter_(8.50_x_11.00_Inches)
  6

 40
6.35
 41
6.35
 42
6.35000508
 43
6.35000508
 44
215.9
 45
279.4
 46
0.0
 47
0.0
 48
0.0
 49
0.0
140
0.0
141
0.0
142
1.0
143
1.0
 70
  1712
 72
     0
 73
     0
 74
     0
  7

 75
     0
147
1.0
148
0.0
149
0.0
100
AcDbLayout
  1
Model
 70
     1
 71
     0
 10
0.0
 20
0.0
 11
33.0
 21
25.5
 12
0.0
 22
0.0
 32
0.0
 14
0.0
 24
0.0
 34
0.0
 15
33.0
 25
25.5
 35
0.0
146
0.0
 13
0.0
 23
0.0
 33
0.0
 16
1.0
 26
0.0
 36
0.0
 17
0.0
 27
1.0
 37
0.0
 76
     0
330
1F
331
29
  0
MLINESTYLE
  5
18
102
{ACAD_REACTORS
330
17
102
}
330
17
100
AcDbMlineStyle
  2
Standard
 70
     0
  3

 62
   256
 51
90.0
 52
90.0
 71
     2
 49
0.5
 62
   256
  6
BYLAYER
 49
-0.5
 62
   256
  6
BYLAYER
  0
ACDBPLACEHOLDER
  5
F
102
{ACAD_REACTORS
330
E
102
}
330
E
  0
SCALE
  5
48
102
{ACAD_REACTORS
330
47
102
}
330
47
100
AcDbScale
 70
     0
300
1:1
140
1.0
141
1.0
290
     1
  0
SCALE
  5
49
102
{ACAD_REACTORS
330
47
102
}
330
47
100
AcDbScale
 70
     0
300
1/128" = 1'-0"
140
0.0078125
141
12.0
290
     0
  0
SCALE
  5
4A
102
{ACAD_REACTORS
330
47
102
}
330
47
100
AcDbScale
 70
     0
300
1/64" = 1'-0"
140
0.015625
141
12.0
290
     0
  0
SCALE
  5
4B
102
{ACAD_REACTORS
330
47
102
}
330
47
100
AcDbScale
 70
     0
300
1/32" = 1'-0"
140
0.03125
141
12.0
290
     0
  0
SCALE
  5
4C
102
{ACAD_REACTORS
330
47
102
}
330
47
100
AcDbScale
 70
     0
300
1/16" = 1'-0"
140
0.0625
141
12.0
290
     0
  0
SCALE
  5
4D
102
{ACAD_REACTORS
330
47
102
}
330
47
100
AcDbScale
 70
     0
300
3/32" = 1'-0"
140
0.09375
141
12.0
290
     0
  0
SCALE
  5
4E
102
{ACAD_REACTORS
330
47
102
}
330
47
100
AcDbScale
 70
     0
300
1/8" = 1'-0"
140
0.125
141
12.0
290
     0
  0
SCALE
  5
4F
102
{ACAD_REACTORS
330
47
102
}
330
47
100
AcDbScale
 70
     0
300
3/16" = 1'-0"
140
0.1875
141
12.0
290
     0
  0
SCALE
  5
50
102
{ACAD_REACTORS
330
47
102
}
330
47
100
AcDbScale
 70
     0
300
1/4" = 1'-0"
140
0.25
141
12.0
290
     0
  0
SCALE
  5
51
102
{ACAD_REACTORS
330
47
102
}
330
47
100
AcDbScale
 70
     0
300
3/8" = 1'-0"
140
0.375
141
12.0
290
     0
  0
SCALE
  5
52
102
{ACAD_REACTORS
330
47
102
}
330
47
100
AcDbScale
 70
     0
300
1/2" = 1'-0"
140
0.5
141
12.0
290
     0
  0
SCALE
  5
53
102
{ACAD_REACTORS
330
47
102
}
330
47
100
AcDbScale
 70
     0
300
3/4" = 1'-0"
140
0.75
141
12.0
290
     0
  0
SCALE
  5
54
102
{ACAD_REACTORS
330
47
102
}
330
47
100
AcDbScale
 70
     0
300
1" = 1'-0"
140
1.0
141
12.0
290
     0
  0
SCALE
  5
55
102
{ACAD_REACTORS
330
47
102
}
330
47
100
AcDbScale
 70
     0
300
1-1/2" = 1'-0"
140
1.5
141
12.0
290
     0
  0
SCALE
  5
56
102
{ACAD_REACTORS
330
47
102
}
330
47
100
AcDbScale
 70
     0
300
3" = 1'-0"
140
3.0
141
12.0
290
     0
  0
SCALE
  5
57
102
{ACAD_REACTORS
330
47
102
}
330
47
100
AcDbScale
 70
     0
300
6" = 1'-0"
140
6.0
141
12.0
290
     0
  0
SCALE
  5
58
102
{ACAD_REACTORS
330
47
102
}
330
47
100
AcDbScale
 70
     0
300
1'-0" = 1'-0"
140
12.0
141
12.0
290
     0
  0
ENDSEC
  0
EOF
