  0
SECTION
  2
HEADER
  9
$ACADVER
  1
AC1015
  9
$ACADMAINTVER
 70
     6
  9
$DWGCODEPAGE
  3
ANSI_1252
  9
$INSBASE
 10
0.0
 20
0.0
 30
0.0
  9
$EXTMIN
 10
0.0
 20
0.0
 30
0.0
  9
$EXTMAX
 10
44.0
 20
34.0
 30
0.0
  9
$LIMMIN
 10
0.0
 20
0.0
  9
$LIMMAX
 10
44.0
 20
34.0
  9
$ORTHOMODE
 70
     0
  9
$REGENMODE
 70
     1
  9
$FILLMODE
 70
     1
  9
$QTEXTMODE
 70
     0
  9
$MIRRTEXT
 70
     1
  9
$LTSCALE
 40
4.0
  9
$ATTMODE
 70
     1
  9
$TEXTSIZE
 40
0.5
  9
$TRACEWID
 40
0.05
  9
$TEXTSTYLE
  7
Standard
  9
$CLAYER
  8
0
  9
$CELTYPE
  6
ByLayer
  9
$CECOLOR
 62
   256
  9
$CELTSCALE
 40
1.0
  9
$DISPSILH
 70
     0
  9
$DIMSCALE
 40
1.0
  9
$DIMASZ
 40
0.52
  9
$DIMEXO
 40
0.2
  9
$DIMDLI
 40
0.38
  9
$DIMRND
 40
0.0
  9
$DIMDLE
 40
0.0
  9
$DIMEXE
 40
0.5
  9
$DIMTP
 40
0.0
  9
$DIMTM
 40
0.0
  9
$DIMTXT
 40
0.5
  9
$DIMCEN
 40
0.09
  9
$DIMTSZ
 40
0.0
  9
$DIMTOL
 70
     0
  9
$DIMLIM
 70
     0
  9
$DIMTIH
 70
     1
  9
$DIMTOH
 70
     1
  9
$DIMSE1
 70
     0
  9
$DIMSE2
 70
     0
  9
$DIMTAD
 70
     0
  9
$DIMZIN
 70
     1
  9
$DIMBLK
  1

  9
$DIMASO
 70
     1
  9
$DIMSHO
 70
     1
  9
$DIMPOST
  1

  9
$DIMAPOST
  1

  9
$DIMALT
 70
     0
  9
$DIMALTD
 70
     2
  9
$DIMALTF
 40
25.4
  9
$DIMLFAC
 40
1.0
  9
$DIMTOFL
 70
     0
  9
$DIMTVP
 40
0.0
  9
$DIMTIX
 70
     0
  9
$DIMSOXD
 70
     0
  9
$DIMSAH
 70
     0
  9
$DIMBLK1
  1

  9
$DIMBLK2
  1

  9
$DIMSTYLE
  2
Standard
  9
$DIMCLRD
 70
     0
  9
$DIMCLRE
 70
     0
  9
$DIMCLRT
 70
     0
  9
$DIMTFAC
 40
1.0
  9
$DIMGAP
 40
0.24
  9
$DIMJUST
 70
     0
  9
$DIMSD1
 70
     0
  9
$DIMSD2
 70
     0
  9
$DIMTOLJ
 70
     1
  9
$DIMTZIN
 70
     1
  9
$DIMALTZ
 70
     0
  9
$DIMALTTZ
 70
     0
  9
$DIMUPT
 70
     0
  9
$DIMDEC
 70
     0
  9
$DIMTDEC
 70
     0
  9
$DIMALTU
 70
     2
  9
$DIMALTTD
 70
     2
  9
$DIMTXSTY
  7
Standard
  9
$DIMAUNIT
 70
     0
  9
$DIMADEC
 70
     0
  9
$DIMALTRND
 40
0.0
  9
$DIMAZIN
 70
     0
  9
$DIMDSEP
 70
    46
  9
$DIMATFIT
 70
     3
  9
$DIMFRAC
 70
     0
  9
$DIMLDRBLK
  1

  9
$DIMLUNIT
 70
     2
  9
$DIMLWD
 70
    -2
  9
$DIMLWE
 70
    -2
  9
$DIMTMOVE
 70
     0
  9
$LUNITS
 70
     2
  9
$LUPREC
 70
     6
  9
$SKETCHINC
 40
0.1
  9
$FILLETRAD
 40
0.0
  9
$AUNITS
 70
     0
  9
$AUPREC
 70
     2
  9
$MENU
  1
.
  9
$ELEVATION
 40
0.0
  9
$PELEVATION
 40
0.0
  9
$THICKNESS
 40
0.0
  9
$LIMCHECK
 70
     0
  9
$CHAMFERA
 40
0.0
  9
$CHAMFERB
 40
0.0
  9
$CHAMFERC
 40
0.0
  9
$CHAMFERD
 40
0.0
  9
$SKPOLY
 70
     0
  9
$TDCREATE
 40
2460566.330477732
  9
$TDUCREATE
 40
2460566.622144399
  9
$TDUPDATE
 40
2460566.330478091
  9
$TDUUPDATE
 40
2460566.622144757
  9
$TDINDWG
 40
0.0000000116
  9
$TDUSRTIMER
 40
0.0000000116
  9
$USRTIMER
 70
     1
  9
$ANGBASE
 50
0.0
  9
$ANGDIR
 70
     0
  9
$PDMODE
 70
     0
  9
$PDSIZE
 40
-1.0
  9
$PLINEWID
 40
0.0
  9
$SPLFRAME
 70
     0
  9
$SPLINETYPE
 70
     6
  9
$SPLINESEGS
 70
     8
  9
$HANDSEED
  5
1C0
  9
$SURFTAB1
 70
     6
  9
$SURFTAB2
 70
     6
  9
$SURFTYPE
 70
     6
  9
$SURFU
 70
     6
  9
$SURFV
 70
     6
  9
$UCSBASE
  2

  9
$UCSNAME
  2

  9
$UCSORG
 10
0.0
 20
0.0
 30
0.0
  9
$UCSXDIR
 10
1.0
 20
0.0
 30
0.0
  9
$UCSYDIR
 10
0.0
 20
1.0
 30
0.0
  9
$UCSORTHOREF
  2

  9
$UCSORTHOVIEW
 70
     0
  9
$UCSORGTOP
 10
0.0
 20
0.0
 30
0.0
  9
$UCSORGBOTTOM
 10
0.0
 20
0.0
 30
0.0
  9
$UCSORGLEFT
 10
0.0
 20
0.0
 30
0.0
  9
$UCSORGRIGHT
 10
0.0
 20
0.0
 30
0.0
  9
$UCSORGFRONT
 10
0.0
 20
0.0
 30
0.0
  9
$UCSORGBACK
 10
0.0
 20
0.0
 30
0.0
  9
$PUCSBASE
  2

  9
$PUCSNAME
  2

  9
$PUCSORG
 10
0.0
 20
0.0
 30
0.0
  9
$PUCSXDIR
 10
1.0
 20
0.0
 30
0.0
  9
$PUCSYDIR
 10
0.0
 20
1.0
 30
0.0
  9
$PUCSORTHOREF
  2

  9
$PUCSORTHOVIEW
 70
     0
  9
$PUCSORGTOP
 10
0.0
 20
0.0
 30
0.0
  9
$PUCSORGBOTTOM
 10
0.0
 20
0.0
 30
0.0
  9
$PUCSORGLEFT
 10
0.0
 20
0.0
 30
0.0
  9
$PUCSORGRIGHT
 10
0.0
 20
0.0
 30
0.0
  9
$PUCSORGFRONT
 10
0.0
 20
0.0
 30
0.0
  9
$PUCSORGBACK
 10
0.0
 20
0.0
 30
0.0
  9
$USERI1
 70
     0
  9
$USERI2
 70
     0
  9
$USERI3
 70
     0
  9
$USERI4
 70
     0
  9
$USERI5
 70
     0
  9
$USERR1
 40
0.0
  9
$USERR2
 40
0.0
  9
$USERR3
 40
0.0
  9
$USERR4
 40
0.0
  9
$USERR5
 40
0.0
  9
$WORLDVIEW
 70
     1
  9
$SHADEDGE
 70
     3
  9
$SHADEDIF
 70
    70
  9
$TILEMODE
 70
     1
  9
$MAXACTVP
 70
    64
  9
$PINSBASE
 10
0.0
 20
0.0
 30
0.0
  9
$PLIMCHECK
 70
     0
  9
$PEXTMIN
 10
1.0000000000E+20
 20
1.0000000000E+20
 30
1.0000000000E+20
  9
$PEXTMAX
 10
-1.0000000000E+20
 20
-1.0000000000E+20
 30
-1.0000000000E+20
  9
$PLIMMIN
 10
0.0
 20
0.0
  9
$PLIMMAX
 10
12.0
 20
9.0
  9
$UNITMODE
 70
     0
  9
$VISRETAIN
 70
     1
  9
$PLINEGEN
 70
     0
  9
$PSLTSCALE
 70
     1
  9
$TREEDEPTH
 70
  3020
  9
$CMLSTYLE
  2
Standard
  9
$CMLJUST
 70
     0
  9
$CMLSCALE
 40
1.0
  9
$PROXYGRAPHICS
 70
     1
  9
$MEASUREMENT
 70
     0
  9
$CELWEIGHT
370
    -1
  9
$ENDCAPS
280
     0
  9
$JOINSTYLE
280
     0
  9
$LWDISPLAY
290
     1
  9
$INSUNITS
 70
     1
  9
$HYPERLINKBASE
  1

  9
$STYLESHEET
  1

  9
$XEDIT
290
     1
  9
$CEPSNTYPE
380
     0
  9
$PSTYLEMODE
290
     1
  9
$FINGERPRINTGUID
  2
{bf197b0b-910a-43b5-88f7-e34fee83b775}
  9
$VERSIONGUID
  2
{FAEB1C32-E019-11D5-929B-00C0DF256EC4}
  9
$EXTNAMES
290
     1
  9
$PSVPSCALE
 40
0.0
  9
$OLESTARTUP
290
     0
  0
ENDSEC
  0
SECTION
  2
CLASSES
  0
CLASS
  1
ACDBDICTIONARYWDFLT
  2
AcDbDictionaryWithDefault
  3
ObjectDBX Classes
 90
        0
280
     0
281
     0
  0
CLASS
  1
VISUALSTYLE
  2
AcDbVisualStyle
  3
ObjectDBX Classes
 90
     4095
280
     0
281
     0
  0
CLASS
  1
MATERIAL
  2
AcDbMaterial
  3
ObjectDBX Classes
 90
     1153
280
     0
281
     0
  0
CLASS
  1
SCALE
  2
AcDbScale
  3
ObjectDBX Classes
 90
     1153
280
     0
281
     0
  0
CLASS
  1
TABLESTYLE
  2
AcDbTableStyle
  3
ObjectDBX Classes
 90
     4095
280
     0
281
     0
  0
CLASS
  1
MLEADERSTYLE
  2
AcDbMLeaderStyle
  3
ACDB_MLEADERSTYLE_CLASS
 90
     4095
280
     0
281
     0
  0
CLASS
  1
SUN
  2
AcDbSun
  3
SCENEOE
 90
     1153
280
     0
281
     0
  0
CLASS
  1
ACDBPLACEHOLDER
  2
AcDbPlaceHolder
  3
ObjectDBX Classes
 90
        0
280
     0
281
     0
  0
CLASS
  1
LAYOUT
  2
AcDbLayout
  3
ObjectDBX Classes
 90
        0
280
     0
281
     0
  0
ENDSEC
  0
SECTION
  2
TABLES
  0
TABLE
  2
VPORT
  5
8
330
0
100
AcDbSymbolTable
 70
     1
  0
VPORT
  5
29
330
8
100
AcDbSymbolTableRecord
100
AcDbViewportTableRecord
  2
*Active
 70
     0
 10
0.0
 20
0.0
 11
1.0
 21
1.0
 12
22.0
 22
17.0
 13
0.0
 23
0.0
 14
0.5
 24
0.5
 15
0.5
 25
0.5
 16
0.0
 26
0.0
 36
1.0
 17
0.0
 27
0.0
 37
0.0
 40
34.0
 41
1.2941176471
 42
50.0
 43
0.0
 44
0.0
 50
0.0
 51
0.0
 71
     0
 72
  2000
 73
     1
 74
     3
 75
     0
 76
     0
 77
     0
 78
     0
281
     0
 65
     1
110
0.0
120
0.0
130
0.0
111
1.0
121
0.0
131
0.0
112
0.0
122
1.0
132
0.0
 79
     0
146
0.0
  0
ENDTAB
  0
TABLE
  2
LTYPE
  5
5
330
0
100
AcDbSymbolTable
 70
     6
  0
LTYPE
  5
14
330
5
100
AcDbSymbolTableRecord
100
AcDbLinetypeTableRecord
  2
ByBlock
 70
     0
  3

 72
    65
 73
     0
 40
0.0
  0
LTYPE
  5
15
330
5
100
AcDbSymbolTableRecord
100
AcDbLinetypeTableRecord
  2
ByLayer
 70
     0
  3

 72
    65
 73
     0
 40
0.0
  0
LTYPE
  5
16
330
5
100
AcDbSymbolTableRecord
100
AcDbLinetypeTableRecord
  2
Continuous
 70
     0
  3
Solid line
 72
    65
 73
     0
 40
0.0
  0
LTYPE
  5
5E
330
5
100
AcDbSymbolTableRecord
100
AcDbLinetypeTableRecord
  2
HIDDEN
 70
     0
  3
Hidden __ __ __ __ __ __ __ __ __ __ __ __ __ __
 72
    65
 73
     2
 40
0.075
 49
0.05
 74
     0
 49
-0.025
 74
     0
  0
LTYPE
  5
5F
330
5
100
AcDbSymbolTableRecord
100
AcDbLinetypeTableRecord
  2
PHANTOM
 70
     0
  3
Phantom ______  __  __  ______  __  __  ______
 72
    65
 73
     6
 40
0.5
 49
0.25
 74
     0
 49
-0.05
 74
     0
 49
0.05
 74
     0
 49
-0.05
 74
     0
 49
0.05
 74
     0
 49
-0.05
 74
     0
  0
LTYPE
  5
60
330
5
100
AcDbSymbolTableRecord
100
AcDbLinetypeTableRecord
  2
CENTER
 70
     0
  3
Center ____ _ ____ _ ____ _ ____ _ ____ _ ____
 72
    65
 73
     4
 40
0.4
 49
0.25
 74
     0
 49
-0.05
 74
     0
 49
0.05
 74
     0
 49
-0.05
 74
     0
  0
LTYPE
  5
61
330
5
100
AcDbSymbolTableRecord
100
AcDbLinetypeTableRecord
  2
CENTERX2
 70
     0
  3
Center (2x) ________  __  ________  __  _____
 72
    65
 73
     4
 40
0.8
 49
0.5
 74
     0
 49
-0.1
 74
     0
 49
0.1
 74
     0
 49
-0.1
 74
     0
  0
LTYPE
  5
62
330
5
100
AcDbSymbolTableRecord
100
AcDbLinetypeTableRecord
  2
DOT2
 70
     0
  3
Dot (.5x) ........................................
 72
    65
 73
     2
 40
0.025
 49
0.0
 74
     0
 49
-0.025
 74
     0
  0
ENDTAB
  0
TABLE
  2
LAYER
  5
2
330
0
100
AcDbSymbolTable
 70
    12
  0
LAYER
  5
10
330
2
100
AcDbSymbolTableRecord
100
AcDbLayerTableRecord
  2
0
 70
     0
 62
     7
  6
Continuous
370
    -3
390
F
  0
LAYER
  5
63
330
2
100
AcDbSymbolTableRecord
100
AcDbLayerTableRecord
  2
SLD-0
 70
     0
 62
     7
  6
Continuous
370
    -3
390
F
  0
LAYER
  5
64
330
2
100
AcDbSymbolTableRecord
100
AcDbLayerTableRecord
  2
DIM
 70
     0
 62
     7
  6
Continuous
370
    -3
390
F
  0
LAYER
  5
65
330
2
100
AcDbSymbolTableRecord
100
AcDbLayerTableRecord
  2
CEN
 70
     0
 62
     1
  6
CENTER
370
    -3
390
F
  0
LAYER
  5
66
330
2
100
AcDbSymbolTableRecord
100
AcDbLayerTableRecord
  2
HAT
 70
     0
 62
     4
  6
Continuous
370
    -3
390
F
  0
LAYER
  5
67
330
2
100
AcDbSymbolTableRecord
100
AcDbLayerTableRecord
  2
OBJ
 70
     0
 62
     5
  6
Continuous
370
    -3
390
F
  0
LAYER
  5
68
330
2
100
AcDbSymbolTableRecord
100
AcDbLayerTableRecord
  2
SLD-DEFPOINTS
 70
     0
 62
     7
  6
Continuous
370
    -3
390
F
  0
LAYER
  5
69
330
2
100
AcDbSymbolTableRecord
100
AcDbLayerTableRecord
  2
HID
 70
     0
 62
     4
  6
HIDDEN
370
    -3
390
F
  0
LAYER
  5
6A
330
2
100
AcDbSymbolTableRecord
100
AcDbLayerTableRecord
  2
NOTE
 70
     0
 62
     7
  6
Continuous
370
    -3
390
F
  0
LAYER
  5
6B
330
2
100
AcDbSymbolTableRecord
100
AcDbLayerTableRecord
  2
VP
 70
     0
 62
    -5
  6
Continuous
290
     0
370
    -3
390
F
  0
LAYER
  5
6C
330
2
100
AcDbSymbolTableRecord
100
AcDbLayerTableRecord
  2
TITLE
 70
     0
 62
     7
  6
Continuous
370
    -3
390
F
  0
LAYER
  5
6D
330
2
100
AcDbSymbolTableRecord
100
AcDbLayerTableRecord
  2
THICK_TITLE
 70
     0
 62
     7
  6
Continuous
370
   100
390
F
  0
ENDTAB
  0
TABLE
  2
STYLE
  5
3
330
0
100
AcDbSymbolTable
 70
     2
  0
STYLE
  5
11
330
3
100
AcDbSymbolTableRecord
100
AcDbTextStyleTableRecord
  2
Standard
 70
     0
 40
0.0
 41
1.0
 50
0.0
 71
     0
 42
0.5
  3
txt
  4

  0
STYLE
  5
132
330
3
100
AcDbSymbolTableRecord
100
AcDbTextStyleTableRecord
  2
SLDTEXTSTYLE0
 70
     0
 40
0.0
 41
0.75
 50
0.0
 71
     0
 42
0.5
  3
TXT
  4

  0
ENDTAB
  0
TABLE
  2
VIEW
  5
6
330
0
100
AcDbSymbolTable
 70
     0
  0
ENDTAB
  0
TABLE
  2
UCS
  5
7
330
0
100
AcDbSymbolTable
 70
     0
  0
ENDTAB
  0
TABLE
  2
APPID
  5
9
330
0
100
AcDbSymbolTable
 70
     1
  0
APPID
  5
12
330
9
100
AcDbSymbolTableRecord
100
AcDbRegAppTableRecord
  2
ACAD
 70
     0
  0
ENDTAB
  0
TABLE
  2
DIMSTYLE
  5
A
330
0
100
AcDbSymbolTable
 70
     5
100
AcDbDimStyleTable
  0
DIMSTYLE
105
27
330
A
100
AcDbSymbolTableRecord
100
AcDbDimStyleTableRecord
  2
Standard
 70
     0
178
     0
340
11
  0
DIMSTYLE
105
133
102
{ACAD_REACTORS
330
131
102
}
330
A
100
AcDbSymbolTableRecord
100
AcDbDimStyleTableRecord
  2
SLDDIMSTYLE0
 70
     0
 41
0.52
 44
0.0
 45
0.000000001
 78
    12
 79
     3
140
0.5
147
0.125
148
0.000000001
170
     1
173
     1
178
     0
271
     6
272
     0
276
     2
277
     5
284
    12
340
132
  0
DIMSTYLE
105
148
102
{ACAD_REACTORS
330
147
102
}
330
A
100
AcDbSymbolTableRecord
100
AcDbDimStyleTableRecord
  2
SLDDIMSTYLE1
 70
     0
 41
0.52
 44
0.0
 78
    12
 79
     3
140
0.5
144
4.0
147
0.125
148
0.000000001
170
     1
173
     1
178
     0
179
     2
272
     2
276
     2
277
     5
284
    12
340
132
  0
DIMSTYLE
105
154
102
{ACAD_REACTORS
330
153
330
167
330
1AB
102
}
330
A
100
AcDbSymbolTableRecord
100
AcDbDimStyleTableRecord
  2
SLDDIMSTYLE2
 70
     0
 41
0.52
 44
0.0
 45
0.000000001
 78
    12
 79
     3
140
0.5
147
0.125
148
0.000000001
170
     1
172
     1
173
     1
178
     0
271
     6
272
     0
276
     2
277
     5
284
    12
289
     0
340
132
  0
DIMSTYLE
105
19B
102
{ACAD_REACTORS
330
19A
102
}
330
A
100
AcDbSymbolTableRecord
100
AcDbDimStyleTableRecord
  2
SLDDIMSTYLE3
 70
     0
 41
0.52
 44
0.0
 45
0.000000001
 78
    12
 79
     3
140
0.5
141
0.0
147
0.125
148
0.000000001
170
     1
173
     1
178
     0
271
     0
272
     0
276
     2
277
     5
284
    12
340
132
  0
ENDTAB
  0
TABLE
  2
BLOCK_RECORD
  5
1
330
0
100
AcDbSymbolTable
 70
     8
  0
BLOCK_RECORD
  5
1F
330
1
100
AcDbSymbolTableRecord
100
AcDbBlockTableRecord
  2
*Model_Space
340
22
  0
BLOCK_RECORD
  5
1B
330
1
100
AcDbSymbolTableRecord
100
AcDbBlockTableRecord
  2
*Paper_Space
340
1E
  0
BLOCK_RECORD
  5
23
330
1
100
AcDbSymbolTableRecord
100
AcDbBlockTableRecord
  2
*Paper_Space0
340
26
  0
BLOCK_RECORD
  5
6E
330
1
100
AcDbSymbolTableRecord
100
AcDbBlockTableRecord
  2
Block1
340
0
  0
BLOCK_RECORD
  5
134
330
1
100
AcDbSymbolTableRecord
100
AcDbBlockTableRecord
  2
_D
340
0
  0
BLOCK_RECORD
  5
149
330
1
100
AcDbSymbolTableRecord
100
AcDbBlockTableRecord
  2
_D_1
340
0
  0
BLOCK_RECORD
  5
155
330
1
100
AcDbSymbolTableRecord
100
AcDbBlockTableRecord
  2
_D_2
340
0
  0
BLOCK_RECORD
  5
168
330
1
100
AcDbSymbolTableRecord
100
AcDbBlockTableRecord
  2
_D_3
340
0
  0
BLOCK_RECORD
  5
19C
330
1
100
AcDbSymbolTableRecord
100
AcDbBlockTableRecord
  2
_D_4
340
0
  0
BLOCK_RECORD
  5
1AC
330
1
100
AcDbSymbolTableRecord
100
AcDbBlockTableRecord
  2
_D_5
340
0
  0
ENDTAB
  0
ENDSEC
  0
SECTION
  2
BLOCKS
  0
BLOCK
  5
20
330
1F
100
AcDbEntity
  8
0
100
AcDbBlockBegin
  2
*Model_Space
 70
     0
 10
0.0
 20
0.0
 30
0.0
  3
*Model_Space
  1

  0
ENDBLK
  5
21
330
1F
100
AcDbEntity
  8
0
100
AcDbBlockEnd
  0
BLOCK
  5
1C
330
1B
100
AcDbEntity
 67
     1
  8
0
100
AcDbBlockBegin
  2
*Paper_Space
 70
     0
 10
0.0
 20
0.0
 30
0.0
  3
*Paper_Space
  1

  0
ENDBLK
  5
1D
330
1B
100
AcDbEntity
 67
     1
  8
0
100
AcDbBlockEnd
  0
BLOCK
  5
24
330
23
100
AcDbEntity
  8
0
100
AcDbBlockBegin
  2
*Paper_Space0
 70
     0
 10
0.0
 20
0.0
 30
0.0
  3
*Paper_Space0
  1

  0
ENDBLK
  5
25
330
23
100
AcDbEntity
  8
0
100
AcDbBlockEnd
  0
BLOCK
  5
6F
330
6E
100
AcDbEntity
  8
0
100
AcDbBlockBegin
  2
Block1
 70
     0
 10
0.0
 20
0.0
 30
0.0
  3
Block1
  1

  0
ENDBLK
  5
70
330
6E
100
AcDbEntity
  8
0
100
AcDbBlockEnd
  0
BLOCK
  5
135
330
134
100
AcDbEntity
  8
0
100
AcDbBlockBegin
  2
_D
 70
     0
 10
0.0
 20
0.0
 30
0.0
  3
_D
  1

  0
SOLID
  5
137
330
134
100
AcDbEntity
  8
0
  6
Continuous
 62
     7
370
    18
100
AcDbTrace
 10
20.230339335
 20
14.2020049744
 30
0.0
 11
19.710339335
 21
14.2820049744
 31
0.0
 12
19.710339335
 22
14.1220049744
 32
0.0
 13
19.710339335
 23
14.1220049744
 33
0.0
  0
SOLID
  5
138
330
134
100
AcDbEntity
  8
0
  6
Continuous
 62
     7
370
    18
100
AcDbTrace
 10
18.855339335
 20
14.2020049744
 30
0.0
 11
19.375339335
 21
14.1220049744
 31
0.0
 12
19.375339335
 22
14.2820049744
 32
0.0
 13
19.375339335
 23
14.2820049744
 33
0.0
  0
LINE
  5
139
330
134
100
AcDbEntity
  8
0
  6
Continuous
 62
     7
370
     0
100
AcDbLine
 10
21.7555799822
 20
14.1981854518
 30
0.0
 11
21.6032362338
 21
14.1981854518
 31
0.0
  0
LINE
  5
13A
330
134
100
AcDbEntity
  8
0
  6
Continuous
 62
     7
370
     0
100
AcDbLine
 10
21.6032362338
 20
14.1981854518
 30
0.0
 11
21.6032362338
 21
13.404435428
 31
0.0
  0
LINE
  5
13B
330
134
100
AcDbEntity
  8
0
  6
Continuous
 62
     7
370
     0
100
AcDbLine
 10
21.6032362338
 20
13.404435428
 30
0.0
 11
21.7555799822
 21
13.404435428
 31
0.0
  0
LINE
  5
13C
330
134
100
AcDbEntity
  8
0
  6
Continuous
 62
     7
370
     0
100
AcDbLine
 10
23.7444689131
 20
14.1981854518
 30
0.0
 11
23.8968126615
 21
14.1981854518
 31
0.0
  0
LINE
  5
13D
330
134
100
AcDbEntity
  8
0
  6
Continuous
 62
     7
370
     0
100
AcDbLine
 10
23.8968126615
 20
14.1981854518
 30
0.0
 11
23.8968126615
 21
13.404435428
 31
0.0
  0
LINE
  5
13E
330
134
100
AcDbEntity
  8
0
  6
Continuous
 62
     7
370
     0
100
AcDbLine
 10
23.8968126615
 20
13.404435428
 30
0.0
 11
23.7444689131
 21
13.404435428
 31
0.0
  0
LINE
  5
13F
330
134
100
AcDbEntity
  8
0
  6
Continuous
 62
     7
370
     0
100
AcDbLine
 10
20.230339335
 20
9.367319935
 30
0.0
 11
20.230339335
 21
14.7020049744
 31
0.0
  0
LINE
  5
140
330
134
100
AcDbEntity
  8
0
  6
Continuous
 62
     7
370
     0
100
AcDbLine
 10
18.855339335
 20
11.882319935
 30
0.0
 11
18.855339335
 21
14.7020049744
 31
0.0
  0
LINE
  5
141
330
134
100
AcDbEntity
  8
0
  6
Continuous
 62
     7
370
     0
100
AcDbLine
 10
20.230339335
 20
14.2020049744
 30
0.0
 11
21.1647575353
 21
14.2020049744
 31
0.0
  0
LINE
  5
142
330
134
100
AcDbEntity
  8
0
  6
Continuous
 62
     7
370
     0
100
AcDbLine
 10
18.855339335
 20
14.2020049744
 30
0.0
 11
20.230339335
 21
14.2020049744
 31
0.0
  0
MTEXT
  5
143
330
134
100
AcDbEntity
  8
0
  6
Continuous
 62
     7
370
    18
100
AcDbMText
 10
21.4536702626
 20
14.9519207619
 30
0.0
 40
0.5
 41
0.0
 71
     1
 72
     1
  1

  7
SLDTEXTSTYLE0
 73
     1
 44
1.0
  0
MTEXT
  5
144
330
134
100
AcDbEntity
  8
0
  6
Continuous
 62
     7
370
    18
100
AcDbMText
 10
21.8545383224
 20
14.9442818359
 30
0.0
 40
0.5
 41
0.0
 71
     1
 72
     1
  1
1 3/8"
  7
SLDTEXTSTYLE0
 73
     1
 44
1.0
  0
MTEXT
  5
145
330
134
100
AcDbEntity
  8
0
  6
Continuous
 62
     7
370
    18
100
AcDbMText
 10
21.7555799822
 20
14.0489693528
 30
0.0
 40
0.5
 41
0.0
 71
     1
 72
     1
  1
35mm
  7
SLDTEXTSTYLE0
 73
     1
 44
1.0
  0
MTEXT
  5
146
330
134
100
AcDbEntity
  8
0
  6
Continuous
 62
     7
370
    18
100
AcDbMText
 10
24.2366563
 20
14.9519207619
 30
0.0
 40
0.5
 41
0.0
 71
     1
 72
     1
  1

  7
SLDTEXTSTYLE0
 73
     1
 44
1.0
  0
ENDBLK
  5
136
330
134
100
AcDbEntity
  8
0
100
AcDbBlockEnd
  0
BLOCK
  5
14A
330
149
100
AcDbEntity
  8
0
100
AcDbBlockBegin
  2
_D_1
 70
     0
 10
0.0
 20
0.0
 30
0.0
  3
_D_1
  1

  0
ARC
  5
14C
330
149
100
AcDbEntity
  8
0
  6
Continuous
 62
     7
370
    18
100
AcDbCircle
 10
19.230339335
 20
8.8591066761
 30
0.0
 40
4.734733103842647
100
AcDbArc
 50
270.0
 51
296.9365587011
  0
ARC
  5
14D
330
149
100
AcDbEntity
  8
0
  6
Continuous
 62
     7
370
    18
100
AcDbCircle
 10
19.230339335
 20
8.8591066761
 30
0.0
 40
4.734733103842649
100
AcDbArc
 50
311.7116504067
 51
338.0
  0
SOLID
  5
14E
330
149
100
AcDbEntity
  8
0
  6
Continuous
 62
     7
370
    18
100
AcDbTrace
 10
19.230339335
 20
4.1243735723
 30
0.0
 11
19.7539351019
 21
4.0729199733
 31
0.0
 12
19.7451884026
 22
4.2326807171
 32
0.0
 13
19.7451884026
 23
4.2326807171
 33
0.0
  0
SOLID
  5
14F
330
149
100
AcDbEntity
  8
0
  6
Continuous
 62
     7
370
    18
100
AcDbTrace
 10
23.6203074245
 20
7.0854444374
 30
0.0
 11
23.3270209332
 21
6.6486572649
 31
0.0
 12
23.4718719442
 22
6.5807000385
 32
0.0
 13
23.4718719442
 23
6.5807000385
 33
0.0
  0
LINE
  5
150
330
149
100
AcDbEntity
  8
0
  6
Continuous
 62
     7
370
     0
100
AcDbLine
 10
19.230339335
 20
6.452319935
 30
0.0
 11
19.230339335
 21
3.6243735723
 31
0.0
  0
LINE
  5
151
330
149
100
AcDbEntity
  8
0
  6
Continuous
 62
     7
370
     0
100
AcDbLine
 10
20.1998508042
 20
8.4673986163
 30
0.0
 11
24.0838993518
 21
6.8981411407
 31
0.0
  0
MTEXT
  5
152
330
149
100
AcDbEntity
  8
0
  6
Continuous
 62
     7
370
    18
100
AcDbMText
 10
21.3751906946
 20
5.18149395
 30
0.0
 40
0.5
 41
0.0
 71
     1
 72
     1
  1
68°
  7
SLDTEXTSTYLE0
 73
     1
 44
1.0
  0
ENDBLK
  5
14B
330
149
100
AcDbEntity
  8
0
100
AcDbBlockEnd
  0
BLOCK
  5
156
330
155
100
AcDbEntity
  8
0
100
AcDbBlockBegin
  2
_D_2
 70
     0
 10
0.0
 20
0.0
 30
0.0
  3
_D_2
  1

  0
SOLID
  5
158
330
155
100
AcDbEntity
  8
0
  6
Continuous
 62
     7
370
    18
100
AcDbTrace
 10
9.1337724058
 20
10.277319935
 30
0.0
 11
9.2137724058
 21
10.797319935
 31
0.0
 12
9.0537724058
 22
10.797319935
 32
0.0
 13
9.0537724058
 23
10.797319935
 33
0.0
  0
SOLID
  5
159
330
155
100
AcDbEntity
  8
0
  6
Continuous
 62
     7
370
    18
100
AcDbTrace
 10
9.1337724058
 20
8.057319935
 30
0.0
 11
9.0537724058
 21
7.537319935
 31
0.0
 12
9.2137724058
 22
7.537319935
 32
0.0
 13
9.2137724058
 23
7.537319935
 33
0.0
  0
LINE
  5
15A
330
155
100
AcDbEntity
  8
0
  6
Continuous
 62
     7
370
     0
100
AcDbLine
 10
8.1393279771
 20
9.1673198617
 30
0.0
 11
7.9869842286
 21
9.1673198617
 31
0.0
  0
LINE
  5
15B
330
155
100
AcDbEntity
  8
0
  6
Continuous
 62
     7
370
     0
100
AcDbLine
 10
7.9869842286
 20
9.1673198617
 30
0.0
 11
7.9869842286
 21
8.3735698378
 31
0.0
  0
LINE
  5
15C
330
155
100
AcDbEntity
  8
0
  6
Continuous
 62
     7
370
     0
100
AcDbLine
 10
7.9869842286
 20
8.3735698378
 30
0.0
 11
8.1393279771
 21
8.3735698378
 31
0.0
  0
LINE
  5
15D
330
155
100
AcDbEntity
  8
0
  6
Continuous
 62
     7
370
     0
100
AcDbLine
 10
10.1282169079
 20
9.1673198617
 30
0.0
 11
10.2805606564
 21
9.1673198617
 31
0.0
  0
LINE
  5
15E
330
155
100
AcDbEntity
  8
0
  6
Continuous
 62
     7
370
     0
100
AcDbLine
 10
10.2805606564
 20
9.1673198617
 30
0.0
 11
10.2805606564
 21
8.3735698378
 31
0.0
  0
LINE
  5
15F
330
155
100
AcDbEntity
  8
0
  6
Continuous
 62
     7
370
     0
100
AcDbLine
 10
10.2805606564
 20
8.3735698378
 30
0.0
 11
10.1282169079
 21
8.3735698378
 31
0.0
  0
LINE
  5
160
330
155
100
AcDbEntity
  8
0
  6
Continuous
 62
     7
370
     0
100
AcDbLine
 10
15.330339335
 20
10.277319935
 30
0.0
 11
8.6337724058
 21
10.277319935
 31
0.0
  0
LINE
  5
161
330
155
100
AcDbEntity
  8
0
  6
Continuous
 62
     7
370
     0
100
AcDbLine
 10
15.330339335
 20
8.057319935
 30
0.0
 11
8.6337724058
 21
8.057319935
 31
0.0
  0
LINE
  5
162
330
155
100
AcDbEntity
  8
0
  6
Continuous
 62
     7
370
     0
100
AcDbLine
 10
9.1337724058
 20
10.277319935
 30
0.0
 11
9.1337724058
 21
11.277319935
 31
0.0
  0
LINE
  5
163
330
155
100
AcDbEntity
  8
0
  6
Continuous
 62
     7
370
     0
100
AcDbLine
 10
9.1337724058
 20
8.057319935
 30
0.0
 11
9.1337724058
 21
7.057319935
 31
0.0
  0
MTEXT
  5
164
330
155
100
AcDbEntity
  8
0
  6
Continuous
 62
     7
370
    18
100
AcDbMText
 10
7.8612550394
 20
9.9134162825
 30
0.0
 40
0.5
 41
0.0
 71
     1
 72
     1
  1
%%c
  7
SLDTEXTSTYLE0
 73
     1
 44
1.0
  0
MTEXT
  5
165
330
155
100
AcDbEntity
  8
0
  6
Continuous
 62
     7
370
    18
100
AcDbMText
 10
8.6153175217
 20
9.9134162825
 30
0.0
 40
0.5
 41
0.0
 71
     1
 72
     1
  1
2 1/4"
  7
SLDTEXTSTYLE0
 73
     1
 44
1.0
  0
MTEXT
  5
166
330
155
100
AcDbEntity
  8
0
  6
Continuous
 62
     7
370
    18
100
AcDbMText
 10
8.1393279771
 20
9.0181037627
 30
0.0
 40
0.5
 41
0.0
 71
     1
 72
     1
  1
56mm
  7
SLDTEXTSTYLE0
 73
     1
 44
1.0
  0
ENDBLK
  5
157
330
155
100
AcDbEntity
  8
0
100
AcDbBlockEnd
  0
BLOCK
  5
169
330
168
100
AcDbEntity
  8
0
100
AcDbBlockBegin
  2
_D_3
 70
     0
 10
0.0
 20
0.0
 30
0.0
  3
_D_3
  1

  0
SOLID
  5
16B
330
168
100
AcDbEntity
  8
0
  6
Continuous
 62
     7
370
    18
100
AcDbTrace
 10
18.855339335
 20
14.2020049744
 30
0.0
 11
19.375339335
 21
14.1220049744
 31
0.0
 12
19.375339335
 22
14.2820049744
 32
0.0
 13
19.375339335
 23
14.2820049744
 33
0.0
  0
SOLID
  5
16C
330
168
100
AcDbEntity
  8
0
  6
Continuous
 62
     7
370
    18
100
AcDbTrace
 10
15.112839335
 20
14.2020049744
 30
0.0
 11
14.592839335
 21
14.2820049744
 31
0.0
 12
14.592839335
 22
14.1220049744
 32
0.0
 13
14.592839335
 23
14.1220049744
 33
0.0
  0
LINE
  5
16D
330
168
100
AcDbEntity
  8
0
  6
Continuous
 62
     7
370
     0
100
AcDbLine
 10
15.9896449429
 20
14.1981854518
 30
0.0
 11
15.8373011944
 21
14.1981854518
 31
0.0
  0
LINE
  5
16E
330
168
100
AcDbEntity
  8
0
  6
Continuous
 62
     7
370
     0
100
AcDbLine
 10
15.8373011944
 20
14.1981854518
 30
0.0
 11
15.8373011944
 21
13.404435428
 31
0.0
  0
LINE
  5
16F
330
168
100
AcDbEntity
  8
0
  6
Continuous
 62
     7
370
     0
100
AcDbLine
 10
15.8373011944
 20
13.404435428
 30
0.0
 11
15.9896449429
 21
13.404435428
 31
0.0
  0
LINE
  5
170
330
168
100
AcDbEntity
  8
0
  6
Continuous
 62
     7
370
     0
100
AcDbLine
 10
17.9785338737
 20
14.1981854518
 30
0.0
 11
18.1308776222
 21
14.1981854518
 31
0.0
  0
LINE
  5
171
330
168
100
AcDbEntity
  8
0
  6
Continuous
 62
     7
370
     0
100
AcDbLine
 10
18.1308776222
 20
14.1981854518
 30
0.0
 11
18.1308776222
 21
13.404435428
 31
0.0
  0
LINE
  5
172
330
168
100
AcDbEntity
  8
0
  6
Continuous
 62
     7
370
     0
100
AcDbLine
 10
18.1308776222
 20
13.404435428
 30
0.0
 11
17.9785338737
 21
13.404435428
 31
0.0
  0
LINE
  5
173
330
168
100
AcDbEntity
  8
0
  6
Continuous
 62
     7
370
     0
100
AcDbLine
 10
18.855339335
 20
11.882319935
 30
0.0
 11
18.855339335
 21
14.7020049744
 31
0.0
  0
LINE
  5
174
330
168
100
AcDbEntity
  8
0
  6
Continuous
 62
     7
370
     0
100
AcDbLine
 10
15.112839335
 20
9.4225593362
 30
0.0
 11
15.112839335
 21
14.7020049744
 31
0.0
  0
LINE
  5
175
330
168
100
AcDbEntity
  8
0
  6
Continuous
 62
     7
370
     0
100
AcDbLine
 10
18.855339335
 20
14.2020049744
 30
0.0
 11
19.855339335
 21
14.2020049744
 31
0.0
  0
LINE
  5
176
330
168
100
AcDbEntity
  8
0
  6
Continuous
 62
     7
370
     0
100
AcDbLine
 10
15.112839335
 20
14.2020049744
 30
0.0
 11
14.112839335
 21
14.2020049744
 31
0.0
  0
MTEXT
  5
177
330
168
100
AcDbEntity
  8
0
  6
Continuous
 62
     7
370
    18
100
AcDbMText
 10
15.6877352232
 20
14.9519207619
 30
0.0
 40
0.5
 41
0.0
 71
     1
 72
     1
  1

  7
SLDTEXTSTYLE0
 73
     1
 44
1.0
  0
MTEXT
  5
178
330
168
100
AcDbEntity
  8
0
  6
Continuous
 62
     7
370
    18
100
AcDbMText
 10
16.088603283
 20
14.9442818359
 30
0.0
 40
0.5
 41
0.0
 71
     1
 72
     1
  1
3 3/4"
  7
SLDTEXTSTYLE0
 73
     1
 44
1.0
  0
MTEXT
  5
179
330
168
100
AcDbEntity
  8
0
  6
Continuous
 62
     7
370
    18
100
AcDbMText
 10
15.9896449429
 20
14.0489693528
 30
0.0
 40
0.5
 41
0.0
 71
     1
 72
     1
  1
95mm
  7
SLDTEXTSTYLE0
 73
     1
 44
1.0
  0
MTEXT
  5
17A
330
168
100
AcDbEntity
  8
0
  6
Continuous
 62
     7
370
    18
100
AcDbMText
 10
18.4707212606
 20
14.9519207619
 30
0.0
 40
0.5
 41
0.0
 71
     1
 72
     1
  1

  7
SLDTEXTSTYLE0
 73
     1
 44
1.0
  0
ENDBLK
  5
16A
330
168
100
AcDbEntity
  8
0
100
AcDbBlockEnd
  0
BLOCK
  5
19D
330
19C
100
AcDbEntity
  8
0
100
AcDbBlockBegin
  2
_D_4
 70
     0
 10
0.0
 20
0.0
 30
0.0
  3
_D_4
  1

  0
SOLID
  5
19F
330
19C
100
AcDbEntity
  8
0
  6
Continuous
 62
     7
370
    18
100
AcDbTrace
 10
33.9266742884
 20
11.394349175
 30
0.0
 11
34.239127945
 21
11.8176371532
 31
0.0
 12
34.0974481524
 22
11.8919798487
 32
0.0
 13
34.0974481524
 23
11.8919798487
 33
0.0
  0
LINE
  5
1A0
330
19C
100
AcDbEntity
  8
0
  6
Continuous
 62
     7
370
     0
100
AcDbLine
 10
36.4539506606
 20
13.7243175973
 30
0.0
 11
36.3016069121
 21
13.7243175973
 31
0.0
  0
LINE
  5
1A1
330
19C
100
AcDbEntity
  8
0
  6
Continuous
 62
     7
370
     0
100
AcDbLine
 10
36.3016069121
 20
13.7243175973
 30
0.0
 11
36.3016069121
 21
12.9305675734
 31
0.0
  0
LINE
  5
1A2
330
19C
100
AcDbEntity
  8
0
  6
Continuous
 62
     7
370
     0
100
AcDbLine
 10
36.3016069121
 20
12.9305675734
 30
0.0
 11
36.4539506606
 21
12.9305675734
 31
0.0
  0
LINE
  5
1A3
330
19C
100
AcDbEntity
  8
0
  6
Continuous
 62
     7
370
     0
100
AcDbLine
 10
38.8122839636
 20
13.7243175973
 30
0.0
 11
38.964627712
 21
13.7243175973
 31
0.0
  0
LINE
  5
1A4
330
19C
100
AcDbEntity
  8
0
  6
Continuous
 62
     7
370
     0
100
AcDbLine
 10
38.964627712
 20
13.7243175973
 30
0.0
 11
38.964627712
 21
12.9305675734
 31
0.0
  0
LINE
  5
1A5
330
19C
100
AcDbEntity
  8
0
  6
Continuous
 62
     7
370
     0
100
AcDbLine
 10
38.964627712
 20
12.9305675734
 30
0.0
 11
38.8122839636
 21
12.9305675734
 31
0.0
  0
LINE
  5
1A6
330
19C
100
AcDbEntity
  8
0
  6
Continuous
 62
     7
370
     0
100
AcDbLine
 10
33.9266742884
 20
11.394349175
 30
0.0
 11
35.1492631637
 21
13.7243176706
 31
0.0
  0
LINE
  5
1A7
330
19C
100
AcDbEntity
  8
0
  6
Continuous
 62
     7
370
     0
100
AcDbLine
 10
35.1492631637
 20
13.7243176706
 30
0.0
 11
36.1492631637
 21
13.7243176706
 31
0.0
  0
MTEXT
  5
1A8
330
19C
100
AcDbEntity
  8
0
  6
Continuous
 62
     7
370
    18
100
AcDbMText
 10
36.9682388295
 20
14.4704140181
 30
0.0
 40
0.5
 41
0.0
 71
     1
 72
     1
  1
%%c
  7
SLDTEXTSTYLE0
 73
     1
 44
1.0
  0
MTEXT
  5
1A9
330
19C
100
AcDbEntity
  8
0
  6
Continuous
 62
     7
370
    18
100
AcDbMText
 10
37.7223013118
 20
14.4704140181
 30
0.0
 40
0.5
 41
0.0
 71
     1
 72
     1
  1
5"
  7
SLDTEXTSTYLE0
 73
     1
 44
1.0
  0
MTEXT
  5
1AA
330
19C
100
AcDbEntity
  8
0
  6
Continuous
 62
     7
370
    18
100
AcDbMText
 10
36.4539506606
 20
13.5751014983
 30
0.0
 40
0.5
 41
0.0
 71
     1
 72
     1
  1
128mm
  7
SLDTEXTSTYLE0
 73
     1
 44
1.0
  0
ENDBLK
  5
19E
330
19C
100
AcDbEntity
  8
0
100
AcDbBlockEnd
  0
BLOCK
  5
1AD
330
1AC
100
AcDbEntity
  8
0
100
AcDbBlockBegin
  2
_D_5
 70
     0
 10
0.0
 20
0.0
 30
0.0
  3
_D_5
  1

  0
SOLID
  5
1AF
330
1AC
100
AcDbEntity
  8
0
  6
Continuous
 62
     7
370
    18
100
AcDbTrace
 10
31.0081000442
 20
14.2020049744
 30
0.0
 11
30.4881000442
 21
14.2820049744
 31
0.0
 12
30.4881000442
 22
14.1220049744
 32
0.0
 13
30.4881000442
 23
14.1220049744
 33
0.0
  0
SOLID
  5
1B0
330
1AC
100
AcDbEntity
  8
0
  6
Continuous
 62
     7
370
    18
100
AcDbTrace
 10
34.5081000442
 20
14.2020049744
 30
0.0
 11
35.0281000442
 21
14.1220049744
 31
0.0
 12
35.0281000442
 22
14.2820049744
 32
0.0
 13
35.0281000442
 23
14.2820049744
 33
0.0
  0
LINE
  5
1B1
330
1AC
100
AcDbEntity
  8
0
  6
Continuous
 62
     7
370
     0
100
AcDbLine
 10
31.7636556522
 20
14.1981854518
 30
0.0
 11
31.6113119037
 21
14.1981854518
 31
0.0
  0
LINE
  5
1B2
330
1AC
100
AcDbEntity
  8
0
  6
Continuous
 62
     7
370
     0
100
AcDbLine
 10
31.6113119037
 20
14.1981854518
 30
0.0
 11
31.6113119037
 21
13.404435428
 31
0.0
  0
LINE
  5
1B3
330
1AC
100
AcDbEntity
  8
0
  6
Continuous
 62
     7
370
     0
100
AcDbLine
 10
31.6113119037
 20
13.404435428
 30
0.0
 11
31.7636556522
 21
13.404435428
 31
0.0
  0
LINE
  5
1B4
330
1AC
100
AcDbEntity
  8
0
  6
Continuous
 62
     7
370
     0
100
AcDbLine
 10
33.752544583
 20
14.1981854518
 30
0.0
 11
33.9048883315
 21
14.1981854518
 31
0.0
  0
LINE
  5
1B5
330
1AC
100
AcDbEntity
  8
0
  6
Continuous
 62
     7
370
     0
100
AcDbLine
 10
33.9048883315
 20
14.1981854518
 30
0.0
 11
33.9048883315
 21
13.404435428
 31
0.0
  0
LINE
  5
1B6
330
1AC
100
AcDbEntity
  8
0
  6
Continuous
 62
     7
370
     0
100
AcDbLine
 10
33.9048883315
 20
13.404435428
 30
0.0
 11
33.752544583
 21
13.404435428
 31
0.0
  0
LINE
  5
1B7
330
1AC
100
AcDbEntity
  8
0
  6
Continuous
 62
     7
370
     0
100
AcDbLine
 10
31.0081000442
 20
9.367319935
 30
0.0
 11
31.0081000442
 21
14.7020049744
 31
0.0
  0
LINE
  5
1B8
330
1AC
100
AcDbEntity
  8
0
  6
Continuous
 62
     7
370
     0
100
AcDbLine
 10
34.5081000442
 20
9.367319935
 30
0.0
 11
34.5081000442
 21
14.7020049744
 31
0.0
  0
LINE
  5
1B9
330
1AC
100
AcDbEntity
  8
0
  6
Continuous
 62
     7
370
     0
100
AcDbLine
 10
31.0081000442
 20
14.2020049744
 30
0.0
 11
30.0081000442
 21
14.2020049744
 31
0.0
  0
LINE
  5
1BA
330
1AC
100
AcDbEntity
  8
0
  6
Continuous
 62
     7
370
     0
100
AcDbLine
 10
34.5081000442
 20
14.2020049744
 30
0.0
 11
35.5081000442
 21
14.2020049744
 31
0.0
  0
MTEXT
  5
1BB
330
1AC
100
AcDbEntity
  8
0
  6
Continuous
 62
     7
370
    18
100
AcDbMText
 10
31.4617459325
 20
14.9519207619
 30
0.0
 40
0.5
 41
0.0
 71
     1
 72
     1
  1

  7
SLDTEXTSTYLE0
 73
     1
 44
1.0
  0
MTEXT
  5
1BC
330
1AC
100
AcDbEntity
  8
0
  6
Continuous
 62
     7
370
    18
100
AcDbMText
 10
31.8626139923
 20
14.9442818359
 30
0.0
 40
0.5
 41
0.0
 71
     1
 72
     1
  1
3 1/2"
  7
SLDTEXTSTYLE0
 73
     1
 44
1.0
  0
MTEXT
  5
1BD
330
1AC
100
AcDbEntity
  8
0
  6
Continuous
 62
     7
370
    18
100
AcDbMText
 10
31.7636556522
 20
14.0489693528
 30
0.0
 40
0.5
 41
0.0
 71
     1
 72
     1
  1
89mm
  7
SLDTEXTSTYLE0
 73
     1
 44
1.0
  0
MTEXT
  5
1BE
330
1AC
100
AcDbEntity
  8
0
  6
Continuous
 62
     7
370
    18
100
AcDbMText
 10
34.2447319699
 20
14.9519207619
 30
0.0
 40
0.5
 41
0.0
 71
     1
 72
     1
  1

  7
SLDTEXTSTYLE0
 73
     1
 44
1.0
  0
ENDBLK
  5
1AE
330
1AC
100
AcDbEntity
  8
0
100
AcDbBlockEnd
  0
ENDSEC
  0
SECTION
  2
ENTITIES
  0
LINE
  5
71
330
1F
100
AcDbEntity
  8
0
  6
Continuous
 62
     7
370
    25
100
AcDbLine
 10
30.8109873134
 20
25.9973219073
 30
0.0
 11
30.5458222704
 21
25.8442453863
 31
0.0
  0
LINE
  5
72
330
1F
100
AcDbEntity
  8
0
  6
Continuous
 62
     7
370
    25
100
AcDbLine
 10
33.060617883
 20
21.4880196085
 30
0.0
 11
33.325782926
 21
21.6410961295
 31
0.0
  0
ARC
  5
73
330
1F
100
AcDbEntity
  8
0
  6
Continuous
 62
     7
370
    25
100
AcDbCircle
 10
31.8120589115
 20
23.6712350481
 30
0.0
 40
1.0125
100
AcDbArc
 50
120.8636979963
 51
180.0
  0
ARC
  5
74
330
1F
100
AcDbEntity
  8
0
  6
Continuous
 62
     7
370
    25
100
AcDbCircle
 10
31.8120589115
 20
23.6712350481
 30
0.0
 40
1.0125
100
AcDbArc
 50
298.4376832933
 51
299.130925471
  0
ARC
  5
75
330
1F
100
AcDbEntity
  8
0
  6
Continuous
 62
     7
370
    25
100
AcDbCircle
 10
31.8120589115
 20
23.6712350481
 30
0.0
 40
1.012499999999996
100
AcDbArc
 50
180.0
 51
229.1105837065
  0
LINE
  5
76
330
1F
100
AcDbEntity
  8
0
  6
Continuous
 62
     7
370
    25
100
AcDbLine
 10
33.8645602705
 20
26.1378017415
 30
0.0
 11
32.6419195646
 21
25.4319862857
 31
0.0
  0
LINE
  5
77
330
1F
100
AcDbEntity
  8
0
  6
Continuous
 62
     7
370
    25
100
AcDbLine
 10
33.7518293578
 20
23.5093578112
 30
0.0
 11
34.9744700637
 21
24.215173267
 31
0.0
  0
LINE
  5
78
330
1F
100
AcDbEntity
  8
0
  6
Continuous
 62
     7
370
    25
100
AcDbLine
 10
35.2044036942
 20
24.7233810022
 30
0.0
 11
35.2044036942
 21
24.7478732456
 31
0.0
  0
LINE
  5
79
330
1F
100
AcDbEntity
  8
0
  6
Continuous
 62
     7
370
    25
100
AcDbLine
 10
34.4408524893
 20
26.0705260389
 30
0.0
 11
34.4196427336
 21
26.082774151
 31
0.0
  0
LINE
  5
7A
330
1F
100
AcDbEntity
  8
0
  6
Continuous
 62
     7
370
    25
100
AcDbLine
 10
36.3131484149
 20
26.3677155268
 30
0.0
 11
35.9595950243
 21
26.1636134989
 31
0.0
  0
LINE
  5
7B
330
1F
100
AcDbEntity
  8
0
  6
Continuous
 62
     7
370
    25
100
AcDbLine
 10
36.0945840532
 20
25.9297803061
 30
0.0
 11
36.4481374438
 21
26.133882334
 31
0.0
  0
LINE
  5
7C
330
1F
100
AcDbEntity
  8
0
  6
Continuous
 62
     7
370
    25
100
AcDbLine
 10
36.5105484341
 20
26.4340420253
 30
0.0
 11
36.3823450625
 21
26.3600317942
 31
0.0
  0
LINE
  5
7D
330
1F
100
AcDbEntity
  8
0
  6
Continuous
 62
     7
370
    25
100
AcDbLine
 10
36.0215615717
 20
26.1517559182
 30
0.0
 11
34.9584963204
 21
25.5380614115
 31
0.0
  0
LINE
  5
7E
330
1F
100
AcDbEntity
  8
0
  6
Continuous
 62
     7
370
    25
100
AcDbLine
 10
35.0478700562
 20
25.3731552845
 30
0.0
 11
36.1153039529
 21
25.9893717566
 31
0.0
  0
LINE
  5
7F
330
1F
100
AcDbEntity
  8
0
  6
Continuous
 62
     7
370
    25
100
AcDbLine
 10
36.4760874437
 20
26.1976476325
 30
0.0
 11
36.6042908153
 21
26.2716578636
 31
0.0
  0
LINE
  5
80
330
1F
100
AcDbEntity
  8
0
  6
Continuous
 62
     7
370
    25
100
AcDbLine
 10
36.3812136838
 20
26.4750257289
 30
0.0
 11
34.9040537399
 21
25.6222794444
 31
0.0
  0
LWPOLYLINE
  5
81
330
1F
100
AcDbEntity
  8
0
  6
Continuous
 62
     7
370
    25
100
AcDbPolyline
 90
       40
 70
   128
 43
0.0
 10
33.5090681479
 20
24.3349699988
 10
33.5116084016
 20
24.3251729711
 10
33.5153438485
 20
24.3159511215
 10
33.5201777423
 20
24.3075432911
 10
33.5259848877
 20
24.3001672383
 10
33.5326148827
 20
24.2940139989
 10
33.539896014
 20
24.2892429388
 10
33.5476397041
 20
24.2859776257
 10
33.5556453954
 20
24.2843026296
 10
33.5637057447
 20
24.284261332
 10
33.5716119933
 20
24.2858548026
 10
33.5791593734
 20
24.2890417712
 10
33.586152412
 20
24.293739697
 10
33.5924099928
 20
24.2998269062
 10
33.597770048
 20
24.3071457434
 10
33.6020937548
 20
24.3155066544
 10
33.6052691316
 20
24.3246930961
 10
33.6072139377
 20
24.3344671444
 10
33.6078778038
 20
24.3445756567
 10
33.6072435359
 20
24.3547568277
 10
33.6053275614
 20
24.3647469705
 10
33.6021795029
 20
24.3742873457
 10
33.5978808935
 20
24.3831308625
 10
33.592543065
 20
24.3910484785
 10
33.5863042642
 20
24.3978351316
 10
33.5793260729
 20
24.403315051
 10
33.5717892226
 20
24.4073463098
 10
33.5638889136
 20
24.4098245004
 10
33.55582976
 20
24.4106854389
 10
33.5478204894
 20
24.4099068277
 10
33.5400685378
 20
24.4075088321
 10
33.5327746768
 20
24.4035535592
 10
33.5261278133
 20
24.3981434483
 10
33.5203000978
 20
24.3914186186
 10
33.515442465
 20
24.3835532395
 10
33.5116807251
 20
24.3747510203
 10
33.509112305
 20
24.3652399337
 10
33.5078037256
 20
24.3552663121
 10
33.5077888784
 20
24.3450884668
 10
33.5090681479
 20
24.3349699988
  0
LWPOLYLINE
  5
82
330
1F
100
AcDbEntity
  8
0
  6
Continuous
 62
     7
370
    25
100
AcDbPolyline
 90
       44
 70
   128
 43
0.0
 10
33.5370968133
 20
24.4195698563
 10
33.5455577763
 20
24.4209130645
 10
33.5541359356
 20
24.4206762989
 10
33.5626484628
 20
24.4188646058
 10
33.570913928
 20
24.4155165984
 10
33.5787561673
 20
24.4107036335
 10
33.586008037
 20
24.4045282913
 10
33.5925149759
 20
24.3971221883
 10
33.5981383001
 20
24.3886431728
 10
33.6027581581
 20
24.3792719603
 10
33.6062760857
 20
24.3692082819
 10
33.6086171044
 20
24.3586666274
 10
33.6097313193
 20
24.347871674
 10
33.609594983
 20
24.3370534973
 10
33.6082110012
 20
24.326442668
 10
33.6056088711
 20
24.3162653374
 10
33.6018440526
 20
24.3067384177
 10
33.5969967862
 20
24.2980649587
 10
33.5911703831
 20
24.29042982
 10
33.5844890228
 20
24.2839957315
 10
33.577095107
 20
24.2788998244
 10
33.5691462242
 20
24.2752507093
 10
33.5608117909
 20
24.2731261607
 10
33.5522694412
 20
24.2725714596
 10
33.5437012404
 20
24.2735984286
 10
33.5352898049
 20
24.2761851796
 10
33.5272144098
 20
24.2802765804
 10
33.519647168
 20
24.28578543
 10
33.5127493623
 20
24.2925943169
 10
33.5066680074
 20
24.3005581213
 10
33.5015327168
 20
24.3095071086
 10
33.4974529404
 20
24.3192505468
 10
33.4945156313
 20
24.3295807713
 10
33.4927833934
 20
24.3402776114
 10
33.4922931463
 20
24.3511130824
 10
33.4930553386
 20
24.3618562451
 10
33.4950537257
 20
24.3722781277
 10
33.4982457153
 20
24.3821566058
 10
33.5025632758
 20
24.3912811369
 10
33.5079143858
 20
24.3994572473
 10
33.5141849957
 20
24.4065106774
 10
33.5212414584
 20
24.4122910957
 10
33.5289333776
 20
24.4166753026
 10
33.5370968133
 20
24.4195698563
  0
LINE
  5
83
330
1F
100
AcDbEntity
  8
0
  6
Continuous
 62
     7
370
    25
100
AcDbLine
 10
33.5823708341
 20
24.3136031222
 30
0.0
 11
33.5923388495
 21
24.3561967155
 31
0.0
  0
LINE
  5
84
330
1F
100
AcDbEntity
  8
0
  6
Continuous
 62
     7
370
    25
100
AcDbLine
 10
33.5677238031
 20
24.389974665
 30
0.0
 11
33.5923388495
 21
24.3561967155
 31
0.0
  0
LINE
  5
85
330
1F
100
AcDbEntity
  8
0
  6
Continuous
 62
     7
370
    25
100
AcDbLine
 10
33.5331407414
 20
24.381159021
 30
0.0
 11
33.5677238031
 21
24.389974665
 31
0.0
  0
LINE
  5
86
330
1F
100
AcDbEntity
  8
0
  6
Continuous
 62
     7
370
    25
100
AcDbLine
 10
33.5331407414
 20
24.381159021
 30
0.0
 11
33.523172726
 21
24.3385654277
 31
0.0
  0
LINE
  5
87
330
1F
100
AcDbEntity
  8
0
  6
Continuous
 62
     7
370
    25
100
AcDbLine
 10
33.5477877724
 20
24.3047874782
 30
0.0
 11
33.523172726
 21
24.3385654277
 31
0.0
  0
LINE
  5
88
330
1F
100
AcDbEntity
  8
0
  6
Continuous
 62
     7
370
    25
100
AcDbLine
 10
33.5477877724
 20
24.3047874782
 30
0.0
 11
33.5823708341
 21
24.3136031222
 31
0.0
  0
LINE
  5
89
330
1F
100
AcDbEntity
  8
0
  6
Continuous
 62
     7
370
    25
100
AcDbLine
 10
33.5438720978
 20
24.310160755
 30
0.0
 11
33.5823708341
 21
24.3136031222
 31
0.0
  0
LINE
  5
8A
330
1F
100
AcDbEntity
  8
0
  6
Continuous
 62
     7
370
    25
100
AcDbLine
 10
33.5372253303
 20
24.3512687364
 30
0.0
 11
33.5923388495
 21
24.3561967155
 31
0.0
  0
LINE
  5
8B
330
1F
100
AcDbEntity
  8
0
  6
Continuous
 62
     7
370
    25
100
AcDbLine
 10
33.5288388752
 20
24.3627770331
 30
0.0
 11
33.5372253303
 21
24.3512687364
 31
0.0
  0
LINE
  5
8C
330
1F
100
AcDbEntity
  8
0
  6
Continuous
 62
     7
370
    25
100
AcDbLine
 10
33.5315591811
 20
24.327057131
 30
0.0
 11
33.5372253303
 21
24.3512687364
 31
0.0
  0
ARC
  5
8D
330
1F
100
AcDbEntity
  8
0
  6
Continuous
 62
     7
370
    25
100
AcDbCircle
 10
33.1529898646
 20
23.9082895797
 30
0.0
 40
0.6872385067939816
100
AcDbArc
 50
328.7886696097
 51
2.2730898727
  0
LWPOLYLINE
  5
8E
330
1F
100
AcDbEntity
  8
0
  6
Continuous
 62
     7
370
    25
100
AcDbPolyline
 90
       57
 70
   128
 43
0.0
 10
32.6734536451
 20
25.4009921528
 10
32.6795259369
 20
25.4013441287
 10
32.7057218618
 20
25.4019586978
 10
32.7324118665
 20
25.4011390468
 10
32.7595581742
 20
25.3988863361
 10
32.7871223624
 20
25.395203754
 10
32.8150654171
 20
25.3900965128
 10
32.843347788
 20
25.3835718413
 10
32.8719294445
 20
25.3756389744
 10
32.9007699325
 20
25.3663091401
 10
32.9298284316
 20
25.3555955439
 10
32.9590638127
 20
25.3435133495
 10
32.9884346963
 20
25.3300796581
 10
33.0178995113
 20
25.3153134835
 10
33.0474165535
 20
25.2992357256
 10
33.0769440448
 20
25.2818691405
 10
33.1064401924
 20
25.2632383089
 10
33.1358632478
 20
25.2433696005
 10
33.1651715659
 20
25.2222911374
 10
33.1943236642
 20
25.2000327536
 10
33.2232782809
 20
25.1766259534
 10
33.2519944342
 20
25.1521038666
 10
33.2804314795
 20
25.1265012015
 10
33.3085491674
 20
25.0998541957
 10
33.3363077005
 20
25.072200565
 10
33.3636677895
 20
25.0435794502
 10
33.3905907094
 20
25.0140313612
 10
33.4170383539
 20
24.98359812
 10
33.4429732891
 20
24.9523228015
 10
33.4683588071
 20
24.9202496724
 10
33.4931589777
 20
24.8874241286
 10
33.5173386987
 20
24.8538926309
 10
33.5408637467
 20
24.8197026396
 10
33.5637008245
 20
24.7849025467
 10
33.5858176088
 20
24.7495416078
 10
33.6071827957
 20
24.7136698723
 10
33.6277661453
 20
24.6773381128
 10
33.647538524
 20
24.6405977528
 10
33.6664719464
 20
24.6035007941
 10
33.6845396142
 20
24.5660997433
 10
33.7017159547
 20
24.5284475375
 10
33.7179766567
 20
24.4905974691
 10
33.733298705
 20
24.4526031106
 10
33.7476604129
 20
24.4145182389
 10
33.7610414531
 20
24.3763967588
 10
33.7734228862
 20
24.3382926269
 10
33.7847871877
 20
24.3002597756
 10
33.7951182726
 20
24.2623520358
 10
33.8044015185
 20
24.224623062
 10
33.812623786
 20
24.1871262551
 10
33.8197734373
 20
24.1499146878
 10
33.825840353
 20
24.1130410288
 10
33.830815946
 20
24.0765574687
 10
33.8346931739
 20
24.0405156458
 10
33.8374665489
 20
24.0049665734
 10
33.8391321456
 20
23.9699605672
 10
33.8396876065
 20
23.9355471743
  0
SPLINE
  5
8F
330
1F
100
AcDbEntity
  8
0
  6
Continuous
 62
     7
370
    25
100
AcDbSpline
210
0.0
220
0.0
230
1.0
 70
    11
 71
     3
 72
    44
 73
    40
 74
     0
 42
0.00000001
 43
0.00000001
 40
0.0
 40
0.0
 40
0.0
 40
0.0
 40
0.0237198119989267
 40
0.0474366712057337
 40
0.073777474192668
 40
0.1001154197687232
 40
0.1256952323470935
 40
0.1512758430525009
 40
0.1766278522684858
 40
0.2019832173787641
 40
0.2278008303448402
 40
0.2536224855959509
 40
0.2803266916887203
 40
0.3070340437500048
 40
0.3346221615742057
 40
0.3622115252266485
 40
0.3903381916616107
 40
0.4184636628946295
 40
0.4466267099779054
 40
0.4747859286760318
 40
0.5024481435350097
 40
0.530105016104352
 40
0.5568441625021795
 40
0.5835793827572722
 40
0.6093759393619439
 40
0.6351721571272291
 40
0.6605171027517401
 40
0.6858647917454381
 40
0.7114706038831929
 40
0.7370804347464381
 40
0.7634828204214099
 40
0.7898887751236916
 40
0.8172209166991267
 40
0.84455498117378
 40
0.8725609009359354
 40
0.9005664450270662
 40
0.9287761606624272
 40
0.9569828558998286
 40
1.0
 40
1.0
 40
1.0
 40
1.0
 10
33.58265858433545
 20
24.42282539755815
 30
0.0
 10
33.58576058418399
 20
24.42103250462547
 30
0.0
 10
33.59196419772452
 20
24.41744694195074
 30
0.0
 10
33.60068229525429
 20
24.40974858931388
 30
0.0
 10
33.60860286305864
 20
24.40021478000817
 30
0.0
 10
33.61524732389343
 20
24.38892038090045
 30
0.0
 10
33.62011700826838
 20
24.37655993986601
 30
0.0
 10
33.62319642830217
 20
24.36359600525575
 30
0.0
 10
33.62440211981245
 20
24.35026794468745
 30
0.0
 10
33.62383148108566
 20
24.33688004224191
 30
0.0
 10
33.62143853431915
 20
24.32376003547484
 30
0.0
 10
33.61732732528083
 20
24.31110245315814
 30
0.0
 10
33.61154414025874
 20
24.29936774343626
 30
0.0
 10
33.60420771688566
 20
24.28874046081215
 30
0.0
 10
33.59551131003557
 20
24.27972810755444
 30
0.0
 10
33.58564829264207
 20
24.2725180015571
 30
0.0
 10
33.57493782576631
 20
24.26752471493384
 30
0.0
 10
33.56367597353488
 20
24.26485529273332
 30
0.0
 10
33.55222584312279
 20
24.26473557702841
 30
0.0
 10
33.54095987082878
 20
24.26708669670442
 30
0.0
 10
33.530204250677
 20
24.27192915376435
 30
0.0
 10
33.52033175145296
 20
24.27893086147311
 30
0.0
 10
33.51157670142216
 20
24.28795342908144
 30
0.0
 10
33.50419341085507
 20
24.29846813598198
 30
0.0
 10
33.49831475909621
 20
24.31027446844823
 30
0.0
 10
33.49401549284214
 20
24.32285074441387
 30
0.0
 10
33.49138506966032
 20
24.33598654628625
 30
0.0
 10
33.49038782926517
 20
24.34932575948201
 30
0.0
 10
33.49111613283199
 20
24.36258511775788
 30
0.0
 10
33.49352044793337
 20
24.37555237208246
 30
0.0
 10
33.49765428708817
 20
24.38781075422238
 30
0.0
 10
33.50346587711147
 20
24.39918462321204
 30
0.0
 10
33.51088608369115
 20
24.40917316877777
 30
0.0
 10
33.51979012769872
 20
24.41758903473071
 30
0.0
 10
33.52994337766918
 20
24.42397395354233
 30
0.0
 10
33.54108187846695
 20
24.42820140722818
 30
0.0
 10
33.55282632929704
 20
24.42991133982958
 30
0.0
 10
33.56699115699526
 20
24.42926720004784
 30
0.0
 10
33.57675905546857
 20
24.42525104147004
 30
0.0
 10
33.58265858433545
 20
24.42282539755815
 30
0.0
  0
LWPOLYLINE
  5
90
330
1F
100
AcDbEntity
  8
0
  6
Continuous
 62
     7
370
    25
100
AcDbPolyline
 90
       82
 70
   128
 43
0.0
 10
32.3049509274
 20
22.7868065826
 10
32.3119257967
 20
22.7908032649
 10
32.3314283199
 20
22.8032063402
 10
32.3501061087
 20
22.8169567724
 10
32.3679299999
 20
22.8320330915
 10
32.3848721635
 20
22.848411758
 10
32.4009061465
 20
22.8660671982
 10
32.4160069136
 20
22.8849718455
 10
32.4301508868
 20
22.9050961824
 10
32.443315982
 20
22.9264087871
 10
32.4554816434
 20
22.9488763826
 10
32.4666288757
 20
22.9724638884
 10
32.476740274
 20
22.9971344754
 10
32.4858000505
 20
23.0228496234
 10
32.4937940594
 20
23.0495691812
 10
32.5007098189
 20
23.0772514295
 10
32.5065365311
 20
23.1058531456
 10
32.5112650981
 20
23.1353296715
 10
32.5148881368
 20
23.1656349829
 10
32.5173999903
 20
23.1967217618
 10
32.5187967367
 20
23.2285414699
 10
32.519076195
 20
23.2610444243
 10
32.518237929
 20
23.2941798758
 10
32.5162832476
 20
23.3278960871
 10
32.5132152026
 20
23.3621404143
 10
32.5090385845
 20
23.3968593892
 10
32.5037599146
 20
23.431998802
 10
32.4973874349
 20
23.4675037868
 10
32.4899310952
 20
23.5033189068
 10
32.4814025379
 20
23.5393882408
 10
32.4718150791
 20
23.575655471
 10
32.4611836886
 20
23.6120639703
 10
32.449524966
 20
23.6485568912
 10
32.4368571151
 20
23.6850772543
 10
32.4231999151
 20
23.7215680375
 10
32.4085746902
 20
23.7579722646
 10
32.393004276
 20
23.7942330948
 10
32.3765129837
 20
23.8302939111
 10
32.3591265626
 20
23.8660984089
 10
32.3408721595
 20
23.9015906836
 10
32.3217782766
 20
23.9367153184
 10
32.3018747265
 20
23.9714174702
 10
32.2811925864
 20
24.0056429557
 10
32.259764149
 20
24.039338336
 10
32.2376228722
 20
24.0724509996
 10
32.214803327
 20
24.1049292451
 10
32.1913411434
 20
24.1367223616
 10
32.1672729548
 20
24.1677807079
 10
32.1426363409
 20
24.1980557901
 10
32.1174697688
 20
24.2275003372
 10
32.0918125331
 20
24.256068375
 10
32.0657046945
 20
24.283715298
 10
32.0391870174
 20
24.3103979388
 10
32.0123009058
 20
24.3360746355
 10
31.9850883394
 20
24.3607052972
 10
31.9575918073
 20
24.3842514658
 10
31.9298542421
 20
24.406676377
 10
31.9019189526
 20
24.4279450167
 10
31.8738295566
 20
24.4480241767
 10
31.8456299122
 20
24.4668825056
 10
31.8173640499
 20
24.4844905585
 10
31.7890761035
 20
24.5008208423
 10
31.7608102412
 20
24.5158478594
 10
31.7326105969
 20
24.5295481469
 10
31.7045212008
 20
24.5419003132
 10
31.6765859114
 20
24.5528850721
 10
31.6488483461
 20
24.5624852722
 10
31.621351814
 20
24.5706859237
 10
31.5941392476
 20
24.5774742225
 10
31.5672531361
 20
24.5828395693
 10
31.540735459
 20
24.5867735869
 10
31.5146276204
 20
24.5892701327
 10
31.4889703847
 20
24.5903253087
 10
31.4638038125
 20
24.5899374673
 10
31.4391671986
 20
24.5881072141
 10
31.4150990101
 20
24.5848374068
 10
31.3916368265
 20
24.5801331509
 10
31.3688172813
 20
24.5740017914
 10
31.3466760045
 20
24.5664529018
 10
31.325247567
 20
24.5574982688
 10
31.3045654269
 20
24.5471518739
 10
31.2926489548
 20
24.5403550323
  0
LWPOLYLINE
  5
91
330
1F
100
AcDbEntity
  8
0
  6
Continuous
 62
     7
370
    25
100
AcDbPolyline
 90
      241
 70
   128
 43
0.0
 10
31.8032200767
 20
21.6125323555
 10
31.8497724693
 20
21.5863619488
 10
31.8962929573
 20
21.5616169129
 10
31.9427496577
 20
21.5383142068
 10
31.9891107315
 20
21.5164698012
 10
32.0353444052
 20
21.4960986669
 10
32.0814189924
 20
21.4772147655
 10
32.127302916
 20
21.4598310389
 10
32.1729647294
 20
21.4439594012
 10
32.2183731383
 20
21.4296107299
 10
32.263497022
 20
21.4167948588
 10
32.3083054549
 20
21.4055205715
 10
32.3527677275
 20
21.3957955946
 10
32.3968533676
 20
21.3876265933
 10
32.440532161
 20
21.3810191661
 10
32.4837741727
 20
21.3759778414
 10
32.5265497665
 20
21.3725060743
 10
32.5688296263
 20
21.3706062442
 10
32.6105847755
 20
21.3702796531
 10
32.6517865974
 20
21.3715265249
 10
32.6924068541
 20
21.374346005
 10
32.7324177066
 20
21.3787361611
 10
32.7717917334
 20
21.3846939844
 10
32.8105019497
 20
21.3922153917
 10
32.8485218252
 20
21.4012952281
 10
32.8858253032
 20
21.411927271
 10
32.9223868176
 20
21.4241042334
 10
32.958181311
 20
21.4378177701
 10
32.9931842517
 20
21.4530584823
 10
33.0273716504
 20
21.469815925
 10
33.0607200767
 20
21.4880786133
 10
33.0932066754
 20
21.5078340309
 10
33.1248091817
 20
21.5290686386
 10
33.1555059368
 20
21.551767883
 10
33.1852759027
 20
21.5759162073
 10
33.2140986766
 20
21.6014970615
 10
33.2419545048
 20
21.6284929136
 10
33.2688242963
 20
21.6568852622
 10
33.2946896359
 20
21.6866546484
 10
33.3195327967
 20
21.7177806699
 10
33.3433367525
 20
21.7502419944
 10
33.3660851893
 20
21.7840163745
 10
33.3877625164
 20
21.819080663
 10
33.4083538773
 20
21.8554108286
 10
33.4278451596
 20
21.8929819724
 10
33.4462230051
 20
21.931768345
 10
33.4634748184
 20
21.9717433641
 10
33.479588776
 20
22.0128796329
 10
33.4945538343
 20
22.0551489586
 10
33.5083597369
 20
22.098522372
 10
33.520997022
 20
22.1429701471
 10
33.5324570285
 20
22.1884618215
 10
33.5427319024
 20
22.2349662176
 10
33.5518146019
 20
22.2824514636
 10
33.5596989019
 20
22.3308850155
 10
33.5663793991
 20
22.3802336793
 10
33.571851515
 20
22.4304636339
 10
33.5761114992
 20
22.4815404542
 10
33.5791564323
 20
22.5334291348
 10
33.5809842272
 20
22.5860941136
 10
33.5815936314
 20
22.6394992968
 10
33.5809842272
 20
22.6936080831
 10
33.5791564323
 20
22.7483833891
 10
33.5761114992
 20
22.8037876745
 10
33.571851515
 20
22.8597829679
 10
33.5663793991
 20
22.916330893
 10
33.5596989019
 20
22.9733926947
 10
33.5518146019
 20
23.0309292657
 10
33.5427319024
 20
23.0889011732
 10
33.5324570285
 20
23.1472686862
 10
33.520997022
 20
23.2059918026
 10
33.5083597369
 20
23.2650302764
 10
33.4945538343
 20
23.3243436456
 10
33.479588776
 20
23.3838912599
 10
33.4634748184
 20
23.4436323082
 10
33.4462230051
 20
23.503525847
 10
33.4278451596
 20
23.5635308283
 10
33.4083538773
 20
23.6236061276
 10
33.3877625164
 20
23.6837105724
 10
33.3660851893
 20
23.7438029701
 10
33.3433367525
 20
23.8038421363
 10
33.3195327967
 20
23.8637869232
 10
33.2946896359
 20
23.9235962476
 10
33.2688242963
 20
23.9832291192
 10
33.2419545048
 20
24.0426446686
 10
33.2140986766
 20
24.1018021754
 10
33.1852759027
 20
24.160661096
 10
33.1555059368
 20
24.2191810914
 10
33.1248091817
 20
24.2773220549
 10
33.0932066754
 20
24.3350441396
 10
33.0607200767
 20
24.3923077856
 10
33.0273716504
 20
24.4490737475
 10
32.9931842517
 20
24.5053031204
 10
32.958181311
 20
24.5609573678
 10
32.9223868176
 20
24.6159983469
 10
32.8858253032
 20
24.6703883353
 10
32.8485218252
 20
24.724090057
 10
32.8105019497
 20
24.7770667074
 10
32.7717917334
 20
24.8292819791
 10
32.7324177066
 20
24.8807000861
 10
32.6924068541
 20
24.9312857892
 10
32.6517865974
 20
24.9810044194
 10
32.6105847755
 20
25.0298219021
 10
32.5688296263
 20
25.0777047802
 10
32.5265497665
 20
25.1246202372
 10
32.4837741727
 20
25.1705361195
 10
32.440532161
 20
25.2154209587
 10
32.3968533676
 20
25.259243993
 10
32.3527677275
 20
25.3019751883
 10
32.3083054549
 20
25.3435852586
 10
32.263497022
 20
25.3840456867
 10
32.2183731383
 20
25.4233287429
 10
32.1729647294
 20
25.4614075045
 10
32.127302916
 20
25.4982558743
 10
32.0814189924
 20
25.5338485983
 10
32.0353444052
 20
25.5681612829
 10
31.9891107315
 20
25.6011704121
 10
31.9427496577
 20
25.6328533629
 10
31.8962929573
 20
25.6631884214
 10
31.8497724693
 20
25.6921547976
 10
31.8032200767
 20
25.7197326393
 10
31.7566676841
 20
25.7459030461
 10
31.7101471962
 20
25.770648082
 10
31.6636904958
 20
25.793950788
 10
31.6173294219
 20
25.8157951937
 10
31.5710957483
 20
25.8361663279
 10
31.5250211611
 20
25.8550502293
 10
31.4791372375
 20
25.8724339559
 10
31.4334754241
 20
25.8883055937
 10
31.3880670152
 20
25.902654265
 10
31.3429431315
 20
25.915470136
 10
31.2981346986
 20
25.9267444234
 10
31.253672426
 20
25.9364694002
 10
31.2095867859
 20
25.9446384016
 10
31.1659079924
 20
25.9512458288
 10
31.1226659808
 20
25.9562871535
 10
31.079890387
 20
25.9597589205
 10
31.0376105272
 20
25.9616587506
 10
30.9958553779
 20
25.9619853417
 10
30.9546535561
 20
25.9607384699
 10
30.9140332994
 20
25.9579189898
 10
30.8740224469
 20
25.9535288337
 10
30.83464842
 20
25.9475710105
 10
30.7959382038
 20
25.9400496032
 10
30.7579183282
 20
25.9309697667
 10
30.7206148503
 20
25.9203377239
 10
30.6840533359
 20
25.9081607614
 10
30.6482588424
 20
25.8944472248
 10
30.6132559017
 20
25.8792065125
 10
30.5790685031
 20
25.8624490699
 10
30.5457200767
 20
25.8441863815
 10
30.5132334781
 20
25.8244309639
 10
30.4816309718
 20
25.8031963563
 10
30.4509342167
 20
25.7804971119
 10
30.4211642507
 20
25.7563487875
 10
30.3923414768
 20
25.7307679334
 10
30.3644856486
 20
25.7037720812
 10
30.3376158572
 20
25.6753797327
 10
30.3117505176
 20
25.6456103464
 10
30.2869073568
 20
25.614484325
 10
30.263103401
 20
25.5820230005
 10
30.2403549642
 20
25.5482486203
 10
30.2186776371
 20
25.5131843318
 10
30.1980862762
 20
25.4768541662
 10
30.1785949939
 20
25.4392830224
 10
30.1602171484
 20
25.4004966499
 10
30.1429653351
 20
25.3605216307
 10
30.1268513774
 20
25.3193853619
 10
30.1118863191
 20
25.2771160362
 10
30.0980804165
 20
25.2337426228
 10
30.0854431315
 20
25.1892948478
 10
30.0739831249
 20
25.1438031733
 10
30.063708251
 20
25.0972987772
 10
30.0546255516
 20
25.0498135312
 10
30.0467412515
 20
25.0013799793
 10
30.0400607543
 20
24.9520313156
 10
30.0345886384
 20
24.9018013609
 10
30.0303286542
 20
24.8507245406
 10
30.0272837212
 20
24.7988358601
 10
30.0254559262
 20
24.7461708812
 10
30.024846522
 20
24.692765698
 10
30.0254559262
 20
24.6386569117
 10
30.0272837212
 20
24.5838816057
 10
30.0303286542
 20
24.5284773204
 10
30.0345886384
 20
24.4724820269
 10
30.0400607543
 20
24.4159341018
 10
30.0467412515
 20
24.3588723001
 10
30.0546255516
 20
24.3013357292
 10
30.063708251
 20
24.2433638217
 10
30.0739831249
 20
24.1849963086
 10
30.0854431315
 20
24.1262731923
 10
30.0980804165
 20
24.0672347185
 10
30.1118863191
 20
24.0079213492
 10
30.1268513774
 20
23.948373735
 10
30.1429653351
 20
23.8886326867
 10
30.1602171484
 20
23.8287391479
 10
30.1785949939
 20
23.7687341666
 10
30.1980862762
 20
23.7086588672
 10
30.2186776371
 20
23.6485544224
 10
30.2403549642
 20
23.5884620248
 10
30.263103401
 20
23.5284228586
 10
30.2869073568
 20
23.4684780717
 10
30.3117505176
 20
23.4086687473
 10
30.3376158572
 20
23.3490358756
 10
30.3644856486
 20
23.2896203262
 10
30.3923414768
 20
23.2304628194
 10
30.4211642507
 20
23.1716038988
 10
30.4509342167
 20
23.1130839034
 10
30.4816309718
 20
23.05494294
 10
30.5132334781
 20
22.9972208553
 10
30.5457200767
 20
22.9399572092
 10
30.5790685031
 20
22.8831912474
 10
30.6132559017
 20
22.8269618744
 10
30.6482588424
 20
22.7713076271
 10
30.6840533359
 20
22.716266648
 10
30.7206148503
 20
22.6618766595
 10
30.7579183282
 20
22.6081749378
 10
30.7959382038
 20
22.5551982874
 10
30.83464842
 20
22.5029830158
 10
30.8740224469
 20
22.4515649087
 10
30.9140332994
 20
22.4009792056
 10
30.9546535561
 20
22.3512605754
 10
30.9958553779
 20
22.3024430927
 10
31.0376105272
 20
22.2545602146
 10
31.079890387
 20
22.2076447577
 10
31.1226659808
 20
22.1617288754
 10
31.1659079924
 20
22.1168440361
 10
31.2095867859
 20
22.0730210018
 10
31.253672426
 20
22.0302898066
 10
31.2981346986
 20
21.9886797362
 10
31.3429431315
 20
21.9482193081
 10
31.3880670152
 20
21.908936252
 10
31.4334754241
 20
21.8708574904
 10
31.4791372375
 20
21.8340091205
 10
31.5250211611
 20
21.7984163966
 10
31.5710957483
 20
21.7641037119
 10
31.6173294219
 20
21.7310945828
 10
31.6636904958
 20
21.699411632
 10
31.7101471962
 20
21.6690765734
 10
31.7566676841
 20
21.6401101972
 10
31.8032200767
 20
21.6125323555
  0
LWPOLYLINE
  5
92
330
1F
100
AcDbEntity
  8
0
  6
Continuous
 62
     7
370
    25
100
AcDbPolyline
 90
       72
 70
   128
 43
0.0
 10
30.5657832097
 20
24.2130987288
 10
30.5785945148
 20
24.2063579501
 10
30.591305554
 20
24.2009799875
 10
30.6038168464
 20
24.197006931
 10
30.6160304739
 20
24.1944698752
 10
30.6278508485
 20
24.1933886758
 10
30.6391854597
 20
24.1937717949
 10
30.6499455987
 20
24.1956162338
 10
30.6600470529
 20
24.1989075575
 10
30.6694107648
 20
24.2036200069
 10
30.6779634505
 20
24.2097167006
 10
30.6856381737
 20
24.2171499237
 10
30.6923748693
 20
24.2258615012
 10
30.6981208136
 20
24.2357832532
 10
30.7028310367
 20
24.2468375286
 10
30.7064686747
 20
24.2589378125
 10
30.7090052582
 20
24.271989404
 10
30.710420935
 20
24.2858901566
 10
30.7107046255
 20
24.300531278
 10
30.7098541094
 20
24.3157981817
 10
30.7078760431
 20
24.3315713834
 10
30.7047859078
 20
24.3477274365
 10
30.700607888
 20
24.3641398979
 10
30.6953746822
 20
24.3806803178
 10
30.6891272474
 20
24.397219245
 10
30.6819144783
 20
24.4136272401
 10
30.6737928246
 20
24.4297758882
 10
30.6648258491
 20
24.4455388041
 10
30.6550837308
 20
24.4607926219
 10
30.6446427148
 20
24.4754179596
 10
30.6335845162
 20
24.4893003541
 10
30.6219956805
 20
24.5023311569
 10
30.609966906
 20
24.5144083842
 10
30.5975923341
 20
24.5254375155
 10
30.5849688128
 20
24.5353322328
 10
30.572195138
 20
24.5440150965
 10
30.5593712813
 20
24.5514181514
 10
30.5465976065
 20
24.5574834587
 10
30.5339740852
 20
24.5621635489
 10
30.5215995133
 20
24.5654217942
 10
30.5095707388
 20
24.5672326942
 10
30.4979819031
 20
24.5675820764
 10
30.4869237045
 20
24.5664672061
 10
30.4764826885
 20
24.563896809
 10
30.4667405702
 20
24.5598910017
 10
30.4577735947
 20
24.5544811351
 10
30.449651941
 20
24.5477095489
 10
30.4424391719
 20
24.5396292397
 10
30.4361917371
 20
24.5303034471
 10
30.4309585313
 20
24.519805158
 10
30.4267805115
 20
24.5082165357
 10
30.4236903762
 20
24.495628277
 10
30.4217123099
 20
24.4821389019
 10
30.4208617938
 20
24.4678539832
 10
30.4211454843
 20
24.4528853197
 10
30.4225611611
 20
24.4373500615
 10
30.4250977446
 20
24.421369793
 10
30.4287353826
 20
24.4050695816
 10
30.4334456057
 20
24.3885769984
 10
30.43919155
 20
24.3720211204
 10
30.4459282456
 20
24.3555315197
 10
30.4536029688
 20
24.3392372497
 10
30.4621556545
 20
24.3232658353
 10
30.4715193664
 20
24.3077422744
 10
30.4816208206
 20
24.2927880599
 10
30.4923809596
 20
24.2785202288
 10
30.5037155708
 20
24.2650504463
 10
30.5155359454
 20
24.2524841316
 10
30.5277495729
 20
24.2409196333
 10
30.5402608653
 20
24.2304474591
 10
30.5529719045
 20
24.2211495681
 10
30.5657832097
 20
24.2130987288
  0
LWPOLYLINE
  5
93
330
1F
100
AcDbEntity
  8
0
  6
Continuous
 62
     7
370
    25
100
AcDbPolyline
 90
       72
 70
   128
 43
0.0
 10
33.0406569438
 20
22.7843845331
 10
33.0534682489
 20
22.7776437544
 10
33.0661792882
 20
22.7722657918
 10
33.0786905805
 20
22.7682927353
 10
33.0909042081
 20
22.7657556795
 10
33.1027245827
 20
22.7646744801
 10
33.1140591938
 20
22.7650575992
 10
33.1248193329
 20
22.7669020382
 10
33.1349207871
 20
22.7701933619
 10
33.1442844989
 20
22.7749058112
 10
33.1528371846
 20
22.7810025049
 10
33.1605119079
 20
22.788435728
 10
33.1672486035
 20
22.7971473055
 10
33.1729945478
 20
22.8070690575
 10
33.1777047708
 20
22.8181233329
 10
33.1813424089
 20
22.8302236168
 10
33.1838789924
 20
22.8432752083
 10
33.1852946691
 20
22.8571759609
 10
33.1855783596
 20
22.8718170823
 10
33.1847278435
 20
22.887083986
 10
33.1827497773
 20
22.9028571878
 10
33.179659642
 20
22.9190132408
 10
33.1754816221
 20
22.9354257022
 10
33.1702484163
 20
22.9519661221
 10
33.1640009816
 20
22.9685050493
 10
33.1567882125
 20
22.9849130444
 10
33.1486665587
 20
23.0010616925
 10
33.1396995833
 20
23.0168246085
 10
33.1299574649
 20
23.0320784262
 10
33.1195164489
 20
23.0467037639
 10
33.1084582504
 20
23.0605861584
 10
33.0968694147
 20
23.0736169612
 10
33.0848406401
 20
23.0856941886
 10
33.0724660683
 20
23.0967233198
 10
33.0598425469
 20
23.1066180371
 10
33.0470688722
 20
23.1153009008
 10
33.0342450154
 20
23.1227039557
 10
33.0214713407
 20
23.128769263
 10
33.0088478193
 20
23.1334493532
 10
32.9964732475
 20
23.1367075985
 10
32.984444473
 20
23.1385184985
 10
32.9728556372
 20
23.1388678807
 10
32.9617974387
 20
23.1377530104
 10
32.9513564227
 20
23.1351826133
 10
32.9416143043
 20
23.131176806
 10
32.9326473289
 20
23.1257669394
 10
32.9245256752
 20
23.1189953532
 10
32.9173129061
 20
23.110915044
 10
32.9110654713
 20
23.1015892514
 10
32.9058322655
 20
23.0910909623
 10
32.9016542456
 20
23.07950234
 10
32.8985641103
 20
23.0669140813
 10
32.8965860441
 20
23.0534247062
 10
32.895735528
 20
23.0391397875
 10
32.8960192185
 20
23.024171124
 10
32.8974348953
 20
23.0086358658
 10
32.8999714788
 20
22.9926555973
 10
32.9036091168
 20
22.9763553859
 10
32.9083193398
 20
22.9598628028
 10
32.9140652841
 20
22.9433069247
 10
32.9208019797
 20
22.926817324
 10
32.928476703
 20
22.910523054
 10
32.9370293887
 20
22.8945516396
 10
32.9463931005
 20
22.8790280787
 10
32.9564945548
 20
22.8640738642
 10
32.9672546938
 20
22.8498060331
 10
32.9785893049
 20
22.8363362506
 10
32.9904096795
 20
22.8237699359
 10
33.0026233071
 20
22.8122054376
 10
33.0151345994
 20
22.8017332634
 10
33.0278456387
 20
22.7924353724
 10
33.0406569438
 20
22.7843845331
  0
LWPOLYLINE
  5
94
330
1F
100
AcDbEntity
  8
0
  6
Continuous
 62
     7
370
    25
100
AcDbPolyline
 90
      122
 70
   128
 43
0.0
 10
33.325782926
 20
21.6410961295
 10
33.3258851197
 20
21.6411551343
 10
33.3583717183
 20
21.6609105519
 10
33.3899742246
 20
21.6821451595
 10
33.4206709797
 20
21.704844404
 10
33.4504409457
 20
21.7289927283
 10
33.4792637196
 20
21.7545735824
 10
33.5071195478
 20
21.7815694346
 10
33.5339893392
 20
21.8099617831
 10
33.5598546788
 20
21.8397311694
 10
33.5846978396
 20
21.8708571908
 10
33.6085017954
 20
21.9033185153
 10
33.6312502322
 20
21.9370928955
 10
33.6529275593
 20
21.972157184
 10
33.6735189202
 20
22.0084873496
 10
33.6930102025
 20
22.0460584934
 10
33.711388048
 20
22.0848448659
 10
33.7286398613
 20
22.1248198851
 10
33.744753819
 20
22.1659561539
 10
33.7597188773
 20
22.2082254796
 10
33.7735247799
 20
22.251598893
 10
33.7861620649
 20
22.296046668
 10
33.7976220715
 20
22.3415383425
 10
33.8078969454
 20
22.3880427386
 10
33.8169796448
 20
22.4355279846
 10
33.8248639449
 20
22.4839615365
 10
33.8315444421
 20
22.5333102003
 10
33.8370165579
 20
22.5835401549
 10
33.8412765422
 20
22.6346169752
 10
33.8443214752
 20
22.6865056557
 10
33.8461492702
 20
22.7391706346
 10
33.8467586744
 20
22.7925758178
 10
33.8461492702
 20
22.8466846041
 10
33.8443214752
 20
22.9014599101
 10
33.8412765422
 20
22.9568641954
 10
33.8370165579
 20
23.0128594889
 10
33.8315444421
 20
23.069407414
 10
33.8248639449
 20
23.1264692157
 10
33.8169796448
 20
23.1840057866
 10
33.8078969454
 20
23.2419776941
 10
33.7976220715
 20
23.3003452072
 10
33.7861620649
 20
23.3590683235
 10
33.7735247799
 20
23.4181067973
 10
33.7597188773
 20
23.4774201666
 10
33.744753819
 20
23.5369677808
 10
33.7286398613
 20
23.5967088291
 10
33.711388048
 20
23.6566023679
 10
33.6930102025
 20
23.7166073492
 10
33.6735189202
 20
23.7766826486
 10
33.6529275593
 20
23.8367870934
 10
33.6312502322
 20
23.896879491
 10
33.6085017954
 20
23.9569186572
 10
33.5846978396
 20
24.0168634441
 10
33.5598546788
 20
24.0766727685
 10
33.5339893392
 20
24.1363056402
 10
33.5071195478
 20
24.1957211896
 10
33.4792637196
 20
24.2548786964
 10
33.4504409457
 20
24.313737617
 10
33.4206709797
 20
24.3722576124
 10
33.3899742246
 20
24.4303985758
 10
33.3583717183
 20
24.4881206605
 10
33.3258851197
 20
24.5453843066
 10
33.2925366933
 20
24.6021502684
 10
33.2583492947
 20
24.6583796414
 10
33.223346354
 20
24.7140338887
 10
33.1875518605
 20
24.7690748678
 10
33.1509903461
 20
24.8234648563
 10
33.1136868682
 20
24.877166578
 10
33.0756669926
 20
24.9301432284
 10
33.0369567764
 20
24.9823585
 10
32.9975827495
 20
25.0337766071
 10
32.957571897
 20
25.0843623102
 10
32.9169516403
 20
25.1340809404
 10
32.8757498185
 20
25.1828984231
 10
32.8339946692
 20
25.2307813012
 10
32.7917148094
 20
25.2776967581
 10
32.7489392156
 20
25.3236126405
 10
32.705697204
 20
25.3684974797
 10
32.6620184105
 20
25.412320514
 10
32.6179327704
 20
25.4550517092
 10
32.5734704978
 20
25.4966617796
 10
32.5286620649
 20
25.5371222077
 10
32.4835381812
 20
25.5764052638
 10
32.4381297723
 20
25.6144840255
 10
32.3924679589
 20
25.6513323953
 10
32.3465840353
 20
25.6869251192
 10
32.3005094481
 20
25.7212378039
 10
32.2542757745
 20
25.754246933
 10
32.2079147006
 20
25.7859298838
 10
32.1614580002
 20
25.8162649424
 10
32.1149375123
 20
25.8452313186
 10
32.0683851197
 20
25.8728091603
 10
32.0218327271
 20
25.898979567
 10
31.9753122391
 20
25.9237246029
 10
31.9288555387
 20
25.947027309
 10
31.8824944649
 20
25.9688717146
 10
31.8362607912
 20
25.9892428489
 10
31.790186204
 20
26.0081267503
 10
31.7443022804
 20
26.0255104769
 10
31.698640467
 20
26.0413821146
 10
31.6532320581
 20
26.055730786
 10
31.6081081744
 20
26.068546657
 10
31.5632997415
 20
26.0798209443
 10
31.5188374689
 20
26.0895459212
 10
31.4747518288
 20
26.0977149225
 10
31.4310730354
 20
26.1043223497
 10
31.3878310237
 20
26.1093636744
 10
31.3450554299
 20
26.1128354415
 10
31.3027755701
 20
26.1147352716
 10
31.2610204209
 20
26.1150618627
 10
31.219818599
 20
26.1138149909
 10
31.1791983423
 20
26.1109955108
 10
31.1391874898
 20
26.1066053547
 10
31.099813463
 20
26.1006475314
 10
31.0611032467
 20
26.0931261241
 10
31.0230833712
 20
26.0840462877
 10
30.9857798932
 20
26.0734142449
 10
30.9492183788
 20
26.0612372824
 10
30.9134238854
 20
26.0475237457
 10
30.8784209447
 20
26.0322830335
 10
30.844233546
 20
26.0155255908
 10
30.8109873134
 20
25.9973219073
  0
LWPOLYLINE
  5
95
330
1F
100
AcDbEntity
  8
0
  6
Continuous
 62
     7
370
    25
100
AcDbPolyline
 90
       40
 70
   128
 43
0.0
 10
31.1492752158
 20
22.9058109678
 10
31.1678925186
 20
22.8903831306
 10
31.1894808798
 20
22.8740321846
 10
31.2123136406
 20
22.8582546197
 10
31.2363451632
 20
22.8430819719
 10
31.2615274137
 20
22.8285445681
 10
31.2878100583
 20
22.8146714654
 10
31.3151405636
 20
22.8014903932
 10
31.3434643018
 20
22.7890276975
 10
31.3727246598
 20
22.7773082887
 10
31.4028631525
 20
22.7663555913
 10
31.4338195395
 20
22.7561914973
 10
31.4655319456
 20
22.7468363227
 10
31.4979369847
 20
22.7383087665
 10
31.5309698858
 20
22.7306258732
 10
31.5645646235
 20
22.7238029995
 10
31.598654049
 20
22.7178537828
 10
31.633170025
 20
22.7127901142
 10
31.6680435613
 20
22.708622115
 10
31.7032049534
 20
22.7053581161
 10
31.7385839211
 20
22.7030046416
 10
31.7741097495
 20
22.7015663954
 10
31.8097114301
 20
22.7010462524
 10
31.8453178029
 20
22.7014452522
 10
31.8808576982
 20
22.7027625974
 10
31.9162600796
 20
22.7049956547
 10
31.9514541853
 20
22.7081399608
 10
31.9863696698
 20
22.712189231
 10
32.0209367446
 20
22.7171353715
 10
32.0550863175
 20
22.7229684962
 10
32.0887501309
 20
22.7296769459
 10
32.1218608981
 20
22.7372473117
 10
32.1543524377
 20
22.7456644623
 10
32.1861598062
 20
22.7549115734
 10
32.2172194275
 20
22.7649701622
 10
32.2474692201
 20
22.7758201237
 10
32.2768487211
 20
22.787439771
 10
32.3052992072
 20
22.7998058792
 10
32.3327638121
 20
22.8128937309
 10
32.3591876399
 20
22.8266771663
  0
ARC
  5
96
330
1F
100
AcDbEntity
  8
0
  6
Continuous
 62
     7
370
    25
100
AcDbCircle
 10
32.1239378595
 20
23.094650938
 30
0.0
 40
0.3565843539791536
100
AcDbArc
 50
270.2045033653
 51
311.2793665364
  0
ARC
  5
97
330
1F
100
AcDbEntity
  8
0
  6
Continuous
 62
     7
370
    25
100
AcDbCircle
 10
33.1537669404
 20
22.9546342492
 30
0.0
 40
0.0470680951148965
100
AcDbArc
 50
232.0901020831
 51
304.397747493
  0
LWPOLYLINE
  5
98
330
1F
100
AcDbEntity
  8
0
  6
Continuous
 62
     7
370
    25
100
AcDbPolyline
 90
       21
 70
   128
 43
0.0
 10
33.0793616975
 20
23.0907452134
 10
33.0757164286
 20
23.0891562075
 10
33.0695465239
 20
23.0851308995
 10
33.0642487454
 20
23.079768979
 10
33.059906642
 20
23.0731550067
 10
33.0565886916
 20
23.0653932889
 10
33.0543472199
 20
23.0566062325
 10
33.0532175766
 20
23.0469324146
 10
33.0532175766
 20
23.0365243972
 10
33.0543472199
 20
23.0255463208
 10
33.0565886916
 20
23.0141713164
 10
33.059906642
 20
23.0025787745
 10
33.0642487454
 20
22.9909515164
 10
33.0695465239
 20
22.979472911
 10
33.0757164286
 20
22.9683239826
 10
33.0826611563
 20
22.9576805567
 10
33.0902711846
 20
22.9477104862
 10
33.0984264987
 20
22.9385710053
 10
33.1069984845
 20
22.930406249
 10
33.1158519566
 20
22.9233449804
 10
33.1248472905
 20
22.9174985598
  0
ARC
  5
99
330
1F
100
AcDbEntity
  8
0
  6
Continuous
 62
     7
370
    25
100
AcDbCircle
 10
30.6788932063
 20
24.3833484449
 30
0.0
 40
0.0470680951148977
100
AcDbArc
 50
232.0901020831
 51
304.3977474931
  0
LWPOLYLINE
  5
9A
330
1F
100
AcDbEntity
  8
0
  6
Continuous
 62
     7
370
    25
100
AcDbPolyline
 90
       21
 70
   128
 43
0.0
 10
30.6044879633
 20
24.5194594091
 10
30.6008426945
 20
24.5178704032
 10
30.5946727898
 20
24.5138450952
 10
30.5893750112
 20
24.5084831747
 10
30.5850329079
 20
24.5018692024
 10
30.5817149574
 20
24.4941074846
 10
30.5794734858
 20
24.4853204282
 10
30.5783438424
 20
24.4756466103
 10
30.5783438424
 20
24.4652385929
 10
30.5794734858
 20
24.4542605165
 10
30.5817149574
 20
24.4428855121
 10
30.5850329079
 20
24.4312929702
 10
30.5893750112
 20
24.4196657121
 10
30.5946727898
 20
24.4081871067
 10
30.6008426945
 20
24.3970381783
 10
30.6077874222
 20
24.3863947524
 10
30.6153974505
 20
24.3764246819
 10
30.6235527646
 20
24.367285201
 10
30.6321247503
 20
24.3591204447
 10
30.6409782225
 20
24.352059176
 10
30.6499735564
 20
24.3462127555
  0
ARC
  5
9B
330
1F
100
AcDbEntity
  8
0
  6
Continuous
 62
     7
370
    25
100
AcDbCircle
 10
34.0807731309
 20
25.7235278862
 30
0.0
 40
0.4673016459024278
100
AcDbArc
 50
69.1818888804
 51
117.5604186162
  0
LWPOLYLINE
  5
9C
330
1F
100
AcDbEntity
  8
0
  6
Continuous
 62
     7
370
    25
100
AcDbPolyline
 90
       70
 70
   128
 43
0.0
 10
34.9744700637
 20
24.215173267
 10
34.9852687095
 20
24.2216546208
 10
35.0053321594
 20
24.2350911299
 10
35.0245664508
 20
24.2498600802
 10
35.0429443598
 20
24.265940568
 10
35.0604398746
 20
24.2833098332
 10
35.077028232
 20
24.3019432916
 10
35.0926859533
 20
24.3218145694
 10
35.1073908765
 20
24.3428955412
 10
35.1211221887
 20
24.3651563692
 10
35.1338604545
 20
24.3885655458
 10
35.1455876445
 20
24.4130899377
 10
35.1562871601
 20
24.4386948335
 10
35.1659438573
 20
24.4653439924
 10
35.1745440682
 20
24.4929996954
 10
35.18207562
 20
24.5216227989
 10
35.1885278529
 20
24.5511727902
 10
35.1938916343
 20
24.5816078445
 10
35.1981593723
 20
24.6128848845
 10
35.2013250266
 20
24.644959641
 10
35.2033841165
 20
24.6777867157
 10
35.2043337275
 20
24.7113196456
 10
35.2041725156
 20
24.7455109686
 10
35.2029007089
 20
24.7803122907
 10
35.2005201077
 20
24.8156743545
 10
35.1970340812
 20
24.851547109
 10
35.1924475637
 20
24.8878797803
 10
35.1867670469
 20
24.9246209435
 10
35.1800005707
 20
24.9617185957
 10
35.1721577126
 20
24.9991202293
 10
35.163249573
 20
25.0367729064
 10
35.1532887606
 20
25.0746233339
 10
35.1422893738
 20
25.1126179387
 10
35.1302669808
 20
25.1507029438
 10
35.1172385982
 20
25.188824444
 10
35.103222666
 20
25.2269284826
 10
35.0882390223
 20
25.2649611278
 10
35.0723088748
 20
25.3028685483
 10
35.0554547708
 20
25.3405970907
 10
35.0377005655
 20
25.3780933543
 10
35.0190713878
 20
25.4153042673
 10
34.9995936053
 20
25.4521771619
 10
34.9792947867
 20
25.4886598486
 10
34.9582036626
 20
25.5247006903
 10
34.9363500851
 20
25.5602486752
 10
34.9137649857
 20
25.595253489
 10
34.8904803309
 20
25.6296655865
 10
34.8665290776
 20
25.663436261
 10
34.841945126
 20
25.696517714
 10
34.8167632721
 20
25.7288631224
 10
34.791019158
 20
25.7604267049
 10
34.7647492214
 20
25.7911637867
 10
34.7379906447
 20
25.821030863
 10
34.7107813016
 20
25.8499856603
 10
34.6831597038
 20
25.8779871962
 10
34.6551649466
 20
25.9049958377
 10
34.6268366536
 20
25.9309733572
 10
34.5982149201
 20
25.9558829863
 10
34.5693402572
 20
25.9796894683
 10
34.5402535335
 20
26.0023591077
 10
34.5109959183
 20
26.0238598182
 10
34.4816088222
 20
26.0441611679
 10
34.4521338395
 20
26.0632344226
 10
34.4226126888
 20
26.0810525862
 10
34.3930871538
 20
26.0975904391
 10
34.3635990248
 20
26.1128245738
 10
34.3341900387
 20
26.1267334281
 10
34.3049018209
 20
26.1392973155
 10
34.2757758255
 20
26.1504984533
 10
34.246853277
 20
26.1603209875
  0
LWPOLYLINE
  5
9D
330
1F
100
AcDbEntity
  8
0
  6
Continuous
 62
     7
370
    25
100
AcDbPolyline
 90
       44
 70
   128
 43
0.0
 10
34.4408524893
 20
26.0705260389
 10
34.4458317755
 20
26.0676318783
 10
34.4749010872
 20
26.0499868676
 10
34.5039208517
 20
26.0310931221
 10
34.5328489932
 20
26.0109780358
 10
34.5616435686
 20
25.9896707738
 10
34.5902628285
 20
25.9672022294
 10
34.6186652777
 20
25.94360498
 10
34.6468097354
 20
25.9189132393
 10
34.6746553948
 20
25.893162808
 10
34.7021618825
 20
25.8663910217
 10
34.7292893165
 20
25.838636697
 10
34.7559983647
 20
25.8099400749
 10
34.7822503016
 20
25.7803427629
 10
34.8080070643
 20
25.7498876741
 10
34.8332313081
 20
25.7186189657
 10
34.8578864601
 20
25.6865819742
 10
34.8819367727
 20
25.6538231501
 10
34.9053473754
 20
25.6203899908
 10
34.9280843249
 20
25.5863309709
 10
34.9501146548
 20
25.5516954729
 10
34.9714064234
 20
25.516533715
 10
34.9919287595
 20
25.4808966782
 10
35.0116519077
 20
25.444836033
 10
35.0305472714
 20
25.4084040637
 10
35.0485874541
 20
25.3716535933
 10
35.0657462992
 20
25.3346379065
 10
35.0819989281
 20
25.2974106724
 10
35.097321776
 20
25.2600258669
 10
35.1116926262
 20
25.2225376945
 10
35.1250906423
 20
25.1850005095
 10
35.1374963987
 20
25.1474687371
 10
35.1488919079
 20
25.1099967949
 10
35.1592606478
 20
25.0726390135
 10
35.1685875845
 20
25.0354495583
 10
35.176859195
 20
24.9984823502
 10
35.1840634861
 20
24.9617909884
 10
35.1901900124
 20
24.9254286716
 10
35.195229891
 20
24.8894481219
 10
35.1991758145
 20
24.8539015076
 10
35.2020220617
 20
24.8188403678
 10
35.2037645058
 20
24.7843155378
 10
35.2044006205
 20
24.7503770755
 10
35.2044036942
 20
24.7478732456
  0
ARC
  5
9E
330
1F
100
AcDbEntity
  8
0
  6
Continuous
 62
     7
370
    25
100
AcDbCircle
 10
35.9893975797
 20
26.112124506
 30
0.0
 40
0.048897088168073
100
AcDbArc
 50
68.0873249376
 51
170.2464554844
  0
LWPOLYLINE
  5
9F
330
1F
100
AcDbEntity
  8
0
  6
Continuous
 62
     7
370
    25
100
AcDbPolyline
 90
       32
 70
   128
 43
0.0
 10
36.0326175058
 20
25.9416378867
 10
36.0367572544
 20
25.9396606267
 10
36.0465334453
 20
25.9359048436
 10
36.0560651178
 20
25.9335423348
 10
36.0652324056
 20
25.9326028104
 10
36.0739200247
 20
25.9330980855
 10
36.0820187233
 20
25.9350219315
 10
36.0894266555
 20
25.9383501551
 10
36.0960506623
 20
25.943040902
 10
36.1018074429
 20
25.9490351831
 10
36.1066246026
 20
25.9562576171
 10
36.1104415627
 20
25.9646173775
 10
36.1132103227
 20
25.9740093356
 10
36.1148960639
 20
25.9843153821
 10
36.1154775871
 20
25.9954059123
 10
36.1149475793
 20
26.0071414565
 10
36.1133127056
 20
26.0193744334
 10
36.1105935256
 20
26.0319510062
 10
36.1068242346
 20
26.0447130172
 10
36.1020522334
 20
26.0574999766
 10
36.0963375329
 20
26.0701510812
 10
36.0897519987
 20
26.0825072359
 10
36.0823784477
 20
26.0944130548
 10
36.0743096066
 20
26.1057188155
 10
36.0656469457
 20
26.1162823413
 10
36.0564994031
 20
26.1259707899
 10
36.0469820143
 20
26.1346623233
 10
36.0372144662
 20
26.1422476406
 10
36.0273195912
 20
26.1486313518
 10
36.0174218231
 20
26.1537331782
 10
36.0076456322
 20
26.1574889614
 10
36.0076456322
 20
26.1574889614
  0
ARC
  5
A0
330
1F
100
AcDbEntity
  8
0
  6
Continuous
 62
     7
370
    25
100
AcDbCircle
 10
35.9862804894
 20
26.1177951463
 30
0.0
 40
0.0524425511075299
100
AcDbArc
 50
67.8062592153
 51
167.2861435234
  0
LWPOLYLINE
  5
A1
330
1F
100
AcDbEntity
  8
0
  6
Continuous
 62
     7
370
    25
100
AcDbPolyline
 90
       34
 70
   128
 43
0.0
 10
36.0253874057
 20
25.9374640387
 10
36.0275797364
 20
25.9361823612
 10
36.0378977051
 20
25.9309333089
 10
36.0480889579
 20
25.9270414788
 10
36.0580340117
 20
25.9245524992
 10
36.0676162698
 20
25.9234955511
 10
36.0767233891
 20
25.9238830261
 10
36.0852485969
 20
25.9257103816
 10
36.0930919429
 20
25.9289561934
 10
36.100161471
 20
25.9335824074
 10
36.1063742976
 20
25.9395347853
 10
36.1116575828
 20
25.9467435412
 10
36.115949385
 20
25.9551241588
 10
36.1191993868
 20
25.9645783831
 10
36.1213694849
 20
25.974995372
 10
36.1224342368
 20
25.9862529957
 10
36.1223811592
 20
25.998219269
 10
36.1212108746
 20
26.0107538982
 10
36.1189371033
 20
26.0237099263
 10
36.1155865034
 20
26.0369354557
 10
36.1111983574
 20
26.0502754291
 10
36.1058241124
 20
26.0635734475
 10
36.0995267766
 20
26.0766736039
 10
36.0923801803
 20
26.0894223109
 10
36.084468111
 20
26.1016701015
 10
36.0758833304
 20
26.1132733816
 10
36.0667264872
 20
26.1240961134
 10
36.057104937
 20
26.1340114102
 10
36.0471314837
 20
26.1429030242
 10
36.0369230569
 20
26.1506667094
 10
36.0265993412
 20
26.1572114437
 10
36.0162813725
 20
26.1624604961
 10
36.0060901197
 20
26.1663523261
 10
36.0060901197
 20
26.1663523261
  0
ARC
  5
A2
330
1F
100
AcDbEntity
  8
0
  6
Continuous
 62
     7
370
    25
100
AcDbCircle
 10
36.3394300641
 20
26.317577187
 30
0.0
 40
0.0566089939923589
100
AcDbArc
 50
69.0795578257
 51
117.6627496709
  0
LWPOLYLINE
  5
A3
330
1F
100
AcDbEntity
  8
0
  6
Continuous
 62
     7
370
    25
100
AcDbPolyline
 90
       25
 70
   128
 43
0.0
 10
36.4481374438
 20
26.133882334
 10
36.4537148616
 20
26.1376844353
 10
36.4599276881
 20
26.1436368133
 10
36.4652109734
 20
26.1508455691
 10
36.4695027756
 20
26.1592261868
 10
36.4727527774
 20
26.1686804111
 10
36.4749228755
 20
26.1790973999
 10
36.4759876274
 20
26.1903550237
 10
36.4759345498
 20
26.202321297
 10
36.4747642652
 20
26.2148559262
 10
36.4724904939
 20
26.2278119543
 10
36.469139894
 20
26.2410374836
 10
36.464751748
 20
26.254377457
 10
36.459377503
 20
26.2676754755
 10
36.4530801672
 20
26.2807756319
 10
36.4459335709
 20
26.2935243388
 10
36.4380215016
 20
26.3057721295
 10
36.429436721
 20
26.3173754096
 10
36.4202798778
 20
26.3281981414
 10
36.4106583276
 20
26.3381134382
 10
36.4006848743
 20
26.3470050522
 10
36.3904764475
 20
26.3547687374
 10
36.3801527318
 20
26.3613134717
 10
36.3698347631
 20
26.366562524
 10
36.3596435103
 20
26.3704543541
  0
LWPOLYLINE
  5
A4
330
1F
100
AcDbEntity
  8
0
  6
Continuous
 62
     7
370
    25
100
AcDbPolyline
 90
       26
 70
   128
 43
0.0
 10
36.6042908153
 20
26.2716578636
 10
36.6084656696
 20
26.2745414557
 10
36.6135364726
 20
26.2797020269
 10
36.617652509
 20
26.2861071296
 10
36.6207437491
 20
26.293647788
 10
36.6227575988
 20
26.3021957061
 10
36.6236597946
 20
26.3116054504
 10
36.6234349866
 20
26.3217169244
 10
36.6220869998
 20
26.3323580926
 10
36.6196387686
 20
26.3433479071
 10
36.6161319471
 20
26.3544993884
 10
36.6116261998
 20
26.3656228062
 10
36.6061981873
 20
26.3765289077
 10
36.599940261
 20
26.3870321378
 10
36.5929588929
 20
26.3969537953
 10
36.5853728631
 20
26.4061250743
 10
36.5773112397
 20
26.4143899354
 10
36.5689111823
 20
26.4216077612
 10
36.5603156086
 20
26.4276557483
 10
36.551670763
 20
26.4324309968
 10
36.543123728
 20
26.435852261
 10
36.5348199219
 20
26.4378613321
 10
36.5269006249
 20
26.4384240277
 10
36.5195005752
 20
26.4375307743
 10
36.5127456765
 20
26.4351967697
 10
36.5105484341
 20
26.4340420253
  0
LWPOLYLINE
  5
A5
330
1F
100
AcDbEntity
  8
0
  6
Continuous
 62
     7
370
    25
100
AcDbPolyline
 90
       15
 70
   128
 43
0.0
 10
36.4780568592
 20
26.4152850384
 10
36.4764632148
 20
26.4182413925
 10
36.4701525905
 20
26.4287106554
 10
36.4631262302
 20
26.4385865243
 10
36.4555036797
 20
26.4477009722
 10
36.4474146284
 20
26.4558989267
 10
36.4389967026
 20
26.4630409087
 10
36.430393124
 20
26.4690054052
 10
36.421750273
 20
26.4736909368
 10
36.4132151983
 20
26.4770177844
 10
36.4049331149
 20
26.4789293452
 10
36.3970449332
 20
26.4793930962
 10
36.389684862
 20
26.4784011472
 10
36.3829781248
 20
26.4759703751
 10
36.3812136838
 20
26.4750257289
  0
LWPOLYLINE
  5
A6
330
1F
100
AcDbEntity
  8
0
  6
Continuous
 62
     7
370
    25
100
AcDbPolyline
 90
       63
 70
   128
 43
0.0
 10
32.8892082571
 20
25.3765692001
 10
32.9181308056
 20
25.3667466659
 10
32.947256801
 20
25.3555455281
 10
32.9765450189
 20
25.3429816407
 10
33.0059540049
 20
25.3290727864
 10
33.0354421339
 20
25.3138386518
 10
33.0649676689
 20
25.2973007989
 10
33.0944888196
 20
25.2794826353
 10
33.1239638023
 20
25.2604093806
 10
33.1533508984
 20
25.2401080308
 10
33.1826085137
 20
25.2186073203
 10
33.2116952373
 20
25.1959376809
 10
33.2405699002
 20
25.172131199
 10
33.2691916337
 20
25.1472215698
 10
33.2975199267
 20
25.1212440504
 10
33.3255146839
 20
25.0942354088
 10
33.3531362817
 20
25.0662338729
 10
33.3803456248
 20
25.0372790757
 10
33.4071042016
 20
25.0074119994
 10
33.4333741381
 20
24.9766749175
 10
33.4591182522
 20
24.945111335
 10
33.4843001061
 20
24.9127659266
 10
33.5088840577
 20
24.8796844736
 10
33.532835311
 20
24.8459137991
 10
33.5561199658
 20
24.8115017017
 10
33.5787050653
 20
24.7764968879
 10
33.6005586427
 20
24.740948903
 10
33.6216497668
 20
24.7049080613
 10
33.6419485854
 20
24.6684253746
 10
33.6614263679
 20
24.6315524799
 10
33.6800555456
 20
24.5943415669
 10
33.697809751
 20
24.5568453033
 10
33.714663855
 20
24.519116761
 10
33.7305940025
 20
24.4812093404
 10
33.7455776461
 20
24.4431766953
 10
33.7595935783
 20
24.4050726566
 10
33.7726219609
 20
24.3669511564
 10
33.7846443539
 20
24.3288661513
 10
33.7956437408
 20
24.2908715465
 10
33.8056045532
 20
24.253021119
 10
33.8145126927
 20
24.2153684419
 10
33.8223555509
 20
24.1779668084
 10
33.829122027
 20
24.1408691562
 10
33.8348025439
 20
24.1041279929
 10
33.8393890614
 20
24.0677953217
 10
33.8428750878
 20
24.0319225672
 10
33.8452556891
 20
23.9965605034
 10
33.8465274957
 20
23.9617591813
 10
33.8466887076
 20
23.9275678583
 10
33.8457390966
 20
23.8940349284
 10
33.8436800067
 20
23.8612078536
 10
33.8405143525
 20
23.8291330972
 10
33.8362466144
 20
23.7978560572
 10
33.830882833
 20
23.7674210028
 10
33.8244306002
 20
23.7378710115
 10
33.8168990483
 20
23.709247908
 10
33.8082988374
 20
23.681592205
 10
33.7986421402
 20
23.6549430462
 10
33.7879426246
 20
23.6293381503
 10
33.7762154346
 20
23.6048137584
 10
33.7634771688
 20
23.5814045819
 10
33.7497458567
 20
23.5591437539
 10
33.7419527443
 20
23.5476513833
  0
ARC
  5
A7
330
1F
100
AcDbEntity
  8
0
  6
Continuous
 62
     7
370
    25
100
AcDbCircle
 10
32.7101943771
 20
24.8412185676
 30
0.0
 40
0.5644876163556304
100
AcDbArc
 50
71.5107744356
 51
94.068769221
  0
LINE
  5
A8
330
1F
100
AcDbEntity
  8
0
  6
Continuous
 62
     7
370
    25
100
AcDbLine
 10
17.6456678678
 20
8.0585914022
 30
0.0
 11
17.646939335
 21
8.057319935
 31
0.0
  0
LINE
  5
A9
330
1F
100
AcDbEntity
  8
0
  6
Continuous
 62
     7
370
    25
100
AcDbLine
 10
17.773739335
 20
8.057319935
 30
0.0
 11
17.77500581
 21
8.05858641
 31
0.0
  0
LINE
  5
AA
330
1F
100
AcDbEntity
  8
0
  6
Continuous
 62
     7
370
    25
100
AcDbLine
 10
17.795217689
 20
8.057319935
 30
0.0
 11
18.5343679754
 21
8.057319935
 31
0.0
  0
LINE
  5
AB
330
1F
100
AcDbEntity
  8
0
  6
Continuous
 62
     7
370
    25
100
AcDbLine
 10
17.460339335
 20
8.057319935
 30
0.0
 11
17.6256148244
 21
8.057319935
 31
0.0
  0
LINE
  5
AC
330
1F
100
AcDbEntity
  8
0
  6
Continuous
 62
     7
370
    25
100
AcDbLine
 10
18.5343679754
 20
10.277319935
 30
0.0
 11
17.460339335
 21
10.277319935
 31
0.0
  0
ARC
  5
AD
330
1F
100
AcDbEntity
  8
0
  6
Continuous
 62
     7
370
    25
100
AcDbCircle
 10
18.579089335
 20
8.017319935
 30
0.0
 40
0.0600000000000008
100
AcDbArc
 50
41.8103148958
 51
138.1896851042
  0
ARC
  5
AE
330
1F
100
AcDbEntity
  8
0
  6
Continuous
 62
     7
370
    25
100
AcDbCircle
 10
18.579089335
 20
10.317319935
 30
0.0
 40
0.0600000000000008
100
AcDbArc
 50
221.8103148958
 51
318.1896851042
  0
LINE
  5
AF
330
1F
100
AcDbEntity
  8
0
  6
Continuous
 62
     7
370
    25
100
AcDbLine
 10
18.6238106945
 20
8.057319935
 30
0.0
 11
18.840339335
 21
8.057319935
 31
0.0
  0
LINE
  5
B0
330
1F
100
AcDbEntity
  8
0
  6
Continuous
 62
     7
370
    25
100
AcDbLine
 10
18.840339335
 20
10.277319935
 30
0.0
 11
18.6238106945
 21
10.277319935
 31
0.0
  0
LINE
  5
B1
330
1F
100
AcDbEntity
  8
0
  6
Continuous
 62
     7
370
    25
100
AcDbLine
 10
18.855339335
 20
6.652319935
 30
0.0
 11
19.230339335
 21
6.652319935
 31
0.0
  0
LINE
  5
B2
330
1F
100
AcDbEntity
  8
0
  6
Continuous
 62
     7
370
    25
100
AcDbLine
 10
19.230339335
 20
11.682319935
 30
0.0
 11
18.855339335
 21
11.682319935
 31
0.0
  0
LINE
  5
B3
330
1F
100
AcDbEntity
  8
0
  6
Continuous
 62
     7
370
    25
100
AcDbLine
 10
18.855339335
 20
10.3444374385
 30
0.0
 11
18.840339335
 21
10.3443065355
 31
0.0
  0
LINE
  5
B4
330
1F
100
AcDbEntity
  8
0
  6
Continuous
 62
     7
370
    25
100
AcDbLine
 10
18.840339335
 20
7.9903333345
 30
0.0
 11
18.855339335
 21
7.9902024314
 31
0.0
  0
ARC
  5
B5
330
1F
100
AcDbEntity
  8
0
  6
Continuous
 62
     7
370
    25
100
AcDbCircle
 10
19.217839335
 20
9.167319935
 30
0.0
 40
1.0125
100
AcDbArc
 50
321.8819356939
 51
89.2926267275
  0
ARC
  5
B6
330
1F
100
AcDbEntity
  8
0
  6
Continuous
 62
     7
370
    25
100
AcDbCircle
 10
19.217839335
 20
9.167319935
 30
0.0
 40
1.0125
100
AcDbArc
 50
270.7073732726
 51
271.2733443614
  0
LINE
  5
B7
330
1F
100
AcDbEntity
  8
0
  6
Continuous
 62
     7
370
    25
100
AcDbLine
 10
15.530339335
 20
10.277319935
 30
0.0
 11
15.500339335
 21
10.247319935
 31
0.0
  0
LINE
  5
B8
330
1F
100
AcDbEntity
  8
0
  6
Continuous
 62
     7
370
    25
100
AcDbLine
 10
15.500339335
 20
8.087319935
 30
0.0
 11
15.530339335
 21
8.057319935
 31
0.0
  0
LINE
  5
B9
330
1F
100
AcDbEntity
  8
0
  6
Continuous
 62
     7
370
    25
100
AcDbLine
 10
15.530339335
 20
8.057319935
 30
0.0
 11
17.450339335
 21
8.057319935
 31
0.0
  0
LINE
  5
BA
330
1F
100
AcDbEntity
  8
0
  6
Continuous
 62
     7
370
    25
100
AcDbLine
 10
17.450339335
 20
10.277319935
 30
0.0
 11
15.530339335
 21
10.277319935
 31
0.0
  0
ARC
  5
BB
330
1F
100
AcDbEntity
  8
0
  6
Continuous
 62
     7
370
    25
100
AcDbCircle
 10
17.450339335
 20
10.267319935
 30
0.0
 40
0.0100000000000016
100
AcDbArc
 50
0.0
 51
90.0
  0
ARC
  5
BC
330
1F
100
AcDbEntity
  8
0
  6
Continuous
 62
     7
370
    25
100
AcDbCircle
 10
17.450339335
 20
8.067319935
 30
0.0
 40
0.0099999999999998
100
AcDbArc
 50
270.0
 51
0.0
  0
LINE
  5
BD
330
1F
100
AcDbEntity
  8
0
  6
Continuous
 62
     7
370
    25
100
AcDbLine
 10
12.848339335
 20
9.0529433123
 30
0.0
 11
13.348339335
 21
9.0529433123
 31
0.0
  0
LINE
  5
BE
330
1F
100
AcDbEntity
  8
0
  6
Continuous
 62
     7
370
    25
100
AcDbLine
 10
13.348339335
 20
9.3229433123
 30
0.0
 11
12.848339335
 21
9.3229433123
 31
0.0
  0
LINE
  5
BF
330
1F
100
AcDbEntity
  8
0
  6
Continuous
 62
     7
370
    25
100
AcDbLine
 10
12.598339335
 20
9.0529465577
 30
0.0
 11
15.112839335
 21
9.0529465577
 31
0.0
  0
LINE
  5
C0
330
1F
100
AcDbEntity
  8
0
  6
Continuous
 62
     7
370
    25
100
AcDbLine
 10
15.112839335
 20
9.2404465577
 30
0.0
 11
12.598339335
 21
9.2404465577
 31
0.0
  0
LINE
  5
C1
330
1F
100
AcDbEntity
  8
0
  6
Continuous
 62
     7
370
    25
100
AcDbLine
 10
15.112839335
 20
9.2816933123
 30
0.0
 11
13.348339335
 21
9.2816933123
 31
0.0
  0
LINE
  5
C2
330
1F
100
AcDbEntity
  8
0
  6
Continuous
 62
     7
370
    25
100
AcDbLine
 10
12.848339335
 20
9.2816933123
 30
0.0
 11
12.598339335
 21
9.2816933123
 31
0.0
  0
LINE
  5
C3
330
1F
100
AcDbEntity
  8
0
  6
Continuous
 62
     7
370
    25
100
AcDbLine
 10
15.375339335
 20
8.672319935
 30
0.0
 11
15.500339335
 21
8.672319935
 31
0.0
  0
LINE
  5
C4
330
1F
100
AcDbEntity
  8
0
  6
Continuous
 62
     7
370
    25
100
AcDbLine
 10
15.500339335
 20
9.662319935
 30
0.0
 11
15.375339335
 21
9.662319935
 31
0.0
  0
LINE
  5
C5
330
1F
100
AcDbEntity
  8
0
  6
Continuous
 62
     7
370
    25
100
AcDbLine
 10
15.375339335
 20
9.511069935
 30
0.0
 11
15.362339335
 21
9.511069935
 31
0.0
  0
LINE
  5
C6
330
1F
100
AcDbEntity
  8
0
  6
Continuous
 62
     7
370
    25
100
AcDbLine
 10
15.362339335
 20
8.823569935
 30
0.0
 11
15.375339335
 21
8.823569935
 31
0.0
  0
LINE
  5
C7
330
1F
100
AcDbEntity
  8
0
  6
Continuous
 62
     7
370
    25
100
AcDbLine
 10
15.132839335
 20
9.5077609511
 30
0.0
 11
15.112839335
 21
9.473119935
 31
0.0
  0
LINE
  5
C8
330
1F
100
AcDbEntity
  8
0
  6
Continuous
 62
     7
370
    25
100
AcDbLine
 10
15.152839335
 20
9.473119935
 30
0.0
 11
15.132839335
 21
9.5077609511
 31
0.0
  0
LINE
  5
C9
330
1F
100
AcDbEntity
  8
0
  6
Continuous
 62
     7
370
    25
100
AcDbLine
 10
15.172839335
 20
9.5077609511
 30
0.0
 11
15.152839335
 21
9.473119935
 31
0.0
  0
LINE
  5
CA
330
1F
100
AcDbEntity
  8
0
  6
Continuous
 62
     7
370
    25
100
AcDbLine
 10
15.232839335
 20
9.473119935
 30
0.0
 11
15.212839335
 21
9.5077609511
 31
0.0
  0
LINE
  5
CB
330
1F
100
AcDbEntity
  8
0
  6
Continuous
 62
     7
370
    25
100
AcDbLine
 10
15.192839335
 20
9.473119935
 30
0.0
 11
15.172839335
 21
9.5077609511
 31
0.0
  0
LINE
  5
CC
330
1F
100
AcDbEntity
  8
0
  6
Continuous
 62
     7
370
    25
100
AcDbLine
 10
15.252839335
 20
9.5077609511
 30
0.0
 11
15.232839335
 21
9.473119935
 31
0.0
  0
LINE
  5
CD
330
1F
100
AcDbEntity
  8
0
  6
Continuous
 62
     7
370
    25
100
AcDbLine
 10
15.212839335
 20
9.5077609511
 30
0.0
 11
15.192839335
 21
9.473119935
 31
0.0
  0
LINE
  5
CE
330
1F
100
AcDbEntity
  8
0
  6
Continuous
 62
     7
370
    25
100
AcDbLine
 10
15.272839335
 20
9.473119935
 30
0.0
 11
15.252839335
 21
9.5077609511
 31
0.0
  0
LINE
  5
CF
330
1F
100
AcDbEntity
  8
0
  6
Continuous
 62
     7
370
    25
100
AcDbLine
 10
15.292339335
 20
9.5068949257
 30
0.0
 11
15.272839335
 21
9.473119935
 31
0.0
  0
LINE
  5
D0
330
1F
100
AcDbEntity
  8
0
  6
Continuous
 62
     7
370
    25
100
AcDbLine
 10
15.362339335
 20
9.467319935
 30
0.0
 11
15.292339335
 21
9.467319935
 31
0.0
  0
LINE
  5
D1
330
1F
100
AcDbEntity
  8
0
  6
Continuous
 62
     7
370
    25
100
AcDbLine
 10
15.292339335
 20
8.867319935
 30
0.0
 11
15.362339335
 21
8.867319935
 31
0.0
  0
LINE
  5
D2
330
1F
100
AcDbEntity
  8
0
  6
Continuous
 62
     7
370
    25
100
AcDbLine
 10
15.112839335
 20
8.861519935
 30
0.0
 11
15.132839335
 21
8.8268789188
 31
0.0
  0
LINE
  5
D3
330
1F
100
AcDbEntity
  8
0
  6
Continuous
 62
     7
370
    25
100
AcDbLine
 10
15.132839335
 20
8.8268789188
 30
0.0
 11
15.152839335
 21
8.861519935
 31
0.0
  0
LINE
  5
D4
330
1F
100
AcDbEntity
  8
0
  6
Continuous
 62
     7
370
    25
100
AcDbLine
 10
15.152839335
 20
8.861519935
 30
0.0
 11
15.172839335
 21
8.8268789188
 31
0.0
  0
LINE
  5
D5
330
1F
100
AcDbEntity
  8
0
  6
Continuous
 62
     7
370
    25
100
AcDbLine
 10
15.172839335
 20
8.8268789188
 30
0.0
 11
15.192839335
 21
8.861519935
 31
0.0
  0
LINE
  5
D6
330
1F
100
AcDbEntity
  8
0
  6
Continuous
 62
     7
370
    25
100
AcDbLine
 10
15.212839335
 20
8.8268789188
 30
0.0
 11
15.232839335
 21
8.861519935
 31
0.0
  0
LINE
  5
D7
330
1F
100
AcDbEntity
  8
0
  6
Continuous
 62
     7
370
    25
100
AcDbLine
 10
15.192839335
 20
8.861519935
 30
0.0
 11
15.212839335
 21
8.8268789188
 31
0.0
  0
LINE
  5
D8
330
1F
100
AcDbEntity
  8
0
  6
Continuous
 62
     7
370
    25
100
AcDbLine
 10
15.232839335
 20
8.861519935
 30
0.0
 11
15.252839335
 21
8.8268789188
 31
0.0
  0
LINE
  5
D9
330
1F
100
AcDbEntity
  8
0
  6
Continuous
 62
     7
370
    25
100
AcDbLine
 10
15.252839335
 20
8.8268789188
 30
0.0
 11
15.272839335
 21
8.861519935
 31
0.0
  0
LINE
  5
DA
330
1F
100
AcDbEntity
  8
0
  6
Continuous
 62
     7
370
    25
100
AcDbLine
 10
15.272839335
 20
8.861519935
 30
0.0
 11
15.292339335
 21
8.8277449442
 31
0.0
  0
LINE
  5
DB
330
1F
100
AcDbEntity
  8
0
  6
Continuous
 62
     7
370
    25
100
AcDbLine
 10
17.773739335
 20
8.057319935
 30
0.0
 11
17.646939335
 21
8.057319935
 31
0.0
  0
LWPOLYLINE
  5
DC
330
1F
100
AcDbEntity
  8
0
  6
Continuous
 62
     7
370
    25
100
AcDbPolyline
 90
       50
 70
   128
 43
0.0
 10
17.7721578269
 20
9.7101328293
 10
17.7734498438
 20
9.7170789661
 10
17.773705588
 20
9.7241111595
 10
17.77292086
 20
9.7311139411
 10
17.7711085451
 20
9.7379723253
 10
17.7682984015
 20
9.7445736977
 10
17.7645365716
 20
9.750809664
 10
17.7598848246
 20
9.7565778296
 10
17.754419542
 20
9.7617834816
 10
17.7482304636
 20
9.7663411433
 10
17.7414192139
 20
9.7701759779
 10
17.7340976335
 20
9.7732250176
 10
17.7263859425
 20
9.7754381973
 10
17.7184107666
 20
9.7767791766
 10
17.7103030581
 20
9.7772259366
 10
17.7021959452
 20
9.7767711416
 10
17.6942225465
 20
9.7754222593
 10
17.6865137851
 20
9.7732014383
 10
17.6791962385
 20
9.7701451444
 10
17.6723900607
 20
9.7663035619
 10
17.666207009
 20
9.7617397695
 10
17.6607486088
 20
9.7565287045
 10
17.656104487
 20
9.7507559324
 10
17.6523508999
 20
9.744516242
 10
17.6495494813
 20
9.7379120889
 10
17.6477462304
 20
9.7310519131
 10
17.6469707565
 20
9.7240483584
 10
17.647235793
 20
9.717016423
 10
17.6485369878
 20
9.7100715712
 10
17.6508529755
 20
9.7033278372
 10
17.6541457276
 20
9.6968959528
 10
17.6583611772
 20
9.6908815296
 10
17.6634301066
 20
9.6853833241
 10
17.6692692843
 20
9.6804916168
 10
17.6757828311
 20
9.6762867292
 10
17.6828637948
 20
9.6728377057
 10
17.690395906
 20
9.6702011789
 10
17.6982554878
 20
9.6684204408
 10
17.7063134861
 20
9.6675247308
 10
17.7144375886
 20
9.6675287565
 10
17.722494398
 20
9.6684324519
 10
17.7303516215
 20
9.6702209783
 10
17.7378802439
 20
9.6728649681
 10
17.7449566453
 20
9.6763210071
 10
17.7514646314
 20
9.6805323472
 10
17.7572973413
 20
9.6854298383
 10
17.762359002
 20
9.6909330639
 10
17.7665665013
 20
9.6969516609
 10
17.769850752
 20
9.7033868044
 10
17.7721578269
 20
9.7101328293
  0
LWPOLYLINE
  5
DD
330
1F
100
AcDbEntity
  8
0
  6
Continuous
 62
     7
370
    25
100
AcDbPolyline
 90
       54
 70
   128
 43
0.0
 10
17.693838637
 20
9.6540757827
 10
17.685381371
 20
9.6562065154
 10
17.6772744602
 20
9.6591885499
 10
17.6696317077
 20
9.662980025
 10
17.6625604011
 20
9.6675277166
 10
17.656159806
 20
9.6727677852
 10
17.6505197727
 20
9.6786266717
 10
17.6457194749
 20
9.6850221301
 10
17.6418262983
 20
9.6918643823
 10
17.6388948946
 20
9.6990573779
 10
17.6369664142
 20
9.7065001432
 10
17.6360679288
 20
9.7140881979
 10
17.6362120511
 20
9.7217150226
 10
17.637396758
 20
9.7292735531
 10
17.6396054188
 20
9.7366576845
 10
17.6428070287
 20
9.7437637595
 10
17.6469566442
 20
9.7504920246
 10
17.6519960137
 20
9.7567480296
 10
17.6578543955
 20
9.7624439539
 10
17.6644495509
 20
9.7674998393
 10
17.6716888982
 20
9.7718447121
 10
17.6794708129
 20
9.77541758
 10
17.6876860541
 20
9.7781682876
 10
17.6962192976
 20
9.780058221
 10
17.7049507555
 20
9.7810608498
 10
17.7137578572
 20
9.7811620992
 10
17.7225169704
 20
9.780360548
 10
17.7311051363
 20
9.778667448
 10
17.7394017958
 20
9.7761065668
 10
17.7472904821
 20
9.7727138535
 10
17.7546604553
 20
9.7685369343
 10
17.7614082571
 20
9.7636344441
 10
17.7674391632
 20
9.7580752031
 10
17.7726685129
 20
9.7519372508
 10
17.7770228975
 20
9.7453067505
 10
17.7804411911
 20
9.7382767801
 10
17.7828754083
 20
9.7309460249
 10
17.7842913781
 20
9.7234173926
 10
17.7846692232
 20
9.7157965687
 10
17.7840036396
 20
9.7081905328
 10
17.7823039707
 20
9.7007060571
 10
17.7795940761
 20
9.6934482072
 10
17.7759119967
 20
9.6865188674
 10
17.7713094208
 20
9.6800153103
 10
17.7658509586
 20
9.6740288318
 10
17.7596132349
 20
9.6686434688
 10
17.7526838137
 20
9.6639348201
 10
17.7451599687
 20
9.6599689847
 10
17.7371473185
 20
9.6568016342
 10
17.7287583428
 20
9.6544772314
 10
17.7201108047
 20
9.6530284058
 10
17.7113260966
 20
9.6524754956
 10
17.7025275365
 20
9.6528262626
 10
17.693838637
 20
9.6540757827
  0
LINE
  5
DE
330
1F
100
AcDbEntity
  8
0
  6
Continuous
 62
     7
370
    25
100
AcDbLine
 10
17.6970409099
 20
9.7595806907
 30
0.0
 11
17.6664293667
 21
9.730976494
 31
0.0
  0
LINE
  5
DF
330
1F
100
AcDbEntity
  8
0
  6
Continuous
 62
     7
370
    25
100
AcDbLine
 10
17.6797277918
 20
9.6937157383
 30
0.0
 11
17.6664293667
 21
9.730976494
 31
0.0
  0
LINE
  5
E0
330
1F
100
AcDbEntity
  8
0
  6
Continuous
 62
     7
370
    25
100
AcDbLine
 10
17.7236377601
 20
9.6850591793
 30
0.0
 11
17.6797277918
 21
9.6937157383
 31
0.0
  0
LINE
  5
E1
330
1F
100
AcDbEntity
  8
0
  6
Continuous
 62
     7
370
    25
100
AcDbLine
 10
17.7236377601
 20
9.6850591793
 30
0.0
 11
17.7542493032
 21
9.7136633759
 31
0.0
  0
LINE
  5
E2
330
1F
100
AcDbEntity
  8
0
  6
Continuous
 62
     7
370
    25
100
AcDbLine
 10
17.7409508782
 20
9.7509241317
 30
0.0
 11
17.7542493032
 21
9.7136633759
 31
0.0
  0
LINE
  5
E3
330
1F
100
AcDbEntity
  8
0
  6
Continuous
 62
     7
370
    25
100
AcDbLine
 10
17.7409508782
 20
9.7509241317
 30
0.0
 11
17.6970409099
 21
9.7595806907
 31
0.0
  0
LINE
  5
E4
330
1F
100
AcDbEntity
  8
0
  6
Continuous
 62
     7
370
    25
100
AcDbLine
 10
17.7409508782
 20
9.7059241317
 30
0.0
 11
17.742205359
 21
9.7024092112
 31
0.0
  0
LINE
  5
E5
330
1F
100
AcDbEntity
  8
0
  6
Continuous
 62
     7
370
    25
100
AcDbLine
 10
17.7409508782
 20
9.7059241317
 30
0.0
 11
17.7409508782
 21
9.7509241317
 31
0.0
  0
LINE
  5
E6
330
1F
100
AcDbEntity
  8
0
  6
Continuous
 62
     7
370
    25
100
AcDbLine
 10
17.6970409099
 20
9.7145806907
 30
0.0
 11
17.6970409099
 21
9.7595806907
 31
0.0
  0
LINE
  5
E7
330
1F
100
AcDbEntity
  8
0
  6
Continuous
 62
     7
370
    25
100
AcDbLine
 10
17.6970409099
 20
9.7145806907
 30
0.0
 11
17.6784733109
 21
9.6972306587
 31
0.0
  0
LINE
  5
E8
330
1F
100
AcDbEntity
  8
0
  6
Continuous
 62
     7
370
    25
100
AcDbLine
 10
17.7409508782
 20
9.7059241317
 30
0.0
 11
17.6970409099
 21
9.7145806907
 31
0.0
  0
LINE
  5
E9
330
1F
100
AcDbEntity
  8
0
  6
Continuous
 62
     7
370
    25
100
AcDbLine
 10
18.5343679754
 20
8.057319935
 30
0.0
 11
18.5343679754
 21
10.277319935
 31
0.0
  0
LINE
  5
EA
330
1F
100
AcDbEntity
  8
0
  6
Continuous
 62
     7
370
    25
100
AcDbLine
 10
17.460339335
 20
8.057319935
 30
0.0
 11
17.460339335
 21
10.277319935
 31
0.0
  0
SPLINE
  5
EB
330
1F
100
AcDbEntity
  8
0
  6
Continuous
 62
     7
370
    25
100
AcDbSpline
210
0.0
220
0.0
230
1.0
 70
     8
 71
     3
 72
    21
 73
    17
 74
     0
 42
0.00000001
 43
0.00000001
 40
0.0
 40
0.0
 40
0.0
 40
0.0
 40
0.0625763532083421
 40
0.1265035522581376
 40
0.1987179559887249
 40
0.2729336853926374
 40
0.3468040294901905
 40
0.4227821782271768
 40
0.49719887728788
 40
0.5738190519484531
 40
0.6473702073296077
 40
0.7231773256259427
 40
0.7945918410701522
 40
0.8682338625790305
 40
0.9370455568130877
 40
1.0
 40
1.0
 40
1.0
 40
1.0
 10
17.65135064130826
 20
8.058889080788624
 30
0.0
 10
17.6544596186635
 20
8.059036443089072
 30
0.0
 10
17.66074468737019
 20
8.059334348823745
 30
0.0
 10
17.67203650621299
 20
8.059753416875028
 30
0.0
 10
17.68483635389238
 20
8.060103922109906
 30
0.0
 10
17.69896157176207
 20
8.060325460828691
 30
0.0
 10
17.71363135301607
 20
8.060376559001885
 30
0.0
 10
17.72823098118183
 20
8.060245460263335
 30
0.0
 10
17.74249636130667
 20
8.059942758568829
 30
0.0
 10
17.7556992549736
 20
8.05950820560689
 30
0.0
 10
17.7676608177529
 20
8.058987512574657
 30
0.0
 10
17.77769657974937
 20
8.058457040574357
 30
0.0
 10
17.78578215544437
 20
8.057968314953026
 30
0.0
 10
17.79140496542716
 20
8.057596144177298
 30
0.0
 10
17.79479484980968
 20
8.057358898987655
 30
0.0
 10
17.79508098232403
 20
8.057338358270288
 30
0.0
 10
17.79521768901872
 20
8.05732854444824
 30
0.0
  0
SPLINE
  5
EC
330
1F
100
AcDbEntity
  8
0
  6
Continuous
 62
     7
370
    25
100
AcDbSpline
210
0.0
220
0.0
230
1.0
 70
     8
 71
     3
 72
    13
 73
     9
 74
     0
 42
0.00000001
 43
0.00000001
 40
0.0
 40
0.0
 40
0.0
 40
0.0
 40
0.0931735833769124
 40
0.2982980077227702
 40
0.4959724107543874
 40
0.6991839199548551
 40
0.8484928612262889
 40
1.0
 40
1.0
 40
1.0
 40
1.0
 10
17.62561482436195
 20
8.057339498505225
 30
0.0
 10
17.62555627646795
 20
8.057335346836089
 30
0.0
 10
17.62536883363807
 20
8.05732205514345
 30
0.0
 10
17.6274789049588
 20
8.057471688001318
 30
0.0
 10
17.63176810060423
 20
8.057764159240469
 30
0.0
 10
17.63764548450435
 20
8.058137466034161
 30
0.0
 10
17.64426581828969
 20
8.058525410442932
 30
0.0
 10
17.64897755670945
 20
8.058767268219116
 30
0.0
 10
17.65135064130826
 20
8.058889080788624
 30
0.0
  0
SPLINE
  5
ED
330
1F
100
AcDbEntity
  8
0
  6
Continuous
 62
     7
370
    25
100
AcDbSpline
210
0.0
220
0.0
230
1.0
 70
    11
 71
     3
 72
    45
 73
    41
 74
     0
 42
0.00000001
 43
0.00000001
 40
0.0
 40
0.0
 40
0.0
 40
0.0
 40
0.024108283257882
 40
0.0482188899796314
 40
0.073845417644942
 40
0.0994759773969327
 40
0.1258909503469032
 40
0.1523094731858018
 40
0.1796529962458196
 40
0.2069984091338356
 40
0.2350092503307503
 40
0.2630196752528062
 40
0.2912259374907559
 40
0.3194291371889558
 40
0.3472945027467438
 40
0.3751547349970692
 40
0.4021959954177151
 40
0.4292325688917424
 40
0.4552801931632627
 40
0.4813263356663396
 40
0.5067319793450727
 40
0.5321396062819264
 40
0.5575936281237303
 40
0.5830514827549631
 40
0.6091771677778224
 40
0.6353067113275647
 40
0.6623680059530193
 40
0.6894318084863257
 40
0.7172757288805601
 40
0.7451200155648602
 40
0.7733210565283029
 40
0.8015198844911098
 40
0.8295519839817227
 40
0.8575794303070454
 40
0.8849223608802678
 40
0.9122601029120551
 40
0.9386104409843274
 40
0.9649581106329315
 40
0.9824790027327756
 40
1.0
 40
1.0
 40
1.0
 40
1.0
 10
17.62636818399496
 20
9.733288723788316
 30
0.0
 10
17.62724208749929
 20
9.736833337063647
 30
0.0
 10
17.62898997873141
 20
9.743922905230539
 30
0.0
 10
17.63412932255883
 20
9.754072108697978
 30
0.0
 10
17.64114966029225
 20
9.763544210144541
 30
0.0
 10
17.6501709290113
 20
9.772138534305329
 30
0.0
 10
17.66085571204628
 20
9.77939834704909
 30
0.0
 10
17.67304526123834
 20
9.785242186924597
 30
0.0
 10
17.6863849425233
 20
9.789360455091384
 30
0.0
 10
17.70062169382291
 20
9.79168628816453
 30
0.0
 10
17.71524892146783
 20
9.792006142318986
 30
0.0
 10
17.72989226265965
 20
9.790326944740032
 30
0.0
 10
17.74400596876707
 20
9.786585790817009
 30
0.0
 10
17.75714991706169
 20
9.780938639539524
 30
0.0
 10
17.76885638116226
 20
9.773465089512138
 30
0.0
 10
17.77874274677081
 20
9.76451521981148
 30
0.0
 10
17.7865002733969
 20
9.754268408154976
 30
0.0
 10
17.79195912129557
 20
9.743223253910754
 30
0.0
 10
17.79498840338399
 20
9.731588907933144
 30
0.0
 10
17.7956818838196
 20
9.719845457235659
 30
0.0
 10
17.7940140303415
 20
9.708191697725706
 30
0.0
 10
17.79020782329422
 20
9.696948908450247
 30
0.0
 10
17.78428317495084
 20
9.686358350430911
 30
0.0
 10
17.77644194037774
 20
9.676599142460233
 30
0.0
 10
17.76679962557449
 20
9.668008293817358
 30
0.0
 10
17.75552331603477
 20
9.660714969001257
 30
0.0
 10
17.7429042232854
 20
9.655102693969756
 30
0.0
 10
17.72916203198668
 20
9.651284389500551
 30
0.0
 10
17.71476406868373
 20
9.649566059410883
 30
0.0
 10
17.70004845350498
 20
9.649981455095476
 30
0.0
 10
17.68556240085661
 20
9.65265655758181
 30
0.0
 10
17.6717356840451
 20
9.657454085898426
 30
0.0
 10
17.65907138549565
 20
9.664302244554833
 30
0.0
 10
17.64798748754547
 20
9.672845086062036
 30
0.0
 10
17.63884824152877
 20
9.682866953850239
 30
0.0
 10
17.6319091620502
 20
9.693838953597327
 30
0.0
 10
17.62733955631303
 20
9.70550177084992
 30
0.0
 10
17.62539550844124
 20
9.716110453071636
 30
0.0
 10
17.62519946712929
 20
9.725433439620431
 30
0.0
 10
17.62597861092695
 20
9.730670290493425
 30
0.0
 10
17.62636818399496
 20
9.733288723788316
 30
0.0
  0
LINE
  5
EE
330
1F
100
AcDbEntity
  8
0
  6
Continuous
 62
     7
370
    25
100
AcDbLine
 10
18.6238106945
 20
8.057319935
 30
0.0
 11
18.6238106945
 21
10.277319935
 31
0.0
  0
LINE
  5
EF
330
1F
100
AcDbEntity
  8
0
  6
Continuous
 62
     7
370
    25
100
AcDbLine
 10
19.230339335
 20
11.682319935
 30
0.0
 11
19.230339335
 21
6.652319935
 31
0.0
  0
LINE
  5
F0
330
1F
100
AcDbEntity
  8
0
  6
Continuous
 62
     7
370
    25
100
AcDbLine
 10
18.855339335
 20
11.682319935
 30
0.0
 11
18.855339335
 21
6.652319935
 31
0.0
  0
LINE
  5
F1
330
1F
100
AcDbEntity
  8
0
  6
Continuous
 62
     7
370
    25
100
AcDbLine
 10
18.840339335
 20
10.3443065355
 30
0.0
 11
18.840339335
 21
7.9903333345
 31
0.0
  0
LINE
  5
F2
330
1F
100
AcDbEntity
  8
0
  6
Continuous
 62
     7
370
    25
100
AcDbLine
 10
19.240339335
 20
8.542319935
 30
0.0
 11
20.0144140333
 21
8.542319935
 31
0.0
  0
LINE
  5
F3
330
1F
100
AcDbEntity
  8
0
  6
Continuous
 62
     7
370
    25
100
AcDbLine
 10
19.240339335
 20
8.1550699659
 30
0.0
 11
19.240339335
 21
8.542319935
 31
0.0
  0
LINE
  5
F4
330
1F
100
AcDbEntity
  8
0
  6
Continuous
 62
     7
370
    25
100
AcDbLine
 10
15.530339335
 20
10.2501291256
 30
0.0
 11
15.530339335
 21
8.057319935
 31
0.0
  0
LINE
  5
F5
330
1F
100
AcDbEntity
  8
0
  6
Continuous
 62
     7
370
    25
100
AcDbLine
 10
15.530339335
 20
10.277319935
 30
0.0
 11
15.530339335
 21
10.2501291256
 31
0.0
  0
LINE
  5
F6
330
1F
100
AcDbEntity
  8
0
  6
Continuous
 62
     7
370
    25
100
AcDbLine
 10
15.500339335
 20
10.2208640124
 30
0.0
 11
15.500339335
 21
10.247319935
 31
0.0
  0
LINE
  5
F7
330
1F
100
AcDbEntity
  8
0
  6
Continuous
 62
     7
370
    25
100
AcDbLine
 10
15.500339335
 20
8.087319935
 30
0.0
 11
15.500339335
 21
10.2208640124
 31
0.0
  0
LINE
  5
F8
330
1F
100
AcDbEntity
  8
0
  6
Continuous
 62
     7
370
    25
100
AcDbLine
 10
12.848339335
 20
9.3196363219
 30
0.0
 11
12.848339335
 21
9.2404465577
 31
0.0
  0
LINE
  5
F9
330
1F
100
AcDbEntity
  8
0
  6
Continuous
 62
     7
370
    25
100
AcDbLine
 10
12.848339335
 20
9.0529465577
 30
0.0
 11
12.848339335
 21
9.0529433123
 31
0.0
  0
LINE
  5
FA
330
1F
100
AcDbEntity
  8
0
  6
Continuous
 62
     7
370
    25
100
AcDbLine
 10
12.848339335
 20
9.3229433123
 30
0.0
 11
12.848339335
 21
9.3196363219
 31
0.0
  0
LINE
  5
FB
330
1F
100
AcDbEntity
  8
0
  6
Continuous
 62
     7
370
    25
100
AcDbLine
 10
13.348339335
 20
9.3196363219
 30
0.0
 11
13.348339335
 21
9.2404465577
 31
0.0
  0
LINE
  5
FC
330
1F
100
AcDbEntity
  8
0
  6
Continuous
 62
     7
370
    25
100
AcDbLine
 10
13.348339335
 20
9.0529465577
 30
0.0
 11
13.348339335
 21
9.0529433123
 31
0.0
  0
LINE
  5
FD
330
1F
100
AcDbEntity
  8
0
  6
Continuous
 62
     7
370
    25
100
AcDbLine
 10
13.348339335
 20
9.3229433123
 30
0.0
 11
13.348339335
 21
9.3196363219
 31
0.0
  0
LINE
  5
FE
330
1F
100
AcDbEntity
  8
0
  6
Continuous
 62
     7
370
    25
100
AcDbLine
 10
12.598339335
 20
9.2404465577
 30
0.0
 11
12.598339335
 21
9.0529465577
 31
0.0
  0
LINE
  5
FF
330
1F
100
AcDbEntity
  8
0
  6
Continuous
 62
     7
370
    25
100
AcDbLine
 10
12.598339335
 20
9.2816933123
 30
0.0
 11
12.598339335
 21
9.2404465577
 31
0.0
  0
LINE
  5
100
330
1F
100
AcDbEntity
  8
0
  6
Continuous
 62
     7
370
    25
100
AcDbLine
 10
15.375339335
 20
9.662319935
 30
0.0
 11
15.375339335
 21
8.672319935
 31
0.0
  0
LINE
  5
101
330
1F
100
AcDbEntity
  8
0
  6
Continuous
 62
     7
370
    25
100
AcDbLine
 10
15.362339335
 20
9.511069935
 30
0.0
 11
15.362339335
 21
8.823569935
 31
0.0
  0
LINE
  5
102
330
1F
100
AcDbEntity
  8
0
  6
Continuous
 62
     7
370
    25
100
AcDbLine
 10
15.112839335
 20
9.473119935
 30
0.0
 11
15.112839335
 21
9.2225593362
 31
0.0
  0
LINE
  5
103
330
1F
100
AcDbEntity
  8
0
  6
Continuous
 62
     7
370
    25
100
AcDbLine
 10
15.132839335
 20
9.292580118
 30
0.0
 11
15.132839335
 21
9.5077609511
 31
0.0
  0
SPLINE
  5
104
330
1F
100
AcDbEntity
  8
0
  6
Continuous
 62
     7
370
    25
100
AcDbSpline
210
0.0
220
0.0
230
1.0
 70
     8
 71
     3
 72
     9
 73
     5
 74
     0
 42
0.00000001
 43
0.00000001
 40
0.0
 40
0.0
 40
0.0
 40
0.0
 40
0.4995107894512592
 40
1.0
 40
1.0
 40
1.0
 40
1.0
 10
15.13283933497166
 20
9.292580118001423
 30
0.0
 10
15.1290991761907
 20
9.281032880198417
 30
0.0
 10
15.12161153256028
 20
9.257915786340064
 30
0.0
 10
15.11576530752451
 20
9.234352504489785
 30
0.0
 10
15.11283933497167
 20
9.2225593361586
 30
0.0
  0
LINE
  5
105
330
1F
100
AcDbEntity
  8
0
  6
Continuous
 62
     7
370
    25
100
AcDbLine
 10
15.152839335
 20
9.473119935
 30
0.0
 11
15.152839335
 21
9.2225593362
 31
0.0
  0
SPLINE
  5
106
330
1F
100
AcDbEntity
  8
0
  6
Continuous
 62
     7
370
    25
100
AcDbSpline
210
0.0
220
0.0
230
1.0
 70
     8
 71
     3
 72
    10
 73
     6
 74
     0
 42
0.00000001
 43
0.00000001
 40
0.0
 40
0.0
 40
0.0
 40
0.0
 40
0.4661492107783552
 40
0.933226270697227
 40
1.0
 40
1.0
 40
1.0
 40
1.0
 10
15.15283933497167
 20
9.2225593361586
 30
0.0
 10
15.15011144245815
 20
9.233540988090832
 30
0.0
 10
15.14465022768316
 20
9.255526150441957
 30
0.0
 10
15.13743089129787
 20
9.278729836742835
 30
0.0
 10
15.13334979588318
 20
9.291040329159967
 30
0.0
 10
15.13283933497166
 20
9.292580118001423
 30
0.0
  0
LINE
  5
107
330
1F
100
AcDbEntity
  8
0
  6
Continuous
 62
     7
370
    25
100
AcDbLine
 10
15.172839335
 20
9.292580118
 30
0.0
 11
15.172839335
 21
9.5077609511
 31
0.0
  0
SPLINE
  5
108
330
1F
100
AcDbEntity
  8
0
  6
Continuous
 62
     7
370
    25
100
AcDbSpline
210
0.0
220
0.0
230
1.0
 70
     8
 71
     3
 72
     9
 73
     5
 74
     0
 42
0.00000001
 43
0.00000001
 40
0.0
 40
0.0
 40
0.0
 40
0.0
 40
0.4995107894512573
 40
1.0
 40
1.0
 40
1.0
 40
1.0
 10
15.17283933497167
 20
9.292580118001423
 30
0.0
 10
15.1690991761907
 20
9.281032880198419
 30
0.0
 10
15.16161153256027
 20
9.257915786340066
 30
0.0
 10
15.15576530752451
 20
9.234352504489785
 30
0.0
 10
15.15283933497167
 20
9.2225593361586
 30
0.0
  0
LINE
  5
109
330
1F
100
AcDbEntity
  8
0
  6
Continuous
 62
     7
370
    25
100
AcDbLine
 10
15.212839335
 20
9.292580118
 30
0.0
 11
15.212839335
 21
9.5077609511
 31
0.0
  0
LINE
  5
10A
330
1F
100
AcDbEntity
  8
0
  6
Continuous
 62
     7
370
    25
100
AcDbLine
 10
15.232839335
 20
9.473119935
 30
0.0
 11
15.232839335
 21
9.2225593362
 31
0.0
  0
SPLINE
  5
10B
330
1F
100
AcDbEntity
  8
0
  6
Continuous
 62
     7
370
    25
100
AcDbSpline
210
0.0
220
0.0
230
1.0
 70
     8
 71
     3
 72
    10
 73
     6
 74
     0
 42
0.00000001
 43
0.00000001
 40
0.0
 40
0.0
 40
0.0
 40
0.0
 40
0.4661492107783557
 40
0.933226270697227
 40
0.9999999999999999
 40
0.9999999999999999
 40
0.9999999999999999
 40
0.9999999999999999
 10
15.23283933497167
 20
9.2225593361586
 30
0.0
 10
15.23011144245815
 20
9.233540988090832
 30
0.0
 10
15.22465022768317
 20
9.255526150441957
 30
0.0
 10
15.21743089129786
 20
9.278729836742835
 30
0.0
 10
15.21334979588318
 20
9.291040329159967
 30
0.0
 10
15.21283933497167
 20
9.292580118001423
 30
0.0
  0
LINE
  5
10C
330
1F
100
AcDbEntity
  8
0
  6
Continuous
 62
     7
370
    25
100
AcDbLine
 10
15.192839335
 20
9.473119935
 30
0.0
 11
15.192839335
 21
9.2225593362
 31
0.0
  0
SPLINE
  5
10D
330
1F
100
AcDbEntity
  8
0
  6
Continuous
 62
     7
370
    25
100
AcDbSpline
210
0.0
220
0.0
230
1.0
 70
     8
 71
     3
 72
    10
 73
     6
 74
     0
 42
0.00000001
 43
0.00000001
 40
0.0
 40
0.0
 40
0.0
 40
0.0
 40
0.466149210778358
 40
0.9332262706972256
 40
0.9999999999999999
 40
0.9999999999999999
 40
0.9999999999999999
 40
0.9999999999999999
 10
15.19283933497167
 20
9.2225593361586
 30
0.0
 10
15.19011144245815
 20
9.233540988090832
 30
0.0
 10
15.18465022768316
 20
9.255526150441955
 30
0.0
 10
15.17743089129787
 20
9.278729836742835
 30
0.0
 10
15.17334979588318
 20
9.291040329159967
 30
0.0
 10
15.17283933497167
 20
9.292580118001423
 30
0.0
  0
LINE
  5
10E
330
1F
100
AcDbEntity
  8
0
  6
Continuous
 62
     7
370
    25
100
AcDbLine
 10
15.252839335
 20
9.292580118
 30
0.0
 11
15.252839335
 21
9.5077609511
 31
0.0
  0
SPLINE
  5
10F
330
1F
100
AcDbEntity
  8
0
  6
Continuous
 62
     7
370
    25
100
AcDbSpline
210
0.0
220
0.0
230
1.0
 70
     8
 71
     3
 72
     9
 73
     5
 74
     0
 42
0.00000001
 43
0.00000001
 40
0.0
 40
0.0
 40
0.0
 40
0.0
 40
0.499510789451258
 40
1.0
 40
1.0
 40
1.0
 40
1.0
 10
15.25283933497167
 20
9.292580118001423
 30
0.0
 10
15.2490991761907
 20
9.281032880198419
 30
0.0
 10
15.24161153256027
 20
9.257915786340066
 30
0.0
 10
15.23576530752451
 20
9.234352504489785
 30
0.0
 10
15.23283933497167
 20
9.2225593361586
 30
0.0
  0
SPLINE
  5
110
330
1F
100
AcDbEntity
  8
0
  6
Continuous
 62
     7
370
    25
100
AcDbSpline
210
0.0
220
0.0
230
1.0
 70
     8
 71
     3
 72
     9
 73
     5
 74
     0
 42
0.00000001
 43
0.00000001
 40
0.0
 40
0.0
 40
0.0
 40
0.0
 40
0.4995107894512579
 40
0.9999999999999999
 40
0.9999999999999999
 40
0.9999999999999999
 40
0.9999999999999999
 10
15.21283933497167
 20
9.292580118001423
 30
0.0
 10
15.2090991761907
 20
9.281032880198419
 30
0.0
 10
15.20161153256027
 20
9.257915786340066
 30
0.0
 10
15.19576530752451
 20
9.234352504489785
 30
0.0
 10
15.19283933497167
 20
9.2225593361586
 30
0.0
  0
LINE
  5
111
330
1F
100
AcDbEntity
  8
0
  6
Continuous
 62
     7
370
    25
100
AcDbLine
 10
15.272839335
 20
9.473119935
 30
0.0
 11
15.272839335
 21
9.2225593362
 31
0.0
  0
SPLINE
  5
112
330
1F
100
AcDbEntity
  8
0
  6
Continuous
 62
     7
370
    25
100
AcDbSpline
210
0.0
220
0.0
230
1.0
 70
     8
 71
     3
 72
    10
 73
     6
 74
     0
 42
0.00000001
 43
0.00000001
 40
0.0
 40
0.0
 40
0.0
 40
0.0
 40
0.466149210778372
 40
0.9332262706972602
 40
1.0
 40
1.0
 40
1.0
 40
1.0
 10
15.27283933497167
 20
9.2225593361586
 30
0.0
 10
15.27011144245815
 20
9.233540988090834
 30
0.0
 10
15.26465022768317
 20
9.25552615044196
 30
0.0
 10
15.25743089129785
 20
9.278729836742828
 30
0.0
 10
15.25334979588318
 20
9.291040329159967
 30
0.0
 10
15.25283933497167
 20
9.292580118001423
 30
0.0
  0
SPLINE
  5
113
330
1F
100
AcDbEntity
  8
0
  6
Continuous
 62
     7
370
    25
100
AcDbSpline
210
0.0
220
0.0
230
1.0
 70
     8
 71
     3
 72
     9
 73
     5
 74
     0
 42
0.00000001
 43
0.00000001
 40
0.0
 40
0.0
 40
0.0
 40
0.0
 40
0.4995271105052524
 40
1.0
 40
1.0
 40
1.0
 40
1.0
 10
15.29233933497166
 20
9.291076693479207
 30
0.0
 10
15.28869817063438
 20
9.279774713423201
 30
0.0
 10
15.28140894796617
 20
9.2571493547223
 30
0.0
 10
15.27569767317107
 20
9.234096609947054
 30
0.0
 10
15.27283933497167
 20
9.2225593361586
 30
0.0
  0
LINE
  5
114
330
1F
100
AcDbEntity
  8
0
  6
Continuous
 62
     7
370
    25
100
AcDbLine
 10
15.292339335
 20
9.5068949257
 30
0.0
 11
15.292339335
 21
9.2910766935
 31
0.0
  0
LINE
  5
115
330
1F
100
AcDbEntity
  8
0
  6
Continuous
 62
     7
370
    25
100
AcDbLine
 10
15.362339335
 20
9.2072880874
 30
0.0
 11
15.292339335
 21
9.2072880874
 31
0.0
  0
SPLINE
  5
116
330
1F
100
AcDbEntity
  8
0
  6
Continuous
 62
     7
370
    25
100
AcDbSpline
210
0.0
220
0.0
230
1.0
 70
     8
 71
     3
 72
    10
 73
     6
 74
     0
 42
0.00000001
 43
0.00000001
 40
0.0
 40
0.0
 40
0.0
 40
0.0
 40
0.476507751173703
 40
0.953963969698965
 40
1.0
 40
1.0
 40
1.0
 40
1.0
 10
15.27283933497166
 20
8.988340270257753
 30
0.0
 10
15.27556676223071
 20
8.977358488809502
 30
0.0
 10
15.2810270455707
 20
8.955373067168539
 30
0.0
 10
15.28809433251536
 20
8.93267515370101
 30
0.0
 10
15.29199620352611
 20
8.920861783467274
 30
0.0
 10
15.29233933497167
 20
8.91982291293718
 30
0.0
  0
SPLINE
  5
117
330
1F
100
AcDbEntity
  8
0
  6
Continuous
 62
     7
370
    25
100
AcDbSpline
210
0.0
220
0.0
230
1.0
 70
     8
 71
     3
 72
     9
 73
     5
 74
     0
 42
0.00000001
 43
0.00000001
 40
0.0
 40
0.0
 40
0.0
 40
0.0
 40
0.4995107894512567
 40
1.0
 40
1.0
 40
1.0
 40
1.0
 10
15.25283933497168
 20
8.918319488414948
 30
0.0
 10
15.25657949375264
 20
8.92986672621796
 30
0.0
 10
15.26406713738306
 20
8.952983820076321
 30
0.0
 10
15.26991336241882
 20
8.97654710192658
 30
0.0
 10
15.27283933497166
 20
8.988340270257753
 30
0.0
  0
SPLINE
  5
118
330
1F
100
AcDbEntity
  8
0
  6
Continuous
 62
     7
370
    25
100
AcDbSpline
210
0.0
220
0.0
230
1.0
 70
     8
 71
     3
 72
    10
 73
     6
 74
     0
 42
0.00000001
 43
0.00000001
 40
0.0
 40
0.0
 40
0.0
 40
0.0
 40
0.4661492107782154
 40
0.9332262706969418
 40
1.0
 40
1.0
 40
1.0
 40
1.0
 10
15.23283933497167
 20
8.988340270257753
 30
0.0
 10
15.23556722748519
 20
8.977358618325535
 30
0.0
 10
15.24102844226018
 20
8.955373455974438
 30
0.0
 10
15.24824777864547
 20
8.932169769673552
 30
0.0
 10
15.25232887406016
 20
8.91985927725641
 30
0.0
 10
15.25283933497168
 20
8.918319488414948
 30
0.0
  0
SPLINE
  5
119
330
1F
100
AcDbEntity
  8
0
  6
Continuous
 62
     7
370
    25
100
AcDbSpline
210
0.0
220
0.0
230
1.0
 70
     8
 71
     3
 72
     9
 73
     5
 74
     0
 42
0.00000001
 43
0.00000001
 40
0.0
 40
0.0
 40
0.0
 40
0.0
 40
0.4995107894512567
 40
1.0
 40
1.0
 40
1.0
 40
1.0
 10
15.21283933497167
 20
8.918319488414948
 30
0.0
 10
15.21657949375264
 20
8.929866726217957
 30
0.0
 10
15.22406713738306
 20
8.95298382007632
 30
0.0
 10
15.22991336241883
 20
8.97654710192658
 30
0.0
 10
15.23283933497167
 20
8.988340270257753
 30
0.0
  0
SPLINE
  5
11A
330
1F
100
AcDbEntity
  8
0
  6
Continuous
 62
     7
370
    25
100
AcDbSpline
210
0.0
220
0.0
230
1.0
 70
     8
 71
     3
 72
    10
 73
     6
 74
     0
 42
0.00000001
 43
0.00000001
 40
0.0
 40
0.0
 40
0.0
 40
0.0
 40
0.4661492107782283
 40
0.9332262706969765
 40
1.0
 40
1.0
 40
1.0
 40
1.0
 10
15.19283933497166
 20
8.988340270257753
 30
0.0
 10
15.19556722748518
 20
8.977358618325534
 30
0.0
 10
15.20102844226016
 20
8.955373455974433
 30
0.0
 10
15.20824777864549
 20
8.932169769673559
 30
0.0
 10
15.21232887406016
 20
8.91985927725641
 30
0.0
 10
15.21283933497167
 20
8.918319488414948
 30
0.0
  0
SPLINE
  5
11B
330
1F
100
AcDbEntity
  8
0
  6
Continuous
 62
     7
370
    25
100
AcDbSpline
210
0.0
220
0.0
230
1.0
 70
     8
 71
     3
 72
     9
 73
     5
 74
     0
 42
0.00000001
 43
0.00000001
 40
0.0
 40
0.0
 40
0.0
 40
0.0
 40
0.4995107894512572
 40
1.0
 40
1.0
 40
1.0
 40
1.0
 10
15.17283933497168
 20
8.918319488414948
 30
0.0
 10
15.17657949375264
 20
8.929866726217957
 30
0.0
 10
15.18406713738306
 20
8.952983820076321
 30
0.0
 10
15.18991336241882
 20
8.97654710192658
 30
0.0
 10
15.19283933497166
 20
8.988340270257753
 30
0.0
  0
SPLINE
  5
11C
330
1F
100
AcDbEntity
  8
0
  6
Continuous
 62
     7
370
    25
100
AcDbSpline
210
0.0
220
0.0
230
1.0
 70
     8
 71
     3
 72
    10
 73
     6
 74
     0
 42
0.00000001
 43
0.00000001
 40
0.0
 40
0.0
 40
0.0
 40
0.0
 40
0.4661492107782145
 40
0.9332262706969401
 40
1.0
 40
1.0
 40
1.0
 40
1.0
 10
15.15283933497166
 20
8.988340270257753
 30
0.0
 10
15.15556722748519
 20
8.977358618325535
 30
0.0
 10
15.16102844226018
 20
8.955373455974438
 30
0.0
 10
15.16824777864546
 20
8.932169769673552
 30
0.0
 10
15.17232887406016
 20
8.91985927725641
 30
0.0
 10
15.17283933497168
 20
8.918319488414948
 30
0.0
  0
SPLINE
  5
11D
330
1F
100
AcDbEntity
  8
0
  6
Continuous
 62
     7
370
    25
100
AcDbSpline
210
0.0
220
0.0
230
1.0
 70
     8
 71
     3
 72
     9
 73
     5
 74
     0
 42
0.00000001
 43
0.00000001
 40
0.0
 40
0.0
 40
0.0
 40
0.0
 40
0.4995107894512564
 40
0.9999999999999999
 40
0.9999999999999999
 40
0.9999999999999999
 40
0.9999999999999999
 10
15.13283933497167
 20
8.918319488414948
 30
0.0
 10
15.13657949375264
 20
8.929866726217957
 30
0.0
 10
15.14406713738306
 20
8.95298382007632
 30
0.0
 10
15.14991336241883
 20
8.97654710192658
 30
0.0
 10
15.15283933497166
 20
8.988340270257753
 30
0.0
  0
SPLINE
  5
11E
330
1F
100
AcDbEntity
  8
0
  6
Continuous
 62
     7
370
    25
100
AcDbSpline
210
0.0
220
0.0
230
1.0
 70
     8
 71
     3
 72
    10
 73
     6
 74
     0
 42
0.00000001
 43
0.00000001
 40
0.0
 40
0.0
 40
0.0
 40
0.0
 40
0.4661492107782293
 40
0.933226270696973
 40
1.0
 40
1.0
 40
1.0
 40
1.0
 10
15.11283933497167
 20
8.988340270257751
 30
0.0
 10
15.11556722748519
 20
8.977358618325534
 30
0.0
 10
15.12102844226018
 20
8.955373455974435
 30
0.0
 10
15.12824777864548
 20
8.932169769673557
 30
0.0
 10
15.13232887406016
 20
8.91985927725641
 30
0.0
 10
15.13283933497167
 20
8.918319488414948
 30
0.0
  0
LINE
  5
11F
330
1F
100
AcDbEntity
  8
0
  6
Continuous
 62
     7
370
    25
100
AcDbLine
 10
15.292339335
 20
9.003611519
 30
0.0
 11
15.362339335
 21
9.003611519
 31
0.0
  0
LINE
  5
120
330
1F
100
AcDbEntity
  8
0
  6
Continuous
 62
     7
370
    25
100
AcDbLine
 10
15.292339335
 20
8.9198229129
 30
0.0
 11
15.292339335
 21
9.003611519
 31
0.0
  0
LINE
  5
121
330
1F
100
AcDbEntity
  8
0
  6
Continuous
 62
     7
370
    25
100
AcDbLine
 10
15.112839335
 20
9.2225593362
 30
0.0
 11
15.112839335
 21
8.9883402703
 31
0.0
  0
LINE
  5
122
330
1F
100
AcDbEntity
  8
0
  6
Continuous
 62
     7
370
    25
100
AcDbLine
 10
15.292339335
 20
9.2072880874
 30
0.0
 11
15.292339335
 21
9.2910766935
 31
0.0
  0
LINE
  5
123
330
1F
100
AcDbEntity
  8
0
  6
Continuous
 62
     7
370
    25
100
AcDbLine
 10
15.132839335
 20
8.8268789188
 30
0.0
 11
15.132839335
 21
8.9183194884
 31
0.0
  0
LINE
  5
124
330
1F
100
AcDbEntity
  8
0
  6
Continuous
 62
     7
370
    25
100
AcDbLine
 10
15.112839335
 20
8.9883402703
 30
0.0
 11
15.112839335
 21
8.861519935
 31
0.0
  0
LINE
  5
125
330
1F
100
AcDbEntity
  8
0
  6
Continuous
 62
     7
370
    25
100
AcDbLine
 10
15.152839335
 20
8.9883402703
 30
0.0
 11
15.152839335
 21
8.861519935
 31
0.0
  0
LINE
  5
126
330
1F
100
AcDbEntity
  8
0
  6
Continuous
 62
     7
370
    25
100
AcDbLine
 10
15.172839335
 20
8.8268789188
 30
0.0
 11
15.172839335
 21
8.9183194884
 31
0.0
  0
LINE
  5
127
330
1F
100
AcDbEntity
  8
0
  6
Continuous
 62
     7
370
    25
100
AcDbLine
 10
15.192839335
 20
8.9883402703
 30
0.0
 11
15.192839335
 21
8.861519935
 31
0.0
  0
LINE
  5
128
330
1F
100
AcDbEntity
  8
0
  6
Continuous
 62
     7
370
    25
100
AcDbLine
 10
15.232839335
 20
8.9883402703
 30
0.0
 11
15.232839335
 21
8.861519935
 31
0.0
  0
LINE
  5
129
330
1F
100
AcDbEntity
  8
0
  6
Continuous
 62
     7
370
    25
100
AcDbLine
 10
15.212839335
 20
8.8268789188
 30
0.0
 11
15.212839335
 21
8.9183194884
 31
0.0
  0
LINE
  5
12A
330
1F
100
AcDbEntity
  8
0
  6
Continuous
 62
     7
370
    25
100
AcDbLine
 10
15.252839335
 20
8.8268789188
 30
0.0
 11
15.252839335
 21
8.9183194884
 31
0.0
  0
LINE
  5
12B
330
1F
100
AcDbEntity
  8
0
  6
Continuous
 62
     7
370
    25
100
AcDbLine
 10
15.272839335
 20
8.9883402703
 30
0.0
 11
15.272839335
 21
8.861519935
 31
0.0
  0
LINE
  5
12C
330
1F
100
AcDbEntity
  8
0
  6
Continuous
 62
     7
370
    25
100
AcDbLine
 10
15.292339335
 20
8.9198229129
 30
0.0
 11
15.292339335
 21
8.8277449442
 31
0.0
  0
LINE
  5
12D
330
1F
100
AcDbEntity
  8
0
  6
Continuous
 62
     7
370
    25
100
AcDbLine
 10
17.450339335
 20
10.2501291256
 30
0.0
 11
17.450339335
 21
10.277319935
 31
0.0
  0
LINE
  5
12E
330
1F
100
AcDbEntity
  8
0
  6
Continuous
 62
     7
370
    25
100
AcDbLine
 10
17.450339335
 20
8.057319935
 30
0.0
 11
17.450339335
 21
10.2501291256
 31
0.0
  0
LINE
  5
12F
330
1F
100
AcDbEntity
  8
VP
100
AcDbLine
 10
20.0144140333
 20
8.542319935
 30
0.0
 11
19.230339335
 21
8.8591066761
 31
0.0
  0
POINT
  5
130
330
1F
100
AcDbEntity
  8
VP
100
AcDbPoint
 10
20.230339335
 20
9.167319935
 30
0.0
  0
DIMENSION
  5
131
330
1F
100
AcDbEntity
  8
0
  6
Continuous
 62
     7
370
    18
100
AcDbDimension
  2
_D
 10
18.855339335
 20
14.2020049744
 30
0.0
 11
22.7500243743
 21
14.2020049744
 31
0.0
 70
   160
  1
<>
 71
     2
 42
-1.0
  3
SLDDIMSTYLE0
100
AcDbAlignedDimension
 13
20.230339335
 23
9.167319935
 33
0.0
 14
18.855339335
 24
11.682319935
 34
0.0
 50
0.0
100
AcDbRotatedDimension
  0
DIMENSION
  5
147
330
1F
100
AcDbEntity
  8
0
  6
Continuous
 62
     7
370
    18
100
AcDbDimension
  2
_D_1
 10
19.230339335
 20
8.8591066761
 30
0.0
 11
21.8779684865
 21
4.933835037
 31
0.0
 70
   162
  1
<>
 71
     1
 42
-1.0
  3
SLDDIMSTYLE1
100
AcDb2LineAngularDimension
 13
19.230339335
 23
6.652319935
 33
0.0
 14
19.230339335
 24
11.682319935
 34
0.0
 15
20.0144140333
 25
8.542319935
 35
0.0
 16
20.3330917951
 26
4.2545834026
 36
0.0
  0
DIMENSION
  5
153
330
1F
100
AcDbEntity
  8
0
  6
Continuous
 62
     7
370
    18
100
AcDbDimension
  2
_D_2
 10
9.1337724058
 20
8.057319935
 30
0.0
 11
9.1337724058
 21
9.167319935
 31
0.0
 70
   160
  1
%%c<>
 71
     2
 42
-1.0
  3
SLDDIMSTYLE2
100
AcDbAlignedDimension
 13
15.530339335
 23
10.277319935
 33
0.0
 14
15.530339335
 24
8.057319935
 34
0.0
 50
90.0
100
AcDbRotatedDimension
  0
DIMENSION
  5
167
330
1F
100
AcDbEntity
  8
0
  6
Continuous
 62
     7
370
    18
100
AcDbDimension
  2
_D_3
 10
15.112839335
 20
14.2020049744
 30
0.0
 11
16.984089335
 21
14.2020049744
 31
0.0
 70
   160
  1
<>
 71
     2
 42
-1.0
  3
SLDDIMSTYLE2
100
AcDbAlignedDimension
 13
18.855339335
 23
11.682319935
 33
0.0
 14
15.112839335
 24
9.2225593362
 34
0.0
 50
0.0
100
AcDbRotatedDimension
  0
ARC
  5
17B
330
1F
100
AcDbEntity
  8
0
  6
Continuous
 62
     7
370
    25
100
AcDbCircle
 10
32.7581000442
 20
9.167319935
 30
0.0
 40
0.8900000000000037
100
AcDbArc
 50
224.6075756536
 51
315.3924243464
  0
LINE
  5
17C
330
1F
100
AcDbEntity
  8
0
  6
Continuous
 62
     7
370
    25
100
AcDbLine
 10
33.3831000442
 20
8.542319935
 30
0.0
 11
33.3831000442
 21
8.5336993861
 31
0.0
  0
LINE
  5
17D
330
1F
100
AcDbEntity
  8
0
  6
Continuous
 62
     7
370
    25
100
AcDbLine
 10
32.1331000442
 20
8.542319935
 30
0.0
 11
32.1331000442
 21
8.5336993861
 31
0.0
  0
LINE
  5
17E
330
1F
100
AcDbEntity
  8
0
  6
Continuous
 62
     7
370
    25
100
AcDbLine
 10
32.1956000442
 20
8.542319935
 30
0.0
 11
32.1956000442
 21
8.4776143819
 31
0.0
  0
LINE
  5
17F
330
1F
100
AcDbEntity
  8
0
  6
Continuous
 62
     7
370
    25
100
AcDbLine
 10
33.3206000442
 20
8.542319935
 30
0.0
 11
33.3206000442
 21
8.4776143819
 31
0.0
  0
LINE
  5
180
330
1F
100
AcDbEntity
  8
0
  6
Continuous
 62
     7
370
    25
100
AcDbLine
 10
33.2581000442
 20
8.542319935
 30
0.0
 11
33.2581000442
 21
8.4310455296
 31
0.0
  0
LINE
  5
181
330
1F
100
AcDbEntity
  8
0
  6
Continuous
 62
     7
370
    25
100
AcDbLine
 10
32.3206000442
 20
8.542319935
 30
0.0
 11
32.3206000442
 21
8.3922755814
 31
0.0
  0
LINE
  5
182
330
1F
100
AcDbEntity
  8
0
  6
Continuous
 62
     7
370
    25
100
AcDbLine
 10
32.2581000442
 20
8.542319935
 30
0.0
 11
32.2581000442
 21
8.4310455296
 31
0.0
  0
LINE
  5
183
330
1F
100
AcDbEntity
  8
0
  6
Continuous
 62
     7
370
    25
100
AcDbLine
 10
33.1956000442
 20
8.542319935
 30
0.0
 11
33.1956000442
 21
8.3922755814
 31
0.0
  0
LINE
  5
184
330
1F
100
AcDbEntity
  8
0
  6
Continuous
 62
     7
370
    25
100
AcDbLine
 10
33.1331000442
 20
8.542319935
 30
0.0
 11
33.1331000442
 21
8.3601799224
 31
0.0
  0
LINE
  5
185
330
1F
100
AcDbEntity
  8
0
  6
Continuous
 62
     7
370
    25
100
AcDbLine
 10
32.4456000442
 20
8.542319935
 30
0.0
 11
32.4456000442
 21
8.3339870183
 31
0.0
  0
LINE
  5
186
330
1F
100
AcDbEntity
  8
0
  6
Continuous
 62
     7
370
    25
100
AcDbLine
 10
32.3831000442
 20
8.542319935
 30
0.0
 11
32.3831000442
 21
8.3601799224
 31
0.0
  0
LINE
  5
187
330
1F
100
AcDbEntity
  8
0
  6
Continuous
 62
     7
370
    25
100
AcDbLine
 10
33.0706000442
 20
8.542319935
 30
0.0
 11
33.0706000442
 21
8.3339870183
 31
0.0
  0
LINE
  5
188
330
1F
100
AcDbEntity
  8
0
  6
Continuous
 62
     7
370
    25
100
AcDbLine
 10
33.0081000442
 20
8.542319935
 30
0.0
 11
33.0081000442
 21
8.3131536748
 31
0.0
  0
LINE
  5
189
330
1F
100
AcDbEntity
  8
0
  6
Continuous
 62
     7
370
    25
100
AcDbLine
 10
32.5706000442
 20
8.542319935
 30
0.0
 11
32.5706000442
 21
8.2972947917
 31
0.0
  0
LINE
  5
18A
330
1F
100
AcDbEntity
  8
0
  6
Continuous
 62
     7
370
    25
100
AcDbLine
 10
32.5081000442
 20
8.542319935
 30
0.0
 11
32.5081000442
 21
8.3131536748
 31
0.0
  0
LINE
  5
18B
330
1F
100
AcDbEntity
  8
0
  6
Continuous
 62
     7
370
    25
100
AcDbLine
 10
32.8831000442
 20
8.542319935
 30
0.0
 11
32.8831000442
 21
8.2861417464
 31
0.0
  0
LINE
  5
18C
330
1F
100
AcDbEntity
  8
0
  6
Continuous
 62
     7
370
    25
100
AcDbLine
 10
32.9456000442
 20
8.542319935
 30
0.0
 11
32.9456000442
 21
8.2972947917
 31
0.0
  0
LINE
  5
18D
330
1F
100
AcDbEntity
  8
0
  6
Continuous
 62
     7
370
    25
100
AcDbLine
 10
32.6331000442
 20
8.542319935
 30
0.0
 11
32.6331000442
 21
8.2861417464
 31
0.0
  0
LINE
  5
18E
330
1F
100
AcDbEntity
  8
0
  6
Continuous
 62
     7
370
    25
100
AcDbLine
 10
32.6956000442
 20
8.542319935
 30
0.0
 11
32.6956000442
 21
8.2795171697
 31
0.0
  0
LINE
  5
18F
330
1F
100
AcDbEntity
  8
0
  6
Continuous
 62
     7
370
    25
100
AcDbLine
 10
32.8206000442
 20
8.542319935
 30
0.0
 11
32.8206000442
 21
8.2795171697
 31
0.0
  0
LINE
  5
190
330
1F
100
AcDbEntity
  8
0
  6
Continuous
 62
     7
370
    25
100
AcDbLine
 10
32.7581000442
 20
8.542319935
 30
0.0
 11
32.7581000442
 21
8.277319935
 31
0.0
  0
LINE
  5
191
330
1F
100
AcDbEntity
  8
0
  6
Continuous
 62
     7
370
    25
100
AcDbLine
 10
31.9618431761
 20
8.542319935
 30
0.0
 11
33.5543569124
 21
8.542319935
 31
0.0
  0
ARC
  5
192
330
1F
100
AcDbEntity
  8
0
  6
Continuous
 62
     7
370
    25
100
AcDbCircle
 10
32.7581000442
 20
9.167319935
 30
0.0
 40
1.012249969128179
100
AcDbArc
 50
218.1291692158
 51
321.8708307842
  0
CIRCLE
  5
193
330
1F
100
AcDbEntity
  8
0
  6
Continuous
 62
     7
370
    25
100
AcDbCircle
 10
32.7581000442
 20
9.167319935
 30
0.0
 40
1.012422836565831
  0
ARC
  5
194
330
1F
100
AcDbEntity
  8
0
  6
Continuous
 62
     7
370
    25
100
AcDbCircle
 10
32.7581000442
 20
9.167319935
 30
0.0
 40
0.9222255689363644
100
AcDbArc
 50
222.664826585
 51
317.335173415
  0
CIRCLE
  5
195
330
1F
100
AcDbEntity
  8
0
  6
Continuous
 62
     7
370
    25
100
AcDbCircle
 10
32.7581000442
 20
9.167319935
 30
0.0
 40
2.515000000000001
  0
CIRCLE
  5
196
330
1F
100
AcDbEntity
  8
0
  6
Continuous
 62
     7
370
    25
100
AcDbCircle
 10
31.0081000442
 20
9.167319935
 30
0.0
 40
0.2050000000000018
  0
CIRCLE
  5
197
330
1F
100
AcDbEntity
  8
0
  6
Continuous
 62
     7
370
    25
100
AcDbCircle
 10
34.5081000442
 20
9.167319935
 30
0.0
 40
0.2050000000000018
  0
CIRCLE
  5
198
330
1F
100
AcDbEntity
  8
0
  6
Continuous
 62
     7
370
    25
100
AcDbCircle
 10
31.0081000442
 20
9.167319935
 30
0.0
 40
0.1015000000000015
  0
CIRCLE
  5
199
330
1F
100
AcDbEntity
  8
0
  6
Continuous
 62
     7
370
    25
100
AcDbCircle
 10
34.5081000442
 20
9.167319935
 30
0.0
 40
0.1014999999999997
  0
DIMENSION
  5
19A
330
1F
100
AcDbEntity
  8
0
  6
Continuous
 62
     7
370
    18
100
AcDbDimension
  2
_D_4
 10
31.5895258001
 20
6.940290695
 30
0.0
 11
37.6331172754
 21
13.7243176706
 31
0.0
 70
   163
  1
<>
 71
     1
 42
-1.0
  3
SLDDIMSTYLE3
100
AcDbDiametricDimension
 15
33.9266742884
 25
11.394349175
 35
0.0
 40
0.0
  0
DIMENSION
  5
1AB
330
1F
100
AcDbEntity
  8
0
  6
Continuous
 62
     7
370
    18
100
AcDbDimension
  2
_D_5
 10
34.5081000442
 20
14.2020049744
 30
0.0
 11
32.7581000442
 21
14.2020049744
 31
0.0
 70
   160
  1
<>
 71
     2
 42
-1.0
  3
SLDDIMSTYLE2
100
AcDbAlignedDimension
 13
31.0081000442
 23
9.167319935
 33
0.0
 14
34.5081000442
 24
9.167319935
 34
0.0
 50
0.0
100
AcDbRotatedDimension
  0
ENDSEC
  0
SECTION
  2
OBJECTS
  0
DICTIONARY
  5
C
330
0
100
AcDbDictionary
281
     1
  3
ACAD_GROUP
350
D
  3
ACAD_LAYOUT
350
1A
  3
ACAD_MLINESTYLE
350
17
  3
ACAD_PLOTSETTINGS
350
19
  3
ACAD_PLOTSTYLENAME
350
E
  3
ACAD_SCALELIST
350
47
  3
DWGPROPS
350
1BF
  0
DICTIONARY
  5
D
102
{ACAD_REACTORS
330
C
102
}
330
C
100
AcDbDictionary
281
     1
  0
DICTIONARY
  5
1A
102
{ACAD_REACTORS
330
C
102
}
330
C
100
AcDbDictionary
281
     1
  3
Layout1
350
1E
  3
Layout2
350
26
  3
Model
350
22
  0
DICTIONARY
  5
17
102
{ACAD_REACTORS
330
C
102
}
330
C
100
AcDbDictionary
281
     1
  3
Standard
350
18
  0
DICTIONARY
  5
19
102
{ACAD_REACTORS
330
C
102
}
330
C
100
AcDbDictionary
281
     1
  0
ACDBDICTIONARYWDFLT
  5
E
102
{ACAD_REACTORS
330
C
102
}
330
C
100
AcDbDictionary
281
     1
  3
Normal
350
F
100
AcDbDictionaryWithDefault
340
F
  0
DICTIONARY
  5
47
102
{ACAD_REACTORS
330
C
102
}
330
C
100
AcDbDictionary
281
     1
  3
A0
350
48
  3
A1
350
49
  3
A2
350
4A
  3
A3
350
4B
  3
A4
350
4C
  3
A5
350
4D
  3
A6
350
4E
  3
A7
350
4F
  3
A8
350
50
  3
A9
350
51
  3
B1
350
52
  3
B2
350
53
  3
B3
350
54
  3
B4
350
55
  3
B5
350
56
  3
B6
350
57
  3
B7
350
58
  0
XRECORD
  5
1BF
102
{ACAD_REACTORS
330
C
102
}
330
C
100
AcDbXrecord
280
     1
  1
DWGPROPS COOKIE
  2

  3

  4

  6

  7

  8
gurisher.rai
  9

300
=
301
=
302
=
303
=
304
=
305
=
306
=
307
=
308
=
309
=
 40
0.0
 41
2460566.622144399
 42
2460566.622144757
  1

 90
        0
  0
LAYOUT
  5
1E
102
{ACAD_REACTORS
330
1A
102
}
330
1A
100
AcDbPlotSettings
  1

  2
none_device
  4

  6

 40
0.0
 41
0.0
 42
0.0
 43
0.0
 44
0.0
 45
0.0
 46
0.0
 47
0.0
 48
0.0
 49
0.0
140
0.0
141
0.0
142
1.0
143
1.0
 70
   688
 72
     0
 73
     0
 74
     5
  7

 75
    16
147
1.0
148
0.0
149
0.0
100
AcDbLayout
  1
Layout1
 70
     1
 71
     1
 10
0.0
 20
0.0
 11
12.0
 21
9.0
 12
0.0
 22
0.0
 32
0.0
 14
1.0000000000E+20
 24
1.0000000000E+20
 34
1.0000000000E+20
 15
-1.0000000000E+20
 25
-1.0000000000E+20
 35
-1.0000000000E+20
146
0.0
 13
0.0
 23
0.0
 33
0.0
 16
1.0
 26
0.0
 36
0.0
 17
0.0
 27
1.0
 37
0.0
 76
     0
330
1B
  0
LAYOUT
  5
26
102
{ACAD_REACTORS
330
1A
102
}
330
1A
100
AcDbPlotSettings
  1

  2
none_device
  4

  6

 40
0.0
 41
0.0
 42
0.0
 43
0.0
 44
0.0
 45
0.0
 46
0.0
 47
0.0
 48
0.0
 49
0.0
140
0.0
141
0.0
142
1.0
143
1.0
 70
   688
 72
     0
 73
     0
 74
     5
  7

 75
    16
147
1.0
148
0.0
149
0.0
100
AcDbLayout
  1
Layout2
 70
     1
 71
     2
 10
0.0
 20
0.0
 11
0.0
 21
0.0
 12
0.0
 22
0.0
 32
0.0
 14
0.0
 24
0.0
 34
0.0
 15
0.0
 25
0.0
 35
0.0
146
0.0
 13
0.0
 23
0.0
 33
0.0
 16
1.0
 26
0.0
 36
0.0
 17
0.0
 27
1.0
 37
0.0
 76
     0
330
23
  0
LAYOUT
  5
22
102
{ACAD_REACTORS
330
1A
102
}
330
1A
100
AcDbPlotSettings
  1

  2
none_device
  4
Letter_(8.50_x_11.00_Inches)
  6

 40
6.35
 41
6.35
 42
6.35000508
 43
6.35000508
 44
215.9
 45
279.4
 46
0.0
 47
0.0
 48
0.0
 49
0.0
140
0.0
141
0.0
142
1.0
143
1.0
 70
  1712
 72
     0
 73
     0
 74
     0
  7

 75
     0
147
1.0
148
0.0
149
0.0
100
AcDbLayout
  1
Model
 70
     1
 71
     0
 10
0.0
 20
0.0
 11
44.0
 21
34.0
 12
0.0
 22
0.0
 32
0.0
 14
0.0
 24
0.0
 34
0.0
 15
44.0
 25
34.0
 35
0.0
146
0.0
 13
0.0
 23
0.0
 33
0.0
 16
1.0
 26
0.0
 36
0.0
 17
0.0
 27
1.0
 37
0.0
 76
     0
330
1F
331
29
  0
MLINESTYLE
  5
18
102
{ACAD_REACTORS
330
17
102
}
330
17
100
AcDbMlineStyle
  2
Standard
 70
     0
  3

 62
   256
 51
90.0
 52
90.0
 71
     2
 49
0.5
 62
   256
  6
BYLAYER
 49
-0.5
 62
   256
  6
BYLAYER
  0
ACDBPLACEHOLDER
  5
F
102
{ACAD_REACTORS
330
E
102
}
330
E
  0
SCALE
  5
48
102
{ACAD_REACTORS
330
47
102
}
330
47
100
AcDbScale
 70
     0
300
1:1
140
1.0
141
1.0
290
     1
  0
SCALE
  5
49
102
{ACAD_REACTORS
330
47
102
}
330
47
100
AcDbScale
 70
     0
300
1/128" = 1'-0"
140
0.0078125
141
12.0
290
     0
  0
SCALE
  5
4A
102
{ACAD_REACTORS
330
47
102
}
330
47
100
AcDbScale
 70
     0
300
1/64" = 1'-0"
140
0.015625
141
12.0
290
     0
  0
SCALE
  5
4B
102
{ACAD_REACTORS
330
47
102
}
330
47
100
AcDbScale
 70
     0
300
1/32" = 1'-0"
140
0.03125
141
12.0
290
     0
  0
SCALE
  5
4C
102
{ACAD_REACTORS
330
47
102
}
330
47
100
AcDbScale
 70
     0
300
1/16" = 1'-0"
140
0.0625
141
12.0
290
     0
  0
SCALE
  5
4D
102
{ACAD_REACTORS
330
47
102
}
330
47
100
AcDbScale
 70
     0
300
3/32" = 1'-0"
140
0.09375
141
12.0
290
     0
  0
SCALE
  5
4E
102
{ACAD_REACTORS
330
47
102
}
330
47
100
AcDbScale
 70
     0
300
1/8" = 1'-0"
140
0.125
141
12.0
290
     0
  0
SCALE
  5
4F
102
{ACAD_REACTORS
330
47
102
}
330
47
100
AcDbScale
 70
     0
300
3/16" = 1'-0"
140
0.1875
141
12.0
290
     0
  0
SCALE
  5
50
102
{ACAD_REACTORS
330
47
102
}
330
47
100
AcDbScale
 70
     0
300
1/4" = 1'-0"
140
0.25
141
12.0
290
     0
  0
SCALE
  5
51
102
{ACAD_REACTORS
330
47
102
}
330
47
100
AcDbScale
 70
     0
300
3/8" = 1'-0"
140
0.375
141
12.0
290
     0
  0
SCALE
  5
52
102
{ACAD_REACTORS
330
47
102
}
330
47
100
AcDbScale
 70
     0
300
1/2" = 1'-0"
140
0.5
141
12.0
290
     0
  0
SCALE
  5
53
102
{ACAD_REACTORS
330
47
102
}
330
47
100
AcDbScale
 70
     0
300
3/4" = 1'-0"
140
0.75
141
12.0
290
     0
  0
SCALE
  5
54
102
{ACAD_REACTORS
330
47
102
}
330
47
100
AcDbScale
 70
     0
300
1" = 1'-0"
140
1.0
141
12.0
290
     0
  0
SCALE
  5
55
102
{ACAD_REACTORS
330
47
102
}
330
47
100
AcDbScale
 70
     0
300
1-1/2" = 1'-0"
140
1.5
141
12.0
290
     0
  0
SCALE
  5
56
102
{ACAD_REACTORS
330
47
102
}
330
47
100
AcDbScale
 70
     0
300
3" = 1'-0"
140
3.0
141
12.0
290
     0
  0
SCALE
  5
57
102
{ACAD_REACTORS
330
47
102
}
330
47
100
AcDbScale
 70
     0
300
6" = 1'-0"
140
6.0
141
12.0
290
     0
  0
SCALE
  5
58
102
{ACAD_REACTORS
330
47
102
}
330
47
100
AcDbScale
 70
     0
300
1'-0" = 1'-0"
140
12.0
141
12.0
290
     0
  0
ENDSEC
  0
EOF
