  0
SECTION
  2
HEADER
  9
$ACADVER
  1
AC1015
  9
$ACADMAINTVER
 70
     6
  9
$DWGCODEPAGE
  3
ANSI_1252
  9
$INSBASE
 10
0.0
 20
0.0
 30
0.0
  9
$EXTMIN
 10
0.0
 20
0.0
 30
0.0
  9
$EXTMAX
 10
44.0
 20
34.0
 30
0.0
  9
$LIMMIN
 10
0.0
 20
0.0
  9
$LIMMAX
 10
44.0
 20
34.0
  9
$ORTHOMODE
 70
     0
  9
$REGENMODE
 70
     1
  9
$FILLMODE
 70
     1
  9
$QTEXTMODE
 70
     0
  9
$MIRRTEXT
 70
     1
  9
$LTSCALE
 40
4.0
  9
$ATTMODE
 70
     1
  9
$TEXTSIZE
 40
0.5
  9
$TRACEWID
 40
0.05
  9
$TEXTSTYLE
  7
Standard
  9
$CLAYER
  8
0
  9
$CELTYPE
  6
ByLayer
  9
$CECOLOR
 62
   256
  9
$CELTSCALE
 40
1.0
  9
$DISPSILH
 70
     0
  9
$DIMSCALE
 40
1.0
  9
$DIMASZ
 40
0.52
  9
$DIMEXO
 40
0.2
  9
$DIMDLI
 40
0.38
  9
$DIMRND
 40
0.0
  9
$DIMDLE
 40
0.0
  9
$DIMEXE
 40
0.5
  9
$DIMTP
 40
0.0
  9
$DIMTM
 40
0.0
  9
$DIMTXT
 40
0.5
  9
$DIMCEN
 40
0.09
  9
$DIMTSZ
 40
0.0
  9
$DIMTOL
 70
     0
  9
$DIMLIM
 70
     0
  9
$DIMTIH
 70
     1
  9
$DIMTOH
 70
     1
  9
$DIMSE1
 70
     0
  9
$DIMSE2
 70
     0
  9
$DIMTAD
 70
     0
  9
$DIMZIN
 70
     1
  9
$DIMBLK
  1

  9
$DIMASO
 70
     1
  9
$DIMSHO
 70
     1
  9
$DIMPOST
  1

  9
$DIMAPOST
  1

  9
$DIMALT
 70
     0
  9
$DIMALTD
 70
     2
  9
$DIMALTF
 40
25.4
  9
$DIMLFAC
 40
1.0
  9
$DIMTOFL
 70
     0
  9
$DIMTVP
 40
0.0
  9
$DIMTIX
 70
     0
  9
$DIMSOXD
 70
     0
  9
$DIMSAH
 70
     0
  9
$DIMBLK1
  1

  9
$DIMBLK2
  1

  9
$DIMSTYLE
  2
Standard
  9
$DIMCLRD
 70
     0
  9
$DIMCLRE
 70
     0
  9
$DIMCLRT
 70
     0
  9
$DIMTFAC
 40
1.0
  9
$DIMGAP
 40
0.24
  9
$DIMJUST
 70
     0
  9
$DIMSD1
 70
     0
  9
$DIMSD2
 70
     0
  9
$DIMTOLJ
 70
     1
  9
$DIMTZIN
 70
     1
  9
$DIMALTZ
 70
     0
  9
$DIMALTTZ
 70
     0
  9
$DIMUPT
 70
     0
  9
$DIMDEC
 70
     0
  9
$DIMTDEC
 70
     0
  9
$DIMALTU
 70
     2
  9
$DIMALTTD
 70
     2
  9
$DIMTXSTY
  7
Standard
  9
$DIMAUNIT
 70
     0
  9
$DIMADEC
 70
     0
  9
$DIMALTRND
 40
0.0
  9
$DIMAZIN
 70
     0
  9
$DIMDSEP
 70
    46
  9
$DIMATFIT
 70
     3
  9
$DIMFRAC
 70
     0
  9
$DIMLDRBLK
  1

  9
$DIMLUNIT
 70
     2
  9
$DIMLWD
 70
    -2
  9
$DIMLWE
 70
    -2
  9
$DIMTMOVE
 70
     0
  9
$LUNITS
 70
     2
  9
$LUPREC
 70
     6
  9
$SKETCHINC
 40
0.1
  9
$FILLETRAD
 40
0.0
  9
$AUNITS
 70
     0
  9
$AUPREC
 70
     2
  9
$MENU
  1
.
  9
$ELEVATION
 40
0.0
  9
$PELEVATION
 40
0.0
  9
$THICKNESS
 40
0.0
  9
$LIMCHECK
 70
     0
  9
$CHAMFERA
 40
0.0
  9
$CHAMFERB
 40
0.0
  9
$CHAMFERC
 40
0.0
  9
$CHAMFERD
 40
0.0
  9
$SKPOLY
 70
     0
  9
$TDCREATE
 40
2460566.332073102
  9
$TDUCREATE
 40
2460566.623739769
  9
$TDUPDATE
 40
2460566.332073461
  9
$TDUUPDATE
 40
2460566.623740128
  9
$TDINDWG
 40
0.0000000116
  9
$TDUSRTIMER
 40
0.0000000116
  9
$USRTIMER
 70
     1
  9
$ANGBASE
 50
0.0
  9
$ANGDIR
 70
     0
  9
$PDMODE
 70
     0
  9
$PDSIZE
 40
-1.0
  9
$PLINEWID
 40
0.0
  9
$SPLFRAME
 70
     0
  9
$SPLINETYPE
 70
     6
  9
$SPLINESEGS
 70
     8
  9
$HANDSEED
  5
238
  9
$SURFTAB1
 70
     6
  9
$SURFTAB2
 70
     6
  9
$SURFTYPE
 70
     6
  9
$SURFU
 70
     6
  9
$SURFV
 70
     6
  9
$UCSBASE
  2

  9
$UCSNAME
  2

  9
$UCSORG
 10
0.0
 20
0.0
 30
0.0
  9
$UCSXDIR
 10
1.0
 20
0.0
 30
0.0
  9
$UCSYDIR
 10
0.0
 20
1.0
 30
0.0
  9
$UCSORTHOREF
  2

  9
$UCSORTHOVIEW
 70
     0
  9
$UCSORGTOP
 10
0.0
 20
0.0
 30
0.0
  9
$UCSORGBOTTOM
 10
0.0
 20
0.0
 30
0.0
  9
$UCSORGLEFT
 10
0.0
 20
0.0
 30
0.0
  9
$UCSORGRIGHT
 10
0.0
 20
0.0
 30
0.0
  9
$UCSORGFRONT
 10
0.0
 20
0.0
 30
0.0
  9
$UCSORGBACK
 10
0.0
 20
0.0
 30
0.0
  9
$PUCSBASE
  2

  9
$PUCSNAME
  2

  9
$PUCSORG
 10
0.0
 20
0.0
 30
0.0
  9
$PUCSXDIR
 10
1.0
 20
0.0
 30
0.0
  9
$PUCSYDIR
 10
0.0
 20
1.0
 30
0.0
  9
$PUCSORTHOREF
  2

  9
$PUCSORTHOVIEW
 70
     0
  9
$PUCSORGTOP
 10
0.0
 20
0.0
 30
0.0
  9
$PUCSORGBOTTOM
 10
0.0
 20
0.0
 30
0.0
  9
$PUCSORGLEFT
 10
0.0
 20
0.0
 30
0.0
  9
$PUCSORGRIGHT
 10
0.0
 20
0.0
 30
0.0
  9
$PUCSORGFRONT
 10
0.0
 20
0.0
 30
0.0
  9
$PUCSORGBACK
 10
0.0
 20
0.0
 30
0.0
  9
$USERI1
 70
     0
  9
$USERI2
 70
     0
  9
$USERI3
 70
     0
  9
$USERI4
 70
     0
  9
$USERI5
 70
     0
  9
$USERR1
 40
0.0
  9
$USERR2
 40
0.0
  9
$USERR3
 40
0.0
  9
$USERR4
 40
0.0
  9
$USERR5
 40
0.0
  9
$WORLDVIEW
 70
     1
  9
$SHADEDGE
 70
     3
  9
$SHADEDIF
 70
    70
  9
$TILEMODE
 70
     1
  9
$MAXACTVP
 70
    64
  9
$PINSBASE
 10
0.0
 20
0.0
 30
0.0
  9
$PLIMCHECK
 70
     0
  9
$PEXTMIN
 10
1.0000000000E+20
 20
1.0000000000E+20
 30
1.0000000000E+20
  9
$PEXTMAX
 10
-1.0000000000E+20
 20
-1.0000000000E+20
 30
-1.0000000000E+20
  9
$PLIMMIN
 10
0.0
 20
0.0
  9
$PLIMMAX
 10
12.0
 20
9.0
  9
$UNITMODE
 70
     0
  9
$VISRETAIN
 70
     1
  9
$PLINEGEN
 70
     0
  9
$PSLTSCALE
 70
     1
  9
$TREEDEPTH
 70
  3020
  9
$CMLSTYLE
  2
Standard
  9
$CMLJUST
 70
     0
  9
$CMLSCALE
 40
1.0
  9
$PROXYGRAPHICS
 70
     1
  9
$MEASUREMENT
 70
     0
  9
$CELWEIGHT
370
    -1
  9
$ENDCAPS
280
     0
  9
$JOINSTYLE
280
     0
  9
$LWDISPLAY
290
     1
  9
$INSUNITS
 70
     1
  9
$HYPERLINKBASE
  1

  9
$STYLESHEET
  1

  9
$XEDIT
290
     1
  9
$CEPSNTYPE
380
     0
  9
$PSTYLEMODE
290
     1
  9
$FINGERPRINTGUID
  2
{0f00af8c-8826-4851-8a92-3ed8fbd60796}
  9
$VERSIONGUID
  2
{FAEB1C32-E019-11D5-929B-00C0DF256EC4}
  9
$EXTNAMES
290
     1
  9
$PSVPSCALE
 40
0.0
  9
$OLESTARTUP
290
     0
  0
ENDSEC
  0
SECTION
  2
CLASSES
  0
CLASS
  1
ACDBDICTIONARYWDFLT
  2
AcDbDictionaryWithDefault
  3
ObjectDBX Classes
 90
        0
280
     0
281
     0
  0
CLASS
  1
VISUALSTYLE
  2
AcDbVisualStyle
  3
ObjectDBX Classes
 90
     4095
280
     0
281
     0
  0
CLASS
  1
MATERIAL
  2
AcDbMaterial
  3
ObjectDBX Classes
 90
     1153
280
     0
281
     0
  0
CLASS
  1
SCALE
  2
AcDbScale
  3
ObjectDBX Classes
 90
     1153
280
     0
281
     0
  0
CLASS
  1
TABLESTYLE
  2
AcDbTableStyle
  3
ObjectDBX Classes
 90
     4095
280
     0
281
     0
  0
CLASS
  1
MLEADERSTYLE
  2
AcDbMLeaderStyle
  3
ACDB_MLEADERSTYLE_CLASS
 90
     4095
280
     0
281
     0
  0
CLASS
  1
SUN
  2
AcDbSun
  3
SCENEOE
 90
     1153
280
     0
281
     0
  0
CLASS
  1
ACDBPLACEHOLDER
  2
AcDbPlaceHolder
  3
ObjectDBX Classes
 90
        0
280
     0
281
     0
  0
CLASS
  1
LAYOUT
  2
AcDbLayout
  3
ObjectDBX Classes
 90
        0
280
     0
281
     0
  0
ENDSEC
  0
SECTION
  2
TABLES
  0
TABLE
  2
VPORT
  5
8
330
0
100
AcDbSymbolTable
 70
     1
  0
VPORT
  5
29
330
8
100
AcDbSymbolTableRecord
100
AcDbViewportTableRecord
  2
*Active
 70
     0
 10
0.0
 20
0.0
 11
1.0
 21
1.0
 12
22.0
 22
17.0
 13
0.0
 23
0.0
 14
0.5
 24
0.5
 15
0.5
 25
0.5
 16
0.0
 26
0.0
 36
1.0
 17
0.0
 27
0.0
 37
0.0
 40
34.0
 41
1.2941176471
 42
50.0
 43
0.0
 44
0.0
 50
0.0
 51
0.0
 71
     0
 72
  2000
 73
     1
 74
     3
 75
     0
 76
     0
 77
     0
 78
     0
281
     0
 65
     1
110
0.0
120
0.0
130
0.0
111
1.0
121
0.0
131
0.0
112
0.0
122
1.0
132
0.0
 79
     0
146
0.0
  0
ENDTAB
  0
TABLE
  2
LTYPE
  5
5
330
0
100
AcDbSymbolTable
 70
     6
  0
LTYPE
  5
14
330
5
100
AcDbSymbolTableRecord
100
AcDbLinetypeTableRecord
  2
ByBlock
 70
     0
  3

 72
    65
 73
     0
 40
0.0
  0
LTYPE
  5
15
330
5
100
AcDbSymbolTableRecord
100
AcDbLinetypeTableRecord
  2
ByLayer
 70
     0
  3

 72
    65
 73
     0
 40
0.0
  0
LTYPE
  5
16
330
5
100
AcDbSymbolTableRecord
100
AcDbLinetypeTableRecord
  2
Continuous
 70
     0
  3
Solid line
 72
    65
 73
     0
 40
0.0
  0
LTYPE
  5
5E
330
5
100
AcDbSymbolTableRecord
100
AcDbLinetypeTableRecord
  2
HIDDEN
 70
     0
  3
Hidden __ __ __ __ __ __ __ __ __ __ __ __ __ __
 72
    65
 73
     2
 40
0.075
 49
0.05
 74
     0
 49
-0.025
 74
     0
  0
LTYPE
  5
5F
330
5
100
AcDbSymbolTableRecord
100
AcDbLinetypeTableRecord
  2
PHANTOM
 70
     0
  3
Phantom ______  __  __  ______  __  __  ______
 72
    65
 73
     6
 40
0.5
 49
0.25
 74
     0
 49
-0.05
 74
     0
 49
0.05
 74
     0
 49
-0.05
 74
     0
 49
0.05
 74
     0
 49
-0.05
 74
     0
  0
LTYPE
  5
60
330
5
100
AcDbSymbolTableRecord
100
AcDbLinetypeTableRecord
  2
CENTER
 70
     0
  3
Center ____ _ ____ _ ____ _ ____ _ ____ _ ____
 72
    65
 73
     4
 40
0.4
 49
0.25
 74
     0
 49
-0.05
 74
     0
 49
0.05
 74
     0
 49
-0.05
 74
     0
  0
LTYPE
  5
61
330
5
100
AcDbSymbolTableRecord
100
AcDbLinetypeTableRecord
  2
CENTERX2
 70
     0
  3
Center (2x) ________  __  ________  __  _____
 72
    65
 73
     4
 40
0.8
 49
0.5
 74
     0
 49
-0.1
 74
     0
 49
0.1
 74
     0
 49
-0.1
 74
     0
  0
LTYPE
  5
62
330
5
100
AcDbSymbolTableRecord
100
AcDbLinetypeTableRecord
  2
DOT2
 70
     0
  3
Dot (.5x) ........................................
 72
    65
 73
     2
 40
0.025
 49
0.0
 74
     0
 49
-0.025
 74
     0
  0
ENDTAB
  0
TABLE
  2
LAYER
  5
2
330
0
100
AcDbSymbolTable
 70
    12
  0
LAYER
  5
10
330
2
100
AcDbSymbolTableRecord
100
AcDbLayerTableRecord
  2
0
 70
     0
 62
     7
  6
Continuous
370
    -3
390
F
  0
LAYER
  5
63
330
2
100
AcDbSymbolTableRecord
100
AcDbLayerTableRecord
  2
SLD-0
 70
     0
 62
     7
  6
Continuous
370
    -3
390
F
  0
LAYER
  5
64
330
2
100
AcDbSymbolTableRecord
100
AcDbLayerTableRecord
  2
DIM
 70
     0
 62
     7
  6
Continuous
370
    -3
390
F
  0
LAYER
  5
65
330
2
100
AcDbSymbolTableRecord
100
AcDbLayerTableRecord
  2
CEN
 70
     0
 62
     1
  6
CENTER
370
    -3
390
F
  0
LAYER
  5
66
330
2
100
AcDbSymbolTableRecord
100
AcDbLayerTableRecord
  2
HAT
 70
     0
 62
     4
  6
Continuous
370
    -3
390
F
  0
LAYER
  5
67
330
2
100
AcDbSymbolTableRecord
100
AcDbLayerTableRecord
  2
OBJ
 70
     0
 62
     5
  6
Continuous
370
    -3
390
F
  0
LAYER
  5
68
330
2
100
AcDbSymbolTableRecord
100
AcDbLayerTableRecord
  2
SLD-DEFPOINTS
 70
     0
 62
     7
  6
Continuous
370
    -3
390
F
  0
LAYER
  5
69
330
2
100
AcDbSymbolTableRecord
100
AcDbLayerTableRecord
  2
HID
 70
     0
 62
     4
  6
HIDDEN
370
    -3
390
F
  0
LAYER
  5
6A
330
2
100
AcDbSymbolTableRecord
100
AcDbLayerTableRecord
  2
NOTE
 70
     0
 62
     7
  6
Continuous
370
    -3
390
F
  0
LAYER
  5
6B
330
2
100
AcDbSymbolTableRecord
100
AcDbLayerTableRecord
  2
VP
 70
     0
 62
    -5
  6
Continuous
290
     0
370
    -3
390
F
  0
LAYER
  5
6C
330
2
100
AcDbSymbolTableRecord
100
AcDbLayerTableRecord
  2
TITLE
 70
     0
 62
     7
  6
Continuous
370
    -3
390
F
  0
LAYER
  5
6D
330
2
100
AcDbSymbolTableRecord
100
AcDbLayerTableRecord
  2
THICK_TITLE
 70
     0
 62
     7
  6
Continuous
370
   100
390
F
  0
ENDTAB
  0
TABLE
  2
STYLE
  5
3
330
0
100
AcDbSymbolTable
 70
     2
  0
STYLE
  5
11
330
3
100
AcDbSymbolTableRecord
100
AcDbTextStyleTableRecord
  2
Standard
 70
     0
 40
0.0
 41
1.0
 50
0.0
 71
     0
 42
0.5
  3
txt
  4

  0
STYLE
  5
16D
330
3
100
AcDbSymbolTableRecord
100
AcDbTextStyleTableRecord
  2
SLDTEXTSTYLE0
 70
     0
 40
0.0
 41
0.75
 50
0.0
 71
     0
 42
0.5
  3
TXT
  4

  0
ENDTAB
  0
TABLE
  2
VIEW
  5
6
330
0
100
AcDbSymbolTable
 70
     0
  0
ENDTAB
  0
TABLE
  2
UCS
  5
7
330
0
100
AcDbSymbolTable
 70
     0
  0
ENDTAB
  0
TABLE
  2
APPID
  5
9
330
0
100
AcDbSymbolTable
 70
     1
  0
APPID
  5
12
330
9
100
AcDbSymbolTableRecord
100
AcDbRegAppTableRecord
  2
ACAD
 70
     0
  0
ENDTAB
  0
TABLE
  2
DIMSTYLE
  5
A
330
0
100
AcDbSymbolTable
 70
     4
100
AcDbDimStyleTable
  0
DIMSTYLE
105
27
330
A
100
AcDbSymbolTableRecord
100
AcDbDimStyleTableRecord
  2
Standard
 70
     0
178
     0
340
11
  0
DIMSTYLE
105
16E
102
{ACAD_REACTORS
330
16C
330
196
330
20E
102
}
330
A
100
AcDbSymbolTableRecord
100
AcDbDimStyleTableRecord
  2
SLDDIMSTYLE0
 70
     0
 41
0.52
 44
0.0
 45
0.000000001
 78
    12
 79
     3
140
0.5
147
0.125
148
0.000000001
170
     1
172
     1
173
     1
178
     0
271
     6
272
     0
276
     2
277
     5
284
    12
289
     0
340
16D
  0
DIMSTYLE
105
182
102
{ACAD_REACTORS
330
181
102
}
330
A
100
AcDbSymbolTableRecord
100
AcDbDimStyleTableRecord
  2
SLDDIMSTYLE1
 70
     0
 41
0.52
 44
0.0
 45
0.000000001
 78
    12
 79
     3
140
0.5
147
0.125
148
0.000000001
170
     1
173
     1
178
     0
271
     6
272
     0
276
     2
277
     5
284
    12
340
16D
  0
DIMSTYLE
105
223
102
{ACAD_REACTORS
330
222
102
}
330
A
100
AcDbSymbolTableRecord
100
AcDbDimStyleTableRecord
  2
SLDDIMSTYLE2
 70
     0
 41
0.52
 44
0.0
 45
0.000000001
 78
    12
 79
     3
140
0.5
147
0.125
148
0.000000001
170
     1
173
     1
178
     0
271
     0
272
     0
276
     2
277
     5
284
    12
340
16D
  0
ENDTAB
  0
TABLE
  2
BLOCK_RECORD
  5
1
330
0
100
AcDbSymbolTable
 70
     7
  0
BLOCK_RECORD
  5
1F
330
1
100
AcDbSymbolTableRecord
100
AcDbBlockTableRecord
  2
*Model_Space
340
22
  0
BLOCK_RECORD
  5
1B
330
1
100
AcDbSymbolTableRecord
100
AcDbBlockTableRecord
  2
*Paper_Space
340
1E
  0
BLOCK_RECORD
  5
23
330
1
100
AcDbSymbolTableRecord
100
AcDbBlockTableRecord
  2
*Paper_Space0
340
26
  0
BLOCK_RECORD
  5
6E
330
1
100
AcDbSymbolTableRecord
100
AcDbBlockTableRecord
  2
Block1
340
0
  0
BLOCK_RECORD
  5
16F
330
1
100
AcDbSymbolTableRecord
100
AcDbBlockTableRecord
  2
_D
340
0
  0
BLOCK_RECORD
  5
183
330
1
100
AcDbSymbolTableRecord
100
AcDbBlockTableRecord
  2
_D_1
340
0
  0
BLOCK_RECORD
  5
197
330
1
100
AcDbSymbolTableRecord
100
AcDbBlockTableRecord
  2
_D_2
340
0
  0
BLOCK_RECORD
  5
20F
330
1
100
AcDbSymbolTableRecord
100
AcDbBlockTableRecord
  2
_D_3
340
0
  0
BLOCK_RECORD
  5
224
330
1
100
AcDbSymbolTableRecord
100
AcDbBlockTableRecord
  2
_D_4
340
0
  0
ENDTAB
  0
ENDSEC
  0
SECTION
  2
BLOCKS
  0
BLOCK
  5
20
330
1F
100
AcDbEntity
  8
0
100
AcDbBlockBegin
  2
*Model_Space
 70
     0
 10
0.0
 20
0.0
 30
0.0
  3
*Model_Space
  1

  0
ENDBLK
  5
21
330
1F
100
AcDbEntity
  8
0
100
AcDbBlockEnd
  0
BLOCK
  5
1C
330
1B
100
AcDbEntity
 67
     1
  8
0
100
AcDbBlockBegin
  2
*Paper_Space
 70
     0
 10
0.0
 20
0.0
 30
0.0
  3
*Paper_Space
  1

  0
ENDBLK
  5
1D
330
1B
100
AcDbEntity
 67
     1
  8
0
100
AcDbBlockEnd
  0
BLOCK
  5
24
330
23
100
AcDbEntity
  8
0
100
AcDbBlockBegin
  2
*Paper_Space0
 70
     0
 10
0.0
 20
0.0
 30
0.0
  3
*Paper_Space0
  1

  0
ENDBLK
  5
25
330
23
100
AcDbEntity
  8
0
100
AcDbBlockEnd
  0
BLOCK
  5
6F
330
6E
100
AcDbEntity
  8
0
100
AcDbBlockBegin
  2
Block1
 70
     0
 10
0.0
 20
0.0
 30
0.0
  3
Block1
  1

  0
ENDBLK
  5
70
330
6E
100
AcDbEntity
  8
0
100
AcDbBlockEnd
  0
BLOCK
  5
170
330
16F
100
AcDbEntity
  8
0
100
AcDbBlockBegin
  2
_D
 70
     0
 10
0.0
 20
0.0
 30
0.0
  3
_D
  1

  0
SOLID
  5
172
330
16F
100
AcDbEntity
  8
0
  6
Continuous
 62
     7
370
    18
100
AcDbTrace
 10
9.8052393916
 20
7.9058369285
 30
0.0
 11
9.8852393916
 21
8.4258369285
 31
0.0
 12
9.7252393916
 22
8.4258369285
 32
0.0
 13
9.7252393916
 23
8.4258369285
 33
0.0
  0
SOLID
  5
173
330
16F
100
AcDbEntity
  8
0
  6
Continuous
 62
     7
370
    18
100
AcDbTrace
 10
9.8052393916
 20
5.6858369285
 30
0.0
 11
9.7252393916
 21
5.1658369285
 31
0.0
 12
9.8852393916
 22
5.1658369285
 32
0.0
 13
9.8852393916
 23
5.1658369285
 33
0.0
  0
LINE
  5
174
330
16F
100
AcDbEntity
  8
0
  6
Continuous
 62
     7
370
     0
100
AcDbLine
 10
8.8107949628
 20
6.7958368552
 30
0.0
 11
8.6584512144
 21
6.7958368552
 31
0.0
  0
LINE
  5
175
330
16F
100
AcDbEntity
  8
0
  6
Continuous
 62
     7
370
     0
100
AcDbLine
 10
8.6584512144
 20
6.7958368552
 30
0.0
 11
8.6584512144
 21
6.0020868313
 31
0.0
  0
LINE
  5
176
330
16F
100
AcDbEntity
  8
0
  6
Continuous
 62
     7
370
     0
100
AcDbLine
 10
8.6584512144
 20
6.0020868313
 30
0.0
 11
8.8107949628
 21
6.0020868313
 31
0.0
  0
LINE
  5
177
330
16F
100
AcDbEntity
  8
0
  6
Continuous
 62
     7
370
     0
100
AcDbLine
 10
10.7996838937
 20
6.7958368552
 30
0.0
 11
10.9520276421
 21
6.7958368552
 31
0.0
  0
LINE
  5
178
330
16F
100
AcDbEntity
  8
0
  6
Continuous
 62
     7
370
     0
100
AcDbLine
 10
10.9520276421
 20
6.7958368552
 30
0.0
 11
10.9520276421
 21
6.0020868313
 31
0.0
  0
LINE
  5
179
330
16F
100
AcDbEntity
  8
0
  6
Continuous
 62
     7
370
     0
100
AcDbLine
 10
10.9520276421
 20
6.0020868313
 30
0.0
 11
10.7996838937
 21
6.0020868313
 31
0.0
  0
LINE
  5
17A
330
16F
100
AcDbEntity
  8
0
  6
Continuous
 62
     7
370
     0
100
AcDbLine
 10
16.0018063207
 20
7.9058369285
 30
0.0
 11
9.3052393916
 21
7.9058369285
 31
0.0
  0
LINE
  5
17B
330
16F
100
AcDbEntity
  8
0
  6
Continuous
 62
     7
370
     0
100
AcDbLine
 10
16.0018063207
 20
5.6858369285
 30
0.0
 11
9.3052393916
 21
5.6858369285
 31
0.0
  0
LINE
  5
17C
330
16F
100
AcDbEntity
  8
0
  6
Continuous
 62
     7
370
     0
100
AcDbLine
 10
9.8052393916
 20
7.9058369285
 30
0.0
 11
9.8052393916
 21
8.9058369285
 31
0.0
  0
LINE
  5
17D
330
16F
100
AcDbEntity
  8
0
  6
Continuous
 62
     7
370
     0
100
AcDbLine
 10
9.8052393916
 20
5.6858369285
 30
0.0
 11
9.8052393916
 21
4.6858369285
 31
0.0
  0
MTEXT
  5
17E
330
16F
100
AcDbEntity
  8
0
  6
Continuous
 62
     7
370
    18
100
AcDbMText
 10
8.5327220252
 20
7.541933276
 30
0.0
 40
0.5
 41
0.0
 71
     1
 72
     1
  1
%%c
  7
SLDTEXTSTYLE0
 73
     1
 44
1.0
  0
MTEXT
  5
17F
330
16F
100
AcDbEntity
  8
0
  6
Continuous
 62
     7
370
    18
100
AcDbMText
 10
9.2867845075
 20
7.541933276
 30
0.0
 40
0.5
 41
0.0
 71
     1
 72
     1
  1
2 1/4"
  7
SLDTEXTSTYLE0
 73
     1
 44
1.0
  0
MTEXT
  5
180
330
16F
100
AcDbEntity
  8
0
  6
Continuous
 62
     7
370
    18
100
AcDbMText
 10
8.8107949628
 20
6.6466207562
 30
0.0
 40
0.5
 41
0.0
 71
     1
 72
     1
  1
56mm
  7
SLDTEXTSTYLE0
 73
     1
 44
1.0
  0
ENDBLK
  5
171
330
16F
100
AcDbEntity
  8
0
100
AcDbBlockEnd
  0
BLOCK
  5
184
330
183
100
AcDbEntity
  8
0
100
AcDbBlockBegin
  2
_D_1
 70
     0
 10
0.0
 20
0.0
 30
0.0
  3
_D_1
  1

  0
SOLID
  5
186
330
183
100
AcDbEntity
  8
0
  6
Continuous
 62
     7
370
    18
100
AcDbTrace
 10
21.2218063207
 20
11.4579565634
 30
0.0
 11
20.7018063207
 21
11.5379565634
 31
0.0
 12
20.7018063207
 22
11.3779565634
 32
0.0
 13
20.7018063207
 23
11.3779565634
 33
0.0
  0
SOLID
  5
187
330
183
100
AcDbEntity
  8
0
  6
Continuous
 62
     7
370
    18
100
AcDbTrace
 10
19.5218063207
 20
11.4579565634
 30
0.0
 11
20.0418063207
 21
11.3779565634
 31
0.0
 12
20.0418063207
 22
11.5379565634
 32
0.0
 13
20.0418063207
 23
11.5379565634
 33
0.0
  0
LINE
  5
188
330
183
100
AcDbEntity
  8
0
  6
Continuous
 62
     7
370
     0
100
AcDbLine
 10
22.909323334
 20
11.4541370408
 30
0.0
 11
22.7569795856
 21
11.4541370408
 31
0.0
  0
LINE
  5
189
330
183
100
AcDbEntity
  8
0
  6
Continuous
 62
     7
370
     0
100
AcDbLine
 10
22.7569795856
 20
11.4541370408
 30
0.0
 11
22.7569795856
 21
10.660387017
 31
0.0
  0
LINE
  5
18A
330
183
100
AcDbEntity
  8
0
  6
Continuous
 62
     7
370
     0
100
AcDbLine
 10
22.7569795856
 20
10.660387017
 30
0.0
 11
22.909323334
 21
10.660387017
 31
0.0
  0
LINE
  5
18B
330
183
100
AcDbEntity
  8
0
  6
Continuous
 62
     7
370
     0
100
AcDbLine
 10
24.8982122649
 20
11.4541370408
 30
0.0
 11
25.0505560133
 21
11.4541370408
 31
0.0
  0
LINE
  5
18C
330
183
100
AcDbEntity
  8
0
  6
Continuous
 62
     7
370
     0
100
AcDbLine
 10
25.0505560133
 20
11.4541370408
 30
0.0
 11
25.0505560133
 21
10.660387017
 31
0.0
  0
LINE
  5
18D
330
183
100
AcDbEntity
  8
0
  6
Continuous
 62
     7
370
     0
100
AcDbLine
 10
25.0505560133
 20
10.660387017
 30
0.0
 11
24.8982122649
 21
10.660387017
 31
0.0
  0
LINE
  5
18E
330
183
100
AcDbEntity
  8
0
  6
Continuous
 62
     7
370
     0
100
AcDbLine
 10
21.2218063207
 20
6.5258369285
 30
0.0
 11
21.2218063207
 21
11.9579565634
 31
0.0
  0
LINE
  5
18F
330
183
100
AcDbEntity
  8
0
  6
Continuous
 62
     7
370
     0
100
AcDbLine
 10
19.5218063207
 20
9.4791250961
 30
0.0
 11
19.5218063207
 21
11.9579565634
 31
0.0
  0
LINE
  5
190
330
183
100
AcDbEntity
  8
0
  6
Continuous
 62
     7
370
     0
100
AcDbLine
 10
21.2218063207
 20
11.4579565634
 30
0.0
 11
22.3185008871
 21
11.4579565634
 31
0.0
  0
LINE
  5
191
330
183
100
AcDbEntity
  8
0
  6
Continuous
 62
     7
370
     0
100
AcDbLine
 10
19.5218063207
 20
11.4579565634
 30
0.0
 11
21.2218063207
 21
11.4579565634
 31
0.0
  0
MTEXT
  5
192
330
183
100
AcDbEntity
  8
0
  6
Continuous
 62
     7
370
    18
100
AcDbMText
 10
22.6074136144
 20
12.2078723509
 30
0.0
 40
0.5
 41
0.0
 71
     1
 72
     1
  1

  7
SLDTEXTSTYLE0
 73
     1
 44
1.0
  0
MTEXT
  5
193
330
183
100
AcDbEntity
  8
0
  6
Continuous
 62
     7
370
    18
100
AcDbMText
 10
22.6388372287
 20
12.200233425
 30
0.0
 40
0.5
 41
0.0
 71
     1
 72
     1
  1
1 11/16"
  7
SLDTEXTSTYLE0
 73
     1
 44
1.0
  0
MTEXT
  5
194
330
183
100
AcDbEntity
  8
0
  6
Continuous
 62
     7
370
    18
100
AcDbMText
 10
22.909323334
 20
11.3049209418
 30
0.0
 40
0.5
 41
0.0
 71
     1
 72
     1
  1
43mm
  7
SLDTEXTSTYLE0
 73
     1
 44
1.0
  0
MTEXT
  5
195
330
183
100
AcDbEntity
  8
0
  6
Continuous
 62
     7
370
    18
100
AcDbMText
 10
25.3903996518
 20
12.2078723509
 30
0.0
 40
0.5
 41
0.0
 71
     1
 72
     1
  1

  7
SLDTEXTSTYLE0
 73
     1
 44
1.0
  0
ENDBLK
  5
185
330
183
100
AcDbEntity
  8
0
100
AcDbBlockEnd
  0
BLOCK
  5
198
330
197
100
AcDbEntity
  8
0
100
AcDbBlockBegin
  2
_D_2
 70
     0
 10
0.0
 20
0.0
 30
0.0
  3
_D_2
  1

  0
SOLID
  5
19A
330
197
100
AcDbEntity
  8
0
  6
Continuous
 62
     7
370
    18
100
AcDbTrace
 10
19.5218063207
 20
11.4579565634
 30
0.0
 11
20.0418063207
 21
11.3779565634
 31
0.0
 12
20.0418063207
 22
11.5379565634
 32
0.0
 13
20.0418063207
 23
11.5379565634
 33
0.0
  0
SOLID
  5
19B
330
197
100
AcDbEntity
  8
0
  6
Continuous
 62
     7
370
    18
100
AcDbTrace
 10
15.7843063207
 20
11.4579565634
 30
0.0
 11
15.2643063207
 21
11.5379565634
 31
0.0
 12
15.2643063207
 22
11.3779565634
 32
0.0
 13
15.2643063207
 23
11.3779565634
 33
0.0
  0
LINE
  5
19C
330
197
100
AcDbEntity
  8
0
  6
Continuous
 62
     7
370
     0
100
AcDbLine
 10
16.6586119286
 20
11.4541370408
 30
0.0
 11
16.5062681802
 21
11.4541370408
 31
0.0
  0
LINE
  5
19D
330
197
100
AcDbEntity
  8
0
  6
Continuous
 62
     7
370
     0
100
AcDbLine
 10
16.5062681802
 20
11.4541370408
 30
0.0
 11
16.5062681802
 21
10.660387017
 31
0.0
  0
LINE
  5
19E
330
197
100
AcDbEntity
  8
0
  6
Continuous
 62
     7
370
     0
100
AcDbLine
 10
16.5062681802
 20
10.660387017
 30
0.0
 11
16.6586119286
 21
10.660387017
 31
0.0
  0
LINE
  5
19F
330
197
100
AcDbEntity
  8
0
  6
Continuous
 62
     7
370
     0
100
AcDbLine
 10
18.6475008595
 20
11.4541370408
 30
0.0
 11
18.7998446079
 21
11.4541370408
 31
0.0
  0
LINE
  5
1A0
330
197
100
AcDbEntity
  8
0
  6
Continuous
 62
     7
370
     0
100
AcDbLine
 10
18.7998446079
 20
11.4541370408
 30
0.0
 11
18.7998446079
 21
10.660387017
 31
0.0
  0
LINE
  5
1A1
330
197
100
AcDbEntity
  8
0
  6
Continuous
 62
     7
370
     0
100
AcDbLine
 10
18.7998446079
 20
10.660387017
 30
0.0
 11
18.6475008595
 21
10.660387017
 31
0.0
  0
LINE
  5
1A2
330
197
100
AcDbEntity
  8
0
  6
Continuous
 62
     7
370
     0
100
AcDbLine
 10
19.5218063207
 20
9.4791250961
 30
0.0
 11
19.5218063207
 21
11.9579565634
 31
0.0
  0
LINE
  5
1A3
330
197
100
AcDbEntity
  8
0
  6
Continuous
 62
     7
370
     0
100
AcDbLine
 10
15.7843063207
 20
7.0510763297
 30
0.0
 11
15.7843063207
 21
11.9579565634
 31
0.0
  0
LINE
  5
1A4
330
197
100
AcDbEntity
  8
0
  6
Continuous
 62
     7
370
     0
100
AcDbLine
 10
19.5218063207
 20
11.4579565634
 30
0.0
 11
20.5218063207
 21
11.4579565634
 31
0.0
  0
LINE
  5
1A5
330
197
100
AcDbEntity
  8
0
  6
Continuous
 62
     7
370
     0
100
AcDbLine
 10
15.7843063207
 20
11.4579565634
 30
0.0
 11
14.7843063207
 21
11.4579565634
 31
0.0
  0
MTEXT
  5
1A6
330
197
100
AcDbEntity
  8
0
  6
Continuous
 62
     7
370
    18
100
AcDbMText
 10
16.356702209
 20
12.2078723509
 30
0.0
 40
0.5
 41
0.0
 71
     1
 72
     1
  1

  7
SLDTEXTSTYLE0
 73
     1
 44
1.0
  0
MTEXT
  5
1A7
330
197
100
AcDbEntity
  8
0
  6
Continuous
 62
     7
370
    18
100
AcDbMText
 10
16.7575702688
 20
12.200233425
 30
0.0
 40
0.5
 41
0.0
 71
     1
 72
     1
  1
3 3/4"
  7
SLDTEXTSTYLE0
 73
     1
 44
1.0
  0
MTEXT
  5
1A8
330
197
100
AcDbEntity
  8
0
  6
Continuous
 62
     7
370
    18
100
AcDbMText
 10
16.6586119286
 20
11.3049209418
 30
0.0
 40
0.5
 41
0.0
 71
     1
 72
     1
  1
95mm
  7
SLDTEXTSTYLE0
 73
     1
 44
1.0
  0
MTEXT
  5
1A9
330
197
100
AcDbEntity
  8
0
  6
Continuous
 62
     7
370
    18
100
AcDbMText
 10
19.1396882464
 20
12.2078723509
 30
0.0
 40
0.5
 41
0.0
 71
     1
 72
     1
  1

  7
SLDTEXTSTYLE0
 73
     1
 44
1.0
  0
ENDBLK
  5
199
330
197
100
AcDbEntity
  8
0
100
AcDbBlockEnd
  0
BLOCK
  5
210
330
20F
100
AcDbEntity
  8
0
100
AcDbBlockBegin
  2
_D_3
 70
     0
 10
0.0
 20
0.0
 30
0.0
  3
_D_3
  1

  0
SOLID
  5
212
330
20F
100
AcDbEntity
  8
0
  6
Continuous
 62
     7
370
    18
100
AcDbTrace
 10
28.6428095307
 20
13.1141395987
 30
0.0
 11
28.1228095307
 21
13.1941395987
 31
0.0
 12
28.1228095307
 22
13.0341395987
 32
0.0
 13
28.1228095307
 23
13.0341395987
 33
0.0
  0
SOLID
  5
213
330
20F
100
AcDbEntity
  8
0
  6
Continuous
 62
     7
370
    18
100
AcDbTrace
 10
31.9528095307
 20
13.1141395987
 30
0.0
 11
32.4728095307
 21
13.0341395987
 31
0.0
 12
32.4728095307
 22
13.1941395987
 32
0.0
 13
32.4728095307
 23
13.1941395987
 33
0.0
  0
LINE
  5
214
330
20F
100
AcDbEntity
  8
0
  6
Continuous
 62
     7
370
     0
100
AcDbLine
 10
29.3033651386
 20
13.1103200761
 30
0.0
 11
29.1510213902
 21
13.1103200761
 31
0.0
  0
LINE
  5
215
330
20F
100
AcDbEntity
  8
0
  6
Continuous
 62
     7
370
     0
100
AcDbLine
 10
29.1510213902
 20
13.1103200761
 30
0.0
 11
29.1510213902
 21
12.3165700522
 31
0.0
  0
LINE
  5
216
330
20F
100
AcDbEntity
  8
0
  6
Continuous
 62
     7
370
     0
100
AcDbLine
 10
29.1510213902
 20
12.3165700522
 30
0.0
 11
29.3033651386
 21
12.3165700522
 31
0.0
  0
LINE
  5
217
330
20F
100
AcDbEntity
  8
0
  6
Continuous
 62
     7
370
     0
100
AcDbLine
 10
31.2922540695
 20
13.1103200761
 30
0.0
 11
31.4445978179
 21
13.1103200761
 31
0.0
  0
LINE
  5
218
330
20F
100
AcDbEntity
  8
0
  6
Continuous
 62
     7
370
     0
100
AcDbLine
 10
31.4445978179
 20
13.1103200761
 30
0.0
 11
31.4445978179
 21
12.3165700522
 31
0.0
  0
LINE
  5
219
330
20F
100
AcDbEntity
  8
0
  6
Continuous
 62
     7
370
     0
100
AcDbLine
 10
31.4445978179
 20
12.3165700522
 30
0.0
 11
31.2922540695
 21
12.3165700522
 31
0.0
  0
LINE
  5
21A
330
20F
100
AcDbEntity
  8
0
  6
Continuous
 62
     7
370
     0
100
AcDbLine
 10
28.6428095307
 20
6.9958369285
 30
0.0
 11
28.6428095307
 21
13.6141395987
 31
0.0
  0
LINE
  5
21B
330
20F
100
AcDbEntity
  8
0
  6
Continuous
 62
     7
370
     0
100
AcDbLine
 10
31.9528095307
 20
6.9958369285
 30
0.0
 11
31.9528095307
 21
13.6141395987
 31
0.0
  0
LINE
  5
21C
330
20F
100
AcDbEntity
  8
0
  6
Continuous
 62
     7
370
     0
100
AcDbLine
 10
28.6428095307
 20
13.1141395987
 30
0.0
 11
27.6428095307
 21
13.1141395987
 31
0.0
  0
LINE
  5
21D
330
20F
100
AcDbEntity
  8
0
  6
Continuous
 62
     7
370
     0
100
AcDbLine
 10
31.9528095307
 20
13.1141395987
 30
0.0
 11
32.9528095307
 21
13.1141395987
 31
0.0
  0
MTEXT
  5
21E
330
20F
100
AcDbEntity
  8
0
  6
Continuous
 62
     7
370
    18
100
AcDbMText
 10
29.001455419
 20
13.8640553862
 30
0.0
 40
0.5
 41
0.0
 71
     1
 72
     1
  1

  7
SLDTEXTSTYLE0
 73
     1
 44
1.0
  0
MTEXT
  5
21F
330
20F
100
AcDbEntity
  8
0
  6
Continuous
 62
     7
370
    18
100
AcDbMText
 10
29.2176012194
 20
13.8564164602
 30
0.0
 40
0.5
 41
0.0
 71
     1
 72
     1
  1
3 5/16"
  7
SLDTEXTSTYLE0
 73
     1
 44
1.0
  0
MTEXT
  5
220
330
20F
100
AcDbEntity
  8
0
  6
Continuous
 62
     7
370
    18
100
AcDbMText
 10
29.3033651386
 20
12.9611039771
 30
0.0
 40
0.5
 41
0.0
 71
     1
 72
     1
  1
84mm
  7
SLDTEXTSTYLE0
 73
     1
 44
1.0
  0
MTEXT
  5
221
330
20F
100
AcDbEntity
  8
0
  6
Continuous
 62
     7
370
    18
100
AcDbMText
 10
31.7844414563
 20
13.8640553862
 30
0.0
 40
0.5
 41
0.0
 71
     1
 72
     1
  1

  7
SLDTEXTSTYLE0
 73
     1
 44
1.0
  0
ENDBLK
  5
211
330
20F
100
AcDbEntity
  8
0
100
AcDbBlockEnd
  0
BLOCK
  5
225
330
224
100
AcDbEntity
  8
0
100
AcDbBlockBegin
  2
_D_4
 70
     0
 10
0.0
 20
0.0
 30
0.0
  3
_D_4
  1

  0
SOLID
  5
227
330
224
100
AcDbEntity
  8
0
  6
Continuous
 62
     7
370
    18
100
AcDbTrace
 10
36.830157437
 20
9.3091068209
 30
0.0
 11
36.750157437
 21
8.7891068209
 31
0.0
 12
36.910157437
 22
8.7891068209
 32
0.0
 13
36.910157437
 23
8.7891068209
 33
0.0
  0
SOLID
  5
228
330
224
100
AcDbEntity
  8
0
  6
Continuous
 62
     7
370
    18
100
AcDbTrace
 10
36.830157437
 20
4.2825670361
 30
0.0
 11
36.910157437
 21
4.8025670361
 31
0.0
 12
36.750157437
 22
4.8025670361
 32
0.0
 13
36.750157437
 23
4.8025670361
 33
0.0
  0
LINE
  5
229
330
224
100
AcDbEntity
  8
0
  6
Continuous
 62
     7
370
     0
100
AcDbLine
 10
35.6509908588
 20
6.792017406
 30
0.0
 11
35.4986471104
 21
6.792017406
 31
0.0
  0
LINE
  5
22A
330
224
100
AcDbEntity
  8
0
  6
Continuous
 62
     7
370
     0
100
AcDbLine
 10
35.4986471104
 20
6.792017406
 30
0.0
 11
35.4986471104
 21
5.9982673821
 31
0.0
  0
LINE
  5
22B
330
224
100
AcDbEntity
  8
0
  6
Continuous
 62
     7
370
     0
100
AcDbLine
 10
35.4986471104
 20
5.9982673821
 30
0.0
 11
35.6509908588
 21
5.9982673821
 31
0.0
  0
LINE
  5
22C
330
224
100
AcDbEntity
  8
0
  6
Continuous
 62
     7
370
     0
100
AcDbLine
 10
38.0093241618
 20
6.792017406
 30
0.0
 11
38.1616679102
 21
6.792017406
 31
0.0
  0
LINE
  5
22D
330
224
100
AcDbEntity
  8
0
  6
Continuous
 62
     7
370
     0
100
AcDbLine
 10
38.1616679102
 20
6.792017406
 30
0.0
 11
38.1616679102
 21
5.9982673821
 31
0.0
  0
LINE
  5
22E
330
224
100
AcDbEntity
  8
0
  6
Continuous
 62
     7
370
     0
100
AcDbLine
 10
38.1616679102
 20
5.9982673821
 30
0.0
 11
38.0093241618
 21
5.9982673821
 31
0.0
  0
LINE
  5
22F
330
224
100
AcDbEntity
  8
0
  6
Continuous
 62
     7
370
     0
100
AcDbLine
 10
32.9810976983
 20
9.3091068209
 30
0.0
 11
37.330157437
 21
9.3091068209
 31
0.0
  0
LINE
  5
230
330
224
100
AcDbEntity
  8
0
  6
Continuous
 62
     7
370
     0
100
AcDbLine
 10
32.9810976983
 20
4.2825670361
 30
0.0
 11
37.330157437
 21
4.2825670361
 31
0.0
  0
LINE
  5
231
330
224
100
AcDbEntity
  8
0
  6
Continuous
 62
     7
370
     0
100
AcDbLine
 10
36.830157437
 20
9.3091068209
 30
0.0
 11
36.830157437
 21
7.694968815
 31
0.0
  0
LINE
  5
232
330
224
100
AcDbEntity
  8
0
  6
Continuous
 62
     7
370
     0
100
AcDbLine
 10
36.830157437
 20
4.2825670361
 30
0.0
 11
36.830157437
 21
5.896705042
 31
0.0
  0
MTEXT
  5
233
330
224
100
AcDbEntity
  8
0
  6
Continuous
 62
     7
370
    18
100
AcDbMText
 10
35.3490811392
 20
7.545752716
 30
0.0
 40
0.5
 41
0.0
 71
     1
 72
     1
  1

  7
SLDTEXTSTYLE0
 73
     1
 44
1.0
  0
MTEXT
  5
234
330
224
100
AcDbEntity
  8
0
  6
Continuous
 62
     7
370
    18
100
AcDbMText
 10
36.5423102505
 20
7.5381137901
 30
0.0
 40
0.5
 41
0.0
 71
     1
 72
     1
  1
5"
  7
SLDTEXTSTYLE0
 73
     1
 44
1.0
  0
MTEXT
  5
235
330
224
100
AcDbEntity
  8
0
  6
Continuous
 62
     7
370
    18
100
AcDbMText
 10
35.6509908588
 20
6.642801307
 30
0.0
 40
0.5
 41
0.0
 71
     1
 72
     1
  1
128mm
  7
SLDTEXTSTYLE0
 73
     1
 44
1.0
  0
MTEXT
  5
236
330
224
100
AcDbEntity
  8
0
  6
Continuous
 62
     7
370
    18
100
AcDbMText
 10
38.5015115487
 20
7.545752716
 30
0.0
 40
0.5
 41
0.0
 71
     1
 72
     1
  1

  7
SLDTEXTSTYLE0
 73
     1
 44
1.0
  0
ENDBLK
  5
226
330
224
100
AcDbEntity
  8
0
100
AcDbBlockEnd
  0
ENDSEC
  0
SECTION
  2
ENTITIES
  0
LINE
  5
71
330
1F
100
AcDbEntity
  8
0
  6
Continuous
 62
     7
370
    25
100
AcDbLine
 10
31.486274504
 20
21.9630444251
 30
0.0
 11
30.760723573
 21
20.3509446078
 31
0.0
  0
ARC
  5
72
330
1F
100
AcDbEntity
  8
0
  6
Continuous
 62
     7
370
    25
100
AcDbCircle
 10
34.0264795664
 20
17.8584436231
 30
0.0
 40
0.0300000000000023
100
AcDbArc
 50
240.0026882664
 51
296.5359355438
  0
ARC
  5
73
330
1F
100
AcDbEntity
  8
0
  6
Continuous
 62
     7
370
    25
100
AcDbCircle
 10
30.5319163653
 20
23.9112046198
 30
0.0
 40
0.0300000000000033
100
AcDbArc
 50
123.4587075228
 51
180.0
  0
LINE
  5
74
330
1F
100
AcDbEntity
  8
0
  6
Continuous
 62
     7
370
    25
100
AcDbLine
 10
34.039882337
 20
17.8316039931
 30
0.0
 11
34.2970943859
 21
17.9600466767
 31
0.0
  0
LINE
  5
75
330
1F
100
AcDbEntity
  8
0
  6
Continuous
 62
     7
370
    25
100
AcDbLine
 10
30.7552304108
 20
24.0947406304
 30
0.0
 11
30.5153762892
 21
23.9362331212
 31
0.0
  0
LINE
  5
76
330
1F
100
AcDbEntity
  8
0
  6
Continuous
 62
     7
370
    25
100
AcDbLine
 10
30.5169175843
 20
19.8498305523
 30
0.0
 11
34.0114807854
 21
17.8324621572
 31
0.0
  0
LINE
  5
77
330
1F
100
AcDbEntity
  8
0
  6
Continuous
 62
     7
370
    25
100
AcDbLine
 10
30.5019163653
 20
23.9112046198
 30
0.0
 11
30.5019163653
 21
19.8758120182
 31
0.0
  0
ARC
  5
78
330
1F
100
AcDbEntity
  8
0
  6
Continuous
 62
     7
370
    25
100
AcDbCircle
 10
30.5319163653
 20
19.8758120182
 30
0.0
 40
0.0300000000000011
100
AcDbArc
 50
180.0
 51
240.0026882664
  0
LINE
  5
79
330
1F
100
AcDbEntity
  8
0
  6
Continuous
 62
     7
370
    25
100
AcDbLine
 10
33.449213733
 20
20.278576967
 30
0.0
 11
33.4961595234
 21
20.3056781949
 31
0.0
  0
LINE
  5
7A
330
1F
100
AcDbEntity
  8
0
  6
Continuous
 62
     7
370
    25
100
AcDbLine
 10
34.3193249562
 20
23.3442472439
 30
0.0
 11
33.1940341694
 21
22.6946307001
 31
0.0
  0
LINE
  5
7B
330
1F
100
AcDbEntity
  8
0
  6
Continuous
 62
     7
370
    25
100
AcDbLine
 10
34.3038355231
 20
20.7719396249
 30
0.0
 11
35.4292347494
 21
21.4216187694
 31
0.0
  0
LINE
  5
7C
330
1F
100
AcDbEntity
  8
0
  6
Continuous
 62
     7
370
    25
100
AcDbLine
 10
35.6591683799
 20
21.9298265046
 30
0.0
 11
35.6591683799
 21
21.9543187479
 31
0.0
  0
LINE
  5
7D
330
1F
100
AcDbEntity
  8
0
  6
Continuous
 62
     7
370
    25
100
AcDbLine
 10
34.8956171749
 20
23.2769715413
 30
0.0
 11
34.8744074192
 21
23.2892196533
 31
0.0
  0
LINE
  5
7E
330
1F
100
AcDbEntity
  8
0
  6
Continuous
 62
     7
370
    25
100
AcDbLine
 10
36.7679131006
 20
23.5741610292
 30
0.0
 11
36.41435971
 21
23.3700590012
 31
0.0
  0
LINE
  5
7F
330
1F
100
AcDbEntity
  8
0
  6
Continuous
 62
     7
370
    25
100
AcDbLine
 10
36.5493487389
 20
23.1362258084
 30
0.0
 11
36.9029021295
 21
23.3403278364
 31
0.0
  0
LINE
  5
80
330
1F
100
AcDbEntity
  8
0
  6
Continuous
 62
     7
370
    25
100
AcDbLine
 10
36.9653131198
 20
23.6404875276
 30
0.0
 11
36.8371097482
 21
23.5664772965
 31
0.0
  0
LINE
  5
81
330
1F
100
AcDbEntity
  8
0
  6
Continuous
 62
     7
370
    25
100
AcDbLine
 10
36.4763262574
 20
23.3582014206
 30
0.0
 11
35.413261006
 21
22.7445069138
 31
0.0
  0
LINE
  5
82
330
1F
100
AcDbEntity
  8
0
  6
Continuous
 62
     7
370
    25
100
AcDbLine
 10
35.5026347418
 20
22.5796007868
 30
0.0
 11
36.5700686386
 21
23.1958172589
 31
0.0
  0
LINE
  5
83
330
1F
100
AcDbEntity
  8
0
  6
Continuous
 62
     7
370
    25
100
AcDbLine
 10
36.9308521293
 20
23.4040931348
 30
0.0
 11
37.0590555009
 21
23.4781033659
 31
0.0
  0
LINE
  5
84
330
1F
100
AcDbEntity
  8
0
  6
Continuous
 62
     7
370
    25
100
AcDbLine
 10
36.8359783695
 20
23.6814712312
 30
0.0
 11
35.3588184255
 21
22.8287249468
 31
0.0
  0
ARC
  5
85
330
1F
100
AcDbEntity
  8
0
  6
Continuous
 62
     7
370
    25
100
AcDbCircle
 10
34.0265199794
 20
21.9227670788
 30
0.0
 40
0.0463385319619254
100
AcDbArc
 50
242.6993467637
 51
296.1459996425
  0
ARC
  5
86
330
1F
100
AcDbEntity
  8
0
  6
Continuous
 62
     7
370
    25
100
AcDbCircle
 10
34.051547181
 20
21.8794114388
 30
0.0
 40
0.0463320698909502
100
AcDbArc
 50
123.8500425738
 51
177.3047974538
  0
ARC
  5
87
330
1F
100
AcDbEntity
  8
0
  6
Continuous
 62
     7
370
    25
100
AcDbCircle
 10
33.9978991097
 20
21.8773366628
 30
0.0
 40
0.0491900133593918
100
AcDbArc
 50
4.4697543709
 51
55.5302457747
  0
ELLIPSE
  5
88
330
1F
100
AcDbEntity
  8
0
  6
Continuous
 62
     7
370
    25
100
AcDbEllipse
 10
34.2826093893
 20
22.0416984461
 30
0.0
 11
-0.01499877652418746
 21
0.02598146844949412
 31
0.0
210
0.0
220
0.0
230
1.0
 40
0.5780852102
 41
3.927681267029488
 42
5.497259618652721
  0
LINE
  5
89
330
1F
100
AcDbEntity
  8
0
  6
Continuous
 62
     7
370
    25
100
AcDbLine
 10
34.3038355231
 20
22.0294747138
 30
0.0
 11
34.0469395172
 21
21.8811701796
 31
0.0
  0
LINE
  5
8A
330
1F
100
AcDbEntity
  8
0
  6
Continuous
 62
     7
370
    25
100
AcDbLine
 10
34.0257392362
 20
21.9178901432
 30
0.0
 11
34.2826352422
 21
22.0661946774
 31
0.0
  0
LINE
  5
8B
330
1F
100
AcDbEntity
  8
0
  6
Continuous
 62
     7
370
    25
100
AcDbLine
 10
34.0469395172
 20
21.8811701796
 30
0.0
 11
34.0469395172
 21
17.8457775779
 31
0.0
  0
ARC
  5
8C
330
1F
100
AcDbEntity
  8
0
  6
Continuous
 62
     7
370
    25
100
AcDbCircle
 10
34.0265199794
 20
17.8873744771
 30
0.0
 40
0.0463385319619716
100
AcDbArc
 50
242.6993467637
 51
296.1459996425
  0
LINE
  5
8D
330
1F
100
AcDbEntity
  8
0
  6
Continuous
 62
     7
370
    25
100
AcDbLine
 10
34.0052663629
 20
17.8461975014
 30
0.0
 11
34.0052663629
 21
21.8815901031
 31
0.0
  0
LINE
  5
8E
330
1F
100
AcDbEntity
  8
0
  6
Continuous
 62
     7
370
    25
100
AcDbLine
 10
30.5311760352
 20
23.9352585382
 30
0.0
 11
34.0257392362
 21
21.9178901432
 31
0.0
  0
LINE
  5
8F
330
1F
100
AcDbEntity
  8
0
  6
Continuous
 62
     7
370
    25
100
AcDbLine
 10
34.0052663629
 20
21.8815901031
 30
0.0
 11
30.5107031619
 21
23.8989584981
 31
0.0
  0
ARC
  5
90
330
1F
100
AcDbEntity
  8
0
  6
Continuous
 62
     7
370
    25
100
AcDbCircle
 10
30.5569839799
 20
23.8967798339
 30
0.0
 40
0.0463320698909724
100
AcDbArc
 50
123.8500425738
 51
177.3047974538
  0
LINE
  5
91
330
1F
100
AcDbEntity
  8
0
  6
Continuous
 62
     7
370
    25
100
AcDbLine
 10
34.3038355231
 20
22.0294747138
 30
0.0
 11
34.3038355231
 21
17.9740624408
 31
0.0
  0
LINE
  5
92
330
1F
100
AcDbEntity
  8
0
  6
Continuous
 62
     7
370
    25
100
AcDbLine
 10
34.0469395172
 20
17.8457775779
 30
0.0
 11
34.3038355231
 21
17.9740624408
 31
0.0
  0
LINE
  5
93
330
1F
100
AcDbEntity
  8
0
  6
Continuous
 62
     7
370
    25
100
AcDbLine
 10
30.7707354363
 20
24.0935712815
 30
0.0
 11
34.2826352422
 21
22.0661946774
 31
0.0
  0
LINE
  5
94
330
1F
100
AcDbEntity
  8
0
  6
Continuous
 62
     7
370
    25
100
AcDbLine
 10
30.7707354363
 20
24.0935712815
 30
0.0
 11
30.5311760352
 21
23.9352585382
 31
0.0
  0
LWPOLYLINE
  5
95
330
1F
100
AcDbEntity
  8
0
  6
Continuous
 62
     7
370
    25
100
AcDbPolyline
 90
       72
 70
   128
 43
0.0
 10
31.2326799297
 20
21.4644738808
 10
31.2321126876
 20
21.479595365
 10
31.2304154007
 20
21.4952534269
 10
31.2276013526
 20
21.5113255208
 10
31.2236925671
 20
21.527685861
 10
31.2187196357
 20
21.5442064055
 10
31.2127214783
 20
21.5607578587
 10
31.2057450386
 20
21.5772106829
 10
31.1978449168
 20
21.5934361127
 10
31.189082942
 20
21.6093071619
 10
31.1795276885
 20
21.6246996181
 10
31.1692539391
 20
21.6394930145
 10
31.1583421
 20
21.6535715727
 10
31.1468775709
 20
21.6668251088
 10
31.1349500774
 20
21.6791498959
 10
31.1226529683
 20
21.690449476
 10
31.1100824852
 20
21.7006354145
 10
31.097337009
 20
21.7096279925
 10
31.0845162906
 20
21.7173568311
 10
31.0717206693
 20
21.7237614414
 10
31.0590502882
 20
21.7287916988
 10
31.0466043103
 20
21.7324082348
 10
31.0344801422
 20
21.7345827449
 10
31.0227726719
 20
21.7352982107
 10
31.0115735264
 20
21.7345490327
 10
31.000970354
 20
21.7323410743
 10
30.9910461391
 20
21.7286916157
 10
30.9818785519
 20
21.7236292189
 10
30.9735393414
 20
21.7171935039
 10
30.9660937731
 20
21.7094348391
 10
30.9596001188
 20
21.7004139464
 10
30.9541092
 20
21.6902014266
 10
30.9496639906
 20
21.6788772065
 10
30.9462992806
 20
21.6665299134
 10
30.9440414031
 20
21.6532561818
 10
30.9429080293
 20
21.6391598964
 10
30.9429080293
 20
21.62435138
 10
30.9440414031
 20
21.6089465291
 10
30.9462992806
 20
21.5930659077
 10
30.9496639906
 20
21.576833803
 10
30.9541092
 20
21.5603772535
 10
30.9596001188
 20
21.5438250538
 10
30.9660937731
 20
21.5273067474
 10
30.9735393414
 20
21.5109516124
 10
30.9818785519
 20
21.4948876499
 10
30.9910461391
 20
21.4792405823
 10
31.000970354
 20
21.464132869
 10
31.0115735264
 20
21.4496827483
 10
31.0227726719
 20
21.4360033121
 10
31.0344801422
 20
21.4232016205
 10
31.0466043103
 20
21.4113778641
 10
31.0590502882
 20
21.4006245798
 10
31.0717206693
 20
21.3910259266
 10
31.0845162906
 20
21.3826570271
 10
31.097337009
 20
21.3755833791
 10
31.1100824852
 20
21.3698603437
 10
31.1226529683
 20
21.3655327112
 10
31.1349500774
 20
21.3626343514
 10
31.1468775709
 20
21.3611879477
 10
31.1583421
 20
21.3612048203
 10
31.1692539391
 20
21.3626848371
 10
31.1795276885
 20
21.365616415
 10
31.189082942
 20
21.3699766103
 10
31.1978449168
 20
21.3757312988
 10
31.2057450386
 20
21.382835442
 10
31.2127214783
 20
21.3912334405
 10
31.2187196357
 20
21.4008595685
 10
31.2236925671
 20
21.4116384886
 10
31.2276013526
 20
21.4234858411
 10
31.2304154007
 20
21.4363089043
 10
31.2321126876
 20
21.4500073205
 10
31.2326799297
 20
21.4644738808
  0
ELLIPSE
  5
96
330
1F
100
AcDbEntity
  8
0
  6
Continuous
 62
     7
370
    25
100
AcDbEllipse
 10
32.8416163142
 20
21.0321877223
 30
0.0
 11
-0.08840013007984737
 21
0.493113301560193
 31
0.0
210
0.0
220
0.0
230
1.0
 40
0.5091526124
 41
4.373850200410336
 42
5.877366168597191
  0
LINE
  5
97
330
1F
100
AcDbEntity
  8
0
  6
Continuous
 62
     7
370
    25
100
AcDbLine
 10
31.6564581718
 20
22.1975261835
 30
0.0
 11
32.859511353
 21
21.5030183651
 31
0.0
  0
ELLIPSE
  5
98
330
1F
100
AcDbEntity
  8
0
  6
Continuous
 62
     7
370
    25
100
AcDbEllipse
 10
31.6743532105
 20
21.7060343689
 30
0.0
 11
-0.1229227706222496
 21
0.5117155364485592
 31
0.0
210
0.0
220
0.0
230
1.0
 40
0.4613786991
 41
5.870434553913099
 42
7.373950522099929
  0
LINE
  5
99
330
1F
100
AcDbEntity
  8
0
  6
Continuous
 62
     7
370
    25
100
AcDbLine
 10
33.1077942446
 20
20.9108747562
 30
0.0
 11
33.1077942446
 21
19.895240269
 31
0.0
  0
LINE
  5
9A
330
1F
100
AcDbEntity
  8
0
  6
Continuous
 62
     7
370
    25
100
AcDbLine
 10
30.5107031619
 20
23.8989584981
 30
0.0
 11
30.5107031619
 21
19.8635658965
 31
0.0
  0
LINE
  5
9B
330
1F
100
AcDbEntity
  8
0
  6
Continuous
 62
     7
370
    25
100
AcDbLine
 10
30.5107031619
 20
19.8635658965
 30
0.0
 11
34.0052663629
 21
17.8461975014
 31
0.0
  0
LWPOLYLINE
  5
9C
330
1F
100
AcDbEntity
  8
0
  6
Continuous
 62
     7
370
    25
100
AcDbPolyline
 90
       72
 70
   128
 43
0.0
 10
33.5732033754
 20
20.1133184558
 10
33.5726361333
 20
20.12843994
 10
33.5709388464
 20
20.1440980018
 10
33.5681247984
 20
20.1601700958
 10
33.5642160128
 20
20.1765304359
 10
33.5592430814
 20
20.1930509804
 10
33.553244924
 20
20.2096024336
 10
33.5462684843
 20
20.2260552579
 10
33.5383683625
 20
20.2422806876
 10
33.5296063877
 20
20.2581517369
 10
33.5200511342
 20
20.2735441931
 10
33.5097773849
 20
20.2883375894
 10
33.4988655457
 20
20.3024161476
 10
33.4874010166
 20
20.3156696837
 10
33.4754735231
 20
20.3279944709
 10
33.463176414
 20
20.339294051
 10
33.4506059309
 20
20.3494799894
 10
33.4378604548
 20
20.3584725675
 10
33.4250397363
 20
20.366201406
 10
33.412244115
 20
20.3726060163
 10
33.3995737339
 20
20.3776362738
 10
33.387127756
 20
20.3812528097
 10
33.3750035879
 20
20.3834273198
 10
33.3632961177
 20
20.3841427856
 10
33.3520969721
 20
20.3833936077
 10
33.3414937998
 20
20.3811856492
 10
33.3315695848
 20
20.3775361906
 10
33.3224019976
 20
20.3724737938
 10
33.3140627871
 20
20.3660380789
 10
33.3066172188
 20
20.358279414
 10
33.3001235645
 20
20.3492585213
 10
33.2946326457
 20
20.3390460015
 10
33.2901874364
 20
20.3277217814
 10
33.2868227263
 20
20.3153744884
 10
33.2845648489
 20
20.3021007567
 10
33.2834314751
 20
20.2880044714
 10
33.2834314751
 20
20.2731959549
 10
33.2845648489
 20
20.257791104
 10
33.2868227263
 20
20.2419104826
 10
33.2901874364
 20
20.225678378
 10
33.2946326457
 20
20.2092218284
 10
33.3001235645
 20
20.1926696287
 10
33.3066172188
 20
20.1761513223
 10
33.3140627871
 20
20.1597961873
 10
33.3224019976
 20
20.1437322249
 10
33.3315695848
 20
20.1280851572
 10
33.3414937998
 20
20.1129774439
 10
33.3520969721
 20
20.0985273232
 10
33.3632961177
 20
20.084847887
 10
33.3750035879
 20
20.0720461954
 10
33.387127756
 20
20.060222439
 10
33.3995737339
 20
20.0494691547
 10
33.412244115
 20
20.0398705016
 10
33.4250397363
 20
20.031501602
 10
33.4378604548
 20
20.0244279541
 10
33.4506059309
 20
20.0187049186
 10
33.463176414
 20
20.0143772862
 10
33.4754735231
 20
20.0114789263
 10
33.4874010166
 20
20.0100325227
 10
33.4988655457
 20
20.0100493952
 10
33.5097773849
 20
20.011529412
 10
33.5200511342
 20
20.0144609899
 10
33.5296063877
 20
20.0188211853
 10
33.5383683625
 20
20.0245758737
 10
33.5462684843
 20
20.0316800169
 10
33.553244924
 20
20.0400780154
 10
33.5592430814
 20
20.0497041435
 10
33.5642160128
 20
20.0604830636
 10
33.5681247984
 20
20.072330416
 10
33.5709388464
 20
20.0851534792
 10
33.5726361333
 20
20.0988518954
 10
33.5732033754
 20
20.1133184558
  0
LINE
  5
9D
330
1F
100
AcDbEntity
  8
0
  6
Continuous
 62
     7
370
    25
100
AcDbLine
 10
31.8471220981
 20
19.648331078
 30
0.0
 11
32.8291994458
 21
21.3880885508
 31
0.0
  0
ELLIPSE
  5
9E
330
1F
100
AcDbEntity
  8
0
  6
Continuous
 62
     7
370
    25
100
AcDbEllipse
 10
32.7090337928
 20
20.9556494618
 30
0.0
 11
0.1101140289543707
 21
0.4361383188991645
 31
0.0
210
0.0
220
0.0
230
1.0
 40
0.3348498656
 41
4.708895207425688
 42
6.212411175612543
  0
LINE
  5
9F
330
1F
100
AcDbEntity
  8
0
  6
Continuous
 62
     7
370
    25
100
AcDbLine
 10
32.8546890463
 20
20.9172542539
 30
0.0
 11
32.1383873947
 21
19.6483204433
 31
0.0
  0
ELLIPSE
  5
A0
330
1F
100
AcDbEntity
  8
0
  6
Continuous
 62
     7
370
    25
100
AcDbEllipse
 10
32.0173439143
 20
19.730315594
 30
0.0
 11
0.2155532466428838
 21
0.0236466811002316
 31
0.0
210
0.0
220
0.0
230
1.0
 40
0.5090174845
 41
3.748290699989811
 42
5.251806668176678
  0
LINE
  5
A1
330
1F
100
AcDbEntity
  8
0
  6
Continuous
 62
     7
370
    25
100
AcDbLine
 10
31.6261462646
 20
22.0825963692
 30
0.0
 11
30.8020855244
 21
20.2516178507
 31
0.0
  0
LINE
  5
A2
330
1F
100
AcDbEntity
  8
0
  6
Continuous
 62
     7
370
    25
100
AcDbLine
 10
32.8291994458
 20
21.3880885508
 30
0.0
 11
31.6261462646
 21
22.0825963692
 31
0.0
  0
LINE
  5
A3
330
1F
100
AcDbEntity
  8
0
  6
Continuous
 62
     7
370
    25
100
AcDbLine
 10
30.8020855244
 20
20.2516178507
 30
0.0
 11
31.8471220981
 21
19.648331078
 31
0.0
  0
LINE
  5
A4
330
1F
100
AcDbEntity
  8
0
  6
Continuous
 62
     7
370
    25
100
AcDbLine
 10
32.8546890463
 20
19.9554362572
 30
0.0
 11
32.1383873947
 21
19.6483204433
 31
0.0
  0
LINE
  5
A5
330
1F
100
AcDbEntity
  8
0
  6
Continuous
 62
     7
370
    25
100
AcDbLine
 10
32.8546890463
 20
19.9554362572
 30
0.0
 11
32.8546890463
 21
20.9172542539
 31
0.0
  0
ARC
  5
A6
330
1F
100
AcDbEntity
  8
0
  6
Continuous
 62
     7
370
    25
100
AcDbCircle
 10
32.9746289001
 20
20.6517052612
 30
0.0
 40
0.2913791963805963
100
AcDbArc
 50
62.8051914431
 51
114.3071482052
  0
ARC
  5
A7
330
1F
100
AcDbEntity
  8
0
  6
Continuous
 62
     7
370
    25
100
AcDbCircle
 10
32.5978267384
 20
21.5105736091
 30
0.0
 40
0.2617936576763858
100
AcDbArc
 50
332.1039620548
 51
358.3462406651
  0
ARC
  5
A8
330
1F
100
AcDbEntity
  8
0
  6
Continuous
 62
     7
370
    25
100
AcDbCircle
 10
31.3947735573
 20
22.2050814275
 30
0.0
 40
0.2617936576762634
100
AcDbArc
 50
332.1039620547
 51
358.3462406651
  0
LWPOLYLINE
  5
A9
330
1F
100
AcDbEntity
  8
0
  6
Continuous
 62
     7
370
    25
100
AcDbPolyline
 90
       29
 70
   128
 43
0.0
 10
33.4669512389
 20
20.3359701011
 10
33.4666880592
 20
20.3358718284
 10
33.460117778
 20
20.3325399928
 10
33.4543725996
 20
20.3278370984
 10
33.4495431288
 20
20.3218373128
 10
33.4457055293
 20
20.3146352561
 10
33.4429203223
 20
20.3063445091
 10
33.4412314321
 20
20.2970958218
 10
33.4406654937
 20
20.2870350515
 10
33.4412314321
 20
20.2763208627
 10
33.4429203223
 20
20.2651222243
 10
33.4457055293
 20
20.2536157457
 10
33.4495431288
 20
20.241982891
 10
33.4543725996
 20
20.2304071171
 10
33.460117778
 20
20.2190709809
 10
33.4666880592
 20
20.2081532601
 10
33.4739798258
 20
20.1978261337
 10
33.4818780824
 20
20.1882524666
 10
33.4902582687
 20
20.1795832412
 10
33.4989882243
 20
20.1719551765
 10
33.5079302724
 20
20.1654885715
 10
33.5169433916
 20
20.1602854085
 10
33.5258854397
 20
20.1564277445
 10
33.5346153952
 20
20.1539764172
 10
33.5429955815
 20
20.1529700853
 10
33.5508938381
 20
20.1534246195
 10
33.5581856048
 20
20.1553328513
 10
33.5647558859
 20
20.158664687
 10
33.5679468757
 20
20.1610215709
  0
SPLINE
  5
AA
330
1F
100
AcDbEntity
  8
0
  6
Continuous
 62
     7
370
    25
100
AcDbSpline
210
0.0
220
0.0
230
1.0
 70
     8
 71
     3
 72
    14
 73
    10
 74
     0
 42
0.00000001
 43
0.00000001
 40
0.0
 40
0.0
 40
0.0
 40
0.0
 40
0.1214924034792118
 40
0.2431920092697044
 40
0.4226530611739729
 40
0.602398910922024
 40
0.799490533737177
 40
0.9966625772531604
 40
1.0
 40
1.0
 40
1.0
 40
1.0
 10
32.97248463846952
 20
19.97585731142712
 30
0.0
 10
32.97906993758077
 20
19.97533328842073
 30
0.0
 10
32.99225176686923
 20
19.97428434869959
 30
0.0
 10
33.01435856636867
 20
19.96770327245911
 30
0.0
 10
33.03810908744678
 20
19.95662616287251
 30
0.0
 10
33.06325694078162
 20
19.93979025001854
 30
0.0
 10
33.08666090421431
 20
19.91938806837658
 30
0.0
 10
33.10097957321494
 20
19.90361552444744
 30
0.0
 10
33.10768267338247
 20
19.89537739037706
 30
0.0
 10
33.10779424456856
 20
19.89524026899047
 30
0.0
  0
ELLIPSE
  5
AB
330
1F
100
AcDbEntity
  8
0
  6
Continuous
 62
     7
370
    25
100
AcDbEllipse
 10
32.9752117231
 20
19.8732178109
 30
0.0
 11
0.1874479079146738
 21
-0.008089621709412855
 31
0.0
210
0.0
220
0.0
230
1.0
 40
0.5463150007
 41
1.608914043060475
 42
2.292500779676299
  0
ARC
  5
AC
330
1F
100
AcDbEntity
  8
0
  6
Continuous
 62
     7
370
    25
100
AcDbCircle
 10
33.5017235823
 20
20.2959144248
 30
0.0
 40
0.0535070029826337
100
AcDbArc
 50
132.3108422839
 51
184.7328938149
  0
LWPOLYLINE
  5
AD
330
1F
100
AcDbEntity
  8
0
  6
Continuous
 62
     7
370
    25
100
AcDbPolyline
 90
       20
 70
   128
 43
0.0
 10
33.5669019874
 20
20.1601861015
 10
33.5659191396
 20
20.159797326
 10
33.558627373
 20
20.1578890941
 10
33.5507291164
 20
20.15743456
 10
33.5423489301
 20
20.1584408918
 10
33.5336189745
 20
20.1608922192
 10
33.5246769264
 20
20.1647498832
 10
33.5156638072
 20
20.1699530462
 10
33.5067217591
 20
20.1764196511
 10
33.4979918036
 20
20.1840477158
 10
33.4896116172
 20
20.1927169412
 10
33.4817133606
 20
20.2022906083
 10
33.474421594
 20
20.2126177347
 10
33.4678513128
 20
20.2235354555
 10
33.4621061344
 20
20.2348715917
 10
33.4572766636
 20
20.2464473656
 10
33.4534390641
 20
20.2580802204
 10
33.4506538571
 20
20.269586699
 10
33.448964967
 20
20.2807853373
 10
33.4483990285
 20
20.2914995262
  0
ELLIPSE
  5
AE
330
1F
100
AcDbEntity
  8
0
  6
Continuous
 62
     7
370
    25
100
AcDbEllipse
 10
30.9613739671
 20
20.3399140688
 30
0.0
 11
0.2068475118555285
 21
0.02693468436085311
 31
0.0
210
0.0
220
0.0
230
1.0
 40
0.5500908635
 41
2.814679850955442
 42
3.764998797839824
  0
ELLIPSE
  5
AF
330
1F
100
AcDbEntity
  8
0
  6
Continuous
 62
     7
370
    25
100
AcDbEllipse
 10
34.2826093893
 20
17.986345881
 30
0.0
 11
-0.01501706471556474
 21
0.02601312737003525
 31
0.0
210
0.0
220
0.0
230
1.0
 40
0.5766787367
 41
3.106725692913753
 42
3.926462895913512
  0
ELLIPSE
  5
B0
330
1F
100
AcDbEntity
  8
0
  6
Continuous
 62
     7
370
    25
100
AcDbEllipse
 10
30.7707612892
 20
24.069045201
 30
0.0
 11
-0.01501706471556119
 21
0.0260131273700317
 31
0.0
210
0.0
220
0.0
230
1.0
 40
0.5766787367
 41
5.498477197879469
 42
6.3180522678554
  0
LWPOLYLINE
  5
B1
330
1F
100
AcDbEntity
  8
0
  6
Continuous
 62
     7
370
    25
100
AcDbPolyline
 90
       29
 70
   128
 43
0.0
 10
31.1264277932
 20
21.6871255262
 10
31.1261646134
 20
21.6870272535
 10
31.1195943323
 20
21.6836954178
 10
31.1138491539
 20
21.6789925235
 10
31.1090196831
 20
21.6729927379
 10
31.1051820835
 20
21.6657906812
 10
31.1023968765
 20
21.6574999342
 10
31.1007079864
 20
21.6482512469
 10
31.100142048
 20
21.6381904766
 10
31.1007079864
 20
21.6274762877
 10
31.1023968765
 20
21.6162776494
 10
31.1051820835
 20
21.6047711708
 10
31.1090196831
 20
21.593138316
 10
31.1138491539
 20
21.5815625421
 10
31.1195943323
 20
21.570226406
 10
31.1261646134
 20
21.5593086852
 10
31.1334563801
 20
21.5489815587
 10
31.1413546367
 20
21.5394078916
 10
31.149734823
 20
21.5307386663
 10
31.1584647785
 20
21.5231106016
 10
31.1674068266
 20
21.5166439966
 10
31.1764199459
 20
21.5114408336
 10
31.185361994
 20
21.5075831696
 10
31.1940919495
 20
21.5051318422
 10
31.2024721358
 20
21.5041255104
 10
31.2103703924
 20
21.5045800445
 10
31.217662159
 20
21.5064882764
 10
31.2242324402
 20
21.509820112
 10
31.22742343
 20
21.5121769959
  0
ARC
  5
B2
330
1F
100
AcDbEntity
  8
0
  6
Continuous
 62
     7
370
    25
100
AcDbCircle
 10
31.1612001366
 20
21.6470698499
 30
0.0
 40
0.0535070029825332
100
AcDbArc
 50
132.3108422837
 51
184.7328938149
  0
LWPOLYLINE
  5
B3
330
1F
100
AcDbEntity
  8
0
  6
Continuous
 62
     7
370
    25
100
AcDbPolyline
 90
       20
 70
   128
 43
0.0
 10
31.2263785417
 20
21.5113415266
 10
31.2253956939
 20
21.510952751
 10
31.2181039272
 20
21.5090445192
 10
31.2102056707
 20
21.508589985
 10
31.2018254843
 20
21.5095963169
 10
31.1930955288
 20
21.5120476442
 10
31.1841534807
 20
21.5159053082
 10
31.1751403615
 20
21.5211084712
 10
31.1661983134
 20
21.5275750762
 10
31.1574683578
 20
21.5352031409
 10
31.1490881715
 20
21.5438723663
 10
31.1411899149
 20
21.5534460334
 10
31.1338981483
 20
21.5637731598
 10
31.1273278671
 20
21.5746908806
 10
31.1215826887
 20
21.5860270168
 10
31.1167532179
 20
21.5976027907
 10
31.1129156184
 20
21.6092356454
 10
31.1101304114
 20
21.620742124
 10
31.1084415212
 20
21.6319407624
 10
31.1078755828
 20
21.6426549512
  0
ARC
  5
B4
330
1F
100
AcDbEntity
  8
0
  6
Continuous
 62
     7
370
    25
100
AcDbCircle
 10
34.5354977941
 20
22.9306528216
 30
0.0
 40
0.4666808781081868
100
AcDbArc
 50
69.1476497484
 51
117.5946577482
  0
LWPOLYLINE
  5
B5
330
1F
100
AcDbEntity
  8
0
  6
Continuous
 62
     7
370
    25
100
AcDbPolyline
 90
       69
 70
   128
 43
0.0
 10
35.4292347494
 20
21.4216187694
 10
35.4438648555
 20
21.4305220036
 10
35.4640109243
 20
21.4443844689
 10
35.4833019394
 20
21.4596077399
 10
35.5017099307
 20
21.4761697442
 10
35.5192082083
 20
21.4940464686
 10
35.5357714015
 20
21.5132119934
 10
35.5513754952
 20
21.5336385306
 10
35.565997865
 20
21.5552964636
 10
35.5796173097
 20
21.5781543905
 10
35.5922140826
 20
21.6021791694
 10
35.6037699195
 20
21.6273359667
 10
35.6142680655
 20
21.6535883075
 10
35.6236932993
 20
21.6808981284
 10
35.6320319553
 20
21.7092258327
 10
35.6392719432
 20
21.7385303481
 10
35.6454027657
 20
21.7687691857
 10
35.6504155337
 20
21.7998985021
 10
35.6543029792
 20
21.8318731628
 10
35.6570594657
 20
21.8646468076
 10
35.6586809965
 20
21.8981719178
 10
35.6591652208
 20
21.9323998853
 10
35.6585114362
 20
21.9672810827
 10
35.6567205909
 20
22.0027649357
 10
35.6537952812
 20
22.0387999961
 10
35.6497397488
 20
22.0753340164
 10
35.6445598736
 20
22.1123140258
 10
35.638263166
 20
22.1496864069
 10
35.6308587557
 20
22.1873969733
 10
35.6223573783
 20
22.2253910482
 10
35.6127713599
 20
22.2636135439
 10
35.6021145995
 20
22.3020090414
 10
35.5904025483
 20
22.3405218709
 10
35.5776521877
 20
22.3790961925
 10
35.5638820044
 20
22.4176760771
 10
35.5491119639
 20
22.4562055876
 10
35.5333634814
 20
22.4946288599
 10
35.5166593906
 20
22.5328901838
 10
35.4990239109
 20
22.5709340842
 10
35.480482612
 20
22.608705401
 10
35.4610623771
 20
22.6461493694
 10
35.4407913636
 20
22.6832116992
 10
35.4196989626
 20
22.7198386537
 10
35.3978157561
 20
22.7559771271
 10
35.3751734725
 20
22.7915747223
 10
35.351804941
 20
22.826579826
 10
35.3277440439
 20
22.8609416843
 10
35.303025667
 20
22.8946104756
 10
35.2776856497
 20
22.9275373836
 10
35.2517607325
 20
22.9596746673
 10
35.2252885041
 20
22.9909757307
 10
35.1983073468
 20
23.0213951903
 10
35.1708563805
 20
23.0508889407
 10
35.1429754067
 20
23.0794142189
 10
35.11470485
 20
23.106929666
 10
35.0860857
 20
23.133395387
 10
35.0571594518
 20
23.1587730094
 10
35.0279680456
 20
23.183025738
 10
34.9985538063
 20
23.2061184086
 10
34.9689593816
 20
23.228017539
 10
34.9392276807
 20
23.2486913777
 10
34.9094018116
 20
23.2681099495
 10
34.879525019
 20
23.2862450993
 10
34.8496406215
 20
23.303070533
 10
34.8197919484
 20
23.3185618552
 10
34.7900222776
 20
23.3326966051
 10
34.7603747723
 20
23.3454542885
 10
34.7308924184
 20
23.3568164081
 10
34.7016179626
 20
23.3667664898
  0
LWPOLYLINE
  5
B6
330
1F
100
AcDbEntity
  8
0
  6
Continuous
 62
     7
370
    25
100
AcDbPolyline
 90
       43
 70
   128
 43
0.0
 10
34.8956171749
 20
23.2769715413
 10
34.9027373001
 20
23.2728215141
 10
34.9321608116
 20
23.2548582379
 10
34.9615298458
 20
23.2356177376
 10
34.9908007693
 20
23.2151285986
 10
35.0199300942
 20
23.1934212618
 10
35.0488745431
 20
23.1705279776
 10
35.0775911134
 20
23.1464827587
 10
35.1060371408
 20
23.1213213289
 10
35.1341703632
 20
23.0950810705
 10
35.1619489829
 20
23.0678009687
 10
35.1893317295
 20
23.0395215536
 10
35.2162779203
 20
23.0102848396
 10
35.2427475214
 20
22.980134264
 10
35.268701207
 20
22.9491146212
 10
35.2941004178
 20
22.9172719972
 10
35.3189074181
 20
22.8846537004
 10
35.3430853522
 20
22.8513081919
 10
35.366598299
 20
22.8172850131
 10
35.3894113254
 20
22.782634712
 10
35.411490538
 20
22.7474087687
 10
35.4328031338
 20
22.7116595183
 10
35.4533174487
 20
22.6754400733
 10
35.4730030046
 20
22.638804245
 10
35.4918305547
 20
22.6018064632
 10
35.509772127
 20
22.5645016955
 10
35.5268010656
 20
22.5269453654
 10
35.5428920707
 20
22.4891932704
 10
35.558021236
 20
22.4513014986
 10
35.5721660839
 20
22.413326346
 10
35.5853055996
 20
22.375324232
 10
35.5974202617
 20
22.3373516165
 10
35.6084920714
 20
22.2994649152
 10
35.6185045794
 20
22.2617204164
 10
35.6274429101
 20
22.224174197
 10
35.6352937839
 20
22.1868820394
 10
35.6420455366
 20
22.1498993486
 10
35.6476881372
 20
22.1132810696
 10
35.6522132026
 20
22.0770816062
 10
35.6556140099
 20
22.0413547399
 10
35.6578855063
 20
22.00615355
 10
35.6590243173
 20
21.971530335
 10
35.6591683799
 20
21.9543187479
  0
ARC
  5
B7
330
1F
100
AcDbEntity
  8
0
  6
Continuous
 62
     7
370
    25
100
AcDbCircle
 10
36.4441887142
 20
23.3185226196
 30
0.0
 40
0.048931201038426
100
AcDbArc
 50
68.1367659525
 51
170.1970144695
  0
LWPOLYLINE
  5
B8
330
1F
100
AcDbEntity
  8
0
  6
Continuous
 62
     7
370
    25
100
AcDbPolyline
 90
       31
 70
   128
 43
0.0
 10
36.4873821915
 20
23.148083389
 10
36.4963440419
 20
23.1440908435
 10
36.5061887981
 20
23.140971229
 10
36.5157163158
 20
23.1393139372
 10
36.5248023894
 20
23.1391405737
 10
36.533328568
 20
23.1404533983
 10
36.5411836998
 20
23.1432352965
 10
36.5482653812
 20
23.1474500019
 10
36.5544812915
 20
23.1530425695
 10
36.559750397
 20
23.1599400914
 10
36.5640040067
 20
23.1680526481
 10
36.5671866684
 20
23.1772744798
 10
36.5692568912
 20
23.187485366
 10
36.5701876866
 20
23.1985521921
 10
36.5699669202
 20
23.2103306851
 10
36.56859747
 20
23.2226672944
 10
36.566097189
 20
23.2354011933
 10
36.5624986721
 20
23.248366376
 10
36.5578488316
 20
23.2613938216
 10
36.552208285
 20
23.2743136973
 10
36.5456505658
 20
23.2869575729
 10
36.5382611636
 20
23.299160616
 10
36.5301364107
 20
23.3107637414
 10
36.5213822257
 20
23.3216156846
 10
36.5121127328
 20
23.3315749738
 10
36.5024487739
 20
23.3405117745
 10
36.4925163336
 20
23.3483095819
 10
36.4824448963
 20
23.3548667396
 10
36.4723657588
 20
23.360097765
 10
36.4624103179
 20
23.3639344637
 10
36.4624103179
 20
23.3639344637
  0
ARC
  5
B9
330
1F
100
AcDbEntity
  8
0
  6
Continuous
 62
     7
370
    25
100
AcDbCircle
 10
36.4410626585
 20
23.3242071293
 30
0.0
 40
0.052466990756043
100
AcDbArc
 50
67.837764026
 51
167.2546387128
  0
LWPOLYLINE
  5
BA
330
1F
100
AcDbEntity
  8
0
  6
Continuous
 62
     7
370
    25
100
AcDbPolyline
 90
       33
 70
   128
 43
0.0
 10
36.4801520913
 20
23.1439095411
 10
36.4872400227
 20
23.1399758263
 10
36.4976919278
 20
23.1352942203
 10
36.5079515847
 20
23.1320431317
 10
36.517894455
 20
23.1302620242
 10
36.5273998457
 20
23.129972518
 10
36.5363523743
 20
23.1311781274
 10
36.5446433691
 20
23.133864218
 10
36.5521721888
 20
23.1379981841
 10
36.5588474437
 20
23.1435298451
 10
36.5645881051
 20
23.1503920541
 10
36.5693244894
 20
23.1585015132
 10
36.5729991031
 20
23.1677597845
 10
36.5755673414
 20
23.1780544851
 10
36.5769980295
 20
23.1892606514
 10
36.5772738007
 20
23.2012422556
 10
36.5763913074
 20
23.2138538573
 10
36.574361262
 20
23.2269423688
 10
36.5712083066
 20
23.2403489132
 10
36.5669707136
 20
23.2539107533
 10
36.5616999217
 20
23.2674632666
 10
36.5554599112
 20
23.2808419441
 10
36.5483264274
 20
23.2938843867
 10
36.5403860611
 20
23.3064322769
 10
36.5317351976
 20
23.3183333002
 10
36.5224788466
 20
23.3294429943
 10
36.5127293678
 20
23.3396265026
 10
36.5026051065
 20
23.3487602112
 10
36.4922289577
 20
23.356733249
 10
36.4817268736
 20
23.3634488344
 10
36.4712263354
 20
23.3688254492
 10
36.4608548054
 20
23.3727978285
 10
36.4608548054
 20
23.3727978285
  0
ARC
  5
BB
330
1F
100
AcDbEntity
  8
0
  6
Continuous
 62
     7
370
    25
100
AcDbCircle
 10
36.7941882158
 20
23.524133611
 30
0.0
 40
0.0565077362534748
100
AcDbArc
 50
69.0332102714
 51
117.7090972252
  0
LWPOLYLINE
  5
BC
330
1F
100
AcDbEntity
  8
0
  6
Continuous
 62
     7
370
    25
100
AcDbPolyline
 90
       25
 70
   128
 43
0.0
 10
36.9029021295
 20
23.3403278364
 10
36.9057255794
 20
23.3421002121
 10
36.9124008343
 20
23.3476318731
 10
36.9181414957
 20
23.3544940821
 10
36.92287788
 20
23.3626035412
 10
36.9265524937
 20
23.3718618124
 10
36.929120732
 20
23.3821565131
 10
36.9305514201
 20
23.3933626793
 10
36.9308271913
 20
23.4053442836
 10
36.929944698
 20
23.4179558853
 10
36.9279146526
 20
23.4310443967
 10
36.9247616972
 20
23.4444509412
 10
36.9205241041
 20
23.4580127812
 10
36.9152533123
 20
23.4715652946
 10
36.9090133018
 20
23.4849439721
 10
36.901879818
 20
23.4979864147
 10
36.8939394517
 20
23.5105343048
 10
36.8852885882
 20
23.5224353281
 10
36.8760322372
 20
23.5335450222
 10
36.8662827584
 20
23.5437285306
 10
36.8561584971
 20
23.5528622391
 10
36.8457823482
 20
23.560835277
 10
36.8352802642
 20
23.5675508624
 10
36.824779726
 20
23.5729274771
 10
36.814408196
 20
23.5768998564
  0
LWPOLYLINE
  5
BD
330
1F
100
AcDbEntity
  8
0
  6
Continuous
 62
     7
370
    25
100
AcDbPolyline
 90
       26
 70
   128
 43
0.0
 10
37.0590555009
 20
23.4781033659
 10
37.0593142252
 20
23.478254382
 10
37.0651026117
 20
23.4826398566
 10
37.0699483509
 20
23.4883908169
 10
37.0737651244
 20
23.4954048196
 10
37.076484943
 20
23.5035569224
 10
37.0780593579
 20
23.51270191
 10
37.0784603236
 20
23.5226768801
 10
37.0776806977
 20
23.5333041463
 10
37.0757343678
 20
23.5443944021
 10
37.0726560043
 20
23.5557500941
 10
37.0685004431
 20
23.5671689403
 10
37.0633417081
 20
23.578447534
 10
37.0572716932
 20
23.5893849666
 10
37.0503985252
 20
23.5997864069
 10
37.0428446375
 20
23.6094665713
 10
37.0347445896
 20
23.6182530246
 10
37.0262426696
 20
23.6259892513
 10
37.0174903244
 20
23.6325374442
 10
37.0086434618
 20
23.6377809585
 10
36.9998596733
 20
23.6416263903
 10
36.9912954267
 20
23.6440052398
 10
36.9831032792
 20
23.6448751319
 10
36.9754291595
 20
23.6442205711
 10
36.9684097688
 20
23.6420532173
 10
36.9653131198
 20
23.6404875276
  0
LWPOLYLINE
  5
BE
330
1F
100
AcDbEntity
  8
0
  6
Continuous
 62
     7
370
    25
100
AcDbPolyline
 90
       14
 70
   128
 43
0.0
 10
36.9328215449
 20
23.6217305407
 10
36.9309518544
 20
23.6251844548
 10
36.9244489708
 20
23.6358664349
 10
36.9172050661
 20
23.6459144896
 10
36.9093491781
 20
23.6551496302
 10
36.9010212455
 20
23.6634073488
 10
36.892369616
 20
23.6705405486
 10
36.8835484033
 20
23.6764221641
 10
36.8747147419
 20
23.6809474245
 10
36.8660259882
 20
23.6840357202
 10
36.857636917
 20
23.6856320385
 10
36.8496969652
 20
23.685707944
 10
36.842347569
 20
23.6842620843
 10
36.8359783695
 20
23.6814712312
  0
LINE
  5
BF
330
1F
100
AcDbEntity
  8
0
  6
Continuous
 62
     7
370
    25
100
AcDbLine
 10
31.4081752802
 20
21.7895159531
 30
0.0
 11
31.4081752802
 21
21.8920438995
 31
0.0
  0
LINE
  5
C0
330
1F
100
AcDbEntity
  8
0
  6
Continuous
 62
     7
370
    25
100
AcDbLine
 10
33.1077942446
 20
19.895240269
 30
0.0
 11
32.9680242968
 21
19.9759277424
 31
0.0
  0
ELLIPSE
  5
C1
330
1F
100
AcDbEntity
  8
0
  6
Continuous
 62
     7
370
    25
100
AcDbEllipse
 10
31.5417706891
 20
21.6294961084
 30
0.0
 11
0.06486966595169719
 21
0.4608031458886365
 31
0.0
210
0.0
220
0.0
230
1.0
 40
0.3024614216
 41
6.137811832249436
 42
7.08813077913376
  0
ARC
  5
C2
330
1F
100
AcDbEntity
  8
0
  6
Continuous
 62
     7
370
    25
100
AcDbCircle
 10
31.3422462182
 20
21.7736309862
 30
0.0
 40
0.1355295511853669
100
AcDbArc
 50
42.4722864103
 51
60.8921393769
  0
ARC
  5
C3
330
1F
100
AcDbEntity
  8
0
  6
Continuous
 62
     7
370
    25
100
AcDbCircle
 10
34.0321677919
 20
17.8442888633
 30
0.0
 40
0.0148465530793063
100
AcDbArc
 50
301.3066714145
 51
5.7549154106
  0
ARC
  5
C4
330
1F
100
AcDbEntity
  8
0
  6
Continuous
 62
     7
370
    25
100
AcDbCircle
 10
34.0195983922
 20
17.8444083887
 30
0.0
 40
0.0144432679200611
100
AcDbArc
 50
172.8843952801
 51
235.8034243265
  0
ARC
  5
C5
330
1F
100
AcDbEntity
  8
0
  6
Continuous
 62
     7
370
    25
100
AcDbCircle
 10
30.5163172427
 20
23.9122620922
 30
0.0
 40
0.014439650872849
100
AcDbArc
 50
184.1997546959
 51
247.1203862617
  0
ARC
  5
C6
330
1F
100
AcDbEntity
  8
0
  6
Continuous
 62
     7
370
    25
100
AcDbCircle
 10
30.5224718694
 20
23.9227067946
 30
0.0
 40
0.0152744482541244
100
AcDbArc
 50
55.260135717
 51
117.680404833
  0
ARC
  5
C7
330
1F
100
AcDbEntity
  8
0
  6
Continuous
 62
     7
370
    25
100
AcDbCircle
 10
30.5250351912
 20
19.8617767838
 30
0.0
 40
0.0144432679201029
100
AcDbArc
 50
172.8843952802
 51
235.8034243264
  0
ARC
  5
C8
330
1F
100
AcDbEntity
  8
0
  6
Continuous
 62
     7
370
    25
100
AcDbCircle
 10
30.5163172427
 20
19.8768694905
 30
0.0
 40
0.0144396508729488
100
AcDbArc
 50
184.1997546961
 51
247.1203862614
  0
LINE
  5
C9
330
1F
100
AcDbEntity
  8
0
  6
Continuous
 62
     7
370
    25
100
AcDbLine
 10
19.5218063207
 20
8.4683369285
 30
0.0
 11
19.5068063207
 21
8.4683369285
 31
0.0
  0
LINE
  5
CA
330
1F
100
AcDbEntity
  8
0
  6
Continuous
 62
     7
370
    25
100
AcDbLine
 10
19.5068063207
 20
5.1233369285
 30
0.0
 11
19.5218063207
 21
5.1233369285
 31
0.0
  0
LINE
  5
CB
330
1F
100
AcDbEntity
  8
0
  6
Continuous
 62
     7
370
    25
100
AcDbLine
 10
19.5218063207
 20
7.9722231623
 30
0.0
 11
19.5118063207
 21
7.9720486116
 31
0.0
  0
LINE
  5
CC
330
1F
100
AcDbEntity
  8
0
  6
Continuous
 62
     7
370
    25
100
AcDbLine
 10
19.5118063207
 20
5.6196252454
 30
0.0
 11
19.5218063207
 21
5.6194506947
 31
0.0
  0
LINE
  5
CD
330
1F
100
AcDbEntity
  8
0
  6
Continuous
 62
     7
370
    25
100
AcDbLine
 10
18.4464745134
 20
7.9045687359
 30
0.0
 11
18.4452063207
 21
7.9058369285
 31
0.0
  0
LINE
  5
CE
330
1F
100
AcDbEntity
  8
0
  6
Continuous
 62
     7
370
    25
100
AcDbLine
 10
18.3184063207
 20
7.9058369285
 30
0.0
 11
18.3171399339
 21
7.9045705417
 31
0.0
  0
LINE
  5
CF
330
1F
100
AcDbEntity
  8
0
  6
Continuous
 62
     7
370
    25
100
AcDbLine
 10
18.1318063207
 20
5.6858369285
 30
0.0
 11
19.2058349612
 21
5.6858369285
 31
0.0
  0
LINE
  5
D0
330
1F
100
AcDbEntity
  8
0
  6
Continuous
 62
     7
370
    25
100
AcDbLine
 10
18.2970818101
 20
7.9058369285
 30
0.0
 11
18.1318063207
 21
7.9058369285
 31
0.0
  0
LINE
  5
D1
330
1F
100
AcDbEntity
  8
0
  6
Continuous
 62
     7
370
    25
100
AcDbLine
 10
19.2058349612
 20
7.9058369285
 30
0.0
 11
18.4666846748
 21
7.9058369285
 31
0.0
  0
ARC
  5
D2
330
1F
100
AcDbEntity
  8
0
  6
Continuous
 62
     7
370
    25
100
AcDbCircle
 10
19.2505563207
 20
5.6458369285
 30
0.0
 40
0.0599999999999987
100
AcDbArc
 50
41.8103148958
 51
138.1896851042
  0
ARC
  5
D3
330
1F
100
AcDbEntity
  8
0
  6
Continuous
 62
     7
370
    25
100
AcDbCircle
 10
19.2505563207
 20
7.9458369285
 30
0.0
 40
0.060000000000002
100
AcDbArc
 50
221.8103148958
 51
318.1896851042
  0
LINE
  5
D4
330
1F
100
AcDbEntity
  8
0
  6
Continuous
 62
     7
370
    25
100
AcDbLine
 10
19.2952776803
 20
5.6858369285
 30
0.0
 11
19.5118063207
 21
5.6858369285
 31
0.0
  0
LINE
  5
D5
330
1F
100
AcDbEntity
  8
0
  6
Continuous
 62
     7
370
    25
100
AcDbLine
 10
19.5118063207
 20
7.9058369285
 30
0.0
 11
19.2952776803
 21
7.9058369285
 31
0.0
  0
LINE
  5
D6
330
1F
100
AcDbEntity
  8
0
  6
Continuous
 62
     7
370
    25
100
AcDbLine
 10
16.2018063207
 20
7.9058369285
 30
0.0
 11
16.1718063207
 21
7.8758369285
 31
0.0
  0
LINE
  5
D7
330
1F
100
AcDbEntity
  8
0
  6
Continuous
 62
     7
370
    25
100
AcDbLine
 10
16.1718063207
 20
5.7158369285
 30
0.0
 11
16.2018063207
 21
5.6858369285
 31
0.0
  0
LINE
  5
D8
330
1F
100
AcDbEntity
  8
0
  6
Continuous
 62
     7
370
    25
100
AcDbLine
 10
16.2018063207
 20
5.6858369285
 30
0.0
 11
18.1218063207
 21
5.6858369285
 31
0.0
  0
LINE
  5
D9
330
1F
100
AcDbEntity
  8
0
  6
Continuous
 62
     7
370
    25
100
AcDbLine
 10
18.1218063207
 20
7.9058369285
 30
0.0
 11
16.2018063207
 21
7.9058369285
 31
0.0
  0
ARC
  5
DA
330
1F
100
AcDbEntity
  8
0
  6
Continuous
 62
     7
370
    25
100
AcDbCircle
 10
18.1218063207
 20
7.8958369285
 30
0.0
 40
0.0099999999999989
100
AcDbArc
 50
360.0
 51
90.0
  0
ARC
  5
DB
330
1F
100
AcDbEntity
  8
0
  6
Continuous
 62
     7
370
    25
100
AcDbCircle
 10
18.1218063207
 20
5.6958369285
 30
0.0
 40
0.0099999999999998
100
AcDbArc
 50
270.0
 51
0.0
  0
LINE
  5
DC
330
1F
100
AcDbEntity
  8
0
  6
Continuous
 62
     7
370
    25
100
AcDbLine
 10
13.5198063207
 20
6.6814603058
 30
0.0
 11
14.0198063207
 21
6.6814603058
 31
0.0
  0
LINE
  5
DD
330
1F
100
AcDbEntity
  8
0
  6
Continuous
 62
     7
370
    25
100
AcDbLine
 10
14.0198063207
 20
6.9514603058
 30
0.0
 11
13.5198063207
 21
6.9514603058
 31
0.0
  0
LINE
  5
DE
330
1F
100
AcDbEntity
  8
0
  6
Continuous
 62
     7
370
    25
100
AcDbLine
 10
13.2698063207
 20
6.6814635512
 30
0.0
 11
15.7843063207
 21
6.6814635512
 31
0.0
  0
LINE
  5
DF
330
1F
100
AcDbEntity
  8
0
  6
Continuous
 62
     7
370
    25
100
AcDbLine
 10
15.7843063207
 20
6.8689635512
 30
0.0
 11
13.2698063207
 21
6.8689635512
 31
0.0
  0
LINE
  5
E0
330
1F
100
AcDbEntity
  8
0
  6
Continuous
 62
     7
370
    25
100
AcDbLine
 10
15.7843063207
 20
6.9102103058
 30
0.0
 11
14.0198063207
 21
6.9102103058
 31
0.0
  0
LINE
  5
E1
330
1F
100
AcDbEntity
  8
0
  6
Continuous
 62
     7
370
    25
100
AcDbLine
 10
13.5198063207
 20
6.9102103058
 30
0.0
 11
13.2698063207
 21
6.9102103058
 31
0.0
  0
LINE
  5
E2
330
1F
100
AcDbEntity
  8
0
  6
Continuous
 62
     7
370
    25
100
AcDbLine
 10
16.0468063207
 20
6.3008369285
 30
0.0
 11
16.1718063207
 21
6.3008369285
 31
0.0
  0
LINE
  5
E3
330
1F
100
AcDbEntity
  8
0
  6
Continuous
 62
     7
370
    25
100
AcDbLine
 10
16.1718063207
 20
7.2908369285
 30
0.0
 11
16.0468063207
 21
7.2908369285
 31
0.0
  0
LINE
  5
E4
330
1F
100
AcDbEntity
  8
0
  6
Continuous
 62
     7
370
    25
100
AcDbLine
 10
16.0468063207
 20
7.1395869285
 30
0.0
 11
16.0338063207
 21
7.1395869285
 31
0.0
  0
LINE
  5
E5
330
1F
100
AcDbEntity
  8
0
  6
Continuous
 62
     7
370
    25
100
AcDbLine
 10
16.0338063207
 20
6.4520869285
 30
0.0
 11
16.0468063207
 21
6.4520869285
 31
0.0
  0
LINE
  5
E6
330
1F
100
AcDbEntity
  8
0
  6
Continuous
 62
     7
370
    25
100
AcDbLine
 10
15.8043063207
 20
7.1362779446
 30
0.0
 11
15.7843063207
 21
7.1016369285
 31
0.0
  0
LINE
  5
E7
330
1F
100
AcDbEntity
  8
0
  6
Continuous
 62
     7
370
    25
100
AcDbLine
 10
15.8243063207
 20
7.1016369285
 30
0.0
 11
15.8043063207
 21
7.1362779446
 31
0.0
  0
LINE
  5
E8
330
1F
100
AcDbEntity
  8
0
  6
Continuous
 62
     7
370
    25
100
AcDbLine
 10
15.8443063207
 20
7.1362779446
 30
0.0
 11
15.8243063207
 21
7.1016369285
 31
0.0
  0
LINE
  5
E9
330
1F
100
AcDbEntity
  8
0
  6
Continuous
 62
     7
370
    25
100
AcDbLine
 10
15.9043063207
 20
7.1016369285
 30
0.0
 11
15.8843063207
 21
7.1362779446
 31
0.0
  0
LINE
  5
EA
330
1F
100
AcDbEntity
  8
0
  6
Continuous
 62
     7
370
    25
100
AcDbLine
 10
15.9243063207
 20
7.1362779446
 30
0.0
 11
15.9043063207
 21
7.1016369285
 31
0.0
  0
LINE
  5
EB
330
1F
100
AcDbEntity
  8
0
  6
Continuous
 62
     7
370
    25
100
AcDbLine
 10
15.8643063207
 20
7.1016369285
 30
0.0
 11
15.8443063207
 21
7.1362779446
 31
0.0
  0
LINE
  5
EC
330
1F
100
AcDbEntity
  8
0
  6
Continuous
 62
     7
370
    25
100
AcDbLine
 10
15.8843063207
 20
7.1362779446
 30
0.0
 11
15.8643063207
 21
7.1016369285
 31
0.0
  0
LINE
  5
ED
330
1F
100
AcDbEntity
  8
0
  6
Continuous
 62
     7
370
    25
100
AcDbLine
 10
15.9443063207
 20
7.1016369285
 30
0.0
 11
15.9243063207
 21
7.1362779446
 31
0.0
  0
LINE
  5
EE
330
1F
100
AcDbEntity
  8
0
  6
Continuous
 62
     7
370
    25
100
AcDbLine
 10
15.9638063207
 20
7.1354119192
 30
0.0
 11
15.9443063207
 21
7.1016369285
 31
0.0
  0
LINE
  5
EF
330
1F
100
AcDbEntity
  8
0
  6
Continuous
 62
     7
370
    25
100
AcDbLine
 10
16.0338063207
 20
7.0958369285
 30
0.0
 11
15.9638063207
 21
7.0958369285
 31
0.0
  0
LINE
  5
F0
330
1F
100
AcDbEntity
  8
0
  6
Continuous
 62
     7
370
    25
100
AcDbLine
 10
15.9638063207
 20
6.4958369285
 30
0.0
 11
16.0338063207
 21
6.4958369285
 31
0.0
  0
LINE
  5
F1
330
1F
100
AcDbEntity
  8
0
  6
Continuous
 62
     7
370
    25
100
AcDbLine
 10
15.7843063207
 20
6.4900369285
 30
0.0
 11
15.8043063207
 21
6.4553959123
 31
0.0
  0
LINE
  5
F2
330
1F
100
AcDbEntity
  8
0
  6
Continuous
 62
     7
370
    25
100
AcDbLine
 10
15.8043063207
 20
6.4553959123
 30
0.0
 11
15.8243063207
 21
6.4900369285
 31
0.0
  0
LINE
  5
F3
330
1F
100
AcDbEntity
  8
0
  6
Continuous
 62
     7
370
    25
100
AcDbLine
 10
15.8243063207
 20
6.4900369285
 30
0.0
 11
15.8443063207
 21
6.4553959123
 31
0.0
  0
LINE
  5
F4
330
1F
100
AcDbEntity
  8
0
  6
Continuous
 62
     7
370
    25
100
AcDbLine
 10
15.8843063207
 20
6.4553959123
 30
0.0
 11
15.9043063207
 21
6.4900369285
 31
0.0
  0
LINE
  5
F5
330
1F
100
AcDbEntity
  8
0
  6
Continuous
 62
     7
370
    25
100
AcDbLine
 10
15.8443063207
 20
6.4553959123
 30
0.0
 11
15.8643063207
 21
6.4900369285
 31
0.0
  0
LINE
  5
F6
330
1F
100
AcDbEntity
  8
0
  6
Continuous
 62
     7
370
    25
100
AcDbLine
 10
15.9043063207
 20
6.4900369285
 30
0.0
 11
15.9243063207
 21
6.4553959123
 31
0.0
  0
LINE
  5
F7
330
1F
100
AcDbEntity
  8
0
  6
Continuous
 62
     7
370
    25
100
AcDbLine
 10
15.8643063207
 20
6.4900369285
 30
0.0
 11
15.8843063207
 21
6.4553959123
 31
0.0
  0
LINE
  5
F8
330
1F
100
AcDbEntity
  8
0
  6
Continuous
 62
     7
370
    25
100
AcDbLine
 10
15.9243063207
 20
6.4553959123
 30
0.0
 11
15.9443063207
 21
6.4900369285
 31
0.0
  0
LINE
  5
F9
330
1F
100
AcDbEntity
  8
0
  6
Continuous
 62
     7
370
    25
100
AcDbLine
 10
15.9443063207
 20
6.4900369285
 30
0.0
 11
15.9638063207
 21
6.4562619377
 31
0.0
  0
LINE
  5
FA
330
1F
100
AcDbEntity
  8
0
  6
Continuous
 62
     7
370
    25
100
AcDbLine
 10
19.5218063207
 20
4.3125487609
 30
0.0
 11
19.5218063207
 21
9.2791250961
 31
0.0
  0
LINE
  5
FB
330
1F
100
AcDbEntity
  8
0
  6
Continuous
 62
     7
370
    25
100
AcDbLine
 10
19.8728533056
 20
9.2668662653
 30
0.0
 11
19.5218063207
 21
9.2791250961
 31
0.0
  0
LINE
  5
FC
330
1F
100
AcDbEntity
  8
0
  6
Continuous
 62
     7
370
    25
100
AcDbLine
 10
19.8728533056
 20
4.3248075917
 30
0.0
 11
19.8728533056
 21
9.2668662653
 31
0.0
  0
LINE
  5
FD
330
1F
100
AcDbEntity
  8
0
  6
Continuous
 62
     7
370
    25
100
AcDbLine
 10
19.5218063207
 20
4.3125487609
 30
0.0
 11
19.8728533056
 21
4.3248075917
 31
0.0
  0
LINE
  5
FE
330
1F
100
AcDbEntity
  8
0
  6
Continuous
 62
     7
370
    25
100
AcDbLine
 10
19.5218063207
 20
9.2791250961
 30
0.0
 11
19.5218063207
 21
9.3091068209
 31
0.0
  0
LINE
  5
FF
330
1F
100
AcDbEntity
  8
0
  6
Continuous
 62
     7
370
    25
100
AcDbLine
 10
19.5218063207
 20
9.3091068209
 30
0.0
 11
19.8728533056
 21
9.2968479901
 31
0.0
  0
ARC
  5
100
330
1F
100
AcDbEntity
  8
0
  6
Continuous
 62
     7
370
    25
100
AcDbCircle
 10
19.6577781958
 20
9.2818571277
 30
0.0
 40
0.2155969128249562
100
AcDbArc
 50
356.0128986004
 51
3.9871013996
  0
ARC
  5
101
330
1F
100
AcDbEntity
  8
0
  6
Continuous
 62
     7
370
    25
100
AcDbCircle
 10
19.6577781958
 20
4.3098167293
 30
0.0
 40
0.2155969128243679
100
AcDbArc
 50
356.0128986004
 51
3.9871013996
  0
LINE
  5
102
330
1F
100
AcDbEntity
  8
0
  6
Continuous
 62
     7
370
    25
100
AcDbLine
 10
19.8728533056
 20
4.2948258669
 30
0.0
 11
19.5218063207
 21
4.2825670361
 31
0.0
  0
LINE
  5
103
330
1F
100
AcDbEntity
  8
0
  6
Continuous
 62
     7
370
    25
100
AcDbLine
 10
19.5218063207
 20
4.2825670361
 30
0.0
 11
19.5218063207
 21
4.3125487609
 31
0.0
  0
LINE
  5
104
330
1F
100
AcDbEntity
  8
0
  6
Continuous
 62
     7
370
    25
100
AcDbLine
 10
19.9018063207
 20
9.2668662653
 30
0.0
 11
19.9018063207
 21
4.3248075917
 31
0.0
  0
LINE
  5
105
330
1F
100
AcDbEntity
  8
0
  6
Continuous
 62
     7
370
    25
100
AcDbLine
 10
19.9018063207
 20
4.3248075917
 30
0.0
 11
19.8728533056
 21
4.3248075917
 31
0.0
  0
LINE
  5
106
330
1F
100
AcDbEntity
  8
0
  6
Continuous
 62
     7
370
    25
100
AcDbLine
 10
19.9018063207
 20
9.2668662653
 30
0.0
 11
19.8728533056
 21
9.2668662653
 31
0.0
  0
ARC
  5
107
330
1F
100
AcDbEntity
  8
0
  6
Continuous
 62
     7
370
    25
100
AcDbCircle
 10
19.8718063207
 20
9.2668662653
 30
0.0
 40
0.0300000000000047
100
AcDbArc
 50
0.0
 51
88.0
  0
ARC
  5
108
330
1F
100
AcDbEntity
  8
0
  6
Continuous
 62
     7
370
    25
100
AcDbCircle
 10
19.8718063207
 20
4.3248075917
 30
0.0
 40
0.0300000000000007
100
AcDbArc
 50
272.0
 51
360.0
  0
LINE
  5
109
330
1F
100
AcDbEntity
  8
0
  6
Continuous
 62
     7
370
    25
100
AcDbLine
 10
19.5068063207
 20
8.2958369285
 30
0.0
 11
19.5068063207
 21
8.4683369285
 31
0.0
  0
LINE
  5
10A
330
1F
100
AcDbEntity
  8
0
  6
Continuous
 62
     7
370
    25
100
AcDbLine
 10
19.5068063207
 20
8.2958369285
 30
0.0
 11
19.5218063207
 21
8.2958369285
 31
0.0
  0
LINE
  5
10B
330
1F
100
AcDbEntity
  8
0
  6
Continuous
 62
     7
370
    25
100
AcDbLine
 10
19.5068063207
 20
5.1233369285
 30
0.0
 11
19.5068063207
 21
5.2958369285
 31
0.0
  0
LINE
  5
10C
330
1F
100
AcDbEntity
  8
0
  6
Continuous
 62
     7
370
    25
100
AcDbLine
 10
19.5218063207
 20
5.2958369285
 30
0.0
 11
19.5068063207
 21
5.2958369285
 31
0.0
  0
ARC
  5
10D
330
1F
100
AcDbEntity
  8
0
  6
Continuous
 62
     7
370
    25
100
AcDbCircle
 10
20.0893063207
 20
7.993198114
 30
0.0
 40
0.187500000000001
100
AcDbArc
 50
180.0
 51
219.5226312712
  0
ELLIPSE
  5
10E
330
1F
100
AcDbEntity
  8
0
  6
Continuous
 62
     7
370
    25
100
AcDbEllipse
 10
20.0893063207
 20
7.4039302884
 30
0.0
 11
-0.1447346925070114
 21
0.470013339576889
 31
0.0
210
0.0
220
0.0
230
1.0
 40
0.0080804497
 41
6.263590043485179
 42
7.767106011670131
  0
LINE
  5
10F
330
1F
100
AcDbEntity
  8
0
  6
Continuous
 62
     7
370
    25
100
AcDbLine
 10
19.9018063207
 20
7.4435465351
 30
0.0
 11
20.072964619
 21
7.4435465351
 31
0.0
  0
SPLINE
  5
110
330
1F
100
AcDbEntity
  8
0
  6
Continuous
 62
     7
370
    25
100
AcDbSpline
210
0.0
220
0.0
230
1.0
 70
     8
 71
     3
 72
    18
 73
    14
 74
     0
 42
0.00000001
 43
0.00000001
 40
0.0
 40
0.0
 40
0.0
 40
0.0
 40
0.0033356994780564
 40
0.1010213271321709
 40
0.1987047001995567
 40
0.2981675484349988
 40
0.3976220567245191
 40
0.486368674192527
 40
0.5751037698284478
 40
0.666030680283681
 40
0.7569313346976458
 40
0.8769917086439298
 40
1.0
 40
1.0
 40
1.0
 40
1.0
 10
19.9018063207351
 20
6.199720785839478
 30
0.0
 10
19.90180645205757
 20
6.199809968256689
 30
0.0
 10
19.90181042914572
 20
6.20251084889739
 30
0.0
 10
19.90218366187003
 20
6.207824197576087
 30
0.0
 10
19.90376575139526
 20
6.215618113713551
 30
0.0
 10
19.90642124049216
 20
6.223280522421127
 30
0.0
 10
19.91005789816217
 20
6.230433528276477
 30
0.0
 10
19.91455271006476
 20
6.23696446846633
 30
0.0
 10
19.91984539454032
 20
6.242858156692855
 30
0.0
 10
19.92616178256019
 20
6.248246679076488
 30
0.0
 10
19.93437353149907
 20
6.25338358724902
 30
0.0
 10
19.94486031288877
 20
6.25793132585572
 30
0.0
 10
19.95402715495981
 20
6.259064897944412
 30
0.0
 10
19.95866616336052
 20
6.259638557924752
 30
0.0
  0
LINE
  5
111
330
1F
100
AcDbEntity
  8
0
  6
Continuous
 62
     7
370
    25
100
AcDbLine
 10
20.072964619
 20
7.4435465351
 30
0.0
 11
20.072964619
 21
6.2656286862
 31
0.0
  0
LINE
  5
112
330
1F
100
AcDbEntity
  8
0
  6
Continuous
 62
     7
370
    25
100
AcDbLine
 10
20.072964619
 20
6.2656286862
 30
0.0
 11
19.9586661634
 21
6.2596385579
 31
0.0
  0
LINE
  5
113
330
1F
100
AcDbEntity
  8
0
  6
Continuous
 62
     7
370
    25
100
AcDbLine
 10
19.5118063207
 20
6.7958369285
 30
0.0
 11
19.5118063207
 21
7.9720486116
 31
0.0
  0
LINE
  5
114
330
1F
100
AcDbEntity
  8
0
  6
Continuous
 62
     7
370
    25
100
AcDbLine
 10
19.5118063207
 20
5.6196252454
 30
0.0
 11
19.5118063207
 21
6.7958369285
 31
0.0
  0
LINE
  5
115
330
1F
100
AcDbEntity
  8
0
  6
Continuous
 62
     7
370
    25
100
AcDbLine
 10
21.0044718102
 20
6.3144469094
 30
0.0
 11
20.072964619
 21
7.4435465351
 31
0.0
  0
LINE
  5
116
330
1F
100
AcDbEntity
  8
0
  6
Continuous
 62
     7
370
    25
100
AcDbLine
 10
19.944673831
 20
7.87387631
 30
0.0
 11
21.2218063207
 21
6.3258369285
 31
0.0
  0
LINE
  5
117
330
1F
100
AcDbEntity
  8
0
  6
Continuous
 62
     7
370
    25
100
AcDbLine
 10
21.2218063207
 20
6.3258369285
 30
0.0
 11
21.0044718102
 21
6.3144469094
 31
0.0
  0
LINE
  5
118
330
1F
100
AcDbEntity
  8
0
  6
Continuous
 62
     7
370
    25
100
AcDbLine
 10
20.072964619
 20
6.2656286862
 30
0.0
 11
21.0044718102
 21
6.3144469094
 31
0.0
  0
LINE
  5
119
330
1F
100
AcDbEntity
  8
0
  6
Continuous
 62
     7
370
    25
100
AcDbLine
 10
18.4436248126
 20
7.9058369285
 30
0.0
 11
18.4452063207
 21
7.9058369285
 31
0.0
  0
LINE
  5
11A
330
1F
100
AcDbEntity
  8
0
  6
Continuous
 62
     7
370
    25
100
AcDbLine
 10
18.3184063207
 20
7.9058369285
 30
0.0
 11
18.4436248126
 21
7.9058369285
 31
0.0
  0
LWPOLYLINE
  5
11B
330
1F
100
AcDbEntity
  8
0
  6
Continuous
 62
     7
370
    25
100
AcDbPolyline
 90
       49
 70
   128
 43
0.0
 10
18.4436248126
 20
6.2286498228
 10
18.4449327711
 20
6.2357419856
 10
18.4451606186
 20
6.2429213242
 10
18.4443044565
 20
6.2500649983
 10
18.4423789339
 20
6.2570507775
 10
18.4394169971
 20
6.2637591333
 10
18.4354693257
 20
6.2700752838
 10
18.4306034654
 20
6.275891158
 10
18.4249026724
 20
6.2811072446
 10
18.4184644889
 20
6.2856342948
 10
18.4113990739
 20
6.2893948498
 10
18.4038273188
 20
6.2923245652
 10
18.3958787783
 20
6.2943733129
 10
18.3876894541
 20
6.2955060382
 10
18.3793994679
 20
6.2957033599
 10
18.3711506636
 20
6.2949619017
 10
18.3630841805
 20
6.2932943503
 10
18.3553380385
 20
6.2907292378
 10
18.3480447761
 20
6.287310454
 10
18.3413291831
 20
6.2830964954
 10
18.3353061651
 20
6.2781594638
 10
18.3300787777
 20
6.2725838334
 10
18.3257364629
 20
6.2664650045
 10
18.3223535189
 20
6.2599076722
 10
18.3199878289
 20
6.2530240342
 10
18.3186798703
 20
6.2459318714
 10
18.3184520229
 20
6.2387525328
 10
18.319308185
 20
6.2316088587
 10
18.3212337076
 20
6.2246230794
 10
18.3241956443
 20
6.2179147237
 10
18.3281433158
 20
6.2115985731
 10
18.3330091761
 20
6.205782699
 10
18.3387099691
 20
6.2005666124
 10
18.3451481526
 20
6.1960395622
 10
18.3522135675
 20
6.1922790072
 10
18.3597853227
 20
6.1893492918
 10
18.3677338632
 20
6.1873005441
 10
18.3759231874
 20
6.1861678188
 10
18.3842131736
 20
6.1859704971
 10
18.3924619779
 20
6.1867119553
 10
18.400528461
 20
6.1883795067
 10
18.408274603
 20
6.1909446192
 10
18.4155678654
 20
6.194363403
 10
18.4222834584
 20
6.1985773616
 10
18.4283064764
 20
6.2035143931
 10
18.4335338638
 20
6.2090900236
 10
18.4378761786
 20
6.2152088524
 10
18.4412591226
 20
6.2217661848
 10
18.4436248126
 20
6.2286498228
  0
LWPOLYLINE
  5
11C
330
1F
100
AcDbEntity
  8
0
  6
Continuous
 62
     7
370
    25
100
AcDbPolyline
 90
       53
 70
   128
 43
0.0
 10
18.3653056227
 20
6.1835326171
 10
18.3566887772
 20
6.1857127839
 10
18.3484382019
 20
6.1887765487
 10
18.340674209
 20
6.1926792348
 10
18.333510015
 20
6.1973639322
 10
18.3270500898
 20
6.2027623276
 10
18.3213886337
 20
6.2087957002
 10
18.3166082036
 20
6.2153760698
 10
18.3127785088
 20
6.2224074798
 10
18.309955395
 20
6.2297873964
 10
18.3081800295
 20
6.2374082038
 10
18.307478301
 20
6.2451587735
 10
18.3078604425
 20
6.2529260847
 10
18.3093208814
 20
6.2605968726
 10
18.3118383212
 20
6.2680592798
 10
18.3153760521
 20
6.2752044875
 10
18.3198824858
 20
6.2819283026
 10
18.3252919084
 20
6.2881326767
 10
18.3315254385
 20
6.293727136
 10
18.3384921771
 20
6.2986301008
 10
18.3460905334
 20
6.3027700747
 10
18.3542097063
 20
6.3060866876
 10
18.3627312999
 20
6.3085315759
 10
18.3715310504
 20
6.3100690876
 10
18.3804806374
 20
6.3106768022
 10
18.3894495559
 20
6.310345858
 10
18.3983070188
 20
6.3090810808
 10
18.4069238643
 20
6.306900914
 10
18.4151744395
 20
6.3038371492
 10
18.4229384324
 20
6.2999344631
 10
18.4301026265
 20
6.2952497657
 10
18.4365625517
 20
6.2898513703
 10
18.4422240078
 20
6.2838179977
 10
18.4470044379
 20
6.2772376281
 10
18.4508341326
 20
6.2702062182
 10
18.4536572465
 20
6.2628263015
 10
18.455432612
 20
6.2552054941
 10
18.4561343404
 20
6.2474549244
 10
18.4557521989
 20
6.2396876132
 10
18.4542917601
 20
6.2320168253
 10
18.4517743202
 20
6.2245544181
 10
18.4482365894
 20
6.2174092104
 10
18.4437301557
 20
6.2106853953
 10
18.438320733
 20
6.2044810212
 10
18.432087203
 20
6.1988865619
 10
18.4251204644
 20
6.1939835972
 10
18.4175221081
 20
6.1898436232
 10
18.4094029352
 20
6.1865270103
 10
18.4008813415
 20
6.184082122
 10
18.3920815911
 20
6.1825446103
 10
18.3831320041
 20
6.1819368957
 10
18.3741630856
 20
6.1822678399
 10
18.3653056227
 20
6.1835326171
  0
LINE
  5
11D
330
1F
100
AcDbEntity
  8
0
  6
Continuous
 62
     7
370
    25
100
AcDbLine
 10
18.3685078956
 20
6.2780976842
 30
0.0
 11
18.3378963525
 21
6.2494934875
 31
0.0
  0
LINE
  5
11E
330
1F
100
AcDbEntity
  8
0
  6
Continuous
 62
     7
370
    25
100
AcDbLine
 10
18.3511947775
 20
6.2122327318
 30
0.0
 11
18.3378963525
 21
6.2494934875
 31
0.0
  0
LINE
  5
11F
330
1F
100
AcDbEntity
  8
0
  6
Continuous
 62
     7
370
    25
100
AcDbLine
 10
18.3951047458
 20
6.2035761728
 30
0.0
 11
18.3511947775
 21
6.2122327318
 31
0.0
  0
LINE
  5
120
330
1F
100
AcDbEntity
  8
0
  6
Continuous
 62
     7
370
    25
100
AcDbLine
 10
18.3951047458
 20
6.2035761728
 30
0.0
 11
18.425716289
 21
6.2321803694
 31
0.0
  0
LINE
  5
121
330
1F
100
AcDbEntity
  8
0
  6
Continuous
 62
     7
370
    25
100
AcDbLine
 10
18.4124178639
 20
6.2694411252
 30
0.0
 11
18.425716289
 21
6.2321803694
 31
0.0
  0
LINE
  5
122
330
1F
100
AcDbEntity
  8
0
  6
Continuous
 62
     7
370
    25
100
AcDbLine
 10
18.4124178639
 20
6.2694411252
 30
0.0
 11
18.3685078956
 21
6.2780976842
 31
0.0
  0
LINE
  5
123
330
1F
100
AcDbEntity
  8
0
  6
Continuous
 62
     7
370
    25
100
AcDbLine
 10
18.3511947775
 20
6.2572327318
 30
0.0
 11
18.3499402967
 21
6.2607476522
 31
0.0
  0
LINE
  5
124
330
1F
100
AcDbEntity
  8
0
  6
Continuous
 62
     7
370
    25
100
AcDbLine
 10
18.3511947775
 20
6.2572327318
 30
0.0
 11
18.3511947775
 21
6.2122327318
 31
0.0
  0
LINE
  5
125
330
1F
100
AcDbEntity
  8
0
  6
Continuous
 62
     7
370
    25
100
AcDbLine
 10
18.3951047458
 20
6.2485761728
 30
0.0
 11
18.3951047458
 21
6.2035761728
 31
0.0
  0
LINE
  5
126
330
1F
100
AcDbEntity
  8
0
  6
Continuous
 62
     7
370
    25
100
AcDbLine
 10
18.3951047458
 20
6.2485761728
 30
0.0
 11
18.4136723448
 21
6.2659262047
 31
0.0
  0
LINE
  5
127
330
1F
100
AcDbEntity
  8
0
  6
Continuous
 62
     7
370
    25
100
AcDbLine
 10
18.3951047458
 20
6.2485761728
 30
0.0
 11
18.3511947775
 21
6.2572327318
 31
0.0
  0
LINE
  5
128
330
1F
100
AcDbEntity
  8
0
  6
Continuous
 62
     7
370
    25
100
AcDbLine
 10
19.2058349612
 20
6.7958369285
 30
0.0
 11
19.2058349612
 21
7.9058369285
 31
0.0
  0
LINE
  5
129
330
1F
100
AcDbEntity
  8
0
  6
Continuous
 62
     7
370
    25
100
AcDbLine
 10
19.2058349612
 20
5.6858369285
 30
0.0
 11
19.2058349612
 21
6.7958369285
 31
0.0
  0
SPLINE
  5
12A
330
1F
100
AcDbEntity
  8
0
  6
Continuous
 62
     7
370
    25
100
AcDbSpline
210
0.0
220
0.0
230
1.0
 70
     8
 71
     3
 72
    27
 73
    23
 74
     0
 42
0.00000001
 43
0.00000001
 40
0.0
 40
0.0
 40
0.0
 40
0.0
 40
0.0059455175349496
 40
0.0560678251880554
 40
0.1076445621294321
 40
0.1578226559594501
 40
0.2093879747033818
 40
0.2608549715628547
 40
0.3137161742940621
 40
0.3670144043204456
 40
0.4217723857667934
 40
0.4766230708723566
 40
0.5330215391256429
 40
0.5885968983323913
 40
0.6457983357985525
 40
0.7010647218287455
 40
0.7580088771398901
 40
0.8119450192838963
 40
0.8675603875583318
 40
0.9195613469234896
 40
0.973168048280791
 40
1.0
 40
1.0
 40
1.0
 40
1.0
 10
18.46668467478214
 20
7.905828319038471
 30
0.0
 10
18.4667243792934
 20
7.905831128591136
 30
0.0
 10
18.46709880348498
 20
7.905857623426392
 30
0.0
 10
18.46563717892926
 20
7.905753524677257
 30
0.0
 10
18.46225298237237
 20
7.905518843743722
 30
0.0
 10
18.45649727591061
 20
7.905141593939449
 30
0.0
 10
18.4488954568755
 20
7.904685954673379
 30
0.0
 10
18.43941491997326
 20
7.904185580096584
 30
0.0
 10
18.42834513444758
 20
7.903696856146509
 30
0.0
 10
18.41582213199464
 20
7.90326859110414
 30
0.0
 10
18.40223649334065
 20
7.902954100328548
 30
0.0
 10
18.38783841681837
 20
7.902791546842317
 30
0.0
 10
18.37319768787539
 20
7.902807168284972
 30
0.0
 10
18.3585965605858
 20
7.903003901064929
 30
0.0
 10
18.34474342864975
 20
7.903358474072963
 30
0.0
 10
18.33185489672857
 20
7.903834032410885
 30
0.0
 10
18.32064304069377
 20
7.904362601169212
 30
0.0
 10
18.31120986962961
 20
7.904888810599398
 30
0.0
 10
18.30404333281546
 20
7.905339142375054
 30
0.0
 10
18.29925336301447
 20
7.905663478209913
 30
0.0
 10
18.29690066895881
 20
7.905830199311477
 30
0.0
 10
18.29703650068534
 20
7.90582057527496
 30
0.0
 10
18.29708181012537
 20
7.905817364981486
 30
0.0
  0
SPLINE
  5
12B
330
1F
100
AcDbEntity
  8
0
  6
Continuous
 62
     7
370
    25
100
AcDbSpline
210
0.0
220
0.0
230
1.0
 70
    11
 71
     3
 72
    45
 73
    41
 74
     0
 42
0.00000001
 43
0.00000001
 40
0.0
 40
0.0
 40
0.0
 40
0.0
 40
0.0237175399948457
 40
0.0474321274804063
 40
0.0737704074114304
 40
0.1001058302052724
 40
0.1256831926192594
 40
0.1512613530838345
 40
0.1766109339555985
 40
0.2019638704002108
 40
0.2277790104241743
 40
0.253598192345982
 40
0.2802998405742454
 40
0.3070046344696873
 40
0.3345901097638269
 40
0.3621768307668765
 40
0.3903008030868563
 40
0.4184235803193742
 40
0.4465839298029439
 40
0.4747404512680662
 40
0.5024000164995922
 40
0.5300542399531949
 40
0.556790825139757
 40
0.5835234845596498
 40
0.6093175702390939
 40
0.6351113171116075
 40
0.660453835068485
 40
0.6857990961317757
 40
0.7114024556147777
 40
0.7370098334383356
 40
0.7634096901586934
 40
0.7898131155645015
 40
0.8171426391285797
 40
0.8444740854076914
 40
0.8724773226205942
 40
0.9004801841984547
 40
0.9286871977639596
 40
0.9568911912208139
 40
0.9784464809507006
 40
1.0
 40
1.0
 40
1.0
 40
1.0
 10
18.31823582139001
 20
6.194395975961053
 30
0.0
 10
18.31556387428463
 20
6.197070117653229
 30
0.0
 10
18.31022031269473
 20
6.202418068143521
 30
0.0
 10
18.30389329862412
 20
6.212008437120832
 30
0.0
 10
18.29924443297303
 20
6.222732621803804
 30
0.0
 10
18.29676042780761
 20
6.234350651598682
 30
0.0
 10
18.2966781821072
 20
6.246127623429166
 30
0.0
 10
18.29882137004082
 20
6.257684311243026
 30
0.0
 10
18.30318461441238
 20
6.268791951478541
 30
0.0
 10
18.3095489013156
 20
6.279228012472386
 30
0.0
 10
18.31784571195124
 20
6.288692134673464
 30
0.0
 10
18.32790204849947
 20
6.297045493065173
 30
0.0
 10
18.33949950486647
 20
6.303909833261946
 30
0.0
 10
18.35245002965904
 20
6.309163209618143
 30
0.0
 10
18.36634637426569
 20
6.312454647805789
 30
0.0
 10
18.3808976393251
 20
6.313708882616826
 30
0.0
 10
18.39557198399369
 20
6.312724306622484
 30
0.0
 10
18.40996582153216
 20
6.309564030271249
 30
0.0
 10
18.42354606316944
 20
6.304227757942686
 30
0.0
 10
18.43587425632971
 20
6.296987153284521
 30
0.0
 10
18.44652398396645
 20
6.288012839159416
 30
0.0
 10
18.45516155565345
 20
6.277781606759142
 30
0.0
 10
18.46153422067227
 20
6.266549981726797
 30
0.0
 10
18.4655555617994
 20
6.254872084728675
 30
0.0
 10
18.46713684782309
 20
6.242988252781598
 30
0.0
 10
18.46643040201227
 20
6.231332234943604
 30
0.0
 10
18.46342588392772
 20
6.220108817913058
 30
0.0
 10
18.45835065832381
 20
6.209552012027047
 30
0.0
 10
18.45124414030453
 20
6.199904017350888
 30
0.0
 10
18.44229246645779
 20
6.191273693676177
 30
0.0
 10
18.43165784135619
 20
6.18397139773939
 30
0.0
 10
18.41951257808439
 20
6.178076701050875
 30
0.0
 10
18.40620597003463
 20
6.173902001544787
 30
0.0
 10
18.39199054155238
 20
6.171514674811851
 30
0.0
 10
18.37737008588218
 20
6.171129775382044
 30
0.0
 10
18.36272019800876
 20
6.172744886067353
 30
0.0
 10
18.34857618804864
 20
6.176415208954175
 30
0.0
 10
18.33640480405971
 20
6.181605086053255
 30
0.0
 10
18.3262171810074
 20
6.187666686824747
 30
0.0
 10
18.3208962017433
 20
6.192152941006104
 30
0.0
 10
18.31823582139001
 20
6.194395975961053
 30
0.0
  0
LINE
  5
12C
330
1F
100
AcDbEntity
  8
0
  6
Continuous
 62
     7
370
    25
100
AcDbLine
 10
18.1318063207
 20
6.7958369285
 30
0.0
 11
18.1318063207
 21
7.9058369285
 31
0.0
  0
LINE
  5
12D
330
1F
100
AcDbEntity
  8
0
  6
Continuous
 62
     7
370
    25
100
AcDbLine
 10
18.1318063207
 20
5.6858369285
 30
0.0
 11
18.1318063207
 21
6.7958369285
 31
0.0
  0
LINE
  5
12E
330
1F
100
AcDbEntity
  8
0
  6
Continuous
 62
     7
370
    25
100
AcDbLine
 10
19.2952776803
 20
6.7958369285
 30
0.0
 11
19.2952776803
 21
7.9058369285
 31
0.0
  0
LINE
  5
12F
330
1F
100
AcDbEntity
  8
0
  6
Continuous
 62
     7
370
    25
100
AcDbLine
 10
19.2952776803
 20
5.6858369285
 30
0.0
 11
19.2952776803
 21
6.7958369285
 31
0.0
  0
LINE
  5
130
330
1F
100
AcDbEntity
  8
0
  6
Continuous
 62
     7
370
    25
100
AcDbLine
 10
16.2018063207
 20
7.8786461192
 30
0.0
 11
16.2018063207
 21
5.6858369285
 31
0.0
  0
LINE
  5
131
330
1F
100
AcDbEntity
  8
0
  6
Continuous
 62
     7
370
    25
100
AcDbLine
 10
16.2018063207
 20
7.9058369285
 30
0.0
 11
16.2018063207
 21
7.8786461192
 31
0.0
  0
LINE
  5
132
330
1F
100
AcDbEntity
  8
0
  6
Continuous
 62
     7
370
    25
100
AcDbLine
 10
16.1718063207
 20
7.8493810059
 30
0.0
 11
16.1718063207
 21
7.8758369285
 31
0.0
  0
LINE
  5
133
330
1F
100
AcDbEntity
  8
0
  6
Continuous
 62
     7
370
    25
100
AcDbLine
 10
16.1718063207
 20
5.7158369285
 30
0.0
 11
16.1718063207
 21
7.8493810059
 31
0.0
  0
LINE
  5
134
330
1F
100
AcDbEntity
  8
0
  6
Continuous
 62
     7
370
    25
100
AcDbLine
 10
13.5198063207
 20
6.9481533154
 30
0.0
 11
13.5198063207
 21
6.8689635512
 31
0.0
  0
LINE
  5
135
330
1F
100
AcDbEntity
  8
0
  6
Continuous
 62
     7
370
    25
100
AcDbLine
 10
13.5198063207
 20
6.6814635512
 30
0.0
 11
13.5198063207
 21
6.6814603058
 31
0.0
  0
LINE
  5
136
330
1F
100
AcDbEntity
  8
0
  6
Continuous
 62
     7
370
    25
100
AcDbLine
 10
13.5198063207
 20
6.9514603058
 30
0.0
 11
13.5198063207
 21
6.9481533154
 31
0.0
  0
LINE
  5
137
330
1F
100
AcDbEntity
  8
0
  6
Continuous
 62
     7
370
    25
100
AcDbLine
 10
14.0198063207
 20
6.9481533154
 30
0.0
 11
14.0198063207
 21
6.8689635512
 31
0.0
  0
LINE
  5
138
330
1F
100
AcDbEntity
  8
0
  6
Continuous
 62
     7
370
    25
100
AcDbLine
 10
14.0198063207
 20
6.6814635512
 30
0.0
 11
14.0198063207
 21
6.6814603058
 31
0.0
  0
LINE
  5
139
330
1F
100
AcDbEntity
  8
0
  6
Continuous
 62
     7
370
    25
100
AcDbLine
 10
14.0198063207
 20
6.9514603058
 30
0.0
 11
14.0198063207
 21
6.9481533154
 31
0.0
  0
LINE
  5
13A
330
1F
100
AcDbEntity
  8
0
  6
Continuous
 62
     7
370
    25
100
AcDbLine
 10
13.2698063207
 20
6.8689635512
 30
0.0
 11
13.2698063207
 21
6.6814635512
 31
0.0
  0
LINE
  5
13B
330
1F
100
AcDbEntity
  8
0
  6
Continuous
 62
     7
370
    25
100
AcDbLine
 10
13.2698063207
 20
6.9102103058
 30
0.0
 11
13.2698063207
 21
6.8689635512
 31
0.0
  0
LINE
  5
13C
330
1F
100
AcDbEntity
  8
0
  6
Continuous
 62
     7
370
    25
100
AcDbLine
 10
16.0468063207
 20
7.2908369285
 30
0.0
 11
16.0468063207
 21
6.3008369285
 31
0.0
  0
LINE
  5
13D
330
1F
100
AcDbEntity
  8
0
  6
Continuous
 62
     7
370
    25
100
AcDbLine
 10
16.0338063207
 20
7.1395869285
 30
0.0
 11
16.0338063207
 21
6.4520869285
 31
0.0
  0
LINE
  5
13E
330
1F
100
AcDbEntity
  8
0
  6
Continuous
 62
     7
370
    25
100
AcDbLine
 10
15.7843063207
 20
7.1016369285
 30
0.0
 11
15.7843063207
 21
6.8510763297
 31
0.0
  0
LINE
  5
13F
330
1F
100
AcDbEntity
  8
0
  6
Continuous
 62
     7
370
    25
100
AcDbLine
 10
15.8043063207
 20
6.9210971115
 30
0.0
 11
15.8043063207
 21
7.1362779446
 31
0.0
  0
SPLINE
  5
140
330
1F
100
AcDbEntity
  8
0
  6
Continuous
 62
     7
370
    25
100
AcDbSpline
210
0.0
220
0.0
230
1.0
 70
     8
 71
     3
 72
     9
 73
     5
 74
     0
 42
0.00000001
 43
0.00000001
 40
0.0
 40
0.0
 40
0.0
 40
0.0
 40
0.4995107894512587
 40
1.0
 40
1.0
 40
1.0
 40
1.0
 10
15.80430632073509
 20
6.921097111506656
 30
0.0
 10
15.80056616195412
 20
6.909549873703651
 30
0.0
 10
15.7930785183237
 20
6.886432779845298
 30
0.0
 10
15.78723229328794
 20
6.862869497995018
 30
0.0
 10
15.7843063207351
 20
6.851076329663835
 30
0.0
  0
LINE
  5
141
330
1F
100
AcDbEntity
  8
0
  6
Continuous
 62
     7
370
    25
100
AcDbLine
 10
15.8243063207
 20
7.1016369285
 30
0.0
 11
15.8243063207
 21
6.8510763297
 31
0.0
  0
SPLINE
  5
142
330
1F
100
AcDbEntity
  8
0
  6
Continuous
 62
     7
370
    25
100
AcDbSpline
210
0.0
220
0.0
230
1.0
 70
     8
 71
     3
 72
    10
 73
     6
 74
     0
 42
0.00000001
 43
0.00000001
 40
0.0
 40
0.0
 40
0.0
 40
0.0
 40
0.466149210778355
 40
0.9332262706972276
 40
1.0
 40
1.0
 40
1.0
 40
1.0
 10
15.82430632073509
 20
6.851076329663835
 30
0.0
 10
15.82157842822157
 20
6.862057981596067
 30
0.0
 10
15.81611721344659
 20
6.884043143947191
 30
0.0
 10
15.80889787706128
 20
6.907246830248069
 30
0.0
 10
15.8048167816466
 20
6.919557322665202
 30
0.0
 10
15.80430632073509
 20
6.921097111506656
 30
0.0
  0
LINE
  5
143
330
1F
100
AcDbEntity
  8
0
  6
Continuous
 62
     7
370
    25
100
AcDbLine
 10
15.8443063207
 20
6.9210971115
 30
0.0
 11
15.8443063207
 21
7.1362779446
 31
0.0
  0
SPLINE
  5
144
330
1F
100
AcDbEntity
  8
0
  6
Continuous
 62
     7
370
    25
100
AcDbSpline
210
0.0
220
0.0
230
1.0
 70
     8
 71
     3
 72
     9
 73
     5
 74
     0
 42
0.00000001
 43
0.00000001
 40
0.0
 40
0.0
 40
0.0
 40
0.0
 40
0.4995107894512569
 40
1.0
 40
1.0
 40
1.0
 40
1.0
 10
15.84430632073509
 20
6.921097111506658
 30
0.0
 10
15.84056616195412
 20
6.909549873703653
 30
0.0
 10
15.8330785183237
 20
6.8864327798453
 30
0.0
 10
15.82723229328793
 20
6.862869497995019
 30
0.0
 10
15.82430632073509
 20
6.851076329663835
 30
0.0
  0
LINE
  5
145
330
1F
100
AcDbEntity
  8
0
  6
Continuous
 62
     7
370
    25
100
AcDbLine
 10
15.8843063207
 20
6.9210971115
 30
0.0
 11
15.8843063207
 21
7.1362779446
 31
0.0
  0
LINE
  5
146
330
1F
100
AcDbEntity
  8
0
  6
Continuous
 62
     7
370
    25
100
AcDbLine
 10
15.9043063207
 20
7.1016369285
 30
0.0
 11
15.9043063207
 21
6.8510763297
 31
0.0
  0
SPLINE
  5
147
330
1F
100
AcDbEntity
  8
0
  6
Continuous
 62
     7
370
    25
100
AcDbSpline
210
0.0
220
0.0
230
1.0
 70
     8
 71
     3
 72
    10
 73
     6
 74
     0
 42
0.00000001
 43
0.00000001
 40
0.0
 40
0.0
 40
0.0
 40
0.0
 40
0.4661492107783552
 40
0.9332262706972279
 40
1.0
 40
1.0
 40
1.0
 40
1.0
 10
15.90430632073509
 20
6.851076329663835
 30
0.0
 10
15.90157842822157
 20
6.862057981596067
 30
0.0
 10
15.89611721344659
 20
6.884043143947192
 30
0.0
 10
15.88889787706128
 20
6.907246830248069
 30
0.0
 10
15.8848167816466
 20
6.919557322665202
 30
0.0
 10
15.88430632073509
 20
6.921097111506658
 30
0.0
  0
LINE
  5
148
330
1F
100
AcDbEntity
  8
0
  6
Continuous
 62
     7
370
    25
100
AcDbLine
 10
15.9243063207
 20
6.9210971115
 30
0.0
 11
15.9243063207
 21
7.1362779446
 31
0.0
  0
SPLINE
  5
149
330
1F
100
AcDbEntity
  8
0
  6
Continuous
 62
     7
370
    25
100
AcDbSpline
210
0.0
220
0.0
230
1.0
 70
     8
 71
     3
 72
     9
 73
     5
 74
     0
 42
0.00000001
 43
0.00000001
 40
0.0
 40
0.0
 40
0.0
 40
0.0
 40
0.4995107894512569
 40
0.9999999999999999
 40
0.9999999999999999
 40
0.9999999999999999
 40
0.9999999999999999
 10
15.92430632073509
 20
6.921097111506658
 30
0.0
 10
15.92056616195413
 20
6.909549873703653
 30
0.0
 10
15.9130785183237
 20
6.8864327798453
 30
0.0
 10
15.90723229328793
 20
6.862869497995019
 30
0.0
 10
15.90430632073509
 20
6.851076329663835
 30
0.0
  0
LINE
  5
14A
330
1F
100
AcDbEntity
  8
0
  6
Continuous
 62
     7
370
    25
100
AcDbLine
 10
15.8643063207
 20
7.1016369285
 30
0.0
 11
15.8643063207
 21
6.8510763297
 31
0.0
  0
SPLINE
  5
14B
330
1F
100
AcDbEntity
  8
0
  6
Continuous
 62
     7
370
    25
100
AcDbSpline
210
0.0
220
0.0
230
1.0
 70
     8
 71
     3
 72
    10
 73
     6
 74
     0
 42
0.00000001
 43
0.00000001
 40
0.0
 40
0.0
 40
0.0
 40
0.0
 40
0.466149210778359
 40
0.9332262706972257
 40
1.0
 40
1.0
 40
1.0
 40
1.0
 10
15.86430632073509
 20
6.851076329663835
 30
0.0
 10
15.86157842822157
 20
6.862057981596066
 30
0.0
 10
15.85611721344658
 20
6.88404314394719
 30
0.0
 10
15.84889787706129
 20
6.907246830248069
 30
0.0
 10
15.84481678164661
 20
6.919557322665202
 30
0.0
 10
15.84430632073509
 20
6.921097111506658
 30
0.0
  0
SPLINE
  5
14C
330
1F
100
AcDbEntity
  8
0
  6
Continuous
 62
     7
370
    25
100
AcDbSpline
210
0.0
220
0.0
230
1.0
 70
     8
 71
     3
 72
     9
 73
     5
 74
     0
 42
0.00000001
 43
0.00000001
 40
0.0
 40
0.0
 40
0.0
 40
0.0
 40
0.4995107894512572
 40
1.0
 40
1.0
 40
1.0
 40
1.0
 10
15.88430632073509
 20
6.921097111506658
 30
0.0
 10
15.88056616195412
 20
6.909549873703653
 30
0.0
 10
15.87307851832369
 20
6.8864327798453
 30
0.0
 10
15.86723229328793
 20
6.862869497995019
 30
0.0
 10
15.86430632073509
 20
6.851076329663835
 30
0.0
  0
LINE
  5
14D
330
1F
100
AcDbEntity
  8
0
  6
Continuous
 62
     7
370
    25
100
AcDbLine
 10
15.9443063207
 20
7.1016369285
 30
0.0
 11
15.9443063207
 21
6.8510763297
 31
0.0
  0
SPLINE
  5
14E
330
1F
100
AcDbEntity
  8
0
  6
Continuous
 62
     7
370
    25
100
AcDbSpline
210
0.0
220
0.0
230
1.0
 70
     8
 71
     3
 72
    10
 73
     6
 74
     0
 42
0.00000001
 43
0.00000001
 40
0.0
 40
0.0
 40
0.0
 40
0.0
 40
0.466149210778371
 40
0.9332262706972597
 40
1.0
 40
1.0
 40
1.0
 40
1.0
 10
15.94430632073509
 20
6.851076329663835
 30
0.0
 10
15.94157842822158
 20
6.862057981596068
 30
0.0
 10
15.93611721344659
 20
6.884043143947195
 30
0.0
 10
15.92889787706127
 20
6.907246830248063
 30
0.0
 10
15.9248167816466
 20
6.919557322665202
 30
0.0
 10
15.92430632073509
 20
6.921097111506658
 30
0.0
  0
SPLINE
  5
14F
330
1F
100
AcDbEntity
  8
0
  6
Continuous
 62
     7
370
    25
100
AcDbSpline
210
0.0
220
0.0
230
1.0
 70
     8
 71
     3
 72
     9
 73
     5
 74
     0
 42
0.00000001
 43
0.00000001
 40
0.0
 40
0.0
 40
0.0
 40
0.0
 40
0.4995271105052535
 40
1.0
 40
1.0
 40
1.0
 40
1.0
 10
15.96380632073508
 20
6.919593686984441
 30
0.0
 10
15.9601651563978
 20
6.908291706928435
 30
0.0
 10
15.95287593372959
 20
6.885666348227534
 30
0.0
 10
15.94716465893449
 20
6.862613603452288
 30
0.0
 10
15.94430632073509
 20
6.851076329663835
 30
0.0
  0
LINE
  5
150
330
1F
100
AcDbEntity
  8
0
  6
Continuous
 62
     7
370
    25
100
AcDbLine
 10
15.9638063207
 20
7.1354119192
 30
0.0
 11
15.9638063207
 21
6.919593687
 31
0.0
  0
LINE
  5
151
330
1F
100
AcDbEntity
  8
0
  6
Continuous
 62
     7
370
    25
100
AcDbLine
 10
16.0338063207
 20
6.8358050809
 30
0.0
 11
15.9638063207
 21
6.8358050809
 31
0.0
  0
SPLINE
  5
152
330
1F
100
AcDbEntity
  8
0
  6
Continuous
 62
     7
370
    25
100
AcDbSpline
210
0.0
220
0.0
230
1.0
 70
     8
 71
     3
 72
    10
 73
     6
 74
     0
 42
0.00000001
 43
0.00000001
 40
0.0
 40
0.0
 40
0.0
 40
0.0
 40
0.4765077511737029
 40
0.9539639696989652
 40
1.0
 40
1.0
 40
1.0
 40
1.0
 10
15.94430632073508
 20
6.616857263762987
 30
0.0
 10
15.94703374799414
 20
6.605875482314736
 30
0.0
 10
15.95249403133412
 20
6.583890060673774
 30
0.0
 10
15.95956131827878
 20
6.561192147206246
 30
0.0
 10
15.96346318928953
 20
6.549378776972507
 30
0.0
 10
15.96380632073509
 20
6.548339906442414
 30
0.0
  0
SPLINE
  5
153
330
1F
100
AcDbEntity
  8
0
  6
Continuous
 62
     7
370
    25
100
AcDbSpline
210
0.0
220
0.0
230
1.0
 70
     8
 71
     3
 72
     9
 73
     5
 74
     0
 42
0.00000001
 43
0.00000001
 40
0.0
 40
0.0
 40
0.0
 40
0.0
 40
0.4995107894512569
 40
1.0
 40
1.0
 40
1.0
 40
1.0
 10
15.9243063207351
 20
6.546836481920183
 30
0.0
 10
15.92804647951606
 20
6.558383719723192
 30
0.0
 10
15.93553412314648
 20
6.581500813581555
 30
0.0
 10
15.94138034818224
 20
6.605064095431813
 30
0.0
 10
15.94430632073508
 20
6.616857263762987
 30
0.0
  0
SPLINE
  5
154
330
1F
100
AcDbEntity
  8
0
  6
Continuous
 62
     7
370
    25
100
AcDbSpline
210
0.0
220
0.0
230
1.0
 70
     8
 71
     3
 72
    10
 73
     6
 74
     0
 42
0.00000001
 43
0.00000001
 40
0.0
 40
0.0
 40
0.0
 40
0.0
 40
0.4661492107782156
 40
0.9332262706969425
 40
1.0
 40
1.0
 40
1.0
 40
1.0
 10
15.90430632073509
 20
6.616857263762986
 30
0.0
 10
15.90703421324861
 20
6.605875611830769
 30
0.0
 10
15.9124954280236
 20
6.583890449479673
 30
0.0
 10
15.91971476440889
 20
6.560686763178786
 30
0.0
 10
15.92379585982358
 20
6.548376270761645
 30
0.0
 10
15.9243063207351
 20
6.546836481920183
 30
0.0
  0
SPLINE
  5
155
330
1F
100
AcDbEntity
  8
0
  6
Continuous
 62
     7
370
    25
100
AcDbSpline
210
0.0
220
0.0
230
1.0
 70
     8
 71
     3
 72
     9
 73
     5
 74
     0
 42
0.00000001
 43
0.00000001
 40
0.0
 40
0.0
 40
0.0
 40
0.0
 40
0.4995107894512556
 40
1.0
 40
1.0
 40
1.0
 40
1.0
 10
15.8843063207351
 20
6.546836481920183
 30
0.0
 10
15.88804647951606
 20
6.558383719723192
 30
0.0
 10
15.89553412314649
 20
6.581500813581553
 30
0.0
 10
15.90138034818225
 20
6.605064095431812
 30
0.0
 10
15.90430632073509
 20
6.616857263762986
 30
0.0
  0
SPLINE
  5
156
330
1F
100
AcDbEntity
  8
0
  6
Continuous
 62
     7
370
    25
100
AcDbSpline
210
0.0
220
0.0
230
1.0
 70
     8
 71
     3
 72
    10
 73
     6
 74
     0
 42
0.00000001
 43
0.00000001
 40
0.0
 40
0.0
 40
0.0
 40
0.0
 40
0.4661492107782282
 40
0.9332262706969765
 40
1.0
 40
1.0
 40
1.0
 40
1.0
 10
15.86430632073508
 20
6.616857263762986
 30
0.0
 10
15.8670342132486
 20
6.605875611830768
 30
0.0
 10
15.87249542802359
 20
6.583890449479669
 30
0.0
 10
15.87971476440891
 20
6.560686763178793
 30
0.0
 10
15.88379585982358
 20
6.548376270761645
 30
0.0
 10
15.8843063207351
 20
6.546836481920183
 30
0.0
  0
SPLINE
  5
157
330
1F
100
AcDbEntity
  8
0
  6
Continuous
 62
     7
370
    25
100
AcDbSpline
210
0.0
220
0.0
230
1.0
 70
     8
 71
     3
 72
     9
 73
     5
 74
     0
 42
0.00000001
 43
0.00000001
 40
0.0
 40
0.0
 40
0.0
 40
0.0
 40
0.4995107894512565
 40
1.0
 40
1.0
 40
1.0
 40
1.0
 10
15.8443063207351
 20
6.546836481920183
 30
0.0
 10
15.84804647951606
 20
6.558383719723192
 30
0.0
 10
15.85553412314648
 20
6.581500813581555
 30
0.0
 10
15.86138034818224
 20
6.605064095431813
 30
0.0
 10
15.86430632073508
 20
6.616857263762987
 30
0.0
  0
SPLINE
  5
158
330
1F
100
AcDbEntity
  8
0
  6
Continuous
 62
     7
370
    25
100
AcDbSpline
210
0.0
220
0.0
230
1.0
 70
     8
 71
     3
 72
    10
 73
     6
 74
     0
 42
0.00000001
 43
0.00000001
 40
0.0
 40
0.0
 40
0.0
 40
0.0
 40
0.4661492107782148
 40
0.9332262706969406
 40
1.0
 40
1.0
 40
1.0
 40
1.0
 10
15.82430632073509
 20
6.616857263762986
 30
0.0
 10
15.82703421324861
 20
6.605875611830769
 30
0.0
 10
15.8324954280236
 20
6.583890449479673
 30
0.0
 10
15.83971476440889
 20
6.560686763178786
 30
0.0
 10
15.84379585982358
 20
6.548376270761645
 30
0.0
 10
15.8443063207351
 20
6.546836481920183
 30
0.0
  0
SPLINE
  5
159
330
1F
100
AcDbEntity
  8
0
  6
Continuous
 62
     7
370
    25
100
AcDbSpline
210
0.0
220
0.0
230
1.0
 70
     8
 71
     3
 72
     9
 73
     5
 74
     0
 42
0.00000001
 43
0.00000001
 40
0.0
 40
0.0
 40
0.0
 40
0.0
 40
0.4995107894512554
 40
0.9999999999999999
 40
0.9999999999999999
 40
0.9999999999999999
 40
0.9999999999999999
 10
15.80430632073509
 20
6.546836481920183
 30
0.0
 10
15.80804647951606
 20
6.558383719723191
 30
0.0
 10
15.81553412314649
 20
6.581500813581553
 30
0.0
 10
15.82138034818225
 20
6.605064095431812
 30
0.0
 10
15.82430632073509
 20
6.616857263762986
 30
0.0
  0
SPLINE
  5
15A
330
1F
100
AcDbEntity
  8
0
  6
Continuous
 62
     7
370
    25
100
AcDbSpline
210
0.0
220
0.0
230
1.0
 70
     8
 71
     3
 72
    10
 73
     6
 74
     0
 42
0.00000001
 43
0.00000001
 40
0.0
 40
0.0
 40
0.0
 40
0.0
 40
0.4661492107782282
 40
0.9332262706969725
 40
1.0
 40
1.0
 40
1.0
 40
1.0
 10
15.7843063207351
 20
6.616857263762986
 30
0.0
 10
15.78703421324861
 20
6.605875611830768
 30
0.0
 10
15.7924954280236
 20
6.58389044947967
 30
0.0
 10
15.79971476440891
 20
6.560686763178792
 30
0.0
 10
15.80379585982358
 20
6.548376270761645
 30
0.0
 10
15.80430632073509
 20
6.546836481920183
 30
0.0
  0
LINE
  5
15B
330
1F
100
AcDbEntity
  8
0
  6
Continuous
 62
     7
370
    25
100
AcDbLine
 10
15.9638063207
 20
6.6321285125
 30
0.0
 11
16.0338063207
 21
6.6321285125
 31
0.0
  0
LINE
  5
15C
330
1F
100
AcDbEntity
  8
0
  6
Continuous
 62
     7
370
    25
100
AcDbLine
 10
15.9638063207
 20
6.5483399064
 30
0.0
 11
15.9638063207
 21
6.6321285125
 31
0.0
  0
LINE
  5
15D
330
1F
100
AcDbEntity
  8
0
  6
Continuous
 62
     7
370
    25
100
AcDbLine
 10
15.7843063207
 20
6.8510763297
 30
0.0
 11
15.7843063207
 21
6.6168572638
 31
0.0
  0
LINE
  5
15E
330
1F
100
AcDbEntity
  8
0
  6
Continuous
 62
     7
370
    25
100
AcDbLine
 10
15.9638063207
 20
6.8358050809
 30
0.0
 11
15.9638063207
 21
6.919593687
 31
0.0
  0
LINE
  5
15F
330
1F
100
AcDbEntity
  8
0
  6
Continuous
 62
     7
370
    25
100
AcDbLine
 10
15.8043063207
 20
6.4553959123
 30
0.0
 11
15.8043063207
 21
6.5468364819
 31
0.0
  0
LINE
  5
160
330
1F
100
AcDbEntity
  8
0
  6
Continuous
 62
     7
370
    25
100
AcDbLine
 10
15.7843063207
 20
6.6168572638
 30
0.0
 11
15.7843063207
 21
6.4900369285
 31
0.0
  0
LINE
  5
161
330
1F
100
AcDbEntity
  8
0
  6
Continuous
 62
     7
370
    25
100
AcDbLine
 10
15.8243063207
 20
6.6168572638
 30
0.0
 11
15.8243063207
 21
6.4900369285
 31
0.0
  0
LINE
  5
162
330
1F
100
AcDbEntity
  8
0
  6
Continuous
 62
     7
370
    25
100
AcDbLine
 10
15.8443063207
 20
6.4553959123
 30
0.0
 11
15.8443063207
 21
6.5468364819
 31
0.0
  0
LINE
  5
163
330
1F
100
AcDbEntity
  8
0
  6
Continuous
 62
     7
370
    25
100
AcDbLine
 10
15.9043063207
 20
6.6168572638
 30
0.0
 11
15.9043063207
 21
6.4900369285
 31
0.0
  0
LINE
  5
164
330
1F
100
AcDbEntity
  8
0
  6
Continuous
 62
     7
370
    25
100
AcDbLine
 10
15.8843063207
 20
6.4553959123
 30
0.0
 11
15.8843063207
 21
6.5468364819
 31
0.0
  0
LINE
  5
165
330
1F
100
AcDbEntity
  8
0
  6
Continuous
 62
     7
370
    25
100
AcDbLine
 10
15.8643063207
 20
6.6168572638
 30
0.0
 11
15.8643063207
 21
6.4900369285
 31
0.0
  0
LINE
  5
166
330
1F
100
AcDbEntity
  8
0
  6
Continuous
 62
     7
370
    25
100
AcDbLine
 10
15.9243063207
 20
6.4553959123
 30
0.0
 11
15.9243063207
 21
6.5468364819
 31
0.0
  0
LINE
  5
167
330
1F
100
AcDbEntity
  8
0
  6
Continuous
 62
     7
370
    25
100
AcDbLine
 10
15.9443063207
 20
6.6168572638
 30
0.0
 11
15.9443063207
 21
6.4900369285
 31
0.0
  0
LINE
  5
168
330
1F
100
AcDbEntity
  8
0
  6
Continuous
 62
     7
370
    25
100
AcDbLine
 10
15.9638063207
 20
6.5483399064
 30
0.0
 11
15.9638063207
 21
6.4562619377
 31
0.0
  0
LINE
  5
169
330
1F
100
AcDbEntity
  8
0
  6
Continuous
 62
     7
370
    25
100
AcDbLine
 10
18.1218063207
 20
7.8786461192
 30
0.0
 11
18.1218063207
 21
7.9058369285
 31
0.0
  0
LINE
  5
16A
330
1F
100
AcDbEntity
  8
0
  6
Continuous
 62
     7
370
    25
100
AcDbLine
 10
18.1218063207
 20
5.6858369285
 30
0.0
 11
18.1218063207
 21
7.8786461192
 31
0.0
  0
POINT
  5
16B
330
1F
100
AcDbEntity
  8
VP
100
AcDbPoint
 10
20.9018063207
 20
6.7958369285
 30
0.0
  0
DIMENSION
  5
16C
330
1F
100
AcDbEntity
  8
0
  6
Continuous
 62
     7
370
    18
100
AcDbDimension
  2
_D
 10
9.8052393916
 20
5.6858369285
 30
0.0
 11
9.8052393916
 21
6.7958369285
 31
0.0
 70
   160
  1
%%c<>
 71
     2
 42
-1.0
  3
SLDDIMSTYLE0
100
AcDbAlignedDimension
 13
16.2018063207
 23
7.9058369285
 33
0.0
 14
16.2018063207
 24
5.6858369285
 34
0.0
 50
90.0
100
AcDbRotatedDimension
  0
DIMENSION
  5
181
330
1F
100
AcDbEntity
  8
0
  6
Continuous
 62
     7
370
    18
100
AcDbDimension
  2
_D_1
 10
19.5218063207
 20
11.4579565634
 30
0.0
 11
23.9037677261
 21
11.4579565634
 31
0.0
 70
   160
  1
<>
 71
     2
 42
-1.0
  3
SLDDIMSTYLE1
100
AcDbAlignedDimension
 13
21.2218063207
 23
6.3258369285
 33
0.0
 14
19.5218063207
 24
9.2791250961
 34
0.0
 50
0.0
100
AcDbRotatedDimension
  0
DIMENSION
  5
196
330
1F
100
AcDbEntity
  8
0
  6
Continuous
 62
     7
370
    18
100
AcDbDimension
  2
_D_2
 10
15.7843063207
 20
11.4579565634
 30
0.0
 11
17.6530563207
 21
11.4579565634
 31
0.0
 70
   160
  1
<>
 71
     2
 42
-1.0
  3
SLDDIMSTYLE0
100
AcDbAlignedDimension
 13
19.5218063207
 23
9.2791250961
 33
0.0
 14
15.7843063207
 24
6.8510763297
 34
0.0
 50
0.0
100
AcDbRotatedDimension
  0
SPLINE
  5
1AA
330
1F
100
AcDbEntity
  8
0
  6
Continuous
 62
     7
370
    25
100
AcDbSpline
210
0.0
220
0.0
230
1.0
 70
     8
 71
     3
 72
    17
 73
    13
 74
     0
 42
0.00000001
 43
0.00000001
 40
0.0
 40
0.0
 40
0.0
 40
0.0
 40
0.0567536053495262
 40
0.1135414026571101
 40
0.2108342400853164
 40
0.3082431531935712
 40
0.433872375956887
 40
0.559571952009979
 40
0.6836533873973434
 40
0.8076472052926058
 40
0.9039079963072069
 40
1.0
 40
1.0
 40
1.0
 40
1.0
 10
30.97658196219981
 20
6.312233432282555
 30
0.0
 10
30.97643895949827
 20
6.312397548010579
 30
0.0
 10
30.97615286794132
 20
6.312725878340315
 30
0.0
 10
30.97380370932411
 20
6.313324900709192
 30
0.0
 10
30.96915845048871
 20
6.314013483890495
 30
0.0
 10
30.9606648262047
 20
6.314829604228869
 30
0.0
 10
30.94883381912444
 20
6.315631550421539
 30
0.0
 10
30.93360048616772
 20
6.316374254589119
 30
0.0
 10
30.91640168240664
 20
6.316980904161457
 30
0.0
 10
30.8990202050966
 20
6.317393967277121
 30
0.0
 10
30.88210965257432
 20
6.317646872526466
 30
0.0
 10
30.87147507330475
 20
6.31767982750288
 30
0.0
 10
30.86616244952927
 20
6.317696290532285
 30
0.0
  0
LINE
  5
1AB
330
1F
100
AcDbEntity
  8
0
  6
Continuous
 62
     7
370
    25
100
AcDbLine
 10
29.7294566119
 20
6.3176962905
 30
0.0
 11
30.8661624495
 21
6.3176962905
 31
0.0
  0
SPLINE
  5
1AC
330
1F
100
AcDbEntity
  8
0
  6
Continuous
 62
     7
370
    25
100
AcDbSpline
210
0.0
220
0.0
230
1.0
 70
     8
 71
     3
 72
    17
 73
    13
 74
     0
 42
0.00000001
 43
0.00000001
 40
0.0
 40
0.0
 40
0.0
 40
0.0
 40
0.0859223598659872
 40
0.1737593353502128
 40
0.2620584018686216
 40
0.350069187035523
 40
0.4654377939790956
 40
0.5808003109579347
 40
0.6936963756470471
 40
0.806475547789478
 40
0.9033517808576818
 40
1.0
 40
1.0
 40
1.0
 40
1.0
 10
29.72945661186601
 20
6.317696290532285
 30
0.0
 10
29.72470700215694
 20
6.317683068492883
 30
0.0
 10
29.71510194676148
 20
6.317656329786193
 30
0.0
 10
29.70100897084495
 20
6.317465086638356
 30
0.0
 10
29.6874081549385
 20
6.317185113429713
 30
0.0
 10
29.67322315704298
 20
6.316780965179225
 30
0.0
 10
29.65893639275066
 20
6.316236753458531
 30
0.0
 10
29.64533307694969
 20
6.315539089092212
 30
0.0
 10
29.63393198387306
 20
6.314748814564286
 30
0.0
 10
29.62564967322683
 20
6.313919655330069
 30
0.0
 10
29.62022171242415
 20
6.313072915255516
 30
0.0
 10
29.61943165998717
 20
6.312513040055245
 30
0.0
 10
29.61903709919555
 20
6.312233432282532
 30
0.0
  0
ELLIPSE
  5
1AD
330
1F
100
AcDbEntity
  8
0
  6
Continuous
 62
     7
370
    25
100
AcDbEllipse
 10
30.2978095307
 20
6.1832175358
 30
0.0
 11
6.394884621840902E-14
 21
0.9193961754804567
 31
0.0
210
0.0
220
0.0
230
1.0
 40
0.7456587883
 41
1.430004883296307
 42
1.487579429976997
  0
LINE
  5
1AE
330
1F
100
AcDbEntity
  8
0
  6
Continuous
 62
     7
370
    25
100
AcDbLine
 10
29.230494273
 20
6.2596385579
 30
0.0
 11
29.6146260779
 21
6.2596385579
 31
0.0
  0
ELLIPSE
  5
1AF
330
1F
100
AcDbEntity
  8
0
  6
Continuous
 62
     7
370
    25
100
AcDbEllipse
 10
29.0959974356
 20
6.2664851185
 30
0.0
 11
0.1875
 21
0.0
 31
0.0
210
0.0
220
0.0
230
1.0
 40
0.0524077793
 41
5.512332107964135
 42
6.195918844580111
  0
LINE
  5
1B0
330
1F
100
AcDbEntity
  8
0
  6
Continuous
 62
     7
370
    25
100
AcDbLine
 10
29.2827839415
 20
6.2656286862
 30
0.0
 11
29.3642802607
 21
6.3144469094
 31
0.0
  0
ELLIPSE
  5
1B1
330
1F
100
AcDbEntity
  8
0
  6
Continuous
 62
     7
370
    25
100
AcDbEllipse
 10
29.5511260204
 20
6.3136259716
 30
0.0
 11
0.1879494542362785
 21
0.0005044077137172921
 31
0.0
210
0.0
220
0.0
230
1.0
 40
0.064913913
 41
1.529476774672296
 42
3.032992742859059
  0
LINE
  5
1B2
330
1F
100
AcDbEntity
  8
0
  6
Continuous
 62
     7
370
    25
100
AcDbLine
 10
29.5588570829
 20
6.3258369285
 30
0.0
 11
31.0367619785
 21
6.3258369285
 31
0.0
  0
ELLIPSE
  5
1B3
330
1F
100
AcDbEntity
  8
0
  6
Continuous
 62
     7
370
    25
100
AcDbEllipse
 10
31.044493041
 20
6.3136259716
 30
0.0
 11
0.1879494542362785
 21
-0.0005044077137164038
 31
0.0
210
0.0
220
0.0
230
1.0
 40
0.064913913
 41
0.1085999107306577
 42
1.612115878917497
  0
LINE
  5
1B4
330
1F
100
AcDbEntity
  8
0
  6
Continuous
 62
     7
370
    25
100
AcDbLine
 10
31.3128351199
 20
6.2656286862
 30
0.0
 11
31.2313388007
 21
6.3144469094
 31
0.0
  0
ELLIPSE
  5
1B5
330
1F
100
AcDbEntity
  8
0
  6
Continuous
 62
     7
370
    25
100
AcDbEllipse
 10
31.4996216258
 20
6.2664851185
 30
0.0
 11
0.1875
 21
0.0
 31
0.0
210
0.0
220
0.0
230
1.0
 40
0.0524077793
 41
3.228859116189791
 42
3.912445852805507
  0
LINE
  5
1B6
330
1F
100
AcDbEntity
  8
0
  6
Continuous
 62
     7
370
    25
100
AcDbLine
 10
30.9809929835
 20
6.2596385579
 30
0.0
 11
31.3651247884
 21
6.2596385579
 31
0.0
  0
ELLIPSE
  5
1B7
330
1F
100
AcDbEntity
  8
0
  6
Continuous
 62
     7
370
    25
100
AcDbEllipse
 10
30.2978095307
 20
6.1832175358
 30
0.0
 11
6.394884621840902E-14
 21
0.9193961754804567
 31
0.0
210
0.0
220
0.0
230
1.0
 40
0.7456587883
 41
4.795605877202703
 42
4.853180423883401
  0
LINE
  5
1B8
330
1F
100
AcDbEntity
  8
0
  6
Continuous
 62
     7
370
    25
100
AcDbLine
 10
29.3642802607
 20
6.3144469094
 30
0.0
 11
29.2827839415
 21
7.4435465351
 31
0.0
  0
ELLIPSE
  5
1B9
330
1F
100
AcDbEntity
  8
0
  6
Continuous
 62
     7
370
    25
100
AcDbEllipse
 10
29.4724298746
 20
7.4039302884
 30
0.0
 11
-0.03391080412098547
 21
0.4698209269473984
 31
0.0
210
0.0
220
0.0
230
1.0
 40
0.3980527077
 41
6.237355505486643
 42
7.740871473673455
  0
LINE
  5
1BA
330
1F
100
AcDbEntity
  8
0
  6
Continuous
 62
     7
370
    25
100
AcDbLine
 10
29.4471224682
 20
7.87387631
 30
0.0
 11
29.5588570829
 21
6.3258369285
 31
0.0
  0
LINE
  5
1BB
330
1F
100
AcDbEntity
  8
0
  6
Continuous
 62
     7
370
    25
100
AcDbLine
 10
31.1484965932
 20
7.87387631
 30
0.0
 11
29.4471224682
 21
7.87387631
 31
0.0
  0
LINE
  5
1BC
330
1F
100
AcDbEntity
  8
0
  6
Continuous
 62
     7
370
    25
100
AcDbLine
 10
31.0367619785
 20
6.3258369285
 30
0.0
 11
31.1484965932
 21
7.87387631
 31
0.0
  0
ELLIPSE
  5
1BD
330
1F
100
AcDbEntity
  8
0
  6
Continuous
 62
     7
370
    25
100
AcDbEllipse
 10
31.1231891867
 20
7.4039302884
 30
0.0
 11
0.03391080412098547
 21
0.4698209269473984
 31
0.0
210
0.0
220
0.0
230
1.0
 40
0.3980527077
 41
4.825499140685725
 42
6.329015108872582
  0
LINE
  5
1BE
330
1F
100
AcDbEntity
  8
0
  6
Continuous
 62
     7
370
    25
100
AcDbLine
 10
31.3128351199
 20
7.4435465351
 30
0.0
 11
31.2313388007
 21
6.3144469094
 31
0.0
  0
LINE
  5
1BF
330
1F
100
AcDbEntity
  8
0
  6
Continuous
 62
     7
370
    25
100
AcDbLine
 10
29.2827839415
 20
7.4435465351
 30
0.0
 11
29.2827839415
 21
6.2656286862
 31
0.0
  0
LINE
  5
1C0
330
1F
100
AcDbEntity
  8
0
  6
Continuous
 62
     7
370
    25
100
AcDbLine
 10
31.3128351199
 20
6.2656286862
 30
0.0
 11
31.3128351199
 21
7.4435465351
 31
0.0
  0
SPLINE
  5
1C1
330
1F
100
AcDbEntity
  8
0
  6
Continuous
 62
     7
370
    25
100
AcDbSpline
210
0.0
220
0.0
230
1.0
 70
     8
 71
     3
 72
    16
 73
    12
 74
     0
 42
0.00000001
 43
0.00000001
 40
0.0
 40
0.0
 40
0.0
 40
0.0
 40
0.0033361472264154
 40
0.1347004150495098
 40
0.2663082538875725
 40
0.3976169288538469
 40
0.5173602008078028
 40
0.6373545597936062
 40
0.7569009356172257
 40
0.878554029369212
 40
1.0
 40
1.0
 40
1.0
 40
1.0
 10
29.09599743556937
 20
6.199720785839485
 30
0.0
 10
29.09615508936421
 20
6.199809967873182
 30
0.0
 10
29.10252052534699
 20
6.203410785264778
 30
0.0
 10
29.11510982375527
 20
6.210534940398871
 30
0.0
 10
29.13367449250931
 20
6.220864624400319
 30
0.0
 10
29.15155664178695
 20
6.23045775407654
 30
0.0
 10
29.16866081016046
 20
6.239136623308745
 30
0.0
 10
29.18493942862706
 20
6.246698263297554
 30
0.0
 10
29.20085620101233
 20
6.253023703547435
 30
0.0
 10
29.21628082095856
 20
6.257951411414323
 30
0.0
 10
29.22575914753865
 20
6.259076495282627
 30
0.0
 10
29.23049427300857
 20
6.25963855792476
 30
0.0
  0
LINE
  5
1C2
330
1F
100
AcDbEntity
  8
0
  6
Continuous
 62
     7
370
    25
100
AcDbLine
 10
29.0959974356
 20
6.1997207858
 30
0.0
 11
29.0959974356
 21
7.4435465351
 31
0.0
  0
LINE
  5
1C3
330
1F
100
AcDbEntity
  8
0
  6
Continuous
 62
     7
370
    25
100
AcDbLine
 10
29.0959974356
 20
7.4435465351
 30
0.0
 11
29.2827839415
 21
7.4435465351
 31
0.0
  0
ELLIPSE
  5
1C4
330
1F
100
AcDbEntity
  8
0
  6
Continuous
 62
     7
370
    25
100
AcDbEllipse
 10
29.4724298746
 20
7.4039302884
 30
0.0
 11
0.04248760103775241
 21
-0.5886490934306884
 31
3.552713678800502E-15
210
-4.333639641097306E-16
220
6.004088213219040E-15
230
1.0
 40
0.6353988963
 41
3.095762851896789
 42
4.599278820083666
  0
LINE
  5
1C5
330
1F
100
AcDbEntity
  8
0
  6
Continuous
 62
     7
370
    25
100
AcDbLine
 10
29.4471224682
 20
7.993198114
 30
0.0
 11
29.4471224682
 21
7.87387631
 31
0.0
  0
LINE
  5
1C6
330
1F
100
AcDbEntity
  8
0
  6
Continuous
 62
     7
370
    25
100
AcDbLine
 10
31.3128351199
 20
7.4435465351
 30
0.0
 11
31.4996216258
 21
7.4435465351
 31
0.0
  0
LINE
  5
1C7
330
1F
100
AcDbEntity
  8
0
  6
Continuous
 62
     7
370
    25
100
AcDbLine
 10
31.4996216258
 20
7.4435465351
 30
0.0
 11
31.4996216258
 21
6.1997207858
 31
0.0
  0
SPLINE
  5
1C8
330
1F
100
AcDbEntity
  8
0
  6
Continuous
 62
     7
370
    25
100
AcDbSpline
210
0.0
220
0.0
230
1.0
 70
     8
 71
     3
 72
    16
 73
    12
 74
     0
 42
0.00000001
 43
0.00000001
 40
0.0
 40
0.0
 40
0.0
 40
0.0
 40
0.1214459706307839
 40
0.2430990643827657
 40
0.3626454402063821
 40
0.4826397991921773
 40
0.6023830711461285
 40
0.7336917461124366
 40
0.8652995849505101
 40
0.9966638527736054
 40
1.0
 40
1.0
 40
1.0
 40
1.0
 10
31.36512478838671
 20
6.25963855792476
 30
0.0
 10
31.36985991385663
 20
6.259076495282627
 30
0.0
 10
31.37933824043672
 20
6.257951411414323
 30
0.0
 10
31.39476286038295
 20
6.253023703547435
 30
0.0
 10
31.41067963276821
 20
6.246698263297551
 30
0.0
 10
31.42695825123483
 20
6.239136623308755
 30
0.0
 10
31.44406241960831
 20
6.230457754076512
 30
0.0
 10
31.46194456888603
 20
6.220864624400432
 30
0.0
 10
31.48050923764036
 20
6.210534940399481
 30
0.0
 10
31.49309853604823
 20
6.203410785264641
 30
0.0
 10
31.49946397203107
 20
6.199809967873178
 30
0.0
 10
31.49962162582591
 20
6.199720785839485
 30
0.0
  0
LINE
  5
1C9
330
1F
100
AcDbEntity
  8
0
  6
Continuous
 62
     7
370
    25
100
AcDbLine
 10
31.1484965932
 20
7.993198114
 30
0.0
 11
31.1484965932
 21
7.87387631
 31
0.0
  0
ELLIPSE
  5
1CA
330
1F
100
AcDbEntity
  8
0
  6
Continuous
 62
     7
370
    25
100
AcDbEllipse
 10
31.1231891867
 20
7.4039302884
 30
0.0
 11
-0.0424876010377453
 21
-0.5886490934306885
 31
3.552713678800502E-15
210
4.333639641096586E-16
220
6.004088213219049E-15
230
1.0
 40
0.6353988963
 41
1.68390648709592
 42
3.187422455282792
  0
LINE
  5
1CB
330
1F
100
AcDbEntity
  8
0
  6
Continuous
 62
     7
370
    25
100
AcDbLine
 10
29.6635014996
 20
6.1997207858
 30
0.0
 11
29.0959974356
 21
6.1997207858
 31
0.0
  0
SPLINE
  5
1CC
330
1F
100
AcDbEntity
  8
0
  6
Continuous
 62
     7
370
    25
100
AcDbSpline
210
0.0
220
0.0
230
1.0
 70
     8
 71
     3
 72
    17
 73
    13
 74
     0
 42
0.00000001
 43
0.00000001
 40
0.0
 40
0.0
 40
0.0
 40
0.0
 40
0.0801022235642675
 40
0.1602290590881717
 40
0.2400244853561798
 40
0.3198707314545209
 40
0.4048731968776631
 40
0.4899315022913598
 40
0.6174064108896037
 40
0.7450369536113767
 40
0.8724873160539253
 40
1.0
 40
1.0
 40
1.0
 40
1.0
 10
29.61462607789062
 20
6.25963855792476
 30
0.0
 10
29.61471076750045
 20
6.259370849919918
 30
0.0
 10
29.61488017274159
 20
6.258835351655106
 30
0.0
 10
29.61629500046053
 20
6.256582510334114
 30
0.0
 10
29.61850875770419
 20
6.253371566636552
 30
0.0
 10
29.62153121132617
 20
6.24921604673573
 30
0.0
 10
29.62530856100825
 20
6.244227531874791
 30
0.0
 10
29.63048163150667
 20
6.237619910301065
 30
0.0
 10
29.63720232292119
 20
6.229361030664743
 30
0.0
 10
29.64549892195993
 20
6.219590948973652
 30
0.0
 10
29.65430906378783
 20
6.209617106331272
 30
0.0
 10
29.66043685506783
 20
6.203020096846733
 30
0.0
 10
29.66350149962649
 20
6.199720785839485
 30
0.0
  0
LINE
  5
1CD
330
1F
100
AcDbEntity
  8
0
  6
Continuous
 62
     7
370
    25
100
AcDbLine
 10
31.4996216258
 20
6.1997207858
 30
0.0
 11
30.9321175618
 21
6.1997207858
 31
0.0
  0
SPLINE
  5
1CE
330
1F
100
AcDbEntity
  8
0
  6
Continuous
 62
     7
370
    25
100
AcDbSpline
210
0.0
220
0.0
230
1.0
 70
     8
 71
     3
 72
    16
 73
    12
 74
     0
 42
0.00000001
 43
0.00000001
 40
0.0
 40
0.0
 40
0.0
 40
0.0
 40
0.1436550458136313
 40
0.2872028912027118
 40
0.4081468147244429
 40
0.5289547107663037
 40
0.6250911171799247
 40
0.7211313244626623
 40
0.8025421879391826
 40
0.8839013801503273
 40
1.0
 40
1.0
 40
1.0
 40
1.0
 10
30.93211756176879
 20
6.199720785839485
 30
0.0
 10
30.93556694754679
 20
6.20344005194578
 30
0.0
 10
30.94246314505036
 20
6.210875808711786
 30
0.0
 10
30.95178013070437
 20
6.221508425352272
 30
0.0
 10
30.95998134514362
 20
6.231257985139949
 30
0.0
 10
30.96651030162452
 20
6.239343290018062
 30
0.0
 10
30.97176113564569
 20
6.246114594409047
 30
0.0
 10
30.97560857896244
 20
6.251276575109438
 30
0.0
 10
30.97837673088748
 20
6.255182659038104
 30
0.0
 10
30.98052043901412
 20
6.258410312415846
 30
0.0
 10
30.98081801734997
 20
6.259183782981849
 30
0.0
 10
30.98099298350466
 20
6.25963855792476
 30
0.0
  0
LINE
  5
1CF
330
1F
100
AcDbEntity
  8
0
  6
Continuous
 62
     7
370
    25
100
AcDbLine
 10
29.4471224682
 20
7.993198114
 30
0.0
 11
31.1484965932
 21
7.993198114
 31
0.0
  0
CIRCLE
  5
1D0
330
1F
100
AcDbEntity
  8
0
  6
Continuous
 62
     7
370
    25
100
AcDbCircle
 10
28.6428095307
 20
6.7958369285
 30
0.0
 40
0.2049999999999983
  0
LINE
  5
1D1
330
1F
100
AcDbEntity
  8
0
  6
Continuous
 62
     7
370
    25
100
AcDbLine
 10
27.8267801939
 20
9.2668662653
 30
0.0
 11
27.8267801939
 21
4.3248075917
 31
0.0
  0
LINE
  5
1D2
330
1F
100
AcDbEntity
  8
0
  6
Continuous
 62
     7
370
    25
100
AcDbLine
 10
32.7688388675
 20
9.2668662653
 30
0.0
 11
27.8267801939
 21
9.2668662653
 31
0.0
  0
LINE
  5
1D3
330
1F
100
AcDbEntity
  8
0
  6
Continuous
 62
     7
370
    25
100
AcDbLine
 10
32.7688388675
 20
4.3248075917
 30
0.0
 11
32.7688388675
 21
9.2668662653
 31
0.0
  0
LINE
  5
1D4
330
1F
100
AcDbEntity
  8
0
  6
Continuous
 62
     7
370
    25
100
AcDbLine
 10
27.8267801939
 20
4.3248075917
 30
0.0
 11
32.7688388675
 21
4.3248075917
 31
0.0
  0
CIRCLE
  5
1D5
330
1F
100
AcDbEntity
  8
0
  6
Continuous
 62
     7
370
    25
100
AcDbCircle
 10
31.9528095307
 20
6.7958369285
 30
0.0
 40
0.2049999999999947
  0
ARC
  5
1D6
330
1F
100
AcDbEntity
  8
0
  6
Continuous
 62
     7
370
    25
100
AcDbCircle
 10
30.2978095307
 20
6.7958369285
 30
0.0
 40
0.8704602999660725
100
AcDbArc
 50
223.2221320796
 51
316.7778679204
  0
LINE
  5
1D7
330
1F
100
AcDbEntity
  8
0
  6
Continuous
 62
     7
370
    25
100
AcDbLine
 10
27.8267801939
 20
4.3248075917
 30
0.0
 11
27.7967984691
 21
4.3248075917
 31
0.0
  0
LINE
  5
1D8
330
1F
100
AcDbEntity
  8
0
  6
Continuous
 62
     7
370
    25
100
AcDbLine
 10
27.7967984691
 20
4.3248075917
 30
0.0
 11
27.7967984691
 21
9.2668662653
 31
0.0
  0
LINE
  5
1D9
330
1F
100
AcDbEntity
  8
0
  6
Continuous
 62
     7
370
    25
100
AcDbLine
 10
27.8267801939
 20
9.2668662653
 30
0.0
 11
27.7967984691
 21
9.2668662653
 31
0.0
  0
LINE
  5
1DA
330
1F
100
AcDbEntity
  8
0
  6
Continuous
 62
     7
370
    25
100
AcDbLine
 10
27.8267801939
 20
4.3248075917
 30
0.0
 11
27.8267801939
 21
4.2948258669
 31
0.0
  0
ARC
  5
1DB
330
1F
100
AcDbEntity
  8
0
  6
Continuous
 62
     7
370
    25
100
AcDbCircle
 10
27.8268230027
 20
4.3248504005
 30
0.0
 40
0.0300245641040202
100
AcDbArc
 50
180.0816918763
 51
269.9183081237
  0
LINE
  5
1DC
330
1F
100
AcDbEntity
  8
0
  6
Continuous
 62
     7
370
    25
100
AcDbLine
 10
32.7688388675
 20
4.3248075917
 30
0.0
 11
32.7688388675
 21
4.2948258669
 31
0.0
  0
LINE
  5
1DD
330
1F
100
AcDbEntity
  8
0
  6
Continuous
 62
     7
370
    25
100
AcDbLine
 10
32.7688388675
 20
4.2948258669
 30
0.0
 11
27.8267801939
 21
4.2948258669
 31
0.0
  0
CIRCLE
  5
1DE
330
1F
100
AcDbEntity
  8
0
  6
Continuous
 62
     7
370
    25
100
AcDbCircle
 10
28.6428095307
 20
6.7958369285
 30
0.0
 40
0.1015000000000015
  0
LINE
  5
1DF
330
1F
100
AcDbEntity
  8
0
  6
Continuous
 62
     7
370
    25
100
AcDbLine
 10
32.7988205923
 20
9.2668662653
 30
0.0
 11
32.7988205923
 21
4.3248075917
 31
0.0
  0
LINE
  5
1E0
330
1F
100
AcDbEntity
  8
0
  6
Continuous
 62
     7
370
    25
100
AcDbLine
 10
32.7988205923
 20
4.3248075917
 30
0.0
 11
32.7688388675
 21
4.3248075917
 31
0.0
  0
LINE
  5
1E1
330
1F
100
AcDbEntity
  8
0
  6
Continuous
 62
     7
370
    25
100
AcDbLine
 10
32.7988205923
 20
9.2668662653
 30
0.0
 11
32.7688388675
 21
9.2668662653
 31
0.0
  0
ARC
  5
1E2
330
1F
100
AcDbEntity
  8
0
  6
Continuous
 62
     7
370
    25
100
AcDbCircle
 10
32.7687960587
 20
4.3248504005
 30
0.0
 40
0.0300245641040238
100
AcDbArc
 50
270.0816918763
 51
359.9183081237
  0
LINE
  5
1E3
330
1F
100
AcDbEntity
  8
0
  6
Continuous
 62
     7
370
    25
100
AcDbLine
 10
27.8267801939
 20
9.2968479901
 30
0.0
 11
32.7688388675
 21
9.2968479901
 31
0.0
  0
LINE
  5
1E4
330
1F
100
AcDbEntity
  8
0
  6
Continuous
 62
     7
370
    25
100
AcDbLine
 10
32.7688388675
 20
9.2968479901
 30
0.0
 11
32.7688388675
 21
9.2668662653
 31
0.0
  0
LINE
  5
1E5
330
1F
100
AcDbEntity
  8
0
  6
Continuous
 62
     7
370
    25
100
AcDbLine
 10
27.8267801939
 20
9.2968479901
 30
0.0
 11
27.8267801939
 21
9.2668662653
 31
0.0
  0
ARC
  5
1E6
330
1F
100
AcDbEntity
  8
0
  6
Continuous
 62
     7
370
    25
100
AcDbCircle
 10
27.8268230027
 20
9.2668234565
 30
0.0
 40
0.0300245641040184
100
AcDbArc
 50
90.0816918763
 51
179.9183081237
  0
CIRCLE
  5
1E7
330
1F
100
AcDbEntity
  8
0
  6
Continuous
 62
     7
370
    25
100
AcDbCircle
 10
31.9528095307
 20
6.7958369285
 30
0.0
 40
0.1014999999999979
  0
ARC
  5
1E8
330
1F
100
AcDbEntity
  8
0
  6
Continuous
 62
     7
370
    25
100
AcDbCircle
 10
32.7687960587
 20
9.2668234565
 30
0.0
 40
0.030024564104038
100
AcDbArc
 50
0.0816918764
 51
89.9183081236
  0
ELLIPSE
  5
1E9
330
1F
100
AcDbEntity
  8
0
  6
Continuous
 62
     7
370
    25
100
AcDbEllipse
 10
27.8145579246
 20
4.3125853224
 30
0.0
 11
0.02123905633797563
 21
0.02123905633797651
 31
0.0
210
0.0
220
0.0
230
1.0
 40
0.998782766
 41
2.356803477777928
 42
3.926381829401691
  0
LINE
  5
1EA
330
1F
100
AcDbEntity
  8
0
  6
Continuous
 62
     7
370
    25
100
AcDbLine
 10
27.7845396383
 20
4.3125487609
 30
0.0
 11
27.7967984691
 21
4.3248075917
 31
0.0
  0
LINE
  5
1EB
330
1F
100
AcDbEntity
  8
0
  6
Continuous
 62
     7
370
    25
100
AcDbLine
 10
27.8267801939
 20
4.2948258669
 30
0.0
 11
27.8145213631
 21
4.2825670361
 31
0.0
  0
ELLIPSE
  5
1EC
330
1F
100
AcDbEntity
  8
0
  6
Continuous
 62
     7
370
    25
100
AcDbEllipse
 10
32.7810611368
 20
4.3125853224
 30
0.0
 11
-0.02123905633797563
 21
0.02123905633797563
 31
0.0
210
0.0
220
0.0
230
1.0
 40
0.998782766
 41
2.356803477778018
 42
3.926381829401701
  0
LINE
  5
1ED
330
1F
100
AcDbEntity
  8
0
  6
Continuous
 62
     7
370
    25
100
AcDbLine
 10
32.7810976983
 20
4.2825670361
 30
0.0
 11
32.7688388675
 21
4.2948258669
 31
0.0
  0
LINE
  5
1EE
330
1F
100
AcDbEntity
  8
0
  6
Continuous
 62
     7
370
    25
100
AcDbLine
 10
32.7988205923
 20
4.3248075917
 30
0.0
 11
32.8110794231
 21
4.3125487609
 31
0.0
  0
ELLIPSE
  5
1EF
330
1F
100
AcDbEntity
  8
0
  6
Continuous
 62
     7
370
    25
100
AcDbEllipse
 10
27.8145579246
 20
9.2790885346
 30
0.0
 11
0.02123905633797563
 21
-0.02123905633797563
 31
0.0
210
0.0
220
0.0
230
1.0
 40
0.998782766
 41
2.356803477777868
 42
3.926381829401555
  0
LINE
  5
1F0
330
1F
100
AcDbEntity
  8
0
  6
Continuous
 62
     7
370
    25
100
AcDbLine
 10
27.8145213631
 20
9.3091068209
 30
0.0
 11
27.8267801939
 21
9.2968479901
 31
0.0
  0
LINE
  5
1F1
330
1F
100
AcDbEntity
  8
0
  6
Continuous
 62
     7
370
    25
100
AcDbLine
 10
27.7967984691
 20
9.2668662653
 30
0.0
 11
27.7845396383
 21
9.2791250961
 31
0.0
  0
ELLIPSE
  5
1F2
330
1F
100
AcDbEntity
  8
0
  6
Continuous
 62
     7
370
    25
100
AcDbEllipse
 10
32.7810611368
 20
9.2790885346
 30
0.0
 11
-0.02123905633797563
 21
-0.02123905633797563
 31
0.0
210
0.0
220
0.0
230
1.0
 40
0.998782766
 41
2.356803477778004
 42
3.926381829401655
  0
LINE
  5
1F3
330
1F
100
AcDbEntity
  8
0
  6
Continuous
 62
     7
370
    25
100
AcDbLine
 10
32.8110794231
 20
9.2791250961
 30
0.0
 11
32.7988205923
 21
9.2668662653
 31
0.0
  0
LINE
  5
1F4
330
1F
100
AcDbEntity
  8
0
  6
Continuous
 62
     7
370
    25
100
AcDbLine
 10
32.7688388675
 20
9.2968479901
 30
0.0
 11
32.7810976983
 21
9.3091068209
 31
0.0
  0
LINE
  5
1F5
330
1F
100
AcDbEntity
  8
0
  6
Continuous
 62
     7
370
    25
100
AcDbLine
 10
27.7845396383
 20
4.3125487609
 30
0.0
 11
27.7845396383
 21
9.2791250961
 31
0.0
  0
LINE
  5
1F6
330
1F
100
AcDbEntity
  8
0
  6
Continuous
 62
     7
370
    25
100
AcDbLine
 10
32.7810976983
 20
4.2825670361
 30
0.0
 11
27.8145213631
 21
4.2825670361
 31
0.0
  0
LINE
  5
1F7
330
1F
100
AcDbEntity
  8
0
  6
Continuous
 62
     7
370
    25
100
AcDbLine
 10
32.8110794231
 20
9.2791250961
 30
0.0
 11
32.8110794231
 21
4.3125487609
 31
0.0
  0
LINE
  5
1F8
330
1F
100
AcDbEntity
  8
0
  6
Continuous
 62
     7
370
    25
100
AcDbLine
 10
27.8145213631
 20
9.3091068209
 30
0.0
 11
32.7810976983
 21
9.3091068209
 31
0.0
  0
LINE
  5
1F9
330
1F
100
AcDbEntity
  8
0
  6
Continuous
 62
     7
370
    25
100
AcDbLine
 10
30.9228095307
 20
6.316719742
 30
0.0
 11
30.9228095307
 21
6.1899688456
 31
0.0
  0
LINE
  5
1FA
330
1F
100
AcDbEntity
  8
0
  6
Continuous
 62
     7
370
    25
100
AcDbLine
 10
29.6728095307
 20
6.3167347051
 30
0.0
 11
29.6728095307
 21
6.1899688456
 31
0.0
  0
LINE
  5
1FB
330
1F
100
AcDbEntity
  8
0
  6
Continuous
 62
     7
370
    25
100
AcDbLine
 10
29.7353095307
 20
6.3176962905
 30
0.0
 11
29.7353095307
 21
6.1315366321
 31
0.0
  0
LINE
  5
1FC
330
1F
100
AcDbEntity
  8
0
  6
Continuous
 62
     7
370
    25
100
AcDbLine
 10
30.8603095307
 20
6.3176962905
 30
0.0
 11
30.8603095307
 21
6.1315366321
 31
0.0
  0
LINE
  5
1FD
330
1F
100
AcDbEntity
  8
0
  6
Continuous
 62
     7
370
    25
100
AcDbLine
 10
30.7978095307
 20
6.3176962905
 30
0.0
 11
30.7978095307
 21
6.0833054318
 31
0.0
  0
LINE
  5
1FE
330
1F
100
AcDbEntity
  8
0
  6
Continuous
 62
     7
370
    25
100
AcDbLine
 10
29.8603095307
 20
6.3176962905
 30
0.0
 11
29.8603095307
 21
6.0433112586
 31
0.0
  0
LINE
  5
1FF
330
1F
100
AcDbEntity
  8
0
  6
Continuous
 62
     7
370
    25
100
AcDbLine
 10
29.7978095307
 20
6.3176962905
 30
0.0
 11
29.7978095307
 21
6.0833054318
 31
0.0
  0
LINE
  5
200
330
1F
100
AcDbEntity
  8
0
  6
Continuous
 62
     7
370
    25
100
AcDbLine
 10
30.7353095307
 20
6.3176962905
 30
0.0
 11
30.7353095307
 21
6.0433112586
 31
0.0
  0
LINE
  5
201
330
1F
100
AcDbEntity
  8
0
  6
Continuous
 62
     7
370
    25
100
AcDbLine
 10
30.6728095307
 20
6.3176962905
 30
0.0
 11
30.6728095307
 21
6.0102949921
 31
0.0
  0
LINE
  5
202
330
1F
100
AcDbEntity
  8
0
  6
Continuous
 62
     7
370
    25
100
AcDbLine
 10
29.9853095307
 20
6.3176962905
 30
0.0
 11
29.9853095307
 21
5.9834054644
 31
0.0
  0
LINE
  5
203
330
1F
100
AcDbEntity
  8
0
  6
Continuous
 62
     7
370
    25
100
AcDbLine
 10
29.9228095307
 20
6.3176962905
 30
0.0
 11
29.9228095307
 21
6.0102949921
 31
0.0
  0
LINE
  5
204
330
1F
100
AcDbEntity
  8
0
  6
Continuous
 62
     7
370
    25
100
AcDbLine
 10
30.6103095307
 20
6.3176962905
 30
0.0
 11
30.6103095307
 21
5.9834054644
 31
0.0
  0
LINE
  5
205
330
1F
100
AcDbEntity
  8
0
  6
Continuous
 62
     7
370
    25
100
AcDbLine
 10
30.5478095307
 20
6.3176962905
 30
0.0
 11
30.5478095307
 21
5.9620497051
 31
0.0
  0
LINE
  5
206
330
1F
100
AcDbEntity
  8
0
  6
Continuous
 62
     7
370
    25
100
AcDbLine
 10
30.1103095307
 20
6.3176962905
 30
0.0
 11
30.1103095307
 21
5.9458105267
 31
0.0
  0
LINE
  5
207
330
1F
100
AcDbEntity
  8
0
  6
Continuous
 62
     7
370
    25
100
AcDbLine
 10
30.0478095307
 20
6.3176962905
 30
0.0
 11
30.0478095307
 21
5.9620497051
 31
0.0
  0
LINE
  5
208
330
1F
100
AcDbEntity
  8
0
  6
Continuous
 62
     7
370
    25
100
AcDbLine
 10
30.4228095307
 20
6.3176962905
 30
0.0
 11
30.4228095307
 21
5.9343985187
 31
0.0
  0
LINE
  5
209
330
1F
100
AcDbEntity
  8
0
  6
Continuous
 62
     7
370
    25
100
AcDbLine
 10
30.4853095307
 20
6.3176962905
 30
0.0
 11
30.4853095307
 21
5.9458105267
 31
0.0
  0
LINE
  5
20A
330
1F
100
AcDbEntity
  8
0
  6
Continuous
 62
     7
370
    25
100
AcDbLine
 10
30.1728095307
 20
6.3176962905
 30
0.0
 11
30.1728095307
 21
5.9343985187
 31
0.0
  0
LINE
  5
20B
330
1F
100
AcDbEntity
  8
0
  6
Continuous
 62
     7
370
    25
100
AcDbLine
 10
30.2353095307
 20
6.3176962905
 30
0.0
 11
30.2353095307
 21
5.927623312
 31
0.0
  0
LINE
  5
20C
330
1F
100
AcDbEntity
  8
0
  6
Continuous
 62
     7
370
    25
100
AcDbLine
 10
30.3603095307
 20
6.3176962905
 30
0.0
 11
30.3603095307
 21
5.927623312
 31
0.0
  0
LINE
  5
20D
330
1F
100
AcDbEntity
  8
0
  6
Continuous
 62
     7
370
    25
100
AcDbLine
 10
30.2978095307
 20
6.3176962905
 30
0.0
 11
30.2978095307
 21
5.9253766285
 31
0.0
  0
DIMENSION
  5
20E
330
1F
100
AcDbEntity
  8
0
  6
Continuous
 62
     7
370
    18
100
AcDbDimension
  2
_D_3
 10
31.9528095307
 20
13.1141395987
 30
0.0
 11
30.2978095307
 21
13.1141395987
 31
0.0
 70
   160
  1
<>
 71
     2
 42
-1.0
  3
SLDDIMSTYLE0
100
AcDbAlignedDimension
 13
28.6428095307
 23
6.7958369285
 33
0.0
 14
31.9528095307
 24
6.7958369285
 34
0.0
100
AcDbRotatedDimension
  0
DIMENSION
  5
222
330
1F
100
AcDbEntity
  8
0
  6
Continuous
 62
     7
370
    18
100
AcDbDimension
  2
_D_4
 10
36.830157437
 20
4.2825670361
 30
0.0
 11
36.830157437
 21
6.7958369285
 31
0.0
 70
   160
  1
<>
 71
     2
 42
-1.0
  3
SLDDIMSTYLE2
100
AcDbAlignedDimension
 13
32.7810976983
 23
9.3091068209
 33
0.0
 14
32.7810976983
 24
4.2825670361
 34
0.0
 50
90.0
100
AcDbRotatedDimension
  0
ENDSEC
  0
SECTION
  2
OBJECTS
  0
DICTIONARY
  5
C
330
0
100
AcDbDictionary
281
     1
  3
ACAD_GROUP
350
D
  3
ACAD_LAYOUT
350
1A
  3
ACAD_MLINESTYLE
350
17
  3
ACAD_PLOTSETTINGS
350
19
  3
ACAD_PLOTSTYLENAME
350
E
  3
ACAD_SCALELIST
350
47
  3
DWGPROPS
350
237
  0
DICTIONARY
  5
D
102
{ACAD_REACTORS
330
C
102
}
330
C
100
AcDbDictionary
281
     1
  0
DICTIONARY
  5
1A
102
{ACAD_REACTORS
330
C
102
}
330
C
100
AcDbDictionary
281
     1
  3
Layout1
350
1E
  3
Layout2
350
26
  3
Model
350
22
  0
DICTIONARY
  5
17
102
{ACAD_REACTORS
330
C
102
}
330
C
100
AcDbDictionary
281
     1
  3
Standard
350
18
  0
DICTIONARY
  5
19
102
{ACAD_REACTORS
330
C
102
}
330
C
100
AcDbDictionary
281
     1
  0
ACDBDICTIONARYWDFLT
  5
E
102
{ACAD_REACTORS
330
C
102
}
330
C
100
AcDbDictionary
281
     1
  3
Normal
350
F
100
AcDbDictionaryWithDefault
340
F
  0
DICTIONARY
  5
47
102
{ACAD_REACTORS
330
C
102
}
330
C
100
AcDbDictionary
281
     1
  3
A0
350
48
  3
A1
350
49
  3
A2
350
4A
  3
A3
350
4B
  3
A4
350
4C
  3
A5
350
4D
  3
A6
350
4E
  3
A7
350
4F
  3
A8
350
50
  3
A9
350
51
  3
B1
350
52
  3
B2
350
53
  3
B3
350
54
  3
B4
350
55
  3
B5
350
56
  3
B6
350
57
  3
B7
350
58
  0
XRECORD
  5
237
102
{ACAD_REACTORS
330
C
102
}
330
C
100
AcDbXrecord
280
     1
  1
DWGPROPS COOKIE
  2

  3

  4

  6

  7

  8
gurisher.rai
  9

300
=
301
=
302
=
303
=
304
=
305
=
306
=
307
=
308
=
309
=
 40
0.0
 41
2460566.623739769
 42
2460566.623740128
  1

 90
        0
  0
LAYOUT
  5
1E
102
{ACAD_REACTORS
330
1A
102
}
330
1A
100
AcDbPlotSettings
  1

  2
none_device
  4

  6

 40
0.0
 41
0.0
 42
0.0
 43
0.0
 44
0.0
 45
0.0
 46
0.0
 47
0.0
 48
0.0
 49
0.0
140
0.0
141
0.0
142
1.0
143
1.0
 70
   688
 72
     0
 73
     0
 74
     5
  7

 75
    16
147
1.0
148
0.0
149
0.0
100
AcDbLayout
  1
Layout1
 70
     1
 71
     1
 10
0.0
 20
0.0
 11
12.0
 21
9.0
 12
0.0
 22
0.0
 32
0.0
 14
1.0000000000E+20
 24
1.0000000000E+20
 34
1.0000000000E+20
 15
-1.0000000000E+20
 25
-1.0000000000E+20
 35
-1.0000000000E+20
146
0.0
 13
0.0
 23
0.0
 33
0.0
 16
1.0
 26
0.0
 36
0.0
 17
0.0
 27
1.0
 37
0.0
 76
     0
330
1B
  0
LAYOUT
  5
26
102
{ACAD_REACTORS
330
1A
102
}
330
1A
100
AcDbPlotSettings
  1

  2
none_device
  4

  6

 40
0.0
 41
0.0
 42
0.0
 43
0.0
 44
0.0
 45
0.0
 46
0.0
 47
0.0
 48
0.0
 49
0.0
140
0.0
141
0.0
142
1.0
143
1.0
 70
   688
 72
     0
 73
     0
 74
     5
  7

 75
    16
147
1.0
148
0.0
149
0.0
100
AcDbLayout
  1
Layout2
 70
     1
 71
     2
 10
0.0
 20
0.0
 11
0.0
 21
0.0
 12
0.0
 22
0.0
 32
0.0
 14
0.0
 24
0.0
 34
0.0
 15
0.0
 25
0.0
 35
0.0
146
0.0
 13
0.0
 23
0.0
 33
0.0
 16
1.0
 26
0.0
 36
0.0
 17
0.0
 27
1.0
 37
0.0
 76
     0
330
23
  0
LAYOUT
  5
22
102
{ACAD_REACTORS
330
1A
102
}
330
1A
100
AcDbPlotSettings
  1

  2
none_device
  4
Letter_(8.50_x_11.00_Inches)
  6

 40
6.35
 41
6.35
 42
6.35000508
 43
6.35000508
 44
215.9
 45
279.4
 46
0.0
 47
0.0
 48
0.0
 49
0.0
140
0.0
141
0.0
142
1.0
143
1.0
 70
  1712
 72
     0
 73
     0
 74
     0
  7

 75
     0
147
1.0
148
0.0
149
0.0
100
AcDbLayout
  1
Model
 70
     1
 71
     0
 10
0.0
 20
0.0
 11
44.0
 21
34.0
 12
0.0
 22
0.0
 32
0.0
 14
0.0
 24
0.0
 34
0.0
 15
44.0
 25
34.0
 35
0.0
146
0.0
 13
0.0
 23
0.0
 33
0.0
 16
1.0
 26
0.0
 36
0.0
 17
0.0
 27
1.0
 37
0.0
 76
     0
330
1F
331
29
  0
MLINESTYLE
  5
18
102
{ACAD_REACTORS
330
17
102
}
330
17
100
AcDbMlineStyle
  2
Standard
 70
     0
  3

 62
   256
 51
90.0
 52
90.0
 71
     2
 49
0.5
 62
   256
  6
BYLAYER
 49
-0.5
 62
   256
  6
BYLAYER
  0
ACDBPLACEHOLDER
  5
F
102
{ACAD_REACTORS
330
E
102
}
330
E
  0
SCALE
  5
48
102
{ACAD_REACTORS
330
47
102
}
330
47
100
AcDbScale
 70
     0
300
1:1
140
1.0
141
1.0
290
     1
  0
SCALE
  5
49
102
{ACAD_REACTORS
330
47
102
}
330
47
100
AcDbScale
 70
     0
300
1/128" = 1'-0"
140
0.0078125
141
12.0
290
     0
  0
SCALE
  5
4A
102
{ACAD_REACTORS
330
47
102
}
330
47
100
AcDbScale
 70
     0
300
1/64" = 1'-0"
140
0.015625
141
12.0
290
     0
  0
SCALE
  5
4B
102
{ACAD_REACTORS
330
47
102
}
330
47
100
AcDbScale
 70
     0
300
1/32" = 1'-0"
140
0.03125
141
12.0
290
     0
  0
SCALE
  5
4C
102
{ACAD_REACTORS
330
47
102
}
330
47
100
AcDbScale
 70
     0
300
1/16" = 1'-0"
140
0.0625
141
12.0
290
     0
  0
SCALE
  5
4D
102
{ACAD_REACTORS
330
47
102
}
330
47
100
AcDbScale
 70
     0
300
3/32" = 1'-0"
140
0.09375
141
12.0
290
     0
  0
SCALE
  5
4E
102
{ACAD_REACTORS
330
47
102
}
330
47
100
AcDbScale
 70
     0
300
1/8" = 1'-0"
140
0.125
141
12.0
290
     0
  0
SCALE
  5
4F
102
{ACAD_REACTORS
330
47
102
}
330
47
100
AcDbScale
 70
     0
300
3/16" = 1'-0"
140
0.1875
141
12.0
290
     0
  0
SCALE
  5
50
102
{ACAD_REACTORS
330
47
102
}
330
47
100
AcDbScale
 70
     0
300
1/4" = 1'-0"
140
0.25
141
12.0
290
     0
  0
SCALE
  5
51
102
{ACAD_REACTORS
330
47
102
}
330
47
100
AcDbScale
 70
     0
300
3/8" = 1'-0"
140
0.375
141
12.0
290
     0
  0
SCALE
  5
52
102
{ACAD_REACTORS
330
47
102
}
330
47
100
AcDbScale
 70
     0
300
1/2" = 1'-0"
140
0.5
141
12.0
290
     0
  0
SCALE
  5
53
102
{ACAD_REACTORS
330
47
102
}
330
47
100
AcDbScale
 70
     0
300
3/4" = 1'-0"
140
0.75
141
12.0
290
     0
  0
SCALE
  5
54
102
{ACAD_REACTORS
330
47
102
}
330
47
100
AcDbScale
 70
     0
300
1" = 1'-0"
140
1.0
141
12.0
290
     0
  0
SCALE
  5
55
102
{ACAD_REACTORS
330
47
102
}
330
47
100
AcDbScale
 70
     0
300
1-1/2" = 1'-0"
140
1.5
141
12.0
290
     0
  0
SCALE
  5
56
102
{ACAD_REACTORS
330
47
102
}
330
47
100
AcDbScale
 70
     0
300
3" = 1'-0"
140
3.0
141
12.0
290
     0
  0
SCALE
  5
57
102
{ACAD_REACTORS
330
47
102
}
330
47
100
AcDbScale
 70
     0
300
6" = 1'-0"
140
6.0
141
12.0
290
     0
  0
SCALE
  5
58
102
{ACAD_REACTORS
330
47
102
}
330
47
100
AcDbScale
 70
     0
300
1'-0" = 1'-0"
140
12.0
141
12.0
290
     0
  0
ENDSEC
  0
EOF
