  0
SECTION
  2
HEADER
  9
$ACADVER
  1
AC1015
  9
$ACADMAINTVER
 70
     6
  9
$DWGCODEPAGE
  3
ANSI_1252
  9
$INSBASE
 10
0.0
 20
0.0
 30
0.0
  9
$EXTMIN
 10
0.0
 20
0.0
 30
0.0
  9
$EXTMAX
 10
22.0
 20
17.0
 30
0.0
  9
$LIMMIN
 10
0.0
 20
0.0
  9
$LIMMAX
 10
22.0
 20
17.0
  9
$ORTHOMODE
 70
     0
  9
$REGENMODE
 70
     1
  9
$FILLMODE
 70
     1
  9
$QTEXTMODE
 70
     0
  9
$MIRRTEXT
 70
     1
  9
$LTSCALE
 40
2.0
  9
$ATTMODE
 70
     1
  9
$TEXTSIZE
 40
0.25
  9
$TRACEWID
 40
0.05
  9
$TEXTSTYLE
  7
Standard
  9
$CLAYER
  8
0
  9
$CELTYPE
  6
ByLayer
  9
$CECOLOR
 62
   256
  9
$CELTSCALE
 40
1.0
  9
$DISPSILH
 70
     0
  9
$DIMSCALE
 40
1.0
  9
$DIMASZ
 40
0.26
  9
$DIMEXO
 40
0.1
  9
$DIMDLI
 40
0.38
  9
$DIMRND
 40
0.0
  9
$DIMDLE
 40
0.0
  9
$DIMEXE
 40
0.25
  9
$DIMTP
 40
0.0
  9
$DIMTM
 40
0.0
  9
$DIMTXT
 40
0.25
  9
$DIMCEN
 40
0.09
  9
$DIMTSZ
 40
0.0
  9
$DIMTOL
 70
     0
  9
$DIMLIM
 70
     0
  9
$DIMTIH
 70
     1
  9
$DIMTOH
 70
     1
  9
$DIMSE1
 70
     0
  9
$DIMSE2
 70
     0
  9
$DIMTAD
 70
     0
  9
$DIMZIN
 70
     1
  9
$DIMBLK
  1

  9
$DIMASO
 70
     1
  9
$DIMSHO
 70
     1
  9
$DIMPOST
  1

  9
$DIMAPOST
  1

  9
$DIMALT
 70
     0
  9
$DIMALTD
 70
     2
  9
$DIMALTF
 40
25.4
  9
$DIMLFAC
 40
1.0
  9
$DIMTOFL
 70
     0
  9
$DIMTVP
 40
0.0
  9
$DIMTIX
 70
     0
  9
$DIMSOXD
 70
     0
  9
$DIMSAH
 70
     0
  9
$DIMBLK1
  1

  9
$DIMBLK2
  1

  9
$DIMSTYLE
  2
Standard
  9
$DIMCLRD
 70
     0
  9
$DIMCLRE
 70
     0
  9
$DIMCLRT
 70
     0
  9
$DIMTFAC
 40
1.0
  9
$DIMGAP
 40
0.12
  9
$DIMJUST
 70
     0
  9
$DIMSD1
 70
     0
  9
$DIMSD2
 70
     0
  9
$DIMTOLJ
 70
     1
  9
$DIMTZIN
 70
     1
  9
$DIMALTZ
 70
     0
  9
$DIMALTTZ
 70
     0
  9
$DIMUPT
 70
     0
  9
$DIMDEC
 70
     0
  9
$DIMTDEC
 70
     0
  9
$DIMALTU
 70
     2
  9
$DIMALTTD
 70
     2
  9
$DIMTXSTY
  7
Standard
  9
$DIMAUNIT
 70
     0
  9
$DIMADEC
 70
     0
  9
$DIMALTRND
 40
0.0
  9
$DIMAZIN
 70
     0
  9
$DIMDSEP
 70
    46
  9
$DIMATFIT
 70
     3
  9
$DIMFRAC
 70
     0
  9
$DIMLDRBLK
  1

  9
$DIMLUNIT
 70
     2
  9
$DIMLWD
 70
    -2
  9
$DIMLWE
 70
    -2
  9
$DIMTMOVE
 70
     0
  9
$LUNITS
 70
     2
  9
$LUPREC
 70
     6
  9
$SKETCHINC
 40
0.1
  9
$FILLETRAD
 40
0.0
  9
$AUNITS
 70
     0
  9
$AUPREC
 70
     2
  9
$MENU
  1
.
  9
$ELEVATION
 40
0.0
  9
$PELEVATION
 40
0.0
  9
$THICKNESS
 40
0.0
  9
$LIMCHECK
 70
     0
  9
$CHAMFERA
 40
0.0
  9
$CHAMFERB
 40
0.0
  9
$CHAMFERC
 40
0.0
  9
$CHAMFERD
 40
0.0
  9
$SKPOLY
 70
     0
  9
$TDCREATE
 40
2460476.200853507
  9
$TDUCREATE
 40
2460476.492520174
  9
$TDUPDATE
 40
2460476.200854294
  9
$TDUUPDATE
 40
2460476.492520961
  9
$TDINDWG
 40
0.0000000116
  9
$TDUSRTIMER
 40
0.0000000116
  9
$USRTIMER
 70
     1
  9
$ANGBASE
 50
0.0
  9
$ANGDIR
 70
     0
  9
$PDMODE
 70
     0
  9
$PDSIZE
 40
-1.0
  9
$PLINEWID
 40
0.0
  9
$SPLFRAME
 70
     0
  9
$SPLINETYPE
 70
     6
  9
$SPLINESEGS
 70
     8
  9
$HANDSEED
  5
1F9
  9
$SURFTAB1
 70
     6
  9
$SURFTAB2
 70
     6
  9
$SURFTYPE
 70
     6
  9
$SURFU
 70
     6
  9
$SURFV
 70
     6
  9
$UCSBASE
  2

  9
$UCSNAME
  2

  9
$UCSORG
 10
0.0
 20
0.0
 30
0.0
  9
$UCSXDIR
 10
1.0
 20
0.0
 30
0.0
  9
$UCSYDIR
 10
0.0
 20
1.0
 30
0.0
  9
$UCSORTHOREF
  2

  9
$UCSORTHOVIEW
 70
     0
  9
$UCSORGTOP
 10
0.0
 20
0.0
 30
0.0
  9
$UCSORGBOTTOM
 10
0.0
 20
0.0
 30
0.0
  9
$UCSORGLEFT
 10
0.0
 20
0.0
 30
0.0
  9
$UCSORGRIGHT
 10
0.0
 20
0.0
 30
0.0
  9
$UCSORGFRONT
 10
0.0
 20
0.0
 30
0.0
  9
$UCSORGBACK
 10
0.0
 20
0.0
 30
0.0
  9
$PUCSBASE
  2

  9
$PUCSNAME
  2

  9
$PUCSORG
 10
0.0
 20
0.0
 30
0.0
  9
$PUCSXDIR
 10
1.0
 20
0.0
 30
0.0
  9
$PUCSYDIR
 10
0.0
 20
1.0
 30
0.0
  9
$PUCSORTHOREF
  2

  9
$PUCSORTHOVIEW
 70
     0
  9
$PUCSORGTOP
 10
0.0
 20
0.0
 30
0.0
  9
$PUCSORGBOTTOM
 10
0.0
 20
0.0
 30
0.0
  9
$PUCSORGLEFT
 10
0.0
 20
0.0
 30
0.0
  9
$PUCSORGRIGHT
 10
0.0
 20
0.0
 30
0.0
  9
$PUCSORGFRONT
 10
0.0
 20
0.0
 30
0.0
  9
$PUCSORGBACK
 10
0.0
 20
0.0
 30
0.0
  9
$USERI1
 70
     0
  9
$USERI2
 70
     0
  9
$USERI3
 70
     0
  9
$USERI4
 70
     0
  9
$USERI5
 70
     0
  9
$USERR1
 40
0.0
  9
$USERR2
 40
0.0
  9
$USERR3
 40
0.0
  9
$USERR4
 40
0.0
  9
$USERR5
 40
0.0
  9
$WORLDVIEW
 70
     1
  9
$SHADEDGE
 70
     3
  9
$SHADEDIF
 70
    70
  9
$TILEMODE
 70
     1
  9
$MAXACTVP
 70
    64
  9
$PINSBASE
 10
0.0
 20
0.0
 30
0.0
  9
$PLIMCHECK
 70
     0
  9
$PEXTMIN
 10
1.0000000000E+20
 20
1.0000000000E+20
 30
1.0000000000E+20
  9
$PEXTMAX
 10
-1.0000000000E+20
 20
-1.0000000000E+20
 30
-1.0000000000E+20
  9
$PLIMMIN
 10
0.0
 20
0.0
  9
$PLIMMAX
 10
12.0
 20
9.0
  9
$UNITMODE
 70
     0
  9
$VISRETAIN
 70
     1
  9
$PLINEGEN
 70
     0
  9
$PSLTSCALE
 70
     1
  9
$TREEDEPTH
 70
  3020
  9
$CMLSTYLE
  2
Standard
  9
$CMLJUST
 70
     0
  9
$CMLSCALE
 40
1.0
  9
$PROXYGRAPHICS
 70
     1
  9
$MEASUREMENT
 70
     0
  9
$CELWEIGHT
370
    -1
  9
$ENDCAPS
280
     0
  9
$JOINSTYLE
280
     0
  9
$LWDISPLAY
290
     1
  9
$INSUNITS
 70
     1
  9
$HYPERLINKBASE
  1

  9
$STYLESHEET
  1

  9
$XEDIT
290
     1
  9
$CEPSNTYPE
380
     0
  9
$PSTYLEMODE
290
     1
  9
$FINGERPRINTGUID
  2
{215abc25-e835-4b27-b7e8-cd88d02fda58}
  9
$VERSIONGUID
  2
{FAEB1C32-E019-11D5-929B-00C0DF256EC4}
  9
$EXTNAMES
290
     1
  9
$PSVPSCALE
 40
0.0
  9
$OLESTARTUP
290
     0
  0
ENDSEC
  0
SECTION
  2
CLASSES
  0
CLASS
  1
ACDBDICTIONARYWDFLT
  2
AcDbDictionaryWithDefault
  3
ObjectDBX Classes
 90
        0
280
     0
281
     0
  0
CLASS
  1
VISUALSTYLE
  2
AcDbVisualStyle
  3
ObjectDBX Classes
 90
     4095
280
     0
281
     0
  0
CLASS
  1
MATERIAL
  2
AcDbMaterial
  3
ObjectDBX Classes
 90
     1153
280
     0
281
     0
  0
CLASS
  1
SCALE
  2
AcDbScale
  3
ObjectDBX Classes
 90
     1153
280
     0
281
     0
  0
CLASS
  1
TABLESTYLE
  2
AcDbTableStyle
  3
ObjectDBX Classes
 90
     4095
280
     0
281
     0
  0
CLASS
  1
MLEADERSTYLE
  2
AcDbMLeaderStyle
  3
ACDB_MLEADERSTYLE_CLASS
 90
     4095
280
     0
281
     0
  0
CLASS
  1
SUN
  2
AcDbSun
  3
SCENEOE
 90
     1153
280
     0
281
     0
  0
CLASS
  1
ACDBPLACEHOLDER
  2
AcDbPlaceHolder
  3
ObjectDBX Classes
 90
        0
280
     0
281
     0
  0
CLASS
  1
LAYOUT
  2
AcDbLayout
  3
ObjectDBX Classes
 90
        0
280
     0
281
     0
  0
ENDSEC
  0
SECTION
  2
TABLES
  0
TABLE
  2
VPORT
  5
8
330
0
100
AcDbSymbolTable
 70
     1
  0
VPORT
  5
29
330
8
100
AcDbSymbolTableRecord
100
AcDbViewportTableRecord
  2
*Active
 70
     0
 10
0.0
 20
0.0
 11
1.0
 21
1.0
 12
11.0
 22
8.5
 13
0.0
 23
0.0
 14
0.5
 24
0.5
 15
0.5
 25
0.5
 16
0.0
 26
0.0
 36
1.0
 17
0.0
 27
0.0
 37
0.0
 40
17.0
 41
1.2941176471
 42
50.0
 43
0.0
 44
0.0
 50
0.0
 51
0.0
 71
     0
 72
  2000
 73
     1
 74
     3
 75
     0
 76
     0
 77
     0
 78
     0
281
     0
 65
     1
110
0.0
120
0.0
130
0.0
111
1.0
121
0.0
131
0.0
112
0.0
122
1.0
132
0.0
 79
     0
146
0.0
  0
ENDTAB
  0
TABLE
  2
LTYPE
  5
5
330
0
100
AcDbSymbolTable
 70
     6
  0
LTYPE
  5
14
330
5
100
AcDbSymbolTableRecord
100
AcDbLinetypeTableRecord
  2
ByBlock
 70
     0
  3

 72
    65
 73
     0
 40
0.0
  0
LTYPE
  5
15
330
5
100
AcDbSymbolTableRecord
100
AcDbLinetypeTableRecord
  2
ByLayer
 70
     0
  3

 72
    65
 73
     0
 40
0.0
  0
LTYPE
  5
16
330
5
100
AcDbSymbolTableRecord
100
AcDbLinetypeTableRecord
  2
Continuous
 70
     0
  3
Solid line
 72
    65
 73
     0
 40
0.0
  0
LTYPE
  5
5E
330
5
100
AcDbSymbolTableRecord
100
AcDbLinetypeTableRecord
  2
HIDDEN
 70
     0
  3
Hidden __ __ __ __ __ __ __ __ __ __ __ __ __ __
 72
    65
 73
     2
 40
0.075
 49
0.05
 74
     0
 49
-0.025
 74
     0
  0
LTYPE
  5
5F
330
5
100
AcDbSymbolTableRecord
100
AcDbLinetypeTableRecord
  2
PHANTOM
 70
     0
  3
Phantom ______  __  __  ______  __  __  ______
 72
    65
 73
     6
 40
0.5
 49
0.25
 74
     0
 49
-0.05
 74
     0
 49
0.05
 74
     0
 49
-0.05
 74
     0
 49
0.05
 74
     0
 49
-0.05
 74
     0
  0
LTYPE
  5
60
330
5
100
AcDbSymbolTableRecord
100
AcDbLinetypeTableRecord
  2
CENTER
 70
     0
  3
Center ____ _ ____ _ ____ _ ____ _ ____ _ ____
 72
    65
 73
     4
 40
0.4
 49
0.25
 74
     0
 49
-0.05
 74
     0
 49
0.05
 74
     0
 49
-0.05
 74
     0
  0
LTYPE
  5
61
330
5
100
AcDbSymbolTableRecord
100
AcDbLinetypeTableRecord
  2
CENTERX2
 70
     0
  3
Center (2x) ________  __  ________  __  _____
 72
    65
 73
     4
 40
0.8
 49
0.5
 74
     0
 49
-0.1
 74
     0
 49
0.1
 74
     0
 49
-0.1
 74
     0
  0
LTYPE
  5
62
330
5
100
AcDbSymbolTableRecord
100
AcDbLinetypeTableRecord
  2
DOT2
 70
     0
  3
Dot (.5x) ........................................
 72
    65
 73
     2
 40
0.025
 49
0.0
 74
     0
 49
-0.025
 74
     0
  0
ENDTAB
  0
TABLE
  2
LAYER
  5
2
330
0
100
AcDbSymbolTable
 70
    12
  0
LAYER
  5
10
330
2
100
AcDbSymbolTableRecord
100
AcDbLayerTableRecord
  2
0
 70
     0
 62
     7
  6
Continuous
370
    -3
390
F
  0
LAYER
  5
63
330
2
100
AcDbSymbolTableRecord
100
AcDbLayerTableRecord
  2
SLD-0
 70
     0
 62
     7
  6
Continuous
370
    -3
390
F
  0
LAYER
  5
64
330
2
100
AcDbSymbolTableRecord
100
AcDbLayerTableRecord
  2
DIM
 70
     0
 62
     7
  6
Continuous
370
    -3
390
F
  0
LAYER
  5
65
330
2
100
AcDbSymbolTableRecord
100
AcDbLayerTableRecord
  2
CEN
 70
     0
 62
     1
  6
CENTER
370
    -3
390
F
  0
LAYER
  5
66
330
2
100
AcDbSymbolTableRecord
100
AcDbLayerTableRecord
  2
HAT
 70
     0
 62
     4
  6
Continuous
370
    -3
390
F
  0
LAYER
  5
67
330
2
100
AcDbSymbolTableRecord
100
AcDbLayerTableRecord
  2
OBJ
 70
     0
 62
     5
  6
Continuous
370
    -3
390
F
  0
LAYER
  5
68
330
2
100
AcDbSymbolTableRecord
100
AcDbLayerTableRecord
  2
SLD-DEFPOINTS
 70
     0
 62
     7
  6
Continuous
370
    -3
390
F
  0
LAYER
  5
69
330
2
100
AcDbSymbolTableRecord
100
AcDbLayerTableRecord
  2
HID
 70
     0
 62
     4
  6
HIDDEN
370
    -3
390
F
  0
LAYER
  5
6A
330
2
100
AcDbSymbolTableRecord
100
AcDbLayerTableRecord
  2
NOTE
 70
     0
 62
     7
  6
Continuous
370
    -3
390
F
  0
LAYER
  5
6B
330
2
100
AcDbSymbolTableRecord
100
AcDbLayerTableRecord
  2
VP
 70
     0
 62
    -5
  6
Continuous
290
     0
370
    -3
390
F
  0
LAYER
  5
6C
330
2
100
AcDbSymbolTableRecord
100
AcDbLayerTableRecord
  2
TITLE
 70
     0
 62
     7
  6
Continuous
370
    -3
390
F
  0
LAYER
  5
6D
330
2
100
AcDbSymbolTableRecord
100
AcDbLayerTableRecord
  2
THICK_TITLE
 70
     0
 62
     7
  6
Continuous
370
   100
390
F
  0
ENDTAB
  0
TABLE
  2
STYLE
  5
3
330
0
100
AcDbSymbolTable
 70
     2
  0
STYLE
  5
11
330
3
100
AcDbSymbolTableRecord
100
AcDbTextStyleTableRecord
  2
Standard
 70
     0
 40
0.0
 41
1.0
 50
0.0
 71
     0
 42
0.25
  3
txt
  4

  0
STYLE
  5
DA
330
3
100
AcDbSymbolTableRecord
100
AcDbTextStyleTableRecord
  2
SLDTEXTSTYLE0
 70
     0
 40
0.0
 41
0.75
 50
0.0
 71
     0
 42
0.25
  3
TXT
  4

  0
ENDTAB
  0
TABLE
  2
VIEW
  5
6
330
0
100
AcDbSymbolTable
 70
     0
  0
ENDTAB
  0
TABLE
  2
UCS
  5
7
330
0
100
AcDbSymbolTable
 70
     0
  0
ENDTAB
  0
TABLE
  2
APPID
  5
9
330
0
100
AcDbSymbolTable
 70
     1
  0
APPID
  5
12
330
9
100
AcDbSymbolTableRecord
100
AcDbRegAppTableRecord
  2
ACAD
 70
     0
  0
ENDTAB
  0
TABLE
  2
DIMSTYLE
  5
A
330
0
100
AcDbSymbolTable
 70
     4
100
AcDbDimStyleTable
  0
DIMSTYLE
105
27
330
A
100
AcDbSymbolTableRecord
100
AcDbDimStyleTableRecord
  2
Standard
 70
     0
178
     0
340
11
  0
DIMSTYLE
105
DB
102
{ACAD_REACTORS
330
D9
102
}
330
A
100
AcDbSymbolTableRecord
100
AcDbDimStyleTableRecord
  2
SLDDIMSTYLE0
 70
     0
 41
0.26
 44
0.0
 45
0.000000001
 78
    12
 79
     3
140
0.25
147
0.0625
148
0.000000001
170
     1
172
     1
173
     1
178
     0
271
     6
272
     0
276
     2
277
     5
284
    12
289
     0
340
DA
  0
DIMSTYLE
105
F0
102
{ACAD_REACTORS
330
EF
330
105
330
1BC
330
1E4
102
}
330
A
100
AcDbSymbolTableRecord
100
AcDbDimStyleTableRecord
  2
SLDDIMSTYLE1
 70
     0
 41
0.26
 44
0.0
 45
0.000000001
 78
    12
 79
     3
140
0.25
147
0.0625
148
0.000000001
170
     1
173
     1
178
     0
271
     6
272
     0
276
     2
277
     5
284
    12
340
DA
  0
DIMSTYLE
105
1D0
102
{ACAD_REACTORS
330
1CF
102
}
330
A
100
AcDbSymbolTableRecord
100
AcDbDimStyleTableRecord
  2
SLDDIMSTYLE2
 70
     0
 41
0.26
 44
0.0
 45
0.000000001
 78
    12
 79
     3
140
0.25
147
0.0625
148
0.000000001
170
     1
173
     1
178
     0
271
     0
272
     0
276
     2
277
     5
284
    12
340
DA
  0
ENDTAB
  0
TABLE
  2
BLOCK_RECORD
  5
1
330
0
100
AcDbSymbolTable
 70
     7
  0
BLOCK_RECORD
  5
1F
330
1
100
AcDbSymbolTableRecord
100
AcDbBlockTableRecord
  2
*Model_Space
340
22
  0
BLOCK_RECORD
  5
1B
330
1
100
AcDbSymbolTableRecord
100
AcDbBlockTableRecord
  2
*Paper_Space
340
1E
  0
BLOCK_RECORD
  5
23
330
1
100
AcDbSymbolTableRecord
100
AcDbBlockTableRecord
  2
*Paper_Space0
340
26
  0
BLOCK_RECORD
  5
DC
330
1
100
AcDbSymbolTableRecord
100
AcDbBlockTableRecord
  2
_D
340
0
  0
BLOCK_RECORD
  5
F1
330
1
100
AcDbSymbolTableRecord
100
AcDbBlockTableRecord
  2
_D_1
340
0
  0
BLOCK_RECORD
  5
106
330
1
100
AcDbSymbolTableRecord
100
AcDbBlockTableRecord
  2
_D_2
340
0
  0
BLOCK_RECORD
  5
1BD
330
1
100
AcDbSymbolTableRecord
100
AcDbBlockTableRecord
  2
_D_3
340
0
  0
BLOCK_RECORD
  5
1D1
330
1
100
AcDbSymbolTableRecord
100
AcDbBlockTableRecord
  2
_D_4
340
0
  0
BLOCK_RECORD
  5
1E5
330
1
100
AcDbSymbolTableRecord
100
AcDbBlockTableRecord
  2
_D_5
340
0
  0
ENDTAB
  0
ENDSEC
  0
SECTION
  2
BLOCKS
  0
BLOCK
  5
20
330
1F
100
AcDbEntity
  8
0
100
AcDbBlockBegin
  2
*Model_Space
 70
     0
 10
0.0
 20
0.0
 30
0.0
  3
*Model_Space
  1

  0
ENDBLK
  5
21
330
1F
100
AcDbEntity
  8
0
100
AcDbBlockEnd
  0
BLOCK
  5
1C
330
1B
100
AcDbEntity
 67
     1
  8
0
100
AcDbBlockBegin
  2
*Paper_Space
 70
     0
 10
0.0
 20
0.0
 30
0.0
  3
*Paper_Space
  1

  0
ENDBLK
  5
1D
330
1B
100
AcDbEntity
 67
     1
  8
0
100
AcDbBlockEnd
  0
BLOCK
  5
24
330
23
100
AcDbEntity
  8
0
100
AcDbBlockBegin
  2
*Paper_Space0
 70
     0
 10
0.0
 20
0.0
 30
0.0
  3
*Paper_Space0
  1

  0
ENDBLK
  5
25
330
23
100
AcDbEntity
  8
0
100
AcDbBlockEnd
  0
BLOCK
  5
DD
330
DC
100
AcDbEntity
  8
0
100
AcDbBlockBegin
  2
_D
 70
     0
 10
0.0
 20
0.0
 30
0.0
  3
_D
  1

  0
SOLID
  5
DF
330
DC
100
AcDbEntity
  8
0
  6
Continuous
 62
     7
370
    18
100
AcDbTrace
 10
8.4959896375
 20
7.0058580347
 30
0.0
 11
8.2359896375
 21
7.0458580347
 31
0.0
 12
8.2359896375
 22
6.9658580347
 32
0.0
 13
8.2359896375
 23
6.9658580347
 33
0.0
  0
SOLID
  5
E0
330
DC
100
AcDbEntity
  8
0
  6
Continuous
 62
     7
370
    18
100
AcDbTrace
 10
10.1959896375
 20
7.0058580347
 30
0.0
 11
10.4559896375
 21
6.9658580347
 31
0.0
 12
10.4559896375
 22
7.0458580347
 32
0.0
 13
10.4559896375
 23
7.0458580347
 33
0.0
  0
LINE
  5
E1
330
DC
100
AcDbEntity
  8
0
  6
Continuous
 62
     7
370
     0
100
AcDbLine
 10
8.8487674415
 20
7.0039482734
 30
0.0
 11
8.7725955672
 21
7.0039482734
 31
0.0
  0
LINE
  5
E2
330
DC
100
AcDbEntity
  8
0
  6
Continuous
 62
     7
370
     0
100
AcDbLine
 10
8.7725955672
 20
7.0039482734
 30
0.0
 11
8.7725955672
 21
6.6070732615
 31
0.0
  0
LINE
  5
E3
330
DC
100
AcDbEntity
  8
0
  6
Continuous
 62
     7
370
     0
100
AcDbLine
 10
8.7725955672
 20
6.6070732615
 30
0.0
 11
8.8487674415
 21
6.6070732615
 31
0.0
  0
LINE
  5
E4
330
DC
100
AcDbEntity
  8
0
  6
Continuous
 62
     7
370
     0
100
AcDbLine
 10
9.8432119069
 20
7.0039482734
 30
0.0
 11
9.9193837811
 21
7.0039482734
 31
0.0
  0
LINE
  5
E5
330
DC
100
AcDbEntity
  8
0
  6
Continuous
 62
     7
370
     0
100
AcDbLine
 10
9.9193837811
 20
7.0039482734
 30
0.0
 11
9.9193837811
 21
6.6070732615
 31
0.0
  0
LINE
  5
E6
330
DC
100
AcDbEntity
  8
0
  6
Continuous
 62
     7
370
     0
100
AcDbLine
 10
9.9193837811
 20
6.6070732615
 30
0.0
 11
9.8432119069
 21
6.6070732615
 31
0.0
  0
LINE
  5
E7
330
DC
100
AcDbEntity
  8
0
  6
Continuous
 62
     7
370
     0
100
AcDbLine
 10
8.4959896375
 20
6.3184564599
 30
0.0
 11
8.4959896375
 21
7.2558580347
 31
0.0
  0
LINE
  5
E8
330
DC
100
AcDbEntity
  8
0
  6
Continuous
 62
     7
370
     0
100
AcDbLine
 10
10.1959896375
 20
4.2484564599
 30
0.0
 11
10.1959896375
 21
7.2558580347
 31
0.0
  0
LINE
  5
E9
330
DC
100
AcDbEntity
  8
0
  6
Continuous
 62
     7
370
     0
100
AcDbLine
 10
8.4959896375
 20
7.0058580347
 30
0.0
 11
7.9959896375
 21
7.0058580347
 31
0.0
  0
LINE
  5
EA
330
DC
100
AcDbEntity
  8
0
  6
Continuous
 62
     7
370
     0
100
AcDbLine
 10
10.1959896375
 20
7.0058580347
 30
0.0
 11
10.6959896375
 21
7.0058580347
 31
0.0
  0
MTEXT
  5
EB
330
DC
100
AcDbEntity
  8
0
  6
Continuous
 62
     7
370
    18
100
AcDbMText
 10
8.6978125816
 20
7.3808159284
 30
0.0
 40
0.25
 41
0.0
 71
     1
 72
     1
  1

  7
SLDTEXTSTYLE0
 73
     1
 44
1.0
  0
MTEXT
  5
EC
330
DC
100
AcDbEntity
  8
0
  6
Continuous
 62
     7
370
    18
100
AcDbMText
 10
8.7135243888
 20
7.3769964655
 30
0.0
 40
0.25
 41
0.0
 71
     1
 72
     1
  1
1 11/16"
  7
SLDTEXTSTYLE0
 73
     1
 44
1.0
  0
MTEXT
  5
ED
330
DC
100
AcDbEntity
  8
0
  6
Continuous
 62
     7
370
    18
100
AcDbMText
 10
8.8487674415
 20
6.9293402239
 30
0.0
 40
0.25
 41
0.0
 71
     1
 72
     1
  1
43mm
  7
SLDTEXTSTYLE0
 73
     1
 44
1.0
  0
MTEXT
  5
EE
330
DC
100
AcDbEntity
  8
0
  6
Continuous
 62
     7
370
    18
100
AcDbMText
 10
10.0893056003
 20
7.3808159284
 30
0.0
 40
0.25
 41
0.0
 71
     1
 72
     1
  1

  7
SLDTEXTSTYLE0
 73
     1
 44
1.0
  0
ENDBLK
  5
DE
330
DC
100
AcDbEntity
  8
0
100
AcDbBlockEnd
  0
BLOCK
  5
F2
330
F1
100
AcDbEntity
  8
0
100
AcDbBlockBegin
  2
_D_1
 70
     0
 10
0.0
 20
0.0
 30
0.0
  3
_D_1
  1

  0
SOLID
  5
F4
330
F1
100
AcDbEntity
  8
0
  6
Continuous
 62
     7
370
    18
100
AcDbTrace
 10
8.4959896375
 20
7.0058580347
 30
0.0
 11
8.2359896375
 21
7.0458580347
 31
0.0
 12
8.2359896375
 22
6.9658580347
 32
0.0
 13
8.2359896375
 23
6.9658580347
 33
0.0
  0
SOLID
  5
F5
330
F1
100
AcDbEntity
  8
0
  6
Continuous
 62
     7
370
    18
100
AcDbTrace
 10
4.7584896375
 20
7.0058580347
 30
0.0
 11
5.0184896375
 21
6.9658580347
 31
0.0
 12
5.0184896375
 22
7.0458580347
 32
0.0
 13
5.0184896375
 23
7.0458580347
 33
0.0
  0
LINE
  5
F6
330
F1
100
AcDbEntity
  8
0
  6
Continuous
 62
     7
370
     0
100
AcDbLine
 10
6.1300174415
 20
7.0039482734
 30
0.0
 11
6.0538455672
 21
7.0039482734
 31
0.0
  0
LINE
  5
F7
330
F1
100
AcDbEntity
  8
0
  6
Continuous
 62
     7
370
     0
100
AcDbLine
 10
6.0538455672
 20
7.0039482734
 30
0.0
 11
6.0538455672
 21
6.6070732615
 31
0.0
  0
LINE
  5
F8
330
F1
100
AcDbEntity
  8
0
  6
Continuous
 62
     7
370
     0
100
AcDbLine
 10
6.0538455672
 20
6.6070732615
 30
0.0
 11
6.1300174415
 21
6.6070732615
 31
0.0
  0
LINE
  5
F9
330
F1
100
AcDbEntity
  8
0
  6
Continuous
 62
     7
370
     0
100
AcDbLine
 10
7.1244619069
 20
7.0039482734
 30
0.0
 11
7.2006337811
 21
7.0039482734
 31
0.0
  0
LINE
  5
FA
330
F1
100
AcDbEntity
  8
0
  6
Continuous
 62
     7
370
     0
100
AcDbLine
 10
7.2006337811
 20
7.0039482734
 30
0.0
 11
7.2006337811
 21
6.6070732615
 31
0.0
  0
LINE
  5
FB
330
F1
100
AcDbEntity
  8
0
  6
Continuous
 62
     7
370
     0
100
AcDbLine
 10
7.2006337811
 20
6.6070732615
 30
0.0
 11
7.1244619069
 21
6.6070732615
 31
0.0
  0
LINE
  5
FC
330
F1
100
AcDbEntity
  8
0
  6
Continuous
 62
     7
370
     0
100
AcDbLine
 10
8.4959896375
 20
6.3184564599
 30
0.0
 11
8.4959896375
 21
7.2558580347
 31
0.0
  0
LINE
  5
FD
330
F1
100
AcDbEntity
  8
0
  6
Continuous
 62
     7
370
     0
100
AcDbLine
 10
4.7584896375
 20
4.966407906
 30
0.0
 11
4.7584896375
 21
5.6684564599
 31
0.0
  0
LINE
  5
FE
330
F1
100
AcDbEntity
  8
0
  6
Continuous
 62
     7
370
     0
100
AcDbLine
 10
4.7584896375
 20
5.7884564599
 30
0.0
 11
4.7584896375
 21
7.2558580347
 31
0.0
  0
LINE
  5
FF
330
F1
100
AcDbEntity
  8
0
  6
Continuous
 62
     7
370
     0
100
AcDbLine
 10
8.4959896375
 20
7.0058580347
 30
0.0
 11
7.419882422
 21
7.0058580347
 31
0.0
  0
LINE
  5
100
330
F1
100
AcDbEntity
  8
0
  6
Continuous
 62
     7
370
     0
100
AcDbLine
 10
4.7584896375
 20
7.0058580347
 30
0.0
 11
5.834596853
 21
7.0058580347
 31
0.0
  0
MTEXT
  5
101
330
F1
100
AcDbEntity
  8
0
  6
Continuous
 62
     7
370
    18
100
AcDbMText
 10
5.9790625816
 20
7.3808159284
 30
0.0
 40
0.25
 41
0.0
 71
     1
 72
     1
  1

  7
SLDTEXTSTYLE0
 73
     1
 44
1.0
  0
MTEXT
  5
102
330
F1
100
AcDbEntity
  8
0
  6
Continuous
 62
     7
370
    18
100
AcDbMText
 10
6.1794966115
 20
7.3769964655
 30
0.0
 40
0.25
 41
0.0
 71
     1
 72
     1
  1
3 3/4"
  7
SLDTEXTSTYLE0
 73
     1
 44
1.0
  0
MTEXT
  5
103
330
F1
100
AcDbEntity
  8
0
  6
Continuous
 62
     7
370
    18
100
AcDbMText
 10
6.1300174415
 20
6.9293402239
 30
0.0
 40
0.25
 41
0.0
 71
     1
 72
     1
  1
95mm
  7
SLDTEXTSTYLE0
 73
     1
 44
1.0
  0
MTEXT
  5
104
330
F1
100
AcDbEntity
  8
0
  6
Continuous
 62
     7
370
    18
100
AcDbMText
 10
7.3705556003
 20
7.3808159284
 30
0.0
 40
0.25
 41
0.0
 71
     1
 72
     1
  1

  7
SLDTEXTSTYLE0
 73
     1
 44
1.0
  0
ENDBLK
  5
F3
330
F1
100
AcDbEntity
  8
0
100
AcDbBlockEnd
  0
BLOCK
  5
107
330
106
100
AcDbEntity
  8
0
100
AcDbBlockBegin
  2
_D_2
 70
     0
 10
0.0
 20
0.0
 30
0.0
  3
_D_2
  1

  0
SOLID
  5
109
330
106
100
AcDbEntity
  8
0
  6
Continuous
 62
     7
370
    18
100
AcDbTrace
 10
1.4565880627
 20
5.7284564599
 30
0.0
 11
1.4165880627
 21
5.4684564599
 31
0.0
 12
1.4965880627
 22
5.4684564599
 32
0.0
 13
1.4965880627
 23
5.4684564599
 33
0.0
  0
SOLID
  5
10A
330
106
100
AcDbEntity
  8
0
  6
Continuous
 62
     7
370
    18
100
AcDbTrace
 10
1.4565880627
 20
3.5084564599
 30
0.0
 11
1.4965880627
 21
3.7684564599
 31
0.0
 12
1.4165880627
 22
3.7684564599
 32
0.0
 13
1.4165880627
 23
3.7684564599
 33
0.0
  0
LINE
  5
10B
330
106
100
AcDbEntity
  8
0
  6
Continuous
 62
     7
370
     0
100
AcDbLine
 10
0.9593658483
 20
4.6184564232
 30
0.0
 11
0.8831939741
 21
4.6184564232
 31
0.0
  0
LINE
  5
10C
330
106
100
AcDbEntity
  8
0
  6
Continuous
 62
     7
370
     0
100
AcDbLine
 10
0.8831939741
 20
4.6184564232
 30
0.0
 11
0.8831939741
 21
4.2215814113
 31
0.0
  0
LINE
  5
10D
330
106
100
AcDbEntity
  8
0
  6
Continuous
 62
     7
370
     0
100
AcDbLine
 10
0.8831939741
 20
4.2215814113
 30
0.0
 11
0.9593658483
 21
4.2215814113
 31
0.0
  0
LINE
  5
10E
330
106
100
AcDbEntity
  8
0
  6
Continuous
 62
     7
370
     0
100
AcDbLine
 10
1.9538103137
 20
4.6184564232
 30
0.0
 11
2.029982188
 21
4.6184564232
 31
0.0
  0
LINE
  5
10F
330
106
100
AcDbEntity
  8
0
  6
Continuous
 62
     7
370
     0
100
AcDbLine
 10
2.029982188
 20
4.6184564232
 30
0.0
 11
2.029982188
 21
4.2215814113
 31
0.0
  0
LINE
  5
110
330
106
100
AcDbEntity
  8
0
  6
Continuous
 62
     7
370
     0
100
AcDbLine
 10
2.029982188
 20
4.2215814113
 30
0.0
 11
1.9538103137
 21
4.2215814113
 31
0.0
  0
LINE
  5
111
330
106
100
AcDbEntity
  8
0
  6
Continuous
 62
     7
370
     0
100
AcDbLine
 10
5.0759896375
 20
5.7284564599
 30
0.0
 11
1.2065880627
 21
5.7284564599
 31
0.0
  0
LINE
  5
112
330
106
100
AcDbEntity
  8
0
  6
Continuous
 62
     7
370
     0
100
AcDbLine
 10
5.0759896375
 20
3.5084564599
 30
0.0
 11
1.2065880627
 21
3.5084564599
 31
0.0
  0
LINE
  5
113
330
106
100
AcDbEntity
  8
0
  6
Continuous
 62
     7
370
     0
100
AcDbLine
 10
1.4565880627
 20
5.7284564599
 30
0.0
 11
1.4565880627
 21
5.0661127152
 31
0.0
  0
LINE
  5
114
330
106
100
AcDbEntity
  8
0
  6
Continuous
 62
     7
370
     0
100
AcDbLine
 10
1.4565880627
 20
3.5084564599
 30
0.0
 11
1.4565880627
 21
4.1708002046
 31
0.0
  0
MTEXT
  5
115
330
106
100
AcDbEntity
  8
0
  6
Continuous
 62
     7
370
    18
100
AcDbMText
 10
0.8203293795
 20
4.9915046336
 30
0.0
 40
0.25
 41
0.0
 71
     1
 72
     1
  1
%%c
  7
SLDTEXTSTYLE0
 73
     1
 44
1.0
  0
MTEXT
  5
116
330
106
100
AcDbEntity
  8
0
  6
Continuous
 62
     7
370
    18
100
AcDbMText
 10
1.1973606206
 20
4.9915046336
 30
0.0
 40
0.25
 41
0.0
 71
     1
 72
     1
  1
2 1/4"
  7
SLDTEXTSTYLE0
 73
     1
 44
1.0
  0
MTEXT
  5
117
330
106
100
AcDbEntity
  8
0
  6
Continuous
 62
     7
370
    18
100
AcDbMText
 10
0.9593658483
 20
4.5438483737
 30
0.0
 40
0.25
 41
0.0
 71
     1
 72
     1
  1
56mm
  7
SLDTEXTSTYLE0
 73
     1
 44
1.0
  0
ENDBLK
  5
108
330
106
100
AcDbEntity
  8
0
100
AcDbBlockEnd
  0
BLOCK
  5
1BE
330
1BD
100
AcDbEntity
  8
0
100
AcDbBlockBegin
  2
_D_3
 70
     0
 10
0.0
 20
0.0
 30
0.0
  3
_D_3
  1

  0
SOLID
  5
1C0
330
1BD
100
AcDbEntity
  8
0
  6
Continuous
 62
     7
370
    18
100
AcDbTrace
 10
14.873219697
 20
7.0058580347
 30
0.0
 11
15.133219697
 21
6.9658580347
 31
0.0
 12
15.133219697
 22
7.0458580347
 32
0.0
 13
15.133219697
 23
7.0458580347
 33
0.0
  0
SOLID
  5
1C1
330
1BD
100
AcDbEntity
  8
0
  6
Continuous
 62
     7
370
    18
100
AcDbTrace
 10
18.183219697
 20
7.0058580347
 30
0.0
 11
17.923219697
 21
7.0458580347
 31
0.0
 12
17.923219697
 22
6.9658580347
 32
0.0
 13
17.923219697
 23
6.9658580347
 33
0.0
  0
LINE
  5
1C2
330
1BD
100
AcDbEntity
  8
0
  6
Continuous
 62
     7
370
     0
100
AcDbLine
 10
15.6122475
 20
7.0039482734
 30
0.0
 11
15.5360756258
 21
7.0039482734
 31
0.0
  0
LINE
  5
1C3
330
1BD
100
AcDbEntity
  8
0
  6
Continuous
 62
     7
370
     0
100
AcDbLine
 10
15.5360756258
 20
7.0039482734
 30
0.0
 11
15.5360756258
 21
6.6070732615
 31
0.0
  0
LINE
  5
1C4
330
1BD
100
AcDbEntity
  8
0
  6
Continuous
 62
     7
370
     0
100
AcDbLine
 10
15.5360756258
 20
6.6070732615
 30
0.0
 11
15.6122475
 21
6.6070732615
 31
0.0
  0
LINE
  5
1C5
330
1BD
100
AcDbEntity
  8
0
  6
Continuous
 62
     7
370
     0
100
AcDbLine
 10
16.6066919655
 20
7.0039482734
 30
0.0
 11
16.6828638397
 21
7.0039482734
 31
0.0
  0
LINE
  5
1C6
330
1BD
100
AcDbEntity
  8
0
  6
Continuous
 62
     7
370
     0
100
AcDbLine
 10
16.6828638397
 20
7.0039482734
 30
0.0
 11
16.6828638397
 21
6.6070732615
 31
0.0
  0
LINE
  5
1C7
330
1BD
100
AcDbEntity
  8
0
  6
Continuous
 62
     7
370
     0
100
AcDbLine
 10
16.6828638397
 20
6.6070732615
 30
0.0
 11
16.6066919655
 21
6.6070732615
 31
0.0
  0
LINE
  5
1C8
330
1BD
100
AcDbEntity
  8
0
  6
Continuous
 62
     7
370
     0
100
AcDbLine
 10
14.873219697
 20
4.7184564599
 30
0.0
 11
14.873219697
 21
7.2558580347
 31
0.0
  0
LINE
  5
1C9
330
1BD
100
AcDbEntity
  8
0
  6
Continuous
 62
     7
370
     0
100
AcDbLine
 10
18.183219697
 20
4.7184564599
 30
0.0
 11
18.183219697
 21
7.2558580347
 31
0.0
  0
LINE
  5
1CA
330
1BD
100
AcDbEntity
  8
0
  6
Continuous
 62
     7
370
     0
100
AcDbLine
 10
14.873219697
 20
7.0058580347
 30
0.0
 11
15.409188023
 21
7.0058580347
 31
0.0
  0
LINE
  5
1CB
330
1BD
100
AcDbEntity
  8
0
  6
Continuous
 62
     7
370
     0
100
AcDbLine
 10
18.183219697
 20
7.0058580347
 30
0.0
 11
17.647251371
 21
7.0058580347
 31
0.0
  0
MTEXT
  5
1CC
330
1BD
100
AcDbEntity
  8
0
  6
Continuous
 62
     7
370
    18
100
AcDbMText
 10
15.5693655404
 20
7.3769964655
 30
0.0
 40
0.25
 41
0.0
 71
     1
 72
     1
  1
3 5/16"
  7
SLDTEXTSTYLE0
 73
     1
 44
1.0
  0
MTEXT
  5
1CD
330
1BD
100
AcDbEntity
  8
0
  6
Continuous
 62
     7
370
    18
100
AcDbMText
 10
15.6122475
 20
6.9293402239
 30
0.0
 40
0.25
 41
0.0
 71
     1
 72
     1
  1
84mm
  7
SLDTEXTSTYLE0
 73
     1
 44
1.0
  0
MTEXT
  5
1CE
330
1BD
100
AcDbEntity
  8
0
  6
Continuous
 62
     7
370
    18
100
AcDbMText
 10
16.8527856772
 20
7.3808159284
 30
0.0
 40
0.25
 41
0.0
 71
     1
 72
     1
  1
O.C.
  7
SLDTEXTSTYLE0
 73
     1
 44
1.0
  0
ENDBLK
  5
1BF
330
1BD
100
AcDbEntity
  8
0
100
AcDbBlockEnd
  0
BLOCK
  5
1D2
330
1D1
100
AcDbEntity
  8
0
100
AcDbBlockBegin
  2
_D_4
 70
     0
 10
0.0
 20
0.0
 30
0.0
  3
_D_4
  1

  0
SOLID
  5
1D4
330
1D1
100
AcDbEntity
  8
0
  6
Continuous
 62
     7
370
    18
100
AcDbTrace
 10
19.0414895894
 20
7.9507399244
 30
0.0
 11
18.7814895894
 21
7.9907399244
 31
0.0
 12
18.7814895894
 22
7.9107399244
 32
0.0
 13
18.7814895894
 23
7.9107399244
 33
0.0
  0
SOLID
  5
1D5
330
1D1
100
AcDbEntity
  8
0
  6
Continuous
 62
     7
370
    18
100
AcDbTrace
 10
14.0149498046
 20
7.9507399244
 30
0.0
 11
14.2749498046
 21
7.9107399244
 31
0.0
 12
14.2749498046
 22
7.9907399244
 32
0.0
 13
14.2749498046
 23
7.9907399244
 33
0.0
  0
LINE
  5
1D6
330
1D1
100
AcDbEntity
  8
0
  6
Continuous
 62
     7
370
     0
100
AcDbLine
 10
15.9386364079
 20
7.9488301632
 30
0.0
 11
15.8624645337
 21
7.9488301632
 31
0.0
  0
LINE
  5
1D7
330
1D1
100
AcDbEntity
  8
0
  6
Continuous
 62
     7
370
     0
100
AcDbLine
 10
15.8624645337
 20
7.9488301632
 30
0.0
 11
15.8624645337
 21
7.5519551512
 31
0.0
  0
LINE
  5
1D8
330
1D1
100
AcDbEntity
  8
0
  6
Continuous
 62
     7
370
     0
100
AcDbLine
 10
15.8624645337
 20
7.5519551512
 30
0.0
 11
15.9386364079
 21
7.5519551512
 31
0.0
  0
LINE
  5
1D9
330
1D1
100
AcDbEntity
  8
0
  6
Continuous
 62
     7
370
     0
100
AcDbLine
 10
17.1178030594
 20
7.9488301632
 30
0.0
 11
17.1939749336
 21
7.9488301632
 31
0.0
  0
LINE
  5
1DA
330
1D1
100
AcDbEntity
  8
0
  6
Continuous
 62
     7
370
     0
100
AcDbLine
 10
17.1939749336
 20
7.9488301632
 30
0.0
 11
17.1939749336
 21
7.5519551512
 31
0.0
  0
LINE
  5
1DB
330
1D1
100
AcDbEntity
  8
0
  6
Continuous
 62
     7
370
     0
100
AcDbLine
 10
17.1939749336
 20
7.5519551512
 30
0.0
 11
17.1178030594
 21
7.5519551512
 31
0.0
  0
LINE
  5
1DC
330
1D1
100
AcDbEntity
  8
0
  6
Continuous
 62
     7
370
     0
100
AcDbLine
 10
19.0414895894
 20
6.3184564599
 30
0.0
 11
19.0414895894
 21
8.2007399244
 31
0.0
  0
LINE
  5
1DD
330
1D1
100
AcDbEntity
  8
0
  6
Continuous
 62
     7
370
     0
100
AcDbLine
 10
14.0149498046
 20
6.3184564599
 30
0.0
 11
14.0149498046
 21
8.2007399244
 31
0.0
  0
LINE
  5
1DE
330
1D1
100
AcDbEntity
  8
0
  6
Continuous
 62
     7
370
     0
100
AcDbLine
 10
19.0414895894
 20
7.9507399244
 30
0.0
 11
17.4132235745
 21
7.9507399244
 31
0.0
  0
LINE
  5
1DF
330
1D1
100
AcDbEntity
  8
0
  6
Continuous
 62
     7
370
     0
100
AcDbLine
 10
14.0149498046
 20
7.9507399244
 30
0.0
 11
15.6432158195
 21
7.9507399244
 31
0.0
  0
MTEXT
  5
1E0
330
1D1
100
AcDbEntity
  8
0
  6
Continuous
 62
     7
370
    18
100
AcDbMText
 10
15.7876815481
 20
8.3256978182
 30
0.0
 40
0.25
 41
0.0
 71
     1
 72
     1
  1

  7
SLDTEXTSTYLE0
 73
     1
 44
1.0
  0
MTEXT
  5
1E1
330
1D1
100
AcDbEntity
  8
0
  6
Continuous
 62
     7
370
    18
100
AcDbMText
 10
16.3842961038
 20
8.3218783552
 30
0.0
 40
0.25
 41
0.0
 71
     1
 72
     1
  1
5"
  7
SLDTEXTSTYLE0
 73
     1
 44
1.0
  0
MTEXT
  5
1E2
330
1D1
100
AcDbEntity
  8
0
  6
Continuous
 62
     7
370
    18
100
AcDbMText
 10
15.9386364079
 20
7.8742221137
 30
0.0
 40
0.25
 41
0.0
 71
     1
 72
     1
  1
128mm
  7
SLDTEXTSTYLE0
 73
     1
 44
1.0
  0
MTEXT
  5
1E3
330
1D1
100
AcDbEntity
  8
0
  6
Continuous
 62
     7
370
    18
100
AcDbMText
 10
17.3638967528
 20
8.3256978182
 30
0.0
 40
0.25
 41
0.0
 71
     1
 72
     1
  1

  7
SLDTEXTSTYLE0
 73
     1
 44
1.0
  0
ENDBLK
  5
1D3
330
1D1
100
AcDbEntity
  8
0
100
AcDbBlockEnd
  0
BLOCK
  5
1E6
330
1E5
100
AcDbEntity
  8
0
100
AcDbBlockBegin
  2
_D_5
 70
     0
 10
0.0
 20
0.0
 30
0.0
  3
_D_5
  1

  0
SOLID
  5
1E8
330
1E5
100
AcDbEntity
  8
0
  6
Continuous
 62
     7
370
    18
100
AcDbTrace
 10
13.2275482298
 20
6.2184564599
 30
0.0
 11
13.1875482298
 21
5.9584564599
 31
0.0
 12
13.2675482298
 22
5.9584564599
 32
0.0
 13
13.2675482298
 23
5.9584564599
 33
0.0
  0
SOLID
  5
1E9
330
1E5
100
AcDbEntity
  8
0
  6
Continuous
 62
     7
370
    18
100
AcDbTrace
 10
13.2275482298
 20
3.0184564599
 30
0.0
 11
13.2675482298
 21
3.2784564599
 31
0.0
 12
13.1875482298
 22
3.2784564599
 32
0.0
 13
13.1875482298
 23
3.2784564599
 33
0.0
  0
LINE
  5
1EA
330
1E5
100
AcDbEntity
  8
0
  6
Continuous
 62
     7
370
     0
100
AcDbLine
 10
12.7303260337
 20
4.6165466986
 30
0.0
 11
12.6541541595
 21
4.6165466986
 31
0.0
  0
LINE
  5
1EB
330
1E5
100
AcDbEntity
  8
0
  6
Continuous
 62
     7
370
     0
100
AcDbLine
 10
12.6541541595
 20
4.6165466986
 30
0.0
 11
12.6541541595
 21
4.2196716867
 31
0.0
  0
LINE
  5
1EC
330
1E5
100
AcDbEntity
  8
0
  6
Continuous
 62
     7
370
     0
100
AcDbLine
 10
12.6541541595
 20
4.2196716867
 30
0.0
 11
12.7303260337
 21
4.2196716867
 31
0.0
  0
LINE
  5
1ED
330
1E5
100
AcDbEntity
  8
0
  6
Continuous
 62
     7
370
     0
100
AcDbLine
 10
13.7247704991
 20
4.6165466986
 30
0.0
 11
13.8009423734
 21
4.6165466986
 31
0.0
  0
LINE
  5
1EE
330
1E5
100
AcDbEntity
  8
0
  6
Continuous
 62
     7
370
     0
100
AcDbLine
 10
13.8009423734
 20
4.6165466986
 30
0.0
 11
13.8009423734
 21
4.2196716867
 31
0.0
  0
LINE
  5
1EF
330
1E5
100
AcDbEntity
  8
0
  6
Continuous
 62
     7
370
     0
100
AcDbLine
 10
13.8009423734
 20
4.2196716867
 30
0.0
 11
13.7247704991
 21
4.2196716867
 31
0.0
  0
LINE
  5
1F0
330
1E5
100
AcDbEntity
  8
0
  6
Continuous
 62
     7
370
     0
100
AcDbLine
 10
13.9272086354
 20
6.2184564599
 30
0.0
 11
12.9775482298
 21
6.2184564599
 31
0.0
  0
LINE
  5
1F1
330
1E5
100
AcDbEntity
  8
0
  6
Continuous
 62
     7
370
     0
100
AcDbLine
 10
13.9272086354
 20
3.0184564599
 30
0.0
 11
12.9775482298
 21
3.0184564599
 31
0.0
  0
LINE
  5
1F2
330
1E5
100
AcDbEntity
  8
0
  6
Continuous
 62
     7
370
     0
100
AcDbLine
 10
13.2275482298
 20
6.2184564599
 30
0.0
 11
13.2275482298
 21
5.0680224031
 31
0.0
  0
LINE
  5
1F3
330
1E5
100
AcDbEntity
  8
0
  6
Continuous
 62
     7
370
     0
100
AcDbLine
 10
13.2275482298
 20
3.0184564599
 30
0.0
 11
13.2275482298
 21
4.1688905166
 31
0.0
  0
MTEXT
  5
1F4
330
1E5
100
AcDbEntity
  8
0
  6
Continuous
 62
     7
370
    18
100
AcDbMText
 10
12.5793711739
 20
4.9934143536
 30
0.0
 40
0.25
 41
0.0
 71
     1
 72
     1
  1

  7
SLDTEXTSTYLE0
 73
     1
 44
1.0
  0
MTEXT
  5
1F5
330
1E5
100
AcDbEntity
  8
0
  6
Continuous
 62
     7
370
    18
100
AcDbMText
 10
12.6874440741
 20
4.9895948907
 30
0.0
 40
0.25
 41
0.0
 71
     1
 72
     1
  1
3 3/16"
  7
SLDTEXTSTYLE0
 73
     1
 44
1.0
  0
MTEXT
  5
1F6
330
1E5
100
AcDbEntity
  8
0
  6
Continuous
 62
     7
370
    18
100
AcDbMText
 10
12.7303260337
 20
4.5419386491
 30
0.0
 40
0.25
 41
0.0
 71
     1
 72
     1
  1
81mm
  7
SLDTEXTSTYLE0
 73
     1
 44
1.0
  0
MTEXT
  5
1F7
330
1E5
100
AcDbEntity
  8
0
  6
Continuous
 62
     7
370
    18
100
AcDbMText
 10
13.9708641926
 20
4.9934143536
 30
0.0
 40
0.25
 41
0.0
 71
     1
 72
     1
  1

  7
SLDTEXTSTYLE0
 73
     1
 44
1.0
  0
ENDBLK
  5
1E7
330
1E5
100
AcDbEntity
  8
0
100
AcDbBlockEnd
  0
ENDSEC
  0
SECTION
  2
ENTITIES
  0
LINE
  5
6E
330
1F
100
AcDbEntity
  8
0
  6
Continuous
 62
     7
370
    25
100
AcDbLine
 10
8.4959896375
 20
5.7948426936
 30
0.0
 11
8.4859896375
 21
5.794668143
 31
0.0
  0
LINE
  5
6F
330
1F
100
AcDbEntity
  8
0
  6
Continuous
 62
     7
370
    25
100
AcDbLine
 10
8.4859896375
 20
3.4422447768
 30
0.0
 11
8.4959896375
 21
3.4420702261
 31
0.0
  0
LINE
  5
70
330
1F
100
AcDbEntity
  8
0
  6
Continuous
 62
     7
370
    25
100
AcDbLine
 10
5.1759896375
 20
3.5084564599
 30
0.0
 11
7.0959896375
 21
3.5084564599
 31
0.0
  0
LINE
  5
71
330
1F
100
AcDbEntity
  8
0
  6
Continuous
 62
     7
370
    25
100
AcDbLine
 10
7.0959896375
 20
5.7284564599
 30
0.0
 11
5.1759896375
 21
5.7284564599
 31
0.0
  0
LINE
  5
72
330
1F
100
AcDbEntity
  8
0
  6
Continuous
 62
     7
370
    25
100
AcDbLine
 10
5.1759896375
 20
5.7284564599
 30
0.0
 11
5.1459896375
 21
5.6984564599
 31
0.0
  0
LINE
  5
73
330
1F
100
AcDbEntity
  8
0
  6
Continuous
 62
     7
370
    25
100
AcDbLine
 10
5.1459896375
 20
3.5384564599
 30
0.0
 11
5.1759896375
 21
3.5084564599
 31
0.0
  0
ARC
  5
74
330
1F
100
AcDbEntity
  8
0
  6
Continuous
 62
     7
370
    25
100
AcDbCircle
 10
7.0959896375
 20
5.7184564599
 30
0.0
 40
0.0100000000000007
100
AcDbArc
 50
0.0
 51
90.0
  0
ARC
  5
75
330
1F
100
AcDbEntity
  8
0
  6
Continuous
 62
     7
370
    25
100
AcDbCircle
 10
7.0959896375
 20
3.5184564599
 30
0.0
 40
0.0100000000000002
100
AcDbArc
 50
270.0
 51
0.0
  0
LINE
  5
76
330
1F
100
AcDbEntity
  8
0
  6
Continuous
 62
     7
370
    25
100
AcDbLine
 10
4.7584896375
 20
4.8036599388
 30
0.0
 11
2.2439896375
 21
4.8036599388
 31
0.0
  0
LINE
  5
77
330
1F
100
AcDbEntity
  8
0
  6
Continuous
 62
     7
370
    25
100
AcDbLine
 10
2.2439896375
 20
4.4332529809
 30
0.0
 11
4.7584896375
 21
4.4332529809
 31
0.0
  0
LINE
  5
78
330
1F
100
AcDbEntity
  8
0
  6
Continuous
 62
     7
370
    25
100
AcDbLine
 10
5.0209896375
 20
4.1234564599
 30
0.0
 11
5.1459896375
 21
4.1234564599
 31
0.0
  0
LINE
  5
79
330
1F
100
AcDbEntity
  8
0
  6
Continuous
 62
     7
370
    25
100
AcDbLine
 10
5.1459896375
 20
5.1134564599
 30
0.0
 11
5.0209896375
 21
5.1134564599
 31
0.0
  0
LINE
  5
7A
330
1F
100
AcDbEntity
  8
0
  6
Continuous
 62
     7
370
    25
100
AcDbLine
 10
5.0209896375
 20
4.9622064599
 30
0.0
 11
5.0079896375
 21
4.9622064599
 31
0.0
  0
LINE
  5
7B
330
1F
100
AcDbEntity
  8
0
  6
Continuous
 62
     7
370
    25
100
AcDbLine
 10
5.0079896375
 20
4.2747064599
 30
0.0
 11
5.0209896375
 21
4.2747064599
 31
0.0
  0
LINE
  5
7C
330
1F
100
AcDbEntity
  8
0
  6
Continuous
 62
     7
370
    25
100
AcDbLine
 10
7.4407339658
 20
3.5084564599
 30
0.0
 11
8.180018278
 21
3.5084564599
 31
0.0
  0
LINE
  5
7D
330
1F
100
AcDbEntity
  8
0
  6
Continuous
 62
     7
370
    25
100
AcDbLine
 10
7.1059896375
 20
3.5084564599
 30
0.0
 11
7.2718717935
 21
3.5084564599
 31
0.0
  0
LINE
  5
7E
330
1F
100
AcDbEntity
  8
0
  6
Continuous
 62
     7
370
    25
100
AcDbLine
 10
8.180018278
 20
5.7284564599
 30
0.0
 11
7.1059896375
 21
5.7284564599
 31
0.0
  0
ARC
  5
7F
330
1F
100
AcDbEntity
  8
0
  6
Continuous
 62
     7
370
    25
100
AcDbCircle
 10
8.2247396375
 20
3.4684564599
 30
0.0
 40
0.0600000000000002
100
AcDbArc
 50
41.8103148958
 51
138.1896851042
  0
ARC
  5
80
330
1F
100
AcDbEntity
  8
0
  6
Continuous
 62
     7
370
    25
100
AcDbCircle
 10
8.2247396375
 20
5.7684564599
 30
0.0
 40
0.0600000000000008
100
AcDbArc
 50
221.8103148958
 51
318.1896851042
  0
LINE
  5
81
330
1F
100
AcDbEntity
  8
0
  6
Continuous
 62
     7
370
    25
100
AcDbLine
 10
8.2694609971
 20
3.5084564599
 30
0.0
 11
8.4859896375
 21
3.5084564599
 31
0.0
  0
LINE
  5
82
330
1F
100
AcDbEntity
  8
0
  6
Continuous
 62
     7
370
    25
100
AcDbLine
 10
8.4859896375
 20
5.7284564599
 30
0.0
 11
8.2694609971
 21
5.7284564599
 31
0.0
  0
LINE
  5
83
330
1F
100
AcDbEntity
  8
0
  6
Continuous
 62
     7
370
    25
100
AcDbLine
 10
8.4959896375
 20
6.2184564599
 30
0.0
 11
8.8470366224
 21
6.2184564599
 31
0.0
  0
LINE
  5
84
330
1F
100
AcDbEntity
  8
0
  6
Continuous
 62
     7
370
    25
100
AcDbLine
 10
8.8470366224
 20
3.0184564599
 30
0.0
 11
8.8470366224
 21
6.2184564599
 31
0.0
  0
LINE
  5
85
330
1F
100
AcDbEntity
  8
0
  6
Continuous
 62
     7
370
    25
100
AcDbLine
 10
8.8470366224
 20
3.0184564599
 30
0.0
 11
8.4959896375
 21
3.0184564599
 31
0.0
  0
LINE
  5
86
330
1F
100
AcDbEntity
  8
0
  6
Continuous
 62
     7
370
    25
100
AcDbLine
 10
8.4959896375
 20
3.0184564599
 30
0.0
 11
8.4959896375
 21
6.2184564599
 31
0.0
  0
LINE
  5
87
330
1F
100
AcDbEntity
  8
0
  6
Continuous
 62
     7
370
    25
100
AcDbLine
 10
8.8759896375
 20
6.2184564599
 30
0.0
 11
8.8759896375
 21
3.0184564599
 31
0.0
  0
LINE
  5
88
330
1F
100
AcDbEntity
  8
0
  6
Continuous
 62
     7
370
    25
100
AcDbLine
 10
8.8470366224
 20
3.0184564599
 30
0.0
 11
8.8759896375
 21
3.0184564599
 31
0.0
  0
LINE
  5
89
330
1F
100
AcDbEntity
  8
0
  6
Continuous
 62
     7
370
    25
100
AcDbLine
 10
8.8759896375
 20
6.2184564599
 30
0.0
 11
8.8470366224
 21
6.2184564599
 31
0.0
  0
LINE
  5
8A
330
1F
100
AcDbEntity
  8
0
  6
Continuous
 62
     7
370
    25
100
AcDbLine
 10
8.4809896375
 20
3.0184564599
 30
0.0
 11
8.4809896375
 21
3.1184564599
 31
0.0
  0
LINE
  5
8B
330
1F
100
AcDbEntity
  8
0
  6
Continuous
 62
     7
370
    25
100
AcDbLine
 10
8.4959896375
 20
3.1184564599
 30
0.0
 11
8.4809896375
 21
3.1184564599
 31
0.0
  0
LINE
  5
8C
330
1F
100
AcDbEntity
  8
0
  6
Continuous
 62
     7
370
    25
100
AcDbLine
 10
8.4959896375
 20
3.0184564599
 30
0.0
 11
8.4809896375
 21
3.0184564599
 31
0.0
  0
LINE
  5
8D
330
1F
100
AcDbEntity
  8
0
  6
Continuous
 62
     7
370
    25
100
AcDbLine
 10
8.4809896375
 20
6.1184564599
 30
0.0
 11
8.4809896375
 21
6.2184564599
 31
0.0
  0
LINE
  5
8E
330
1F
100
AcDbEntity
  8
0
  6
Continuous
 62
     7
370
    25
100
AcDbLine
 10
8.4809896375
 20
6.1184564599
 30
0.0
 11
8.4959896375
 21
6.1184564599
 31
0.0
  0
LINE
  5
8F
330
1F
100
AcDbEntity
  8
0
  6
Continuous
 62
     7
370
    25
100
AcDbLine
 10
8.4809896375
 20
6.2184564599
 30
0.0
 11
8.4959896375
 21
6.2184564599
 31
0.0
  0
ARC
  5
90
330
1F
100
AcDbEntity
  8
0
  6
Continuous
 62
     7
370
    25
100
AcDbCircle
 10
9.0634896375
 20
5.8158176454
 30
0.0
 40
0.1875000000000007
100
AcDbArc
 50
180.0
 51
219.5226312712
  0
ELLIPSE
  5
91
330
1F
100
AcDbEntity
  8
0
  6
Continuous
 62
     7
370
    25
100
AcDbEllipse
 10
9.0634896375
 20
5.2265498198
 30
0.0
 11
-0.1447346925070061
 21
0.4700133395768881
 31
0.0
210
0.0
220
0.0
230
1.0
 40
0.0080804497
 41
6.263590043484951
 42
7.767106011670127
  0
LINE
  5
92
330
1F
100
AcDbEntity
  8
0
  6
Continuous
 62
     7
370
    25
100
AcDbLine
 10
8.8759896375
 20
5.2661660665
 30
0.0
 11
9.0471479357
 21
5.2661660665
 31
0.0
  0
SPLINE
  5
93
330
1F
100
AcDbEntity
  8
0
  6
Continuous
 62
     7
370
    25
100
AcDbSpline
210
0.0
220
0.0
230
1.0
 70
     8
 71
     3
 72
    11
 73
     7
 74
     0
 42
0.00000001
 43
0.00000001
 40
0.0
 40
0.0
 40
0.0
 40
0.0
 40
0.0033468221787182
 40
0.3978225979594084
 40
0.7569055226189394
 40
1.0
 40
1.0
 40
1.0
 40
1.0
 10
8.875989637501952
 20
4.022340317221937
 30
0.0
 10
8.875989768165265
 20
4.022429502654674
 30
0.0
 10
8.876005299560836
 20
4.033030597859808
 30
0.0
 10
8.881533021359287
 20
4.052969638226513
 30
0.0
 10
8.902198455239347
 20
4.076086707449978
 30
0.0
 10
8.924034452610492
 20
4.080483241611663
 30
0.0
 10
8.932849480127375
 20
4.082258089307212
 30
0.0
  0
LINE
  5
94
330
1F
100
AcDbEntity
  8
0
  6
Continuous
 62
     7
370
    25
100
AcDbLine
 10
9.0471479357
 20
5.2661660665
 30
0.0
 11
9.0471479357
 21
4.0882482175
 31
0.0
  0
LINE
  5
95
330
1F
100
AcDbEntity
  8
0
  6
Continuous
 62
     7
370
    25
100
AcDbLine
 10
9.0471479357
 20
4.0882482175
 30
0.0
 11
8.9328494801
 21
4.0822580893
 31
0.0
  0
LINE
  5
96
330
1F
100
AcDbEntity
  8
0
  6
Continuous
 62
     7
370
    25
100
AcDbLine
 10
8.4859896375
 20
4.6184564599
 30
0.0
 11
8.4859896375
 21
5.794668143
 31
0.0
  0
LINE
  5
97
330
1F
100
AcDbEntity
  8
0
  6
Continuous
 62
     7
370
    25
100
AcDbLine
 10
8.4859896375
 20
3.4422447768
 30
0.0
 11
8.4859896375
 21
4.6184564599
 31
0.0
  0
LINE
  5
98
330
1F
100
AcDbEntity
  8
0
  6
Continuous
 62
     7
370
    25
100
AcDbLine
 10
9.9786551269
 20
4.1370664408
 30
0.0
 11
9.0471479357
 21
5.2661660665
 31
0.0
  0
LINE
  5
99
330
1F
100
AcDbEntity
  8
0
  6
Continuous
 62
     7
370
    25
100
AcDbLine
 10
8.9188571478
 20
5.6964958414
 30
0.0
 11
10.1959896375
 21
4.1484564599
 31
0.0
  0
LINE
  5
9A
330
1F
100
AcDbEntity
  8
0
  6
Continuous
 62
     7
370
    25
100
AcDbLine
 10
10.1959896375
 20
4.1484564599
 30
0.0
 11
9.9786551269
 21
4.1370664408
 31
0.0
  0
LINE
  5
9B
330
1F
100
AcDbEntity
  8
0
  6
Continuous
 62
     7
370
    25
100
AcDbLine
 10
9.0471479357
 20
4.0882482175
 30
0.0
 11
9.9786551269
 21
4.1370664408
 31
0.0
  0
LINE
  5
9C
330
1F
100
AcDbEntity
  8
0
  6
Continuous
 62
     7
370
    25
100
AcDbLine
 10
5.1759896375
 20
5.7284564599
 30
0.0
 11
5.1759896375
 21
3.5084564599
 31
0.0
  0
LINE
  5
9D
330
1F
100
AcDbEntity
  8
0
  6
Continuous
 62
     7
370
    25
100
AcDbLine
 10
5.1459896375
 20
3.5384564599
 30
0.0
 11
5.1459896375
 21
5.6984564599
 31
0.0
  0
LINE
  5
9E
330
1F
100
AcDbEntity
  8
0
  6
Continuous
 62
     7
370
    25
100
AcDbLine
 10
4.7584896375
 20
4.616268531
 30
0.0
 11
2.2439896375
 21
4.616268531
 31
0.0
  0
LINE
  5
9F
330
1F
100
AcDbEntity
  8
0
  6
Continuous
 62
     7
370
    25
100
AcDbLine
 10
2.2439896375
 20
4.8036599388
 30
0.0
 11
2.2439896375
 21
4.616268531
 31
0.0
  0
LINE
  5
A0
330
1F
100
AcDbEntity
  8
0
  6
Continuous
 62
     7
370
    25
100
AcDbLine
 10
4.7584896375
 20
4.6096452542
 30
0.0
 11
2.2439896375
 21
4.6096452542
 31
0.0
  0
LINE
  5
A1
330
1F
100
AcDbEntity
  8
0
  6
Continuous
 62
     7
370
    25
100
AcDbLine
 10
2.2439896375
 20
4.6096452542
 30
0.0
 11
2.2439896375
 21
4.4332529809
 31
0.0
  0
LINE
  5
A2
330
1F
100
AcDbEntity
  8
0
  6
Continuous
 62
     7
370
    25
100
AcDbLine
 10
2.2439896375
 20
4.616268531
 30
0.0
 11
2.2439896375
 21
4.6096452542
 31
0.0
  0
LINE
  5
A3
330
1F
100
AcDbEntity
  8
0
  6
Continuous
 62
     7
370
    25
100
AcDbLine
 10
5.0209896375
 20
5.1134564599
 30
0.0
 11
5.0209896375
 21
4.1234564599
 31
0.0
  0
LINE
  5
A4
330
1F
100
AcDbEntity
  8
0
  6
Continuous
 62
     7
370
    25
100
AcDbLine
 10
5.0079896375
 20
4.9622064599
 30
0.0
 11
5.0079896375
 21
4.2747064599
 31
0.0
  0
LINE
  5
A5
330
1F
100
AcDbEntity
  8
0
  6
Continuous
 62
     7
370
    25
100
AcDbLine
 10
4.7984896375
 20
4.866407906
 30
0.0
 11
4.7984896375
 21
4.3176870323
 31
0.0
  0
SPLINE
  5
A6
330
1F
100
AcDbEntity
  8
0
  6
Continuous
 62
     7
370
    25
100
AcDbSpline
210
0.0
220
0.0
230
1.0
 70
     8
 71
     3
 72
     9
 73
     5
 74
     0
 42
0.00000001
 43
0.00000001
 40
0.0
 40
0.0
 40
0.0
 40
0.0
 40
0.9332117044283084
 40
1.0
 40
1.0
 40
1.0
 40
1.0
 10
4.798489637501949
 20
4.317687032312095
 30
0.0
 10
4.792779524261496
 20
4.312741560064513
 30
0.0
 10
4.786660748411005
 20
4.307442149197594
 30
0.0
 10
4.779001205329232
 20
4.302244045508312
 30
0.0
 10
4.778489637501942
 20
4.301896873022699
 30
0.0
  0
LINE
  5
A7
330
1F
100
AcDbEntity
  8
0
  6
Continuous
 62
     7
370
    25
100
AcDbLine
 10
4.7784896375
 20
4.301896873
 30
0.0
 11
4.7784896375
 21
4.8506177467
 31
0.0
  0
LINE
  5
A8
330
1F
100
AcDbEntity
  8
0
  6
Continuous
 62
     7
370
    25
100
AcDbLine
 10
4.7784896375
 20
4.8506177467
 30
0.0
 11
4.7984896375
 21
4.866407906
 31
0.0
  0
LINE
  5
A9
330
1F
100
AcDbEntity
  8
0
  6
Continuous
 62
     7
370
    25
100
AcDbLine
 10
4.8384896375
 20
4.866407906
 30
0.0
 11
4.8384896375
 21
4.3176870323
 31
0.0
  0
SPLINE
  5
AA
330
1F
100
AcDbEntity
  8
0
  6
Continuous
 62
     7
370
    25
100
AcDbSpline
210
0.0
220
0.0
230
1.0
 70
     8
 71
     3
 72
     9
 73
     5
 74
     0
 42
0.00000001
 43
0.00000001
 40
0.0
 40
0.0
 40
0.0
 40
0.0
 40
0.9332117044283064
 40
1.0
 40
1.0
 40
1.0
 40
1.0
 10
4.838489637501945
 20
4.317687032312095
 30
0.0
 10
4.832779524261499
 20
4.312741560064513
 30
0.0
 10
4.826660748411014
 20
4.307442149197595
 30
0.0
 10
4.819001205329236
 20
4.302244045508311
 30
0.0
 10
4.818489637501947
 20
4.301896873022699
 30
0.0
  0
LINE
  5
AB
330
1F
100
AcDbEntity
  8
0
  6
Continuous
 62
     7
370
    25
100
AcDbLine
 10
4.8184896375
 20
4.301896873
 30
0.0
 11
4.8184896375
 21
4.8506177467
 31
0.0
  0
LINE
  5
AC
330
1F
100
AcDbEntity
  8
0
  6
Continuous
 62
     7
370
    25
100
AcDbLine
 10
4.8184896375
 20
4.8506177467
 30
0.0
 11
4.8384896375
 21
4.866407906
 31
0.0
  0
LINE
  5
AD
330
1F
100
AcDbEntity
  8
0
  6
Continuous
 62
     7
370
    25
100
AcDbLine
 10
4.8584896375
 20
4.301896873
 30
0.0
 11
4.8584896375
 21
4.8506177467
 31
0.0
  0
LINE
  5
AE
330
1F
100
AcDbEntity
  8
0
  6
Continuous
 62
     7
370
    25
100
AcDbLine
 10
4.8584896375
 20
4.301896873
 30
0.0
 11
4.8384896375
 21
4.3176870323
 31
0.0
  0
SPLINE
  5
AF
330
1F
100
AcDbEntity
  8
0
  6
Continuous
 62
     7
370
    25
100
AcDbSpline
210
0.0
220
0.0
230
1.0
 70
     8
 71
     3
 72
     9
 73
     5
 74
     0
 42
0.00000001
 43
0.00000001
 40
0.0
 40
0.0
 40
0.0
 40
0.0
 40
0.9332117044284167
 40
0.9999999999999999
 40
0.9999999999999999
 40
0.9999999999999999
 40
0.9999999999999999
 10
4.838489637501945
 20
4.866407905956288
 30
0.0
 10
4.844199750742392
 20
4.861462433708645
 30
0.0
 10
4.850318526592879
 20
4.856163022841663
 30
0.0
 10
4.857978069674664
 20
4.850964919152448
 30
0.0
 10
4.858489637501953
 20
4.850617746666842
 30
0.0
  0
LINE
  5
B0
330
1F
100
AcDbEntity
  8
0
  6
Continuous
 62
     7
370
    25
100
AcDbLine
 10
4.8184896375
 20
4.301896873
 30
0.0
 11
4.7984896375
 21
4.3176870323
 31
0.0
  0
SPLINE
  5
B1
330
1F
100
AcDbEntity
  8
0
  6
Continuous
 62
     7
370
    25
100
AcDbSpline
210
0.0
220
0.0
230
1.0
 70
     8
 71
     3
 72
     9
 73
     5
 74
     0
 42
0.00000001
 43
0.00000001
 40
0.0
 40
0.0
 40
0.0
 40
0.0
 40
0.933211704428381
 40
0.9999999999999999
 40
0.9999999999999999
 40
0.9999999999999999
 40
0.9999999999999999
 10
4.798489637501948
 20
4.866407905956288
 30
0.0
 10
4.804199750742375
 20
4.861462433708644
 30
0.0
 10
4.810318526592839
 20
4.85616302284166
 30
0.0
 10
4.817978069674663
 20
4.850964919152448
 30
0.0
 10
4.818489637501957
 20
4.850617746666842
 30
0.0
  0
LINE
  5
B2
330
1F
100
AcDbEntity
  8
0
  6
Continuous
 62
     7
370
    25
100
AcDbLine
 10
4.7784896375
 20
4.301896873
 30
0.0
 11
4.7584896375
 21
4.3176870323
 31
0.0
  0
LINE
  5
B3
330
1F
100
AcDbEntity
  8
0
  6
Continuous
 62
     7
370
    25
100
AcDbLine
 10
4.7584896375
 20
4.866407906
 30
0.0
 11
4.7584896375
 21
4.3176870323
 31
0.0
  0
SPLINE
  5
B4
330
1F
100
AcDbEntity
  8
0
  6
Continuous
 62
     7
370
    25
100
AcDbSpline
210
0.0
220
0.0
230
1.0
 70
     8
 71
     3
 72
     9
 73
     5
 74
     0
 42
0.00000001
 43
0.00000001
 40
0.0
 40
0.0
 40
0.0
 40
0.0
 40
0.9332117044284147
 40
1.0
 40
1.0
 40
1.0
 40
1.0
 10
4.758489637501953
 20
4.866407905956288
 30
0.0
 10
4.764199750742392
 20
4.861462433708645
 30
0.0
 10
4.770318526592869
 20
4.856163022841663
 30
0.0
 10
4.777978069674663
 20
4.850964919152448
 30
0.0
 10
4.778489637501951
 20
4.850617746666842
 30
0.0
  0
LINE
  5
B5
330
1F
100
AcDbEntity
  8
0
  6
Continuous
 62
     7
370
    25
100
AcDbLine
 10
4.9184896375
 20
4.866407906
 30
0.0
 11
4.9184896375
 21
4.3176870323
 31
0.0
  0
SPLINE
  5
B6
330
1F
100
AcDbEntity
  8
0
  6
Continuous
 62
     7
370
    25
100
AcDbSpline
210
0.0
220
0.0
230
1.0
 70
     8
 71
     3
 72
     9
 73
     5
 74
     0
 42
0.00000001
 43
0.00000001
 40
0.0
 40
0.0
 40
0.0
 40
0.0
 40
0.9332117044283419
 40
0.9999999999999999
 40
0.9999999999999999
 40
0.9999999999999999
 40
0.9999999999999999
 10
4.918489637501946
 20
4.317687032312095
 30
0.0
 10
4.912779524261479
 20
4.312741560064514
 30
0.0
 10
4.906660748410971
 20
4.307442149197597
 30
0.0
 10
4.899001205329236
 20
4.302244045508312
 30
0.0
 10
4.898489637501949
 20
4.301896873022699
 30
0.0
  0
LINE
  5
B7
330
1F
100
AcDbEntity
  8
0
  6
Continuous
 62
     7
370
    25
100
AcDbLine
 10
4.8984896375
 20
4.301896873
 30
0.0
 11
4.8984896375
 21
4.8506177467
 31
0.0
  0
LINE
  5
B8
330
1F
100
AcDbEntity
  8
0
  6
Continuous
 62
     7
370
    25
100
AcDbLine
 10
4.8984896375
 20
4.8506177467
 30
0.0
 11
4.9184896375
 21
4.866407906
 31
0.0
  0
LINE
  5
B9
330
1F
100
AcDbEntity
  8
0
  6
Continuous
 62
     7
370
    25
100
AcDbLine
 10
4.8784896375
 20
4.866407906
 30
0.0
 11
4.8784896375
 21
4.3176870323
 31
0.0
  0
SPLINE
  5
BA
330
1F
100
AcDbEntity
  8
0
  6
Continuous
 62
     7
370
    25
100
AcDbSpline
210
0.0
220
0.0
230
1.0
 70
     8
 71
     3
 72
     9
 73
     5
 74
     0
 42
0.00000001
 43
0.00000001
 40
0.0
 40
0.0
 40
0.0
 40
0.0
 40
0.9332117044283084
 40
1.0
 40
1.0
 40
1.0
 40
1.0
 10
4.87848963750195
 20
4.317687032312095
 30
0.0
 10
4.872779524261493
 20
4.312741560064513
 30
0.0
 10
4.866660748410998
 20
4.307442149197594
 30
0.0
 10
4.859001205329234
 20
4.302244045508312
 30
0.0
 10
4.858489637501943
 20
4.301896873022699
 30
0.0
  0
LINE
  5
BB
330
1F
100
AcDbEntity
  8
0
  6
Continuous
 62
     7
370
    25
100
AcDbLine
 10
4.8584896375
 20
4.8506177467
 30
0.0
 11
4.8784896375
 21
4.866407906
 31
0.0
  0
LINE
  5
BC
330
1F
100
AcDbEntity
  8
0
  6
Continuous
 62
     7
370
    25
100
AcDbLine
 10
4.8984896375
 20
4.301896873
 30
0.0
 11
4.8784896375
 21
4.3176870323
 31
0.0
  0
SPLINE
  5
BD
330
1F
100
AcDbEntity
  8
0
  6
Continuous
 62
     7
370
    25
100
AcDbSpline
210
0.0
220
0.0
230
1.0
 70
     8
 71
     3
 72
     9
 73
     5
 74
     0
 42
0.00000001
 43
0.00000001
 40
0.0
 40
0.0
 40
0.0
 40
0.0
 40
0.933211704428381
 40
0.9999999999999999
 40
0.9999999999999999
 40
0.9999999999999999
 40
0.9999999999999999
 10
4.87848963750195
 20
4.866407905956288
 30
0.0
 10
4.884199750742378
 20
4.861462433708644
 30
0.0
 10
4.890318526592843
 20
4.85616302284166
 30
0.0
 10
4.897978069674664
 20
4.850964919152448
 30
0.0
 10
4.898489637501958
 20
4.850617746666842
 30
0.0
  0
LINE
  5
BE
330
1F
100
AcDbEntity
  8
0
  6
Continuous
 62
     7
370
    25
100
AcDbLine
 10
4.9379896375
 20
4.3022359054
 30
0.0
 11
4.9184896375
 21
4.3176870323
 31
0.0
  0
SPLINE
  5
BF
330
1F
100
AcDbEntity
  8
0
  6
Continuous
 62
     7
370
    25
100
AcDbSpline
210
0.0
220
0.0
230
1.0
 70
     8
 71
     3
 72
     9
 73
     5
 74
     0
 42
0.00000001
 43
0.00000001
 40
0.0
 40
0.0
 40
0.0
 40
0.0
 40
0.9539537040202175
 40
1.0
 40
1.0
 40
1.0
 40
1.0
 10
4.918489637501946
 20
4.866407905956288
 30
0.0
 10
4.924198402176831
 20
4.861462388923034
 30
0.0
 10
4.930182722643145
 20
4.856278157222467
 30
0.0
 10
4.937645982050315
 20
4.85119102275163
 30
0.0
 10
4.937989637501951
 20
4.850956779052097
 30
0.0
  0
LINE
  5
C0
330
1F
100
AcDbEntity
  8
0
  6
Continuous
 62
     7
370
    25
100
AcDbLine
 10
4.9379896375
 20
4.8509567791
 30
0.0
 11
4.9379896375
 21
4.3022359054
 31
0.0
  0
LINE
  5
C1
330
1F
100
AcDbEntity
  8
0
  6
Continuous
 62
     7
370
    25
100
AcDbLine
 10
5.0079896375
 20
4.3211308021
 30
0.0
 11
4.9379896375
 21
4.3211308021
 31
0.0
  0
LINE
  5
C2
330
1F
100
AcDbEntity
  8
0
  6
Continuous
 62
     7
370
    25
100
AcDbLine
 10
4.9379896375
 20
4.8698516757
 30
0.0
 11
5.0079896375
 21
4.8698516757
 31
0.0
  0
LINE
  5
C3
330
1F
100
AcDbEntity
  8
0
  6
Continuous
 62
     7
370
    25
100
AcDbLine
 10
4.7784896375
 20
4.9350160467
 30
0.0
 11
4.7584896375
 21
4.9192258874
 31
0.0
  0
SPLINE
  5
C4
330
1F
100
AcDbEntity
  8
0
  6
Continuous
 62
     7
370
    25
100
AcDbSpline
210
0.0
220
0.0
230
1.0
 70
     8
 71
     3
 72
     9
 73
     5
 74
     0
 42
0.00000001
 43
0.00000001
 40
0.0
 40
0.0
 40
0.0
 40
0.0
 40
0.9332117044286689
 40
1.0
 40
1.0
 40
1.0
 40
1.0
 10
4.798489637501949
 20
4.91922588744488
 30
0.0
 10
4.792779524261515
 20
4.924171359692467
 30
0.0
 10
4.786660748411047
 20
4.929470770559388
 30
0.0
 10
4.779001205329232
 20
4.934668874248667
 30
0.0
 10
4.778489637501942
 20
4.935016046734278
 30
0.0
  0
LINE
  5
C5
330
1F
100
AcDbEntity
  8
0
  6
Continuous
 62
     7
370
    25
100
AcDbLine
 10
4.8184896375
 20
4.9350160467
 30
0.0
 11
4.7984896375
 21
4.9192258874
 31
0.0
  0
SPLINE
  5
C6
330
1F
100
AcDbEntity
  8
0
  6
Continuous
 62
     7
370
    25
100
AcDbSpline
210
0.0
220
0.0
230
1.0
 70
     8
 71
     3
 72
     9
 73
     5
 74
     0
 42
0.00000001
 43
0.00000001
 40
0.0
 40
0.0
 40
0.0
 40
0.0
 40
0.9332117044286667
 40
1.0
 40
1.0
 40
1.0
 40
1.0
 10
4.838489637501945
 20
4.91922588744488
 30
0.0
 10
4.832779524261518
 20
4.924171359692466
 30
0.0
 10
4.826660748411056
 20
4.929470770559386
 30
0.0
 10
4.819001205329236
 20
4.934668874248667
 30
0.0
 10
4.818489637501947
 20
4.935016046734278
 30
0.0
  0
LINE
  5
C7
330
1F
100
AcDbEntity
  8
0
  6
Continuous
 62
     7
370
    25
100
AcDbLine
 10
4.8584896375
 20
4.9350160467
 30
0.0
 11
4.8384896375
 21
4.9192258874
 31
0.0
  0
SPLINE
  5
C8
330
1F
100
AcDbEntity
  8
0
  6
Continuous
 62
     7
370
    25
100
AcDbSpline
210
0.0
220
0.0
230
1.0
 70
     8
 71
     3
 72
     9
 73
     5
 74
     0
 42
0.00000001
 43
0.00000001
 40
0.0
 40
0.0
 40
0.0
 40
0.0
 40
0.9332117044286687
 40
1.0
 40
1.0
 40
1.0
 40
1.0
 10
4.87848963750195
 20
4.91922588744488
 30
0.0
 10
4.872779524261518
 20
4.924171359692467
 30
0.0
 10
4.866660748411051
 20
4.929470770559388
 30
0.0
 10
4.859001205329232
 20
4.934668874248667
 30
0.0
 10
4.858489637501943
 20
4.935016046734278
 30
0.0
  0
LINE
  5
C9
330
1F
100
AcDbEntity
  8
0
  6
Continuous
 62
     7
370
    25
100
AcDbLine
 10
4.8984896375
 20
4.9350160467
 30
0.0
 11
4.8784896375
 21
4.9192258874
 31
0.0
  0
SPLINE
  5
CA
330
1F
100
AcDbEntity
  8
0
  6
Continuous
 62
     7
370
    25
100
AcDbSpline
210
0.0
220
0.0
230
1.0
 70
     8
 71
     3
 72
     9
 73
     5
 74
     0
 42
0.00000001
 43
0.00000001
 40
0.0
 40
0.0
 40
0.0
 40
0.0
 40
0.9332117044287025
 40
1.0
 40
1.0
 40
1.0
 40
1.0
 10
4.918489637501946
 20
4.91922588744488
 30
0.0
 10
4.912779524261497
 20
4.924171359692466
 30
0.0
 10
4.906660748411011
 20
4.929470770559385
 30
0.0
 10
4.899001205329236
 20
4.934668874248667
 30
0.0
 10
4.898489637501949
 20
4.935016046734278
 30
0.0
  0
LINE
  5
CB
330
1F
100
AcDbEntity
  8
0
  6
Continuous
 62
     7
370
    25
100
AcDbLine
 10
4.9379896375
 20
4.9346770143
 30
0.0
 11
4.9184896375
 21
4.9192258874
 31
0.0
  0
LINE
  5
CC
330
1F
100
AcDbEntity
  8
0
  6
Continuous
 62
     7
370
    25
100
AcDbLine
 10
4.9379896375
 20
4.9157821177
 30
0.0
 11
4.9379896375
 21
4.9346770143
 31
0.0
  0
LINE
  5
CD
330
1F
100
AcDbEntity
  8
0
  6
Continuous
 62
     7
370
    25
100
AcDbLine
 10
5.0079896375
 20
4.9157821177
 30
0.0
 11
4.9379896375
 21
4.9157821177
 31
0.0
  0
LINE
  5
CE
330
1F
100
AcDbEntity
  8
0
  6
Continuous
 62
     7
370
    25
100
AcDbLine
 10
4.7584896375
 20
4.9192258874
 30
0.0
 11
4.7584896375
 21
4.866407906
 31
0.0
  0
LINE
  5
CF
330
1F
100
AcDbEntity
  8
0
  6
Continuous
 62
     7
370
    25
100
AcDbLine
 10
4.9379896375
 20
4.8509567791
 30
0.0
 11
4.9379896375
 21
4.8698516757
 31
0.0
  0
LINE
  5
D0
330
1F
100
AcDbEntity
  8
0
  6
Continuous
 62
     7
370
    25
100
AcDbLine
 10
8.180018278
 20
3.5084564599
 30
0.0
 11
8.180018278
 21
5.7284564599
 31
0.0
  0
SPLINE
  5
D1
330
1F
100
AcDbEntity
  8
0
  6
Continuous
 62
     7
370
    25
100
AcDbSpline
210
0.0
220
0.0
230
1.0
 70
     8
 71
     3
 72
    14
 73
    10
 74
     0
 42
0.00000001
 43
0.00000001
 40
0.0
 40
0.0
 40
0.0
 40
0.0
 40
0.1266278399636448
 40
0.273092709776143
 40
0.4229603444530332
 40
0.5739951284065136
 40
0.7233306569946505
 40
0.8683558906122661
 40
1.0
 40
1.0
 40
1.0
 40
1.0
 10
7.297000943838531
 20
3.510025605676331
 30
0.0
 10
7.303532244387707
 20
3.510321813328148
 30
0.0
 10
7.317618013882382
 20
3.510960631382017
 30
0.0
 10
7.344777932493402
 20
3.511553459958785
 30
0.0
 10
7.374277157511003
 20
3.511468094438921
 30
0.0
 10
7.402131717788532
 20
3.510682559732817
 30
0.0
 10
7.424198753946744
 20
3.509581510594524
 30
0.0
 10
7.438494810566371
 20
3.508638451923353
 30
0.0
 10
7.440012041019511
 20
3.508527175185117
 30
0.0
 10
7.440733965789239
 20
3.508474227768026
 30
0.0
  0
SPLINE
  5
D2
330
1F
100
AcDbEntity
  8
0
  6
Continuous
 62
     7
370
    25
100
AcDbSpline
210
0.0
220
0.0
230
1.0
 70
     8
 71
     3
 72
    10
 73
     6
 74
     0
 42
0.00000001
 43
0.00000001
 40
0.0
 40
0.0
 40
0.0
 40
0.0
 40
0.297601861692707
 40
0.6986085202915036
 40
1.0
 40
1.0
 40
1.0
 40
1.0
 10
7.271871793505134
 20
3.508518511904639
 30
0.0
 10
7.272012608949676
 20
3.508528342525772
 30
0.0
 10
7.272343167598687
 20
3.508551419517442
 30
0.0
 10
7.281978846900459
 20
3.509226179594008
 30
0.0
 10
7.292490504655628
 20
3.509785575090694
 30
0.0
 10
7.297000943838531
 20
3.510025605676331
 30
0.0
  0
SPLINE
  5
D3
330
1F
100
AcDbEntity
  8
0
  6
Continuous
 62
     7
370
    25
100
AcDbSpline
210
0.0
220
0.0
230
1.0
 70
    11
 71
     3
 72
    26
 73
    22
 74
     0
 42
0.00000001
 43
0.00000001
 40
0.0
 40
0.0
 40
0.0
 40
0.0
 40
0.0482348833488314
 40
0.0994990305378809
 40
0.1523411430840841
 40
0.2070350353661366
 40
0.2630546283428956
 40
0.3194545974421509
 40
0.3751634711989048
 40
0.4292222739348188
 40
0.4813028957315952
 40
0.53211335299657
 40
0.5830308239825981
 40
0.6352948420635293
 40
0.6894264904060925
 40
0.745115321567135
 40
0.8015082362440548
 40
0.8575530814745046
 40
0.9122146062197346
 40
0.9648968041165017
 40
1.0
 40
1.0
 40
1.0
 40
1.0
 10
7.27201848652524
 20
5.184425248676024
 30
0.0
 10
7.274152303205939
 20
5.191445705407549
 30
0.0
 10
7.278553945261121
 20
5.205927520024332
 30
0.0
 10
7.295257616937661
 20
5.224036441030937
 30
0.0
 10
7.318320643106279
 20
5.237318337276654
 30
0.0
 10
7.346260997465428
 20
5.243822282138139
 30
0.0
 10
7.375845640196497
 20
5.242467236950547
 30
0.0
 10
7.403424440312377
 20
5.233014054458992
 30
0.0
 10
7.425301059696651
 20
5.216436698789759
 30
0.0
 10
7.438722669694237
 20
5.194862675535341
 30
0.0
 10
7.442498265238282
 20
5.171080369490527
 30
0.0
 10
7.436892183479187
 20
5.147749403759563
 30
0.0
 10
7.422860243476476
 20
5.127038517817171
 30
0.0
 10
7.401621240104336
 20
5.110910777050941
 30
0.0
 10
7.374935234684258
 20
5.101349596752165
 30
0.0
 10
7.345494788059447
 20
5.100018079557803
 30
0.0
 10
7.316868479409773
 20
5.1075623934844
 30
0.0
 10
7.292787722191011
 20
5.123142041046309
 30
0.0
 10
7.276590875242447
 20
5.144402791145525
 30
0.0
 10
7.270031417800576
 20
5.165970294160037
 30
0.0
 10
7.271450879208184
 20
5.179153580369241
 30
0.0
 10
7.27201848652524
 20
5.184425248676024
 30
0.0
  0
LINE
  5
D4
330
1F
100
AcDbEntity
  8
0
  6
Continuous
 62
     7
370
    25
100
AcDbLine
 10
7.1059896375
 20
3.5084564599
 30
0.0
 11
7.1059896375
 21
5.7284564599
 31
0.0
  0
LINE
  5
D5
330
1F
100
AcDbEntity
  8
0
  6
Continuous
 62
     7
370
    25
100
AcDbLine
 10
8.2694609971
 20
3.5084564599
 30
0.0
 11
8.2694609971
 21
5.7284564599
 31
0.0
  0
SPLINE
  5
D6
330
1F
100
AcDbEntity
  8
0
  6
Continuous
 62
     7
370
    25
100
AcDbSpline
210
0.0
220
0.0
230
1.0
 70
     8
 71
     3
 72
    16
 73
    12
 74
     0
 42
0.00000001
 43
0.00000001
 40
0.0
 40
0.0
 40
0.0
 40
0.0
 40
0.0706710981391354
 40
0.1988786628867173
 40
0.3273275579052813
 40
0.4557820843776538
 40
0.5839963481585956
 40
0.7120998462968993
 40
0.8403945025814713
 40
0.9688841557729767
 40
1.0
 40
1.0
 40
1.0
 40
1.0
 10
7.420685024163809
 20
5.151103966432736
 30
0.0
 10
7.419715527709423
 20
5.154626463930645
 30
0.0
 10
7.416987224858629
 20
5.164539279931141
 30
0.0
 10
7.40461138698052
 20
5.177908015492389
 30
0.0
 10
7.385880087229364
 20
5.189208083195926
 30
0.0
 10
7.363408182933358
 20
5.194475438947743
 30
0.0
 10
7.3402553194337
 20
5.193292347049304
 30
0.0
 10
7.318703482819151
 20
5.185805157922451
 30
0.0
 10
7.301943598077488
 20
5.172610572191031
 30
0.0
 10
7.2922676007037
 20
5.159911965769528
 30
0.0
 10
7.291014761944927
 20
5.151802595399539
 30
0.0
 10
7.290770515122041
 20
5.150221635411988
 30
0.0
  0
LWPOLYLINE
  5
D7
330
1F
100
AcDbEntity
  8
0
  6
Continuous
 62
     7
370
    25
100
AcDbPolyline
 90
       20
 70
   128
 43
0.0
 10
7.3559896375
 20
5.1060667324
 10
7.3780692014
 20
5.1092575403
 10
7.397756102
 20
5.1184841904
 10
7.412916958
 20
5.1327468319
 10
7.4219088556
 20
5.1504998864
 10
7.423757383
 20
5.169819535
 10
7.4182622237
 20
5.188612194
 10
7.4060188634
 20
5.204841387
 10
7.3883540602
 20
5.2167484294
 10
7.3671820696
 20
5.2230430082
 10
7.3447972054
 20
5.2230430082
 10
7.3236252148
 20
5.2167484294
 10
7.3059604116
 20
5.204841387
 10
7.2937170513
 20
5.188612194
 10
7.288221892
 20
5.169819535
 10
7.2900704194
 20
5.1504998864
 10
7.299062317
 20
5.1327468319
 10
7.314223173
 20
5.1184841904
 10
7.3339100736
 20
5.1092575403
 10
7.3559896375
 20
5.1060667324
  0
LINE
  5
D8
330
1F
100
AcDbEntity
  8
0
  6
Continuous
 62
     7
370
    25
100
AcDbLine
 10
7.0959896375
 20
3.5084564599
 30
0.0
 11
7.0959896375
 21
5.7284564599
 31
0.0
  0
DIMENSION
  5
D9
330
1F
100
AcDbEntity
  8
0
  6
Continuous
 62
     7
370
    18
100
AcDbDimension
  2
_D
 10
10.1959896375
 20
7.0058580347
 30
0.0
 11
9.3459896375
 21
7.0058580347
 31
0.0
 70
   160
  1
<>
 71
     2
 42
-1.0
  3
SLDDIMSTYLE0
100
AcDbAlignedDimension
 13
8.4959896375
 23
6.2184564599
 33
0.0
 14
10.1959896375
 24
4.1484564599
 34
0.0
 50
0.0
100
AcDbRotatedDimension
  0
DIMENSION
  5
EF
330
1F
100
AcDbEntity
  8
0
  6
Continuous
 62
     7
370
    18
100
AcDbDimension
  2
_D_1
 10
4.7584896375
 20
7.0058580347
 30
0.0
 11
6.6272396375
 21
7.0058580347
 31
0.0
 70
   160
  1
<>
 71
     2
 42
-1.0
  3
SLDDIMSTYLE1
100
AcDbAlignedDimension
 13
8.4959896375
 23
6.2184564599
 33
0.0
 14
4.7584896375
 24
4.866407906
 34
0.0
 50
0.0
100
AcDbRotatedDimension
  0
DIMENSION
  5
105
330
1F
100
AcDbEntity
  8
0
  6
Continuous
 62
     7
370
    18
100
AcDbDimension
  2
_D_2
 10
1.4565880627
 20
3.5084564599
 30
0.0
 11
1.4565880627
 21
4.6184564599
 31
0.0
 70
   160
  1
%%c<>
 71
     2
 42
-1.0
  3
SLDDIMSTYLE1
100
AcDbAlignedDimension
 13
5.1759896375
 23
5.7284564599
 33
0.0
 14
5.1759896375
 24
3.5084564599
 34
0.0
 50
90.0
100
AcDbRotatedDimension
  0
LINE
  5
118
330
1F
100
AcDbEntity
  8
0
  6
Continuous
 62
     7
370
    25
100
AcDbLine
 10
12.9892975155
 20
13.7540591877
 30
0.0
 11
12.2637465845
 21
12.1419593704
 31
0.0
  0
LINE
  5
119
330
1F
100
AcDbEntity
  8
0
  6
Continuous
 62
     7
370
    25
100
AcDbLine
 10
12.0049393768
 20
14.9909883806
 30
0.0
 11
12.0049393768
 21
12.3780577825
 31
0.0
  0
LINE
  5
11A
330
1F
100
AcDbEntity
  8
0
  6
Continuous
 62
     7
370
    25
100
AcDbLine
 10
15.8223479676
 20
15.1352620065
 30
0.0
 11
14.4647029478
 21
14.3515102191
 31
0.0
  0
LINE
  5
11B
330
1F
100
AcDbEntity
  8
0
  6
Continuous
 62
     7
370
    25
100
AcDbLine
 10
15.8068585346
 20
12.5629543875
 30
0.0
 11
16.9322577609
 21
13.212633532
 31
0.0
  0
LINE
  5
11C
330
1F
100
AcDbEntity
  8
0
  6
Continuous
 62
     7
370
    25
100
AcDbLine
 10
17.1621913914
 20
13.7208412672
 30
0.0
 11
17.1621913914
 21
13.7453335105
 31
0.0
  0
LINE
  5
11D
330
1F
100
AcDbEntity
  8
0
  6
Continuous
 62
     7
370
    25
100
AcDbLine
 10
16.3986401864
 20
15.0679863039
 30
0.0
 11
16.3774304307
 21
15.0802344159
 31
0.0
  0
LINE
  5
11E
330
1F
100
AcDbEntity
  8
0
  6
Continuous
 62
     7
370
    25
100
AcDbLine
 10
18.3890858262
 20
15.5350881862
 30
0.0
 11
16.8450908385
 21
14.6437588523
 31
0.0
  0
LINE
  5
11F
330
1F
100
AcDbEntity
  8
0
  6
Continuous
 62
     7
370
    25
100
AcDbLine
 10
16.9457585263
 20
14.485372585
 30
0.0
 11
18.4828282074
 21
15.3727040245
 31
0.0
  0
LINE
  5
120
330
1F
100
AcDbEntity
  8
0
  6
Continuous
 62
     7
370
    25
100
AcDbLine
 10
17.0180811538
 20
14.3440983683
 30
0.0
 11
18.5119940672
 21
15.2065159361
 31
0.0
  0
LINE
  5
121
330
1F
100
AcDbEntity
  8
0
  6
Continuous
 62
     7
370
    25
100
AcDbLine
 10
14.45763188
 20
14.3474281786
 30
0.0
 11
14.051172881
 21
14.112784393
 31
0.0
  0
LINE
  5
122
330
1F
100
AcDbEntity
  8
0
  6
Continuous
 62
     7
370
    25
100
AcDbLine
 10
14.9522367445
 20
12.0695917295
 30
0.0
 11
14.9991825348
 21
12.0966929575
 31
0.0
  0
LINE
  5
123
330
1F
100
AcDbEntity
  8
0
  6
Continuous
 62
     7
370
    25
100
AcDbLine
 10
13.0085829358
 20
14.7269048788
 30
0.0
 11
12.8623382778
 21
14.8113301228
 31
0.0
  0
LINE
  5
124
330
1F
100
AcDbEntity
  8
0
  6
Continuous
 62
     7
370
    25
100
AcDbLine
 10
12.9979763341
 20
14.720781818
 30
0.0
 11
13.0085829358
 21
14.7269048788
 31
0.0
  0
LINE
  5
125
330
1F
100
AcDbEntity
  8
0
  6
Continuous
 62
     7
370
    25
100
AcDbLine
 10
12.9979763341
 20
14.720781818
 30
0.0
 11
15.0614403673
 21
13.5295693873
 31
0.0
  0
LINE
  5
126
330
1F
100
AcDbEntity
  8
0
  6
Continuous
 62
     7
370
    25
100
AcDbLine
 10
15.072046969
 20
13.5356924481
 30
0.0
 11
15.0614403673
 21
13.5295693873
 31
0.0
  0
LINE
  5
127
330
1F
100
AcDbEntity
  8
0
  6
Continuous
 62
     7
370
    25
100
AcDbLine
 10
15.2182916271
 20
13.4512672041
 30
0.0
 11
15.072046969
 21
13.5356924481
 31
0.0
  0
LINE
  5
128
330
1F
100
AcDbEntity
  8
0
  6
Continuous
 62
     7
370
    25
100
AcDbLine
 10
15.2076850253
 20
13.4451441432
 30
0.0
 11
15.2182916271
 21
13.4512672041
 31
0.0
  0
LINE
  5
129
330
1F
100
AcDbEntity
  8
0
  6
Continuous
 62
     7
370
    25
100
AcDbLine
 10
15.2076850253
 20
13.4451441432
 30
0.0
 11
15.8068585346
 21
13.0992486389
 31
0.0
  0
LINE
  5
12A
330
1F
100
AcDbEntity
  8
0
  6
Continuous
 62
     7
370
    25
100
AcDbLine
 10
15.5499625286
 20
12.9609539404
 30
0.0
 11
15.8068585346
 21
13.0992486389
 31
0.0
  0
ARC
  5
12B
330
1F
100
AcDbEntity
  8
0
  6
Continuous
 62
     7
370
    25
100
AcDbCircle
 10
15.5295429909
 20
13.0025508396
 30
0.0
 40
0.0463385319619736
100
AcDbArc
 50
242.6993467637
 51
296.1459996425
  0
LINE
  5
12C
330
1F
100
AcDbEntity
  8
0
  6
Continuous
 62
     7
370
    25
100
AcDbLine
 10
12.0137261733
 20
14.9787422589
 30
0.0
 11
15.5082893744
 21
12.9613738638
 31
0.0
  0
ARC
  5
12D
330
1F
100
AcDbEntity
  8
0
  6
Continuous
 62
     7
370
    25
100
AcDbCircle
 10
12.0182379502
 20
14.9909183755
 30
0.0
 40
0.0129851432899335
100
AcDbArc
 50
113.7956164509
 51
249.6681570588
  0
LINE
  5
12E
330
1F
100
AcDbEntity
  8
0
  6
Continuous
 62
     7
370
    25
100
AcDbLine
 10
12.2525581668
 20
15.1511025663
 30
0.0
 11
12.0129987657
 21
15.0027996588
 31
0.0
  0
LINE
  5
12F
330
1F
100
AcDbEntity
  8
0
  6
Continuous
 62
     7
370
    25
100
AcDbLine
 10
12.2525581668
 20
15.1511025663
 30
0.0
 11
12.8517316761
 21
14.805207062
 31
0.0
  0
LINE
  5
130
330
1F
100
AcDbEntity
  8
0
  6
Continuous
 62
     7
370
    25
100
AcDbLine
 10
12.8623382778
 20
14.8113301228
 30
0.0
 11
12.8517316761
 21
14.805207062
 31
0.0
  0
LINE
  5
131
330
1F
100
AcDbEntity
  8
0
  6
Continuous
 62
     7
370
    25
100
AcDbLine
 10
15.5082893744
 20
10.3484432658
 30
0.0
 11
15.5082893744
 21
12.9613738638
 31
0.0
  0
LINE
  5
132
330
1F
100
AcDbEntity
  8
0
  6
Continuous
 62
     7
370
    25
100
AcDbLine
 10
15.5499625286
 20
12.9609539404
 30
0.0
 11
15.5499625286
 21
10.3480233423
 31
0.0
  0
ARC
  5
133
330
1F
100
AcDbEntity
  8
0
  6
Continuous
 62
     7
370
    25
100
AcDbCircle
 10
15.5295429909
 20
10.3896202415
 30
0.0
 40
0.0463385319619851
100
AcDbArc
 50
242.6993467637
 51
296.1459996425
  0
LINE
  5
134
330
1F
100
AcDbEntity
  8
0
  6
Continuous
 62
     7
370
    25
100
AcDbLine
 10
15.8068585346
 20
13.0992486389
 30
0.0
 11
15.8068585346
 21
10.4863180409
 31
0.0
  0
LINE
  5
135
330
1F
100
AcDbEntity
  8
0
  6
Continuous
 62
     7
370
    25
100
AcDbLine
 10
15.8068585346
 20
10.4863180409
 30
0.0
 11
15.5499625286
 21
10.3480233423
 31
0.0
  0
ELLIPSE
  5
136
330
1F
100
AcDbEntity
  8
0
  6
Continuous
 62
     7
370
    25
100
AcDbEllipse
 10
14.3446393257
 20
12.8232024849
 30
0.0
 11
-0.08840013007984381
 21
0.4931133015601858
 31
0.0
210
0.0
220
0.0
230
1.0
 40
0.5091526124
 41
4.373850200410327
 42
5.877366168597202
  0
LINE
  5
137
330
1F
100
AcDbEntity
  8
0
  6
Continuous
 62
     7
370
    25
100
AcDbLine
 10
13.1594811833
 20
13.9885409461
 30
0.0
 11
14.3625343644
 21
13.2940331277
 31
0.0
  0
ELLIPSE
  5
138
330
1F
100
AcDbEntity
  8
0
  6
Continuous
 62
     7
370
    25
100
AcDbEllipse
 10
13.177376222
 20
13.4970491314
 30
0.0
 11
-0.1229227706222495
 21
0.5117155364485608
 31
0.0
210
0.0
220
0.0
230
1.0
 40
0.4613786991
 41
5.870434553913102
 42
7.373950522099921
  0
LINE
  5
139
330
1F
100
AcDbEntity
  8
0
  6
Continuous
 62
     7
370
    25
100
AcDbLine
 10
14.610817256
 20
12.7018895188
 30
0.0
 11
14.610817256
 21
11.6862550316
 31
0.0
  0
LINE
  5
13A
330
1F
100
AcDbEntity
  8
0
  6
Continuous
 62
     7
370
    25
100
AcDbLine
 10
15.5082893744
 20
10.3484432658
 30
0.0
 11
13.6279649176
 21
11.4339314694
 31
0.0
  0
LINE
  5
13B
330
1F
100
AcDbEntity
  8
0
  6
Continuous
 62
     7
370
    25
100
AcDbLine
 10
12.2921543434
 20
12.2050784996
 30
0.0
 11
12.0137261733
 21
12.3658116609
 31
0.0
  0
LINE
  5
13C
330
1F
100
AcDbEntity
  8
0
  6
Continuous
 62
     7
370
    25
100
AcDbLine
 10
12.0137261733
 20
14.9787422589
 30
0.0
 11
12.0137261733
 21
12.3658116609
 31
0.0
  0
LWPOLYLINE
  5
13D
330
1F
100
AcDbEntity
  8
0
  6
Continuous
 62
     7
370
    25
100
AcDbPolyline
 90
       29
 70
   128
 43
0.0
 10
15.0762263869
 20
11.9043332184
 10
15.072592015
 20
11.9436792685
 10
15.0618711419
 20
11.9852484999
 10
15.044601357
 20
12.0269564576
 10
15.0216486394
 20
12.0667117306
 10
14.9941639342
 20
12.1025208233
 10
14.9635254393
 20
12.1325881185
 10
14.9312694967
 20
12.1554059163
 10
14.8990135542
 20
12.169830037
 10
14.8683750592
 20
12.1751371952
 10
14.840890354
 20
12.1710612676
 10
14.8179376364
 20
12.1578066383
 10
14.8006678515
 20
12.1360379498
 10
14.7899469785
 20
12.106846775
 10
14.7863126066
 20
12.0716968813
 10
14.7899469785
 20
12.0323508311
 10
14.8006678515
 20
11.9907815997
 10
14.8179376364
 20
11.949073642
 10
14.840890354
 20
11.9093183691
 10
14.8683750592
 20
11.8735092763
 10
14.8990135542
 20
11.8434419812
 10
14.9312694967
 20
11.8206241834
 10
14.9635254393
 20
11.8062000626
 10
14.9941639342
 20
11.8008929045
 10
15.0216486394
 20
11.804968832
 10
15.044601357
 20
11.8182234613
 10
15.0618711419
 20
11.8399921498
 10
15.072592015
 20
11.8691833246
 10
15.0762263869
 20
11.9043332184
  0
LWPOLYLINE
  5
13E
330
1F
100
AcDbEntity
  8
0
  6
Continuous
 62
     7
370
    25
100
AcDbPolyline
 90
       29
 70
   128
 43
0.0
 10
12.7357029412
 20
13.2554886434
 10
12.7320685693
 20
13.2948346936
 10
12.7213476962
 20
13.3364039249
 10
12.7040779113
 20
13.3781118827
 10
12.6811251937
 20
13.4178671556
 10
12.6536404885
 20
13.4536762484
 10
12.6230019936
 20
13.4837435435
 10
12.590746051
 20
13.5065613413
 10
12.5584901084
 20
13.5209854621
 10
12.5278516135
 20
13.5262926202
 10
12.5003669083
 20
13.5222166927
 10
12.4774141907
 20
13.5089620634
 10
12.4601444058
 20
13.4871933749
 10
12.4494235327
 20
13.4580022001
 10
12.4457891609
 20
13.4228523063
 10
12.4494235327
 20
13.3835062562
 10
12.4601444058
 20
13.3419370248
 10
12.4774141907
 20
13.3002290671
 10
12.5003669083
 20
13.2604737941
 10
12.5278516135
 20
13.2246647014
 10
12.5584901084
 20
13.1945974062
 10
12.590746051
 20
13.1717796084
 10
12.6230019936
 20
13.1573554877
 10
12.6536404885
 20
13.1520483295
 10
12.6811251937
 20
13.1561242571
 10
12.7040779113
 20
13.1693788864
 10
12.7213476962
 20
13.1911475749
 10
12.7320685693
 20
13.2203387497
 10
12.7357029412
 20
13.2554886434
  0
LINE
  5
13F
330
1F
100
AcDbEntity
  8
0
  6
Continuous
 62
     7
370
    25
100
AcDbLine
 10
13.3501451095
 20
11.4393458406
 30
0.0
 11
14.3322224572
 21
13.1791033134
 31
0.0
  0
ELLIPSE
  5
140
330
1F
100
AcDbEntity
  8
0
  6
Continuous
 62
     7
370
    25
100
AcDbEllipse
 10
14.2120568042
 20
12.7466642244
 30
0.0
 11
0.1101140289543743
 21
0.4361383188991645
 31
0.0
210
0.0
220
0.0
230
1.0
 40
0.3348498656
 41
4.7088952074257
 42
6.212411175612596
  0
LINE
  5
141
330
1F
100
AcDbEntity
  8
0
  6
Continuous
 62
     7
370
    25
100
AcDbLine
 10
14.3577120578
 20
12.7082690165
 30
0.0
 11
13.6414104062
 21
11.4393352059
 31
0.0
  0
ELLIPSE
  5
142
330
1F
100
AcDbEntity
  8
0
  6
Continuous
 62
     7
370
    25
100
AcDbEllipse
 10
13.5203669257
 20
11.5213303566
 30
0.0
 11
0.2155532466428855
 21
0.0236466811002316
 31
0.0
210
0.0
220
0.0
230
1.0
 40
0.5090174845
 41
3.74829069998983
 42
5.251806668176686
  0
LINE
  5
143
330
1F
100
AcDbEntity
  8
0
  6
Continuous
 62
     7
370
    25
100
AcDbLine
 10
13.1291692761
 20
13.8736111318
 30
0.0
 11
12.3051085359
 21
12.0426326133
 31
0.0
  0
LINE
  5
144
330
1F
100
AcDbEntity
  8
0
  6
Continuous
 62
     7
370
    25
100
AcDbLine
 10
14.3322224572
 20
13.1791033134
 30
0.0
 11
13.1291692761
 21
13.8736111318
 31
0.0
  0
LINE
  5
145
330
1F
100
AcDbEntity
  8
0
  6
Continuous
 62
     7
370
    25
100
AcDbLine
 10
12.3051085359
 20
12.0426326133
 30
0.0
 11
13.3501451095
 21
11.4393458406
 31
0.0
  0
LWPOLYLINE
  5
146
330
1F
100
AcDbEntity
  8
0
  6
Continuous
 62
     7
370
    25
100
AcDbPolyline
 90
        3
 70
   128
 43
0.0
 10
15.2182916271
 20
13.4512672041
 10
15.2209229106
 20
13.4395051558
 10
15.2213061495
 20
13.4372808356
  0
LINE
  5
147
330
1F
100
AcDbEntity
  8
0
  6
Continuous
 62
     7
370
    25
100
AcDbLine
 10
14.3577120578
 20
11.7464510198
 30
0.0
 11
13.6414104062
 21
11.4393352059
 31
0.0
  0
LINE
  5
148
330
1F
100
AcDbEntity
  8
0
  6
Continuous
 62
     7
370
    25
100
AcDbLine
 10
14.3577120578
 20
11.7464510198
 30
0.0
 11
14.3577120578
 21
12.7082690165
 31
0.0
  0
ARC
  5
149
330
1F
100
AcDbEntity
  8
0
  6
Continuous
 62
     7
370
    25
100
AcDbCircle
 10
14.4776519116
 20
12.4427200238
 30
0.0
 40
0.2913791963805945
100
AcDbArc
 50
62.8051914431
 51
114.3071482052
  0
ARC
  5
14A
330
1F
100
AcDbEntity
  8
0
  6
Continuous
 62
     7
370
    25
100
AcDbCircle
 10
14.1008497499
 20
13.3015883716
 30
0.0
 40
0.2617936576762098
100
AcDbArc
 50
332.1039620547
 51
358.3462406651
  0
ARC
  5
14B
330
1F
100
AcDbEntity
  8
0
  6
Continuous
 62
     7
370
    25
100
AcDbCircle
 10
12.8977965688
 20
13.9960961901
 30
0.0
 40
0.261793657676208
100
AcDbArc
 50
332.1039620547
 51
358.3462406651
  0
LWPOLYLINE
  5
14C
330
1F
100
AcDbEntity
  8
0
  6
Continuous
 62
     7
370
    25
100
AcDbPolyline
 90
       12
 70
   128
 43
0.0
 10
14.9699742504
 20
12.1269848637
 10
14.9668504387
 20
12.1256546974
 10
14.9523388353
 20
12.1125020776
 10
14.9446673727
 20
12.0911261433
 10
14.9446673727
 20
12.0638433086
 10
14.9523388353
 20
12.033610092
 10
14.9668504387
 20
12.0037027317
 10
14.9866296252
 20
11.9773621542
 10
15.0095330133
 20
11.9574427697
 10
15.0330786654
 20
11.9461031527
 10
15.0547150447
 20
11.9445721266
 10
15.0709698872
 20
11.9520363334
  0
SPLINE
  5
14D
330
1F
100
AcDbEntity
  8
0
  6
Continuous
 62
     7
370
    25
100
AcDbSpline
210
0.0
220
0.0
230
1.0
 70
     8
 71
     3
 72
    11
 73
     7
 74
     0
 42
0.00000001
 43
0.00000001
 40
0.0
 40
0.0
 40
0.0
 40
0.0
 40
0.2430944773810582
 40
0.602177402040586
 40
0.9966531778212991
 40
1.0
 40
1.0
 40
1.0
 40
1.0
 10
14.47550764994902
 20
11.76687207400813
 30
0.0
 10
14.48862794215466
 20
11.76504531493126
 30
0.0
 10
14.52112865364563
 20
11.76052018936316
 30
0.0
 10
14.56830192555835
 20
11.73128303653108
 30
0.0
 10
14.59744376894496
 20
11.70269164514297
 30
0.0
 10
14.610705685522
 20
11.68639215673627
 30
0.0
 10
14.61081725604806
 20
11.68625503157148
 30
0.0
  0
ELLIPSE
  5
14E
330
1F
100
AcDbEntity
  8
0
  6
Continuous
 62
     7
370
    25
100
AcDbEllipse
 10
14.4782347346
 20
11.6642325734
 30
0.0
 11
0.1874479079146809
 21
-0.008089621709411077
 31
0.0
210
0.0
220
0.0
230
1.0
 40
0.5463150007
 41
1.608914043060459
 42
2.29250077967624
  0
ARC
  5
14F
330
1F
100
AcDbEntity
  8
0
  6
Continuous
 62
     7
370
    25
100
AcDbCircle
 10
15.0015509627
 20
12.0881865713
 30
0.0
 40
0.0504488224109939
100
AcDbArc
 50
130.5879552418
 51
186.4557808148
  0
LWPOLYLINE
  5
150
330
1F
100
AcDbEntity
  8
0
  6
Continuous
 62
     7
370
    25
100
AcDbPolyline
 90
        8
 70
   128
 43
0.0
 10
15.0699249989
 20
11.9512008641
 10
15.0520235965
 20
11.9485399674
 10
15.0291202084
 20
11.9550642719
 10
15.0055745563
 20
11.9709098862
 10
14.983938177
 20
11.9943596919
 10
14.9665557078
 20
12.022872539
 10
14.9553108091
 20
12.0533586178
 10
14.95142204
 20
12.0825142888
  0
ELLIPSE
  5
151
330
1F
100
AcDbEntity
  8
0
  6
Continuous
 62
     7
370
    25
100
AcDbEllipse
 10
12.4643969786
 20
12.1309288314
 30
0.0
 11
0.206847511855532
 21
0.02693468436085133
 31
0.0
210
0.0
220
0.0
230
1.0
 40
0.5500908635
 41
2.814679850955473
 42
3.764998797839867
  0
LWPOLYLINE
  5
152
330
1F
100
AcDbEntity
  8
0
  6
Continuous
 62
     7
370
    25
100
AcDbPolyline
 90
        3
 70
   128
 43
0.0
 10
13.0085829358
 20
14.7269048788
 10
13.0112142194
 20
14.7151428305
 10
13.0115974583
 20
14.7129185104
  0
ARC
  5
153
330
1F
100
AcDbEntity
  8
0
  6
Continuous
 62
     7
370
    25
100
AcDbCircle
 10
12.0197197539
 20
12.3793875523
 30
0.0
 40
0.014840075346544
100
AcDbArc
 50
185.1409795769
 51
246.1791613807
  0
LWPOLYLINE
  5
154
330
1F
100
AcDbEntity
  8
0
  6
Continuous
 62
     7
370
    25
100
AcDbPolyline
 90
       12
 70
   128
 43
0.0
 10
12.6294508047
 20
13.4781402887
 10
12.6263269929
 20
13.4768101224
 10
12.6118153896
 20
13.4636575027
 10
12.6041439269
 20
13.4422815683
 10
12.6041439269
 20
13.4149987337
 10
12.6118153896
 20
13.3847655171
 10
12.6263269929
 20
13.3548581568
 10
12.6461061795
 20
13.3285175792
 10
12.6690095676
 20
13.3085981948
 10
12.6925552197
 20
13.2972585778
 10
12.714191599
 20
13.2957275517
 10
12.7304464414
 20
13.3031917585
  0
ARC
  5
155
330
1F
100
AcDbEntity
  8
0
  6
Continuous
 62
     7
370
    25
100
AcDbCircle
 10
12.661027517
 20
13.4393419963
 30
0.0
 40
0.0504488224238679
100
AcDbArc
 50
130.5879552891
 51
186.4557808095
  0
LWPOLYLINE
  5
156
330
1F
100
AcDbEntity
  8
0
  6
Continuous
 62
     7
370
    25
100
AcDbPolyline
 90
        8
 70
   128
 43
0.0
 10
12.7294015531
 20
13.3023562891
 10
12.7115001508
 20
13.2996953924
 10
12.6885967627
 20
13.306219697
 10
12.6650511106
 20
13.3220653112
 10
12.6434147313
 20
13.345515117
 10
12.6260322621
 20
13.374027964
 10
12.6147873633
 20
13.4045140429
 10
12.6108985943
 20
13.4336697138
  0
LWPOLYLINE
  5
157
330
1F
100
AcDbEntity
  8
0
  6
Continuous
 62
     7
370
    25
100
AcDbPolyline
 90
        3
 70
   128
 43
0.0
 10
15.5254079242
 20
13.3432731228
 10
15.5133493698
 20
13.3752149891
 10
15.5075483909
 20
13.3898982076
  0
LINE
  5
158
330
1F
100
AcDbEntity
  8
0
  6
Continuous
 62
     7
370
    25
100
AcDbLine
 10
15.7853195658
 20
13.1475724563
 30
0.0
 11
15.791671102
 21
13.1080161571
 31
0.0
  0
LWPOLYLINE
  5
159
330
1F
100
AcDbEntity
  8
0
  6
Continuous
 62
     7
370
    25
100
AcDbPolyline
 90
       24
 70
   128
 43
0.0
 10
14.4647029478
 20
14.3515102191
 10
14.4689931675
 20
14.3539489156
 10
14.5255442733
 20
14.3796595133
 10
14.5867087843
 20
14.3961317566
 10
14.6519156241
 20
14.4032118486
 10
14.720555974
 20
14.4008336845
 10
14.7919889574
 20
14.3890194684
 10
14.8655476238
 20
14.3678795065
 10
14.9405451759
 20
14.337611177
 10
15.0162813816
 20
14.298497087
 10
15.0920491125
 20
14.2509024344
 10
15.1671409456
 20
14.1952715975
 10
15.2408557687
 20
14.1321239865
 10
15.3125053264
 20
14.0620491937
 10
15.3814206461
 20
13.9857014884
 10
15.4469582839
 20
13.9037937087
 10
15.5085063327
 20
13.8170906053
 10
15.5654901348
 20
13.7264017019
 10
15.617377648
 20
13.6325737363
 10
15.6636844123
 20
13.5364827549
 10
15.7039780742
 20
13.4390259333
 10
15.7378824224
 20
13.3411131996
 10
15.7650809012
 20
13.2436587386
 10
15.7853195658
 20
13.1475724563
  0
LWPOLYLINE
  5
15A
330
1F
100
AcDbEntity
  8
0
  6
Continuous
 62
     7
370
    25
100
AcDbPolyline
 90
       24
 70
   128
 43
0.0
 10
17.1429645857
 20
13.9313242437
 10
17.1227259211
 20
14.0274105259
 10
17.0955274422
 20
14.1248649869
 10
17.061623094
 20
14.2227777206
 10
17.0213294322
 20
14.3202345422
 10
16.9750226678
 20
14.4163255236
 10
16.9231351547
 20
14.5101534893
 10
16.8661513526
 20
14.6008423927
 10
16.8046033038
 20
14.687545496
 10
16.7390656659
 20
14.7694532758
 10
16.6701503463
 20
14.845800981
 10
16.5985007886
 20
14.9158757739
 10
16.5247859655
 20
14.9790233849
 10
16.4496941324
 20
15.0346542217
 10
16.3739264015
 20
15.0822488744
 10
16.2981901958
 20
15.1213629643
 10
16.2231926437
 20
15.1516312938
 10
16.1496339773
 20
15.1727712557
 10
16.0782009939
 20
15.1845854718
 10
16.009560644
 20
15.186963636
 10
15.9443538042
 20
15.179883544
 10
15.8831892931
 20
15.1634113006
 10
15.8266381873
 20
15.1377007029
 10
15.8223479676
 20
15.1352620065
  0
LWPOLYLINE
  5
15B
330
1F
100
AcDbEntity
  8
0
  6
Continuous
 62
     7
370
    25
100
AcDbPolyline
 90
       12
 70
   128
 43
0.0
 10
16.9322577609
 20
13.212633532
 10
16.954346246
 20
13.2264428142
 10
17.0030020599
 20
13.2655344806
 10
17.045815889
 20
13.313107757
 10
17.0823879922
 20
13.3687184647
 10
17.1123769054
 20
13.4318473814
 10
17.1355026304
 20
13.5019050895
 10
17.1515492485
 20
13.578237479
 10
17.1603669367
 20
13.6601318551
 10
17.1618733666
 20
13.7468235918
 10
17.1560544731
 20
13.8375032719
 10
17.1429645857
 20
13.9313242437
  0
ARC
  5
15C
330
1F
100
AcDbEntity
  8
0
  6
Continuous
 62
     7
370
    25
100
AcDbCircle
 10
15.9926124646
 20
13.7417485371
 30
0.0
 40
1.169584421044352
100
AcDbArc
 50
0.1756214961
 51
10.2629050307
  0
ARC
  5
15D
330
1F
100
AcDbEntity
  8
0
  6
Continuous
 62
     7
370
    25
100
AcDbCircle
 10
15.4867428992
 20
13.6532979643
 30
0.0
 40
1.683122027853274
100
AcDbArc
 50
10.1576175056
 51
57.1944813185
  0
LWPOLYLINE
  5
15E
330
1F
100
AcDbEntity
  8
0
  6
Continuous
 62
     7
370
    25
100
AcDbPolyline
 90
       12
 70
   128
 43
0.0
 10
18.4828282074
 20
15.3727040245
 10
18.4848562589
 20
15.3739807805
 10
18.4969276524
 20
15.3886499635
 10
18.5021059526
 20
15.4106956113
 10
18.4998057218
 20
15.437625332
 10
18.4902870148
 20
15.4663945606
 10
18.4746259781
 20
15.4937507643
 10
18.4545931852
 20
15.5166011617
 10
18.4324534624
 20
15.5323623791
 10
18.4107098374
 20
15.5392525172
 10
18.3918205562
 20
15.5364926047
 10
18.3890858262
 20
15.5350881862
  0
LINE
  5
15F
330
1F
100
AcDbEntity
  8
0
  6
Continuous
 62
     7
370
    25
100
AcDbLine
 10
16.9466103651
 20
14.4838686062
 30
0.0
 11
18.4683126452
 21
15.3623286339
 31
0.0
  0
LWPOLYLINE
  5
160
330
1F
100
AcDbEntity
  8
0
  6
Continuous
 62
     7
370
    25
100
AcDbPolyline
 90
        8
 70
   128
 43
0.0
 10
18.5119940672
 20
15.2065159361
 10
18.5231587287
 20
15.2172094559
 10
18.5304968216
 20
15.2372776763
 10
18.5304440009
 20
15.2630473469
 10
18.5230062383
 20
15.2916050531
 10
18.509024417
 20
15.3197221761
 10
18.4900792652
 20
15.3442199078
 10
18.4683126452
 20
15.3623286339
  0
LINE
  5
161
330
1F
100
AcDbEntity
  8
0
  6
Continuous
 62
     7
370
    25
100
AcDbLine
 10
18.4683126452
 20
15.3623286339
 30
0.0
 11
18.4679946161
 21
15.3641407745
 31
0.0
  0
LWPOLYLINE
  5
162
330
1F
100
AcDbEntity
  8
0
  6
Continuous
 62
     7
370
    25
100
AcDbPolyline
 90
       25
 70
   128
 43
0.0
 10
14.45763188
 20
14.3474281786
 10
14.4780652422
 20
14.3583859041
 10
14.5360318901
 20
14.3813968865
 10
14.5984480025
 20
14.3951151802
 10
14.6647308171
 20
14.3994127012
 10
14.7342614691
 20
14.3942493246
 10
14.8063907694
 20
14.3796732597
 10
14.8804452664
 20
14.355820599
 10
14.955733533
 20
14.3229140486
 10
15.031552623
 20
14.281260848
 10
15.107194634
 20
14.2312499019
 10
15.1819533169
 20
14.173348149
 10
15.2551306701
 20
14.1080962025
 10
15.3260434563
 20
14.0361033021
 10
15.394029582
 20
13.9580416262
 10
15.4584542789
 20
13.8746400155
 10
15.5187160311
 20
13.7866771686
 10
15.5742521909
 20
13.6949743707
 10
15.624544232
 20
13.6003878262
 10
15.6691225912
 20
13.5038006642
 10
15.7075710524
 20
13.406114693
 10
15.7395306326
 20
13.3082419801
 10
15.764702934
 20
13.2110963368
 10
15.7828529294
 20
13.1155847856
 10
15.7832699387
 20
13.1128660455
  0
SPLINE
  5
163
330
1F
100
AcDbEntity
  8
0
  6
Continuous
 62
     7
370
    25
100
AcDbSpline
210
0.0
220
0.0
230
1.0
 70
     8
 71
     3
 72
    15
 73
    11
 74
     0
 42
0.00000001
 43
0.00000001
 40
0.0
 40
0.0
 40
0.0
 40
0.0
 40
0.1143846785721602
 40
0.2412998835744853
 40
0.3645760893870624
 40
0.4867839124172917
 40
0.6112504079979553
 40
0.7399872807381925
 40
0.8729683336440717
 40
1.0
 40
1.0
 40
1.0
 40
1.0
 10
15.54044628147914
 20
13.42028566248768
 30
0.0
 10
15.54654775961759
 20
13.41636962937066
 30
0.0
 10
15.55941911601618
 20
13.40810857249656
 30
0.0
 10
15.57379924192272
 20
13.38698910230248
 30
0.0
 10
15.58190395179712
 20
13.3613108553627
 30
0.0
 10
15.58249788460334
 20
13.33408409999957
 30
0.0
 10
15.57585577144783
 20
13.30786899359057
 30
0.0
 10
15.56251942513734
 20
13.28537668551071
 30
0.0
 10
15.54420706317917
 20
13.26869058411838
 30
0.0
 10
15.52983743480439
 20
13.26501705423988
 30
0.0
 10
15.52281701733195
 20
13.26322231657012
 30
0.0
  0
SPLINE
  5
164
330
1F
100
AcDbEntity
  8
0
  6
Continuous
 62
     7
370
    25
100
AcDbSpline
210
0.0
220
0.0
230
1.0
 70
     8
 71
     3
 72
    15
 73
    11
 74
     0
 42
0.00000001
 43
0.00000001
 40
0.0
 40
0.0
 40
0.0
 40
0.0
 40
0.1121499319700534
 40
0.2354631372515336
 40
0.3600656609957232
 40
0.4885460928832435
 40
0.6215371584978674
 40
0.7577845906289863
 40
0.8949980791226542
 40
1.0
 40
1.0
 40
1.0
 40
1.0
 10
15.46106890322507
 20
13.29886874408848
 30
0.0
 10
15.45768437491009
 20
13.30588814395478
 30
0.0
 10
15.45057842628257
 20
13.32062564655605
 30
0.0
 10
15.4474119660672
 20
13.34697380549093
 30
0.0
 10
15.4504861711764
 20
13.37353915256063
 30
0.0
 10
15.46058234596844
 20
13.39751054141021
 30
0.0
 10
15.47708542532641
 20
13.41615768452902
 30
0.0
 10
15.49856517679885
 20
13.42677355953439
 30
0.0
 10
15.52093081212087
 20
13.42821403753631
 30
0.0
 10
15.53454461243521
 20
13.42268328074293
 30
0.0
 10
15.54044628147914
 20
13.42028566248768
 30
0.0
  0
SPLINE
  5
165
330
1F
100
AcDbEntity
  8
0
  6
Continuous
 62
     7
370
    25
100
AcDbSpline
210
0.0
220
0.0
230
1.0
 70
     8
 71
     3
 72
    15
 73
    11
 74
     0
 42
0.00000001
 43
0.00000001
 40
0.0
 40
0.0
 40
0.0
 40
0.0
 40
0.0831233214644429
 40
0.2217644937508306
 40
0.3606125486741156
 40
0.4996716407678323
 40
0.6386169001757562
 40
0.777301759834009
 40
0.9159852329049526
 40
1.0
 40
1.0
 40
1.0
 40
1.0
 10
15.4932906283392
 20
13.28026753811789
 30
0.0
 10
15.49652259573731
 20
13.28216904949909
 30
0.0
 10
15.50514515317648
 20
13.28724208678133
 30
0.0
 10
15.51551210627894
 20
13.30272465269414
 30
0.0
 10
15.52277758398541
 20
13.3237706610225
 30
0.0
 10
15.52380805372533
 20
13.34701387463548
 30
0.0
 10
15.51850675770644
 20
13.36953005933984
 30
0.0
 10
15.50732398241238
 20
13.38845983167445
 30
0.0
 10
15.49391013694317
 20
13.40122799067508
 30
0.0
 10
15.48416181925748
 20
13.40419053771414
 30
0.0
 10
15.48048418516697
 20
13.40530818327483
 30
0.0
  0
ARC
  5
166
330
1F
100
AcDbEntity
  8
0
  6
Continuous
 62
     7
370
    25
100
AcDbCircle
 10
15.5260637924
 20
13.3451145893
 30
0.0
 40
0.0755934452569443
100
AcDbArc
 50
126.507133972
 51
223.6783376968
  0
LWPOLYLINE
  5
167
330
1F
100
AcDbEntity
  8
0
  6
Continuous
 62
     7
370
    25
100
AcDbPolyline
 90
       12
 70
   128
 43
0.0
 10
15.4993288523
 20
13.2767817456
 10
15.5089440565
 20
13.2760400029
 10
15.5291747841
 20
13.2819456923
 10
15.5457453913
 20
13.2972849613
 10
15.5561331535
 20
13.3197225453
 10
15.558756628
 20
13.3458425256
 10
15.5532164146
 20
13.3716683718
 10
15.5403559606
 20
13.3932683331
 10
15.5221331535
 20
13.4073540112
 10
15.5013222505
 20
13.4117809892
 10
15.4810915229
 20
13.4058752998
 10
15.4810915229
 20
13.4058752998
  0
LINE
  5
168
330
1F
100
AcDbEntity
  8
0
  6
Continuous
 62
     7
370
    25
100
AcDbLine
 10
12.9111982917
 20
13.5805307157
 30
0.0
 11
12.9111982917
 21
13.6830586621
 31
0.0
  0
LINE
  5
169
330
1F
100
AcDbEntity
  8
0
  6
Continuous
 62
     7
370
    25
100
AcDbLine
 10
14.610817256
 20
11.6862550316
 30
0.0
 11
14.4710473082
 21
11.766942505
 31
0.0
  0
ELLIPSE
  5
16A
330
1F
100
AcDbEntity
  8
0
  6
Continuous
 62
     7
370
    25
100
AcDbEllipse
 10
13.0447937006
 20
13.420510871
 30
0.0
 11
0.06486966595169541
 21
0.4608031458886366
 31
0.0
210
0.0
220
0.0
230
1.0
 40
0.3024614216
 41
6.137811832249422
 42
7.088130779133769
  0
LWPOLYLINE
  5
16B
330
1F
100
AcDbEntity
  8
0
  6
Continuous
 62
     7
370
    25
100
AcDbPolyline
 90
        3
 70
   128
 43
0.0
 10
12.9111982917
 20
13.6830586621
 10
12.9333707577
 20
13.6676342717
 10
12.9452363727
 20
13.6561598437
  0
LINE
  5
16C
330
1F
100
AcDbEntity
  8
0
  6
Continuous
 62
     7
370
    25
100
AcDbLine
 10
15.594690427
 20
4.1370664408
 30
0.0
 11
15.5131941077
 21
5.2661660665
 31
0.0
  0
ELLIPSE
  5
16D
330
1F
100
AcDbEntity
  8
0
  6
Continuous
 62
     7
370
    25
100
AcDbEllipse
 10
15.7028400409
 20
5.2265498198
 30
0.0
 11
-0.03391080412098901
 21
0.4698209269474001
 31
0.0
210
0.0
220
0.0
230
1.0
 40
0.3980527077
 41
6.237355505486648
 42
7.740871473673452
  0
LINE
  5
16E
330
1F
100
AcDbEntity
  8
0
  6
Continuous
 62
     7
370
    25
100
AcDbLine
 10
15.6775326345
 20
5.6964958414
 30
0.0
 11
15.7892672491
 21
4.1484564599
 31
0.0
  0
ELLIPSE
  5
16F
330
1F
100
AcDbEntity
  8
0
  6
Continuous
 62
     7
370
    25
100
AcDbEllipse
 10
15.7815361866
 20
4.1362455029
 30
0.0
 11
0.1879494542362803
 21
0.0005044077137164037
 31
0.0
210
0.0
220
0.0
230
1.0
 40
0.064913913
 41
1.529476774672297
 42
3.032992742859125
  0
LINE
  5
170
330
1F
100
AcDbEntity
  8
0
  6
Continuous
 62
     7
370
    25
100
AcDbLine
 10
17.3789067595
 20
5.6964958414
 30
0.0
 11
15.6775326345
 21
5.6964958414
 31
0.0
  0
LINE
  5
171
330
1F
100
AcDbEntity
  8
0
  6
Continuous
 62
     7
370
    25
100
AcDbLine
 10
17.2671721448
 20
4.1484564599
 30
0.0
 11
17.3789067595
 21
5.6964958414
 31
0.0
  0
LINE
  5
172
330
1F
100
AcDbEntity
  8
0
  6
Continuous
 62
     7
370
    25
100
AcDbLine
 10
15.7892672491
 20
4.1484564599
 30
0.0
 11
17.2671721448
 21
4.1484564599
 31
0.0
  0
SPLINE
  5
173
330
1F
100
AcDbEntity
  8
0
  6
Continuous
 62
     7
370
    25
100
AcDbSpline
210
0.0
220
0.0
230
1.0
 70
     8
 71
     3
 72
    12
 73
     8
 74
     0
 42
0.00000001
 43
0.00000001
 40
0.0
 40
0.0
 40
0.0
 40
0.0
 40
0.1136951600544257
 40
0.3084101736815796
 40
0.5596870108849082
 40
0.8077104287747712
 40
1.0
 40
1.0
 40
1.0
 40
1.0
 10
17.20699212847188
 20
4.134852963665003
 30
0.0
 10
17.2064393614041
 20
4.135180709825664
 30
0.0
 10
17.20493992213777
 20
4.13606975602855
 30
0.0
 10
17.19124203735299
 20
4.137562803914551
 30
0.0
 10
17.16512670845472
 20
4.139044881812719
 30
0.0
 10
17.1314288301732
 20
4.140098917710854
 30
0.0
 10
17.10716771442454
 20
4.140249890445316
 30
0.0
 10
17.09657261580134
 20
4.140315821914734
 30
0.0
  0
LINE
  5
174
330
1F
100
AcDbEntity
  8
0
  6
Continuous
 62
     7
370
    25
100
AcDbLine
 10
15.9598667781
 20
4.1403158219
 30
0.0
 11
17.0965726158
 21
4.1403158219
 31
0.0
  0
SPLINE
  5
175
330
1F
100
AcDbEntity
  8
0
  6
Continuous
 62
     7
370
    25
100
AcDbSpline
210
0.0
220
0.0
230
1.0
 70
     8
 71
     3
 72
    12
 73
     8
 74
     0
 42
0.00000001
 43
0.00000001
 40
0.0
 40
0.0
 40
0.0
 40
0.0
 40
0.0862419471497792
 40
0.3499188471355691
 40
0.5808813424221109
 40
0.806643817540565
 40
1.0
 40
1.0
 40
1.0
 40
1.0
 10
15.95986677813807
 20
4.140315821914733
 30
0.0
 10
15.955120556217
 20
4.140301583291713
 30
0.0
 10
15.93586319297603
 20
4.140243811375416
 30
0.0
 10
15.90535895071042
 20
4.139562568688655
 30
0.0
 10
15.87505143438501
 20
4.138215144100698
 30
0.0
 10
15.85422510390419
 20
4.136617773017622
 30
0.0
 10
15.85095561248877
 20
4.135410107855875
 30
0.0
 10
15.84944726546761
 20
4.13485296366498
 30
0.0
  0
ELLIPSE
  5
176
330
1F
100
AcDbEntity
  8
0
  6
Continuous
 62
     7
370
    25
100
AcDbEllipse
 10
16.528219697
 20
4.0058370672
 30
0.0
 11
6.750155989720952E-14
 21
0.9193961754803919
 31
0.0
210
0.0
220
0.0
230
1.0
 40
0.7456587883
 41
1.430004883296311
 42
1.487579429976999
  0
LINE
  5
177
330
1F
100
AcDbEntity
  8
0
  6
Continuous
 62
     7
370
    25
100
AcDbLine
 10
15.4609044393
 20
4.0822580893
 30
0.0
 11
15.8450362442
 21
4.0822580893
 31
0.0
  0
ELLIPSE
  5
178
330
1F
100
AcDbEntity
  8
0
  6
Continuous
 62
     7
370
    25
100
AcDbEllipse
 10
15.3264076018
 20
4.0891046498
 30
0.0
 11
0.1875
 21
0.0
 31
0.0
210
0.0
220
0.0
230
1.0
 40
0.0524077793
 41
5.51233210796423
 42
6.195918844580204
  0
LINE
  5
179
330
1F
100
AcDbEntity
  8
0
  6
Continuous
 62
     7
370
    25
100
AcDbLine
 10
15.5131941077
 20
4.0882482175
 30
0.0
 11
15.594690427
 21
4.1370664408
 31
0.0
  0
ELLIPSE
  5
17A
330
1F
100
AcDbEntity
  8
0
  6
Continuous
 62
     7
370
    25
100
AcDbEllipse
 10
17.2749032073
 20
4.1362455029
 30
0.0
 11
0.1879494542362785
 21
-0.0005044077137164038
 31
0.0
210
0.0
220
0.0
230
1.0
 40
0.064913913
 41
0.1085999107306656
 42
1.612115878917497
  0
LINE
  5
17B
330
1F
100
AcDbEntity
  8
0
  6
Continuous
 62
     7
370
    25
100
AcDbLine
 10
17.5432452862
 20
4.0882482175
 30
0.0
 11
17.461748967
 21
4.1370664408
 31
0.0
  0
ELLIPSE
  5
17C
330
1F
100
AcDbEntity
  8
0
  6
Continuous
 62
     7
370
    25
100
AcDbEllipse
 10
17.7300317921
 20
4.0891046498
 30
0.0
 11
0.1875
 21
0.0
 31
0.0
210
0.0
220
0.0
230
1.0
 40
0.0524077793
 41
3.228859116189707
 42
3.91244585280542
  0
LINE
  5
17D
330
1F
100
AcDbEntity
  8
0
  6
Continuous
 62
     7
370
    25
100
AcDbLine
 10
17.2114031498
 20
4.0822580893
 30
0.0
 11
17.5955349547
 21
4.0822580893
 31
0.0
  0
ELLIPSE
  5
17E
330
1F
100
AcDbEntity
  8
0
  6
Continuous
 62
     7
370
    25
100
AcDbEllipse
 10
16.528219697
 20
4.0058370672
 30
0.0
 11
6.750155989720952E-14
 21
0.9193961754803919
 31
0.0
210
0.0
220
0.0
230
1.0
 40
0.7456587883
 41
4.795605877202707
 42
4.853180423883404
  0
ELLIPSE
  5
17F
330
1F
100
AcDbEntity
  8
0
  6
Continuous
 62
     7
370
    25
100
AcDbEllipse
 10
17.353599353
 20
5.2265498198
 30
0.0
 11
0.03391080412098901
 21
0.469820926947401
 31
0.0
210
0.0
220
0.0
230
1.0
 40
0.3980527077
 41
4.825499140685723
 42
6.329015108872568
  0
LINE
  5
180
330
1F
100
AcDbEntity
  8
0
  6
Continuous
 62
     7
370
    25
100
AcDbLine
 10
17.5432452862
 20
5.2661660665
 30
0.0
 11
17.461748967
 21
4.1370664408
 31
0.0
  0
LINE
  5
181
330
1F
100
AcDbEntity
  8
0
  6
Continuous
 62
     7
370
    25
100
AcDbLine
 10
15.5131941077
 20
5.2661660665
 30
0.0
 11
15.5131941077
 21
4.0882482175
 31
0.0
  0
LINE
  5
182
330
1F
100
AcDbEntity
  8
0
  6
Continuous
 62
     7
370
    25
100
AcDbLine
 10
17.5432452862
 20
4.0882482175
 30
0.0
 11
17.5432452862
 21
5.2661660665
 31
0.0
  0
ELLIPSE
  5
183
330
1F
100
AcDbEntity
  8
0
  6
Continuous
 62
     7
370
    25
100
AcDbEllipse
 10
15.7028400409
 20
5.2265498198
 30
0.0
 11
0.04248760103774885
 21
-0.5886490934306893
 31
-2.664535259100376E-15
210
3.250229730822700E-16
220
-4.503066159914277E-15
230
1.0
 40
0.6353988963
 41
3.095762851896811
 42
4.599278820083669
  0
LINE
  5
184
330
1F
100
AcDbEntity
  8
0
  6
Continuous
 62
     7
370
    25
100
AcDbLine
 10
15.6775326345
 20
5.8158176454
 30
0.0
 11
15.6775326345
 21
5.6964958414
 31
0.0
  0
LINE
  5
185
330
1F
100
AcDbEntity
  8
0
  6
Continuous
 62
     7
370
    25
100
AcDbLine
 10
15.3264076018
 20
5.2661660665
 30
0.0
 11
15.5131941077
 21
5.2661660665
 31
0.0
  0
SPLINE
  5
186
330
1F
100
AcDbEntity
  8
0
  6
Continuous
 62
     7
370
    25
100
AcDbSpline
210
0.0
220
0.0
230
1.0
 70
     8
 71
     3
 72
    11
 73
     7
 74
     0
 42
0.00000001
 43
0.00000001
 40
0.0
 40
0.0
 40
0.0
 40
0.0
 40
0.0033468221787182
 40
0.3978225979594084
 40
0.7569055226189394
 40
1.0
 40
1.0
 40
1.0
 40
1.0
 10
15.32640760184143
 20
4.022340317221938
 30
0.0
 10
15.32656525572923
 20
4.022429502654675
 30
0.0
 10
15.34530490661978
 20
4.03303059785981
 30
0.0
 10
15.3809899749715
 20
4.052969638226515
 30
0.0
 10
15.42703762201184
 20
4.076086707449979
 30
0.0
 10
15.45116457161799
 20
4.080483241611665
 30
0.0
 10
15.46090443928063
 20
4.082258089307213
 30
0.0
  0
LINE
  5
187
330
1F
100
AcDbEntity
  8
0
  6
Continuous
 62
     7
370
    25
100
AcDbLine
 10
15.3264076018
 20
4.0223403172
 30
0.0
 11
15.3264076018
 21
5.2661660665
 31
0.0
  0
LINE
  5
188
330
1F
100
AcDbEntity
  8
0
  6
Continuous
 62
     7
370
    25
100
AcDbLine
 10
17.5432452862
 20
5.2661660665
 30
0.0
 11
17.7300317921
 21
5.2661660665
 31
0.0
  0
LINE
  5
189
330
1F
100
AcDbEntity
  8
0
  6
Continuous
 62
     7
370
    25
100
AcDbLine
 10
17.3789067595
 20
5.8158176454
 30
0.0
 11
17.3789067595
 21
5.6964958414
 31
0.0
  0
ELLIPSE
  5
18A
330
1F
100
AcDbEntity
  8
0
  6
Continuous
 62
     7
370
    25
100
AcDbEllipse
 10
17.353599353
 20
5.2265498198
 30
0.0
 11
-0.04248760103774885
 21
-0.5886490934306893
 31
-2.664535259100376E-15
210
-3.250229730822700E-16
220
-4.503066159914277E-15
230
1.0
 40
0.6353988963
 41
1.683906487095927
 42
3.187422455282802
  0
LINE
  5
18B
330
1F
100
AcDbEntity
  8
0
  6
Continuous
 62
     7
370
    25
100
AcDbLine
 10
17.7300317921
 20
5.2661660665
 30
0.0
 11
17.7300317921
 21
4.0223403172
 31
0.0
  0
SPLINE
  5
18C
330
1F
100
AcDbEntity
  8
0
  6
Continuous
 62
     7
370
    25
100
AcDbSpline
210
0.0
220
0.0
230
1.0
 70
     8
 71
     3
 72
    11
 73
     7
 74
     0
 42
0.00000001
 43
0.00000001
 40
0.0
 40
0.0
 40
0.0
 40
0.0
 40
0.2430944773810582
 40
0.602177402040586
 40
0.9966531778212991
 40
1.0
 40
1.0
 40
1.0
 40
1.0
 10
17.59553495465877
 20
4.082258089307213
 30
0.0
 10
17.60527482232141
 20
4.080483241611659
 30
0.0
 10
17.62940177192755
 20
4.076086707449958
 30
0.0
 10
17.67544941896798
 20
4.052969638226658
 30
0.0
 10
17.71113448731943
 20
4.03303059785947
 30
0.0
 10
17.72987413821017
 20
4.022429502654671
 30
0.0
 10
17.73003179209797
 20
4.022340317221938
 30
0.0
  0
LINE
  5
18D
330
1F
100
AcDbEntity
  8
0
  6
Continuous
 62
     7
370
    25
100
AcDbLine
 10
15.8939116659
 20
4.0223403172
 30
0.0
 11
15.3264076018
 21
4.0223403172
 31
0.0
  0
SPLINE
  5
18E
330
1F
100
AcDbEntity
  8
0
  6
Continuous
 62
     7
370
    25
100
AcDbSpline
210
0.0
220
0.0
230
1.0
 70
     8
 71
     3
 72
    12
 73
     8
 74
     0
 42
0.00000001
 43
0.00000001
 40
0.0
 40
0.0
 40
0.0
 40
0.0
 40
0.160079080338481
 40
0.3196958662549156
 40
0.4898401585225082
 40
0.7448367427095677
 40
1.0
 40
1.0
 40
1.0
 40
1.0
 10
15.84503624416268
 20
4.082258089307213
 30
0.0
 10
15.84538953150256
 20
4.081488202139397
 30
0.0
 10
15.8460950859193
 20
4.079950651170757
 30
0.0
 10
15.85172917357172
 20
4.072031699786698
 30
0.0
 10
15.86130344882697
 20
4.059597696131099
 30
0.0
 10
15.87564792772571
 20
4.042224293859286
 30
0.0
 10
15.88782242734037
 20
4.028969752887529
 30
0.0
 10
15.89391166589855
 20
4.022340317221938
 30
0.0
  0
LINE
  5
18F
330
1F
100
AcDbEntity
  8
0
  6
Continuous
 62
     7
370
    25
100
AcDbLine
 10
17.7300317921
 20
4.0223403172
 30
0.0
 11
17.162527728
 21
4.0223403172
 31
0.0
  0
SPLINE
  5
190
330
1F
100
AcDbEntity
  8
0
  6
Continuous
 62
     7
370
    25
100
AcDbSpline
210
0.0
220
0.0
230
1.0
 70
     8
 71
     3
 72
    12
 73
     8
 74
     0
 42
0.00000001
 43
0.00000001
 40
0.0
 40
0.0
 40
0.0
 40
0.0
 40
0.2872006750251409
 40
0.5288528268930289
 40
0.7209229923002586
 40
0.8835817970509451
 40
1.0
 40
1.0
 40
1.0
 40
1.0
 10
17.16252772804085
 20
4.022340317221938
 30
0.0
 10
17.16938261931689
 20
4.029824791527505
 30
0.0
 10
17.18200525200765
 20
4.043606741705585
 30
0.0
 10
17.19687212029181
 20
4.061769423847607
 30
0.0
 10
17.20620869206342
 20
4.074049321443814
 30
0.0
 10
17.21077726606983
 20
4.08067431983044
 30
0.0
 10
17.21121891428044
 20
4.081791889992008
 30
0.0
 10
17.21140314977673
 20
4.082258089307213
 30
0.0
  0
LINE
  5
191
330
1F
100
AcDbEntity
  8
0
  6
Continuous
 62
     7
370
    25
100
AcDbLine
 10
15.6775326345
 20
5.8158176454
 30
0.0
 11
17.3789067595
 21
5.8158176454
 31
0.0
  0
LINE
  5
192
330
1F
100
AcDbEntity
  8
0
  6
Continuous
 62
     7
370
    25
100
AcDbLine
 10
14.0272086354
 20
3.0184564599
 30
0.0
 11
14.0272086354
 21
6.2184564599
 31
0.0
  0
LINE
  5
193
330
1F
100
AcDbEntity
  8
0
  6
Continuous
 62
     7
370
    25
100
AcDbLine
 10
14.0571903602
 20
6.2184564599
 30
0.0
 11
14.0571903602
 21
3.0184564599
 31
0.0
  0
LINE
  5
194
330
1F
100
AcDbEntity
  8
0
  6
Continuous
 62
     7
370
    25
100
AcDbLine
 10
14.0272086354
 20
3.0184564599
 30
0.0
 11
14.0571903602
 21
3.0184564599
 31
0.0
  0
LINE
  5
195
330
1F
100
AcDbEntity
  8
0
  6
Continuous
 62
     7
370
    25
100
AcDbLine
 10
14.0571903602
 20
6.2184564599
 30
0.0
 11
14.0272086354
 21
6.2184564599
 31
0.0
  0
LINE
  5
196
330
1F
100
AcDbEntity
  8
0
  6
Continuous
 62
     7
370
    25
100
AcDbLine
 10
18.9992490337
 20
3.0184564599
 30
0.0
 11
18.9992490337
 21
6.2184564599
 31
0.0
  0
LINE
  5
197
330
1F
100
AcDbEntity
  8
0
  6
Continuous
 62
     7
370
    25
100
AcDbLine
 10
18.9992490337
 20
3.0184564599
 30
0.0
 11
14.0571903602
 21
3.0184564599
 31
0.0
  0
CIRCLE
  5
198
330
1F
100
AcDbEntity
  8
0
  6
Continuous
 62
     7
370
    25
100
AcDbCircle
 10
18.183219697
 20
4.6184564599
 30
0.0
 40
0.2049999999999983
  0
CIRCLE
  5
199
330
1F
100
AcDbEntity
  8
0
  6
Continuous
 62
     7
370
    25
100
AcDbCircle
 10
14.873219697
 20
4.6184564599
 30
0.0
 40
0.2050000000000018
  0
LINE
  5
19A
330
1F
100
AcDbEntity
  8
0
  6
Continuous
 62
     7
370
    25
100
AcDbLine
 10
14.0571903602
 20
6.2184564599
 30
0.0
 11
18.9992490337
 21
6.2184564599
 31
0.0
  0
ARC
  5
19B
330
1F
100
AcDbEntity
  8
0
  6
Continuous
 62
     7
370
    25
100
AcDbCircle
 10
16.528219697
 20
4.6184564599
 30
0.0
 40
0.8704602999660763
100
AcDbArc
 50
223.2221320796
 51
316.7778679204
  0
CIRCLE
  5
19C
330
1F
100
AcDbEntity
  8
0
  6
Continuous
 62
     7
370
    25
100
AcDbCircle
 10
14.873219697
 20
4.6184564599
 30
0.0
 40
0.1015000000000015
  0
LINE
  5
19D
330
1F
100
AcDbEntity
  8
0
  6
Continuous
 62
     7
370
    25
100
AcDbLine
 10
19.0292307585
 20
6.2184564599
 30
0.0
 11
19.0292307585
 21
3.0184564599
 31
0.0
  0
LINE
  5
19E
330
1F
100
AcDbEntity
  8
0
  6
Continuous
 62
     7
370
    25
100
AcDbLine
 10
18.9992490337
 20
3.0184564599
 30
0.0
 11
19.0292307585
 21
3.0184564599
 31
0.0
  0
LINE
  5
19F
330
1F
100
AcDbEntity
  8
0
  6
Continuous
 62
     7
370
    25
100
AcDbLine
 10
19.0292307585
 20
6.2184564599
 30
0.0
 11
18.9992490337
 21
6.2184564599
 31
0.0
  0
CIRCLE
  5
1A0
330
1F
100
AcDbEntity
  8
0
  6
Continuous
 62
     7
370
    25
100
AcDbCircle
 10
18.183219697
 20
4.6184564599
 30
0.0
 40
0.1015000000000015
  0
LINE
  5
1A1
330
1F
100
AcDbEntity
  8
0
  6
Continuous
 62
     7
370
    25
100
AcDbLine
 10
14.0149498046
 20
3.0184564599
 30
0.0
 11
14.0149498046
 21
6.2184564599
 31
0.0
  0
LINE
  5
1A2
330
1F
100
AcDbEntity
  8
0
  6
Continuous
 62
     7
370
    25
100
AcDbLine
 10
14.0272086354
 20
3.0184564599
 30
0.0
 11
14.0149498046
 21
3.0184564599
 31
0.0
  0
LINE
  5
1A3
330
1F
100
AcDbEntity
  8
0
  6
Continuous
 62
     7
370
    25
100
AcDbLine
 10
14.0149498046
 20
6.2184564599
 30
0.0
 11
14.0272086354
 21
6.2184564599
 31
0.0
  0
LINE
  5
1A4
330
1F
100
AcDbEntity
  8
0
  6
Continuous
 62
     7
370
    25
100
AcDbLine
 10
19.0414895894
 20
6.2184564599
 30
0.0
 11
19.0414895894
 21
3.0184564599
 31
0.0
  0
LINE
  5
1A5
330
1F
100
AcDbEntity
  8
0
  6
Continuous
 62
     7
370
    25
100
AcDbLine
 10
19.0414895894
 20
3.0184564599
 30
0.0
 11
19.0292307585
 21
3.0184564599
 31
0.0
  0
LINE
  5
1A6
330
1F
100
AcDbEntity
  8
0
  6
Continuous
 62
     7
370
    25
100
AcDbLine
 10
19.0292307585
 20
6.2184564599
 30
0.0
 11
19.0414895894
 21
6.2184564599
 31
0.0
  0
LINE
  5
1A7
330
1F
100
AcDbEntity
  8
0
  6
Continuous
 62
     7
370
    25
100
AcDbLine
 10
16.028219697
 20
4.1403158219
 30
0.0
 11
16.028219697
 21
3.9059249632
 31
0.0
  0
LINE
  5
1A8
330
1F
100
AcDbEntity
  8
0
  6
Continuous
 62
     7
370
    25
100
AcDbLine
 10
15.965719697
 20
4.1403158219
 30
0.0
 11
15.965719697
 21
3.9541561635
 31
0.0
  0
LINE
  5
1A9
330
1F
100
AcDbEntity
  8
0
  6
Continuous
 62
     7
370
    25
100
AcDbLine
 10
16.528219697
 20
4.1403158219
 30
0.0
 11
16.528219697
 21
3.7479961599
 31
0.0
  0
LINE
  5
1AA
330
1F
100
AcDbEntity
  8
0
  6
Continuous
 62
     7
370
    25
100
AcDbLine
 10
16.465719697
 20
4.1403158219
 30
0.0
 11
16.465719697
 21
3.7502428434
 31
0.0
  0
LINE
  5
1AB
330
1F
100
AcDbEntity
  8
0
  6
Continuous
 62
     7
370
    25
100
AcDbLine
 10
16.778219697
 20
4.1403158219
 30
0.0
 11
16.778219697
 21
3.7846692365
 31
0.0
  0
LINE
  5
1AC
330
1F
100
AcDbEntity
  8
0
  6
Continuous
 62
     7
370
    25
100
AcDbLine
 10
16.715719697
 20
4.1403158219
 30
0.0
 11
16.715719697
 21
3.768430058
 31
0.0
  0
LINE
  5
1AD
330
1F
100
AcDbEntity
  8
0
  6
Continuous
 62
     7
370
    25
100
AcDbLine
 10
15.903219697
 20
4.1393424599
 30
0.0
 11
15.903219697
 21
4.012588377
 31
0.0
  0
LINE
  5
1AE
330
1F
100
AcDbEntity
  8
0
  6
Continuous
 62
     7
370
    25
100
AcDbLine
 10
16.153219697
 20
4.1403158219
 30
0.0
 11
16.153219697
 21
3.8329145235
 31
0.0
  0
LINE
  5
1AF
330
1F
100
AcDbEntity
  8
0
  6
Continuous
 62
     7
370
    25
100
AcDbLine
 10
16.090719697
 20
4.1403158219
 30
0.0
 11
16.090719697
 21
3.86593079
 31
0.0
  0
LINE
  5
1B0
330
1F
100
AcDbEntity
  8
0
  6
Continuous
 62
     7
370
    25
100
AcDbLine
 10
16.278219697
 20
4.1403158219
 30
0.0
 11
16.278219697
 21
3.7846692365
 31
0.0
  0
LINE
  5
1B1
330
1F
100
AcDbEntity
  8
0
  6
Continuous
 62
     7
370
    25
100
AcDbLine
 10
16.215719697
 20
4.1403158219
 30
0.0
 11
16.215719697
 21
3.8060249958
 31
0.0
  0
LINE
  5
1B2
330
1F
100
AcDbEntity
  8
0
  6
Continuous
 62
     7
370
    25
100
AcDbLine
 10
16.403219697
 20
4.1403158219
 30
0.0
 11
16.403219697
 21
3.7570180501
 31
0.0
  0
LINE
  5
1B3
330
1F
100
AcDbEntity
  8
0
  6
Continuous
 62
     7
370
    25
100
AcDbLine
 10
16.340719697
 20
4.1403158219
 30
0.0
 11
16.340719697
 21
3.768430058
 31
0.0
  0
LINE
  5
1B4
330
1F
100
AcDbEntity
  8
0
  6
Continuous
 62
     7
370
    25
100
AcDbLine
 10
16.653219697
 20
4.1403158219
 30
0.0
 11
16.653219697
 21
3.7570180501
 31
0.0
  0
LINE
  5
1B5
330
1F
100
AcDbEntity
  8
0
  6
Continuous
 62
     7
370
    25
100
AcDbLine
 10
16.590719697
 20
4.1403158219
 30
0.0
 11
16.590719697
 21
3.7502428434
 31
0.0
  0
LINE
  5
1B6
330
1F
100
AcDbEntity
  8
0
  6
Continuous
 62
     7
370
    25
100
AcDbLine
 10
16.903219697
 20
4.1403158219
 30
0.0
 11
16.903219697
 21
3.8329145235
 31
0.0
  0
LINE
  5
1B7
330
1F
100
AcDbEntity
  8
0
  6
Continuous
 62
     7
370
    25
100
AcDbLine
 10
16.840719697
 20
4.1403158219
 30
0.0
 11
16.840719697
 21
3.8060249958
 31
0.0
  0
LINE
  5
1B8
330
1F
100
AcDbEntity
  8
0
  6
Continuous
 62
     7
370
    25
100
AcDbLine
 10
17.028219697
 20
4.1403158219
 30
0.0
 11
17.028219697
 21
3.9059249632
 31
0.0
  0
LINE
  5
1B9
330
1F
100
AcDbEntity
  8
0
  6
Continuous
 62
     7
370
    25
100
AcDbLine
 10
16.965719697
 20
4.1403158219
 30
0.0
 11
16.965719697
 21
3.86593079
 31
0.0
  0
LINE
  5
1BA
330
1F
100
AcDbEntity
  8
0
  6
Continuous
 62
     7
370
    25
100
AcDbLine
 10
17.153219697
 20
4.1392775293
 30
0.0
 11
17.153219697
 21
4.012588377
 31
0.0
  0
LINE
  5
1BB
330
1F
100
AcDbEntity
  8
0
  6
Continuous
 62
     7
370
    25
100
AcDbLine
 10
17.090719697
 20
4.1403158219
 30
0.0
 11
17.090719697
 21
3.9541561635
 31
0.0
  0
DIMENSION
  5
1BC
330
1F
100
AcDbEntity
  8
0
  6
Continuous
 62
     7
370
    18
100
AcDbDimension
  2
_D_3
 10
18.183219697
 20
7.0058580347
 30
0.0
 11
16.528219697
 21
7.0058580347
 31
0.0
 70
   160
  1
<> O.C.
 71
     2
 42
-1.0
  3
SLDDIMSTYLE1
100
AcDbAlignedDimension
 13
14.873219697
 23
4.6184564599
 33
0.0
 14
18.183219697
 24
4.6184564599
 34
0.0
100
AcDbRotatedDimension
  0
DIMENSION
  5
1CF
330
1F
100
AcDbEntity
  8
0
  6
Continuous
 62
     7
370
    18
100
AcDbDimension
  2
_D_4
 10
14.0149498046
 20
7.9507399244
 30
0.0
 11
16.528219697
 21
7.9507399244
 31
0.0
 70
   160
  1
<>
 71
     2
 42
-1.0
  3
SLDDIMSTYLE2
100
AcDbAlignedDimension
 13
19.0414895894
 23
6.2184564599
 33
0.0
 14
14.0149498046
 24
6.2184564599
 34
0.0
 50
0.0
100
AcDbRotatedDimension
  0
DIMENSION
  5
1E4
330
1F
100
AcDbEntity
  8
0
  6
Continuous
 62
     7
370
    18
100
AcDbDimension
  2
_D_5
 10
13.2275482298
 20
3.0184564599
 30
0.0
 11
13.2275482298
 21
4.6184564599
 31
0.0
 70
   160
  1
<>
 71
     2
 42
-1.0
  3
SLDDIMSTYLE1
100
AcDbAlignedDimension
 13
14.0272086354
 23
6.2184564599
 33
0.0
 14
14.0272086354
 24
3.0184564599
 34
0.0
 50
90.0
100
AcDbRotatedDimension
  0
ENDSEC
  0
SECTION
  2
OBJECTS
  0
DICTIONARY
  5
C
330
0
100
AcDbDictionary
281
     1
  3
ACAD_GROUP
350
D
  3
ACAD_LAYOUT
350
1A
  3
ACAD_MLINESTYLE
350
17
  3
ACAD_PLOTSETTINGS
350
19
  3
ACAD_PLOTSTYLENAME
350
E
  3
ACAD_SCALELIST
350
47
  3
DWGPROPS
350
1F8
  0
DICTIONARY
  5
D
102
{ACAD_REACTORS
330
C
102
}
330
C
100
AcDbDictionary
281
     1
  0
DICTIONARY
  5
1A
102
{ACAD_REACTORS
330
C
102
}
330
C
100
AcDbDictionary
281
     1
  3
Layout1
350
1E
  3
Layout2
350
26
  3
Model
350
22
  0
DICTIONARY
  5
17
102
{ACAD_REACTORS
330
C
102
}
330
C
100
AcDbDictionary
281
     1
  3
Standard
350
18
  0
DICTIONARY
  5
19
102
{ACAD_REACTORS
330
C
102
}
330
C
100
AcDbDictionary
281
     1
  0
ACDBDICTIONARYWDFLT
  5
E
102
{ACAD_REACTORS
330
C
102
}
330
C
100
AcDbDictionary
281
     1
  3
Normal
350
F
100
AcDbDictionaryWithDefault
340
F
  0
DICTIONARY
  5
47
102
{ACAD_REACTORS
330
C
102
}
330
C
100
AcDbDictionary
281
     1
  3
A0
350
48
  3
A1
350
49
  3
A2
350
4A
  3
A3
350
4B
  3
A4
350
4C
  3
A5
350
4D
  3
A6
350
4E
  3
A7
350
4F
  3
A8
350
50
  3
A9
350
51
  3
B1
350
52
  3
B2
350
53
  3
B3
350
54
  3
B4
350
55
  3
B5
350
56
  3
B6
350
57
  3
B7
350
58
  0
XRECORD
  5
1F8
102
{ACAD_REACTORS
330
C
102
}
330
C
100
AcDbXrecord
280
     1
  1
DWGPROPS COOKIE
  2

  3

  4

  6

  7

  8
alekseyb
  9

300
=
301
=
302
=
303
=
304
=
305
=
306
=
307
=
308
=
309
=
 40
0.0
 41
2460476.492520174
 42
2460476.492520961
  1

 90
        0
  0
LAYOUT
  5
1E
102
{ACAD_REACTORS
330
1A
102
}
330
1A
100
AcDbPlotSettings
  1

  2
none_device
  4

  6

 40
0.0
 41
0.0
 42
0.0
 43
0.0
 44
0.0
 45
0.0
 46
0.0
 47
0.0
 48
0.0
 49
0.0
140
0.0
141
0.0
142
1.0
143
1.0
 70
   688
 72
     0
 73
     0
 74
     5
  7

 75
    16
147
1.0
148
0.0
149
0.0
100
AcDbLayout
  1
Layout1
 70
     1
 71
     1
 10
0.0
 20
0.0
 11
12.0
 21
9.0
 12
0.0
 22
0.0
 32
0.0
 14
1.0000000000E+20
 24
1.0000000000E+20
 34
1.0000000000E+20
 15
-1.0000000000E+20
 25
-1.0000000000E+20
 35
-1.0000000000E+20
146
0.0
 13
0.0
 23
0.0
 33
0.0
 16
1.0
 26
0.0
 36
0.0
 17
0.0
 27
1.0
 37
0.0
 76
     0
330
1B
  0
LAYOUT
  5
26
102
{ACAD_REACTORS
330
1A
102
}
330
1A
100
AcDbPlotSettings
  1

  2
none_device
  4

  6

 40
0.0
 41
0.0
 42
0.0
 43
0.0
 44
0.0
 45
0.0
 46
0.0
 47
0.0
 48
0.0
 49
0.0
140
0.0
141
0.0
142
1.0
143
1.0
 70
   688
 72
     0
 73
     0
 74
     5
  7

 75
    16
147
1.0
148
0.0
149
0.0
100
AcDbLayout
  1
Layout2
 70
     1
 71
     2
 10
0.0
 20
0.0
 11
0.0
 21
0.0
 12
0.0
 22
0.0
 32
0.0
 14
0.0
 24
0.0
 34
0.0
 15
0.0
 25
0.0
 35
0.0
146
0.0
 13
0.0
 23
0.0
 33
0.0
 16
1.0
 26
0.0
 36
0.0
 17
0.0
 27
1.0
 37
0.0
 76
     0
330
23
  0
LAYOUT
  5
22
102
{ACAD_REACTORS
330
1A
102
}
330
1A
100
AcDbPlotSettings
  1

  2
none_device
  4
Letter_(8.50_x_11.00_Inches)
  6

 40
6.35
 41
6.35
 42
6.35000508
 43
6.35000508
 44
215.9
 45
279.4
 46
0.0
 47
0.0
 48
0.0
 49
0.0
140
0.0
141
0.0
142
1.0
143
1.0
 70
  1712
 72
     0
 73
     0
 74
     0
  7

 75
     0
147
1.0
148
0.0
149
0.0
100
AcDbLayout
  1
Model
 70
     1
 71
     0
 10
0.0
 20
0.0
 11
22.0
 21
17.0
 12
0.0
 22
0.0
 32
0.0
 14
0.0
 24
0.0
 34
0.0
 15
22.0
 25
17.0
 35
0.0
146
0.0
 13
0.0
 23
0.0
 33
0.0
 16
1.0
 26
0.0
 36
0.0
 17
0.0
 27
1.0
 37
0.0
 76
     0
330
1F
331
29
  0
MLINESTYLE
  5
18
102
{ACAD_REACTORS
330
17
102
}
330
17
100
AcDbMlineStyle
  2
Standard
 70
     0
  3

 62
   256
 51
90.0
 52
90.0
 71
     2
 49
0.5
 62
   256
  6
BYLAYER
 49
-0.5
 62
   256
  6
BYLAYER
  0
ACDBPLACEHOLDER
  5
F
102
{ACAD_REACTORS
330
E
102
}
330
E
  0
SCALE
  5
48
102
{ACAD_REACTORS
330
47
102
}
330
47
100
AcDbScale
 70
     0
300
1:1
140
1.0
141
1.0
290
     1
  0
SCALE
  5
49
102
{ACAD_REACTORS
330
47
102
}
330
47
100
AcDbScale
 70
     0
300
1/128" = 1'-0"
140
0.0078125
141
12.0
290
     0
  0
SCALE
  5
4A
102
{ACAD_REACTORS
330
47
102
}
330
47
100
AcDbScale
 70
     0
300
1/64" = 1'-0"
140
0.015625
141
12.0
290
     0
  0
SCALE
  5
4B
102
{ACAD_REACTORS
330
47
102
}
330
47
100
AcDbScale
 70
     0
300
1/32" = 1'-0"
140
0.03125
141
12.0
290
     0
  0
SCALE
  5
4C
102
{ACAD_REACTORS
330
47
102
}
330
47
100
AcDbScale
 70
     0
300
1/16" = 1'-0"
140
0.0625
141
12.0
290
     0
  0
SCALE
  5
4D
102
{ACAD_REACTORS
330
47
102
}
330
47
100
AcDbScale
 70
     0
300
3/32" = 1'-0"
140
0.09375
141
12.0
290
     0
  0
SCALE
  5
4E
102
{ACAD_REACTORS
330
47
102
}
330
47
100
AcDbScale
 70
     0
300
1/8" = 1'-0"
140
0.125
141
12.0
290
     0
  0
SCALE
  5
4F
102
{ACAD_REACTORS
330
47
102
}
330
47
100
AcDbScale
 70
     0
300
3/16" = 1'-0"
140
0.1875
141
12.0
290
     0
  0
SCALE
  5
50
102
{ACAD_REACTORS
330
47
102
}
330
47
100
AcDbScale
 70
     0
300
1/4" = 1'-0"
140
0.25
141
12.0
290
     0
  0
SCALE
  5
51
102
{ACAD_REACTORS
330
47
102
}
330
47
100
AcDbScale
 70
     0
300
3/8" = 1'-0"
140
0.375
141
12.0
290
     0
  0
SCALE
  5
52
102
{ACAD_REACTORS
330
47
102
}
330
47
100
AcDbScale
 70
     0
300
1/2" = 1'-0"
140
0.5
141
12.0
290
     0
  0
SCALE
  5
53
102
{ACAD_REACTORS
330
47
102
}
330
47
100
AcDbScale
 70
     0
300
3/4" = 1'-0"
140
0.75
141
12.0
290
     0
  0
SCALE
  5
54
102
{ACAD_REACTORS
330
47
102
}
330
47
100
AcDbScale
 70
     0
300
1" = 1'-0"
140
1.0
141
12.0
290
     0
  0
SCALE
  5
55
102
{ACAD_REACTORS
330
47
102
}
330
47
100
AcDbScale
 70
     0
300
1-1/2" = 1'-0"
140
1.5
141
12.0
290
     0
  0
SCALE
  5
56
102
{ACAD_REACTORS
330
47
102
}
330
47
100
AcDbScale
 70
     0
300
3" = 1'-0"
140
3.0
141
12.0
290
     0
  0
SCALE
  5
57
102
{ACAD_REACTORS
330
47
102
}
330
47
100
AcDbScale
 70
     0
300
6" = 1'-0"
140
6.0
141
12.0
290
     0
  0
SCALE
  5
58
102
{ACAD_REACTORS
330
47
102
}
330
47
100
AcDbScale
 70
     0
300
1'-0" = 1'-0"
140
12.0
141
12.0
290
     0
  0
ENDSEC
  0
EOF
