  0
SECTION
  2
HEADER
  9
$ACADVER
  1
AC1015
  9
$ACADMAINTVER
 70
     6
  9
$DWGCODEPAGE
  3
ANSI_1252
  9
$INSBASE
 10
0.0
 20
0.0
 30
0.0
  9
$EXTMIN
 10
0.0
 20
0.0
 30
0.0
  9
$EXTMAX
 10
44.0
 20
34.0
 30
0.0
  9
$LIMMIN
 10
0.0
 20
0.0
  9
$LIMMAX
 10
44.0
 20
34.0
  9
$ORTHOMODE
 70
     0
  9
$REGENMODE
 70
     1
  9
$FILLMODE
 70
     1
  9
$QTEXTMODE
 70
     0
  9
$MIRRTEXT
 70
     1
  9
$LTSCALE
 40
4.0
  9
$ATTMODE
 70
     1
  9
$TEXTSIZE
 40
0.5
  9
$TRACEWID
 40
0.05
  9
$TEXTSTYLE
  7
Standard
  9
$CLAYER
  8
0
  9
$CELTYPE
  6
ByLayer
  9
$CECOLOR
 62
   256
  9
$CELTSCALE
 40
1.0
  9
$DISPSILH
 70
     0
  9
$DIMSCALE
 40
1.0
  9
$DIMASZ
 40
0.52
  9
$DIMEXO
 40
0.2
  9
$DIMDLI
 40
0.38
  9
$DIMRND
 40
0.0
  9
$DIMDLE
 40
0.0
  9
$DIMEXE
 40
0.5
  9
$DIMTP
 40
0.0
  9
$DIMTM
 40
0.0
  9
$DIMTXT
 40
0.5
  9
$DIMCEN
 40
0.09
  9
$DIMTSZ
 40
0.0
  9
$DIMTOL
 70
     0
  9
$DIMLIM
 70
     0
  9
$DIMTIH
 70
     1
  9
$DIMTOH
 70
     1
  9
$DIMSE1
 70
     0
  9
$DIMSE2
 70
     0
  9
$DIMTAD
 70
     0
  9
$DIMZIN
 70
     1
  9
$DIMBLK
  1

  9
$DIMASO
 70
     1
  9
$DIMSHO
 70
     1
  9
$DIMPOST
  1

  9
$DIMAPOST
  1

  9
$DIMALT
 70
     0
  9
$DIMALTD
 70
     2
  9
$DIMALTF
 40
25.4
  9
$DIMLFAC
 40
1.0
  9
$DIMTOFL
 70
     0
  9
$DIMTVP
 40
0.0
  9
$DIMTIX
 70
     0
  9
$DIMSOXD
 70
     0
  9
$DIMSAH
 70
     0
  9
$DIMBLK1
  1

  9
$DIMBLK2
  1

  9
$DIMSTYLE
  2
Standard
  9
$DIMCLRD
 70
     0
  9
$DIMCLRE
 70
     0
  9
$DIMCLRT
 70
     0
  9
$DIMTFAC
 40
1.0
  9
$DIMGAP
 40
0.24
  9
$DIMJUST
 70
     0
  9
$DIMSD1
 70
     0
  9
$DIMSD2
 70
     0
  9
$DIMTOLJ
 70
     1
  9
$DIMTZIN
 70
     1
  9
$DIMALTZ
 70
     0
  9
$DIMALTTZ
 70
     0
  9
$DIMUPT
 70
     0
  9
$DIMDEC
 70
     0
  9
$DIMTDEC
 70
     0
  9
$DIMALTU
 70
     2
  9
$DIMALTTD
 70
     2
  9
$DIMTXSTY
  7
Standard
  9
$DIMAUNIT
 70
     0
  9
$DIMADEC
 70
     0
  9
$DIMALTRND
 40
0.0
  9
$DIMAZIN
 70
     0
  9
$DIMDSEP
 70
    46
  9
$DIMATFIT
 70
     3
  9
$DIMFRAC
 70
     0
  9
$DIMLDRBLK
  1

  9
$DIMLUNIT
 70
     2
  9
$DIMLWD
 70
    -2
  9
$DIMLWE
 70
    -2
  9
$DIMTMOVE
 70
     0
  9
$LUNITS
 70
     2
  9
$LUPREC
 70
     6
  9
$SKETCHINC
 40
0.1
  9
$FILLETRAD
 40
0.0
  9
$AUNITS
 70
     0
  9
$AUPREC
 70
     2
  9
$MENU
  1
.
  9
$ELEVATION
 40
0.0
  9
$PELEVATION
 40
0.0
  9
$THICKNESS
 40
0.0
  9
$LIMCHECK
 70
     0
  9
$CHAMFERA
 40
0.0
  9
$CHAMFERB
 40
0.0
  9
$CHAMFERC
 40
0.0
  9
$CHAMFERD
 40
0.0
  9
$SKPOLY
 70
     0
  9
$TDCREATE
 40
2460566.33636485
  9
$TDUCREATE
 40
2460566.628031516
  9
$TDUPDATE
 40
2460566.33636706
  9
$TDUUPDATE
 40
2460566.628033727
  9
$TDINDWG
 40
0.0000000116
  9
$TDUSRTIMER
 40
0.0000000116
  9
$USRTIMER
 70
     1
  9
$ANGBASE
 50
0.0
  9
$ANGDIR
 70
     0
  9
$PDMODE
 70
     0
  9
$PDSIZE
 40
-1.0
  9
$PLINEWID
 40
0.0
  9
$SPLFRAME
 70
     0
  9
$SPLINETYPE
 70
     6
  9
$SPLINESEGS
 70
     8
  9
$HANDSEED
  5
242
  9
$SURFTAB1
 70
     6
  9
$SURFTAB2
 70
     6
  9
$SURFTYPE
 70
     6
  9
$SURFU
 70
     6
  9
$SURFV
 70
     6
  9
$UCSBASE
  2

  9
$UCSNAME
  2

  9
$UCSORG
 10
0.0
 20
0.0
 30
0.0
  9
$UCSXDIR
 10
1.0
 20
0.0
 30
0.0
  9
$UCSYDIR
 10
0.0
 20
1.0
 30
0.0
  9
$UCSORTHOREF
  2

  9
$UCSORTHOVIEW
 70
     0
  9
$UCSORGTOP
 10
0.0
 20
0.0
 30
0.0
  9
$UCSORGBOTTOM
 10
0.0
 20
0.0
 30
0.0
  9
$UCSORGLEFT
 10
0.0
 20
0.0
 30
0.0
  9
$UCSORGRIGHT
 10
0.0
 20
0.0
 30
0.0
  9
$UCSORGFRONT
 10
0.0
 20
0.0
 30
0.0
  9
$UCSORGBACK
 10
0.0
 20
0.0
 30
0.0
  9
$PUCSBASE
  2

  9
$PUCSNAME
  2

  9
$PUCSORG
 10
0.0
 20
0.0
 30
0.0
  9
$PUCSXDIR
 10
1.0
 20
0.0
 30
0.0
  9
$PUCSYDIR
 10
0.0
 20
1.0
 30
0.0
  9
$PUCSORTHOREF
  2

  9
$PUCSORTHOVIEW
 70
     0
  9
$PUCSORGTOP
 10
0.0
 20
0.0
 30
0.0
  9
$PUCSORGBOTTOM
 10
0.0
 20
0.0
 30
0.0
  9
$PUCSORGLEFT
 10
0.0
 20
0.0
 30
0.0
  9
$PUCSORGRIGHT
 10
0.0
 20
0.0
 30
0.0
  9
$PUCSORGFRONT
 10
0.0
 20
0.0
 30
0.0
  9
$PUCSORGBACK
 10
0.0
 20
0.0
 30
0.0
  9
$USERI1
 70
     0
  9
$USERI2
 70
     0
  9
$USERI3
 70
     0
  9
$USERI4
 70
     0
  9
$USERI5
 70
     0
  9
$USERR1
 40
0.0
  9
$USERR2
 40
0.0
  9
$USERR3
 40
0.0
  9
$USERR4
 40
0.0
  9
$USERR5
 40
0.0
  9
$WORLDVIEW
 70
     1
  9
$SHADEDGE
 70
     3
  9
$SHADEDIF
 70
    70
  9
$TILEMODE
 70
     1
  9
$MAXACTVP
 70
    64
  9
$PINSBASE
 10
0.0
 20
0.0
 30
0.0
  9
$PLIMCHECK
 70
     0
  9
$PEXTMIN
 10
1.0000000000E+20
 20
1.0000000000E+20
 30
1.0000000000E+20
  9
$PEXTMAX
 10
-1.0000000000E+20
 20
-1.0000000000E+20
 30
-1.0000000000E+20
  9
$PLIMMIN
 10
0.0
 20
0.0
  9
$PLIMMAX
 10
12.0
 20
9.0
  9
$UNITMODE
 70
     0
  9
$VISRETAIN
 70
     1
  9
$PLINEGEN
 70
     0
  9
$PSLTSCALE
 70
     1
  9
$TREEDEPTH
 70
  3020
  9
$CMLSTYLE
  2
Standard
  9
$CMLJUST
 70
     0
  9
$CMLSCALE
 40
1.0
  9
$PROXYGRAPHICS
 70
     1
  9
$MEASUREMENT
 70
     0
  9
$CELWEIGHT
370
    -1
  9
$ENDCAPS
280
     0
  9
$JOINSTYLE
280
     0
  9
$LWDISPLAY
290
     1
  9
$INSUNITS
 70
     1
  9
$HYPERLINKBASE
  1

  9
$STYLESHEET
  1

  9
$XEDIT
290
     1
  9
$CEPSNTYPE
380
     0
  9
$PSTYLEMODE
290
     1
  9
$FINGERPRINTGUID
  2
{aad76dfc-6b5d-4dc9-85ee-dc7d8f05d96b}
  9
$VERSIONGUID
  2
{FAEB1C32-E019-11D5-929B-00C0DF256EC4}
  9
$EXTNAMES
290
     1
  9
$PSVPSCALE
 40
0.0
  9
$OLESTARTUP
290
     0
  0
ENDSEC
  0
SECTION
  2
CLASSES
  0
CLASS
  1
ACDBDICTIONARYWDFLT
  2
AcDbDictionaryWithDefault
  3
ObjectDBX Classes
 90
        0
280
     0
281
     0
  0
CLASS
  1
VISUALSTYLE
  2
AcDbVisualStyle
  3
ObjectDBX Classes
 90
     4095
280
     0
281
     0
  0
CLASS
  1
MATERIAL
  2
AcDbMaterial
  3
ObjectDBX Classes
 90
     1153
280
     0
281
     0
  0
CLASS
  1
SCALE
  2
AcDbScale
  3
ObjectDBX Classes
 90
     1153
280
     0
281
     0
  0
CLASS
  1
TABLESTYLE
  2
AcDbTableStyle
  3
ObjectDBX Classes
 90
     4095
280
     0
281
     0
  0
CLASS
  1
MLEADERSTYLE
  2
AcDbMLeaderStyle
  3
ACDB_MLEADERSTYLE_CLASS
 90
     4095
280
     0
281
     0
  0
CLASS
  1
SUN
  2
AcDbSun
  3
SCENEOE
 90
     1153
280
     0
281
     0
  0
CLASS
  1
ACDBPLACEHOLDER
  2
AcDbPlaceHolder
  3
ObjectDBX Classes
 90
        0
280
     0
281
     0
  0
CLASS
  1
LAYOUT
  2
AcDbLayout
  3
ObjectDBX Classes
 90
        0
280
     0
281
     0
  0
ENDSEC
  0
SECTION
  2
TABLES
  0
TABLE
  2
VPORT
  5
8
330
0
100
AcDbSymbolTable
 70
     1
  0
VPORT
  5
29
330
8
100
AcDbSymbolTableRecord
100
AcDbViewportTableRecord
  2
*Active
 70
     0
 10
0.0
 20
0.0
 11
1.0
 21
1.0
 12
22.0
 22
17.0
 13
0.0
 23
0.0
 14
0.5
 24
0.5
 15
0.5
 25
0.5
 16
0.0
 26
0.0
 36
1.0
 17
0.0
 27
0.0
 37
0.0
 40
34.0
 41
1.2941176471
 42
50.0
 43
0.0
 44
0.0
 50
0.0
 51
0.0
 71
     0
 72
  2000
 73
     1
 74
     3
 75
     0
 76
     0
 77
     0
 78
     0
281
     0
 65
     1
110
0.0
120
0.0
130
0.0
111
1.0
121
0.0
131
0.0
112
0.0
122
1.0
132
0.0
 79
     0
146
0.0
  0
ENDTAB
  0
TABLE
  2
LTYPE
  5
5
330
0
100
AcDbSymbolTable
 70
     6
  0
LTYPE
  5
14
330
5
100
AcDbSymbolTableRecord
100
AcDbLinetypeTableRecord
  2
ByBlock
 70
     0
  3

 72
    65
 73
     0
 40
0.0
  0
LTYPE
  5
15
330
5
100
AcDbSymbolTableRecord
100
AcDbLinetypeTableRecord
  2
ByLayer
 70
     0
  3

 72
    65
 73
     0
 40
0.0
  0
LTYPE
  5
16
330
5
100
AcDbSymbolTableRecord
100
AcDbLinetypeTableRecord
  2
Continuous
 70
     0
  3
Solid line
 72
    65
 73
     0
 40
0.0
  0
LTYPE
  5
5E
330
5
100
AcDbSymbolTableRecord
100
AcDbLinetypeTableRecord
  2
HIDDEN
 70
     0
  3
Hidden __ __ __ __ __ __ __ __ __ __ __ __ __ __
 72
    65
 73
     2
 40
0.075
 49
0.05
 74
     0
 49
-0.025
 74
     0
  0
LTYPE
  5
5F
330
5
100
AcDbSymbolTableRecord
100
AcDbLinetypeTableRecord
  2
PHANTOM
 70
     0
  3
Phantom ______  __  __  ______  __  __  ______
 72
    65
 73
     6
 40
0.5
 49
0.25
 74
     0
 49
-0.05
 74
     0
 49
0.05
 74
     0
 49
-0.05
 74
     0
 49
0.05
 74
     0
 49
-0.05
 74
     0
  0
LTYPE
  5
60
330
5
100
AcDbSymbolTableRecord
100
AcDbLinetypeTableRecord
  2
CENTER
 70
     0
  3
Center ____ _ ____ _ ____ _ ____ _ ____ _ ____
 72
    65
 73
     4
 40
0.4
 49
0.25
 74
     0
 49
-0.05
 74
     0
 49
0.05
 74
     0
 49
-0.05
 74
     0
  0
LTYPE
  5
61
330
5
100
AcDbSymbolTableRecord
100
AcDbLinetypeTableRecord
  2
CENTERX2
 70
     0
  3
Center (2x) ________  __  ________  __  _____
 72
    65
 73
     4
 40
0.8
 49
0.5
 74
     0
 49
-0.1
 74
     0
 49
0.1
 74
     0
 49
-0.1
 74
     0
  0
LTYPE
  5
62
330
5
100
AcDbSymbolTableRecord
100
AcDbLinetypeTableRecord
  2
DOT2
 70
     0
  3
Dot (.5x) ........................................
 72
    65
 73
     2
 40
0.025
 49
0.0
 74
     0
 49
-0.025
 74
     0
  0
ENDTAB
  0
TABLE
  2
LAYER
  5
2
330
0
100
AcDbSymbolTable
 70
    12
  0
LAYER
  5
10
330
2
100
AcDbSymbolTableRecord
100
AcDbLayerTableRecord
  2
0
 70
     0
 62
     7
  6
Continuous
370
    -3
390
F
  0
LAYER
  5
63
330
2
100
AcDbSymbolTableRecord
100
AcDbLayerTableRecord
  2
SLD-0
 70
     0
 62
     7
  6
Continuous
370
    -3
390
F
  0
LAYER
  5
64
330
2
100
AcDbSymbolTableRecord
100
AcDbLayerTableRecord
  2
DIM
 70
     0
 62
     7
  6
Continuous
370
    -3
390
F
  0
LAYER
  5
65
330
2
100
AcDbSymbolTableRecord
100
AcDbLayerTableRecord
  2
CEN
 70
     0
 62
     1
  6
CENTER
370
    -3
390
F
  0
LAYER
  5
66
330
2
100
AcDbSymbolTableRecord
100
AcDbLayerTableRecord
  2
HAT
 70
     0
 62
     4
  6
Continuous
370
    -3
390
F
  0
LAYER
  5
67
330
2
100
AcDbSymbolTableRecord
100
AcDbLayerTableRecord
  2
OBJ
 70
     0
 62
     5
  6
Continuous
370
    -3
390
F
  0
LAYER
  5
68
330
2
100
AcDbSymbolTableRecord
100
AcDbLayerTableRecord
  2
SLD-DEFPOINTS
 70
     0
 62
     7
  6
Continuous
370
    -3
390
F
  0
LAYER
  5
69
330
2
100
AcDbSymbolTableRecord
100
AcDbLayerTableRecord
  2
HID
 70
     0
 62
     4
  6
HIDDEN
370
    -3
390
F
  0
LAYER
  5
6A
330
2
100
AcDbSymbolTableRecord
100
AcDbLayerTableRecord
  2
NOTE
 70
     0
 62
     7
  6
Continuous
370
    -3
390
F
  0
LAYER
  5
6B
330
2
100
AcDbSymbolTableRecord
100
AcDbLayerTableRecord
  2
VP
 70
     0
 62
    -5
  6
Continuous
290
     0
370
    -3
390
F
  0
LAYER
  5
6C
330
2
100
AcDbSymbolTableRecord
100
AcDbLayerTableRecord
  2
TITLE
 70
     0
 62
     7
  6
Continuous
370
    -3
390
F
  0
LAYER
  5
6D
330
2
100
AcDbSymbolTableRecord
100
AcDbLayerTableRecord
  2
THICK_TITLE
 70
     0
 62
     7
  6
Continuous
370
   100
390
F
  0
ENDTAB
  0
TABLE
  2
STYLE
  5
3
330
0
100
AcDbSymbolTable
 70
     2
  0
STYLE
  5
11
330
3
100
AcDbSymbolTableRecord
100
AcDbTextStyleTableRecord
  2
Standard
 70
     0
 40
0.0
 41
1.0
 50
0.0
 71
     0
 42
0.5
  3
txt
  4

  0
STYLE
  5
177
330
3
100
AcDbSymbolTableRecord
100
AcDbTextStyleTableRecord
  2
SLDTEXTSTYLE0
 70
     0
 40
0.0
 41
0.75
 50
0.0
 71
     0
 42
0.5
  3
TXT
  4

  0
ENDTAB
  0
TABLE
  2
VIEW
  5
6
330
0
100
AcDbSymbolTable
 70
     0
  0
ENDTAB
  0
TABLE
  2
UCS
  5
7
330
0
100
AcDbSymbolTable
 70
     0
  0
ENDTAB
  0
TABLE
  2
APPID
  5
9
330
0
100
AcDbSymbolTable
 70
     1
  0
APPID
  5
12
330
9
100
AcDbSymbolTableRecord
100
AcDbRegAppTableRecord
  2
ACAD
 70
     0
  0
ENDTAB
  0
TABLE
  2
DIMSTYLE
  5
A
330
0
100
AcDbSymbolTable
 70
     4
100
AcDbDimStyleTable
  0
DIMSTYLE
105
27
330
A
100
AcDbSymbolTableRecord
100
AcDbDimStyleTableRecord
  2
Standard
 70
     0
178
     0
340
11
  0
DIMSTYLE
105
178
102
{ACAD_REACTORS
330
176
330
219
330
22D
102
}
330
A
100
AcDbSymbolTableRecord
100
AcDbDimStyleTableRecord
  2
SLDDIMSTYLE0
 70
     0
 41
0.52
 44
0.0
 45
0.000000001
 78
    12
 79
     3
140
0.5
147
0.125
148
0.000000001
170
     1
172
     1
173
     1
178
     0
271
     6
272
     0
276
     2
277
     5
284
    12
289
     0
340
177
  0
DIMSTYLE
105
18C
102
{ACAD_REACTORS
330
18B
330
1A0
102
}
330
A
100
AcDbSymbolTableRecord
100
AcDbDimStyleTableRecord
  2
SLDDIMSTYLE1
 70
     0
 41
0.52
 44
0.0
 45
0.000000001
 78
    12
 79
     3
140
0.5
147
0.125
148
0.000000001
170
     1
173
     1
178
     0
271
     6
272
     0
276
     2
277
     5
284
    12
340
177
  0
DIMSTYLE
105
205
102
{ACAD_REACTORS
330
204
102
}
330
A
100
AcDbSymbolTableRecord
100
AcDbDimStyleTableRecord
  2
SLDDIMSTYLE2
 70
     0
 41
0.52
 44
0.0
 45
0.000000001
 78
    12
 79
     3
140
0.5
147
0.125
148
0.000000001
170
     1
173
     1
178
     0
271
     0
272
     0
276
     2
277
     5
284
    12
340
177
  0
ENDTAB
  0
TABLE
  2
BLOCK_RECORD
  5
1
330
0
100
AcDbSymbolTable
 70
     8
  0
BLOCK_RECORD
  5
1F
330
1
100
AcDbSymbolTableRecord
100
AcDbBlockTableRecord
  2
*Model_Space
340
22
  0
BLOCK_RECORD
  5
1B
330
1
100
AcDbSymbolTableRecord
100
AcDbBlockTableRecord
  2
*Paper_Space
340
1E
  0
BLOCK_RECORD
  5
23
330
1
100
AcDbSymbolTableRecord
100
AcDbBlockTableRecord
  2
*Paper_Space0
340
26
  0
BLOCK_RECORD
  5
6E
330
1
100
AcDbSymbolTableRecord
100
AcDbBlockTableRecord
  2
Block1
340
0
  0
BLOCK_RECORD
  5
179
330
1
100
AcDbSymbolTableRecord
100
AcDbBlockTableRecord
  2
_D
340
0
  0
BLOCK_RECORD
  5
18D
330
1
100
AcDbSymbolTableRecord
100
AcDbBlockTableRecord
  2
_D_1
340
0
  0
BLOCK_RECORD
  5
1A1
330
1
100
AcDbSymbolTableRecord
100
AcDbBlockTableRecord
  2
_D_2
340
0
  0
BLOCK_RECORD
  5
206
330
1
100
AcDbSymbolTableRecord
100
AcDbBlockTableRecord
  2
_D_3
340
0
  0
BLOCK_RECORD
  5
21A
330
1
100
AcDbSymbolTableRecord
100
AcDbBlockTableRecord
  2
_D_4
340
0
  0
BLOCK_RECORD
  5
22E
330
1
100
AcDbSymbolTableRecord
100
AcDbBlockTableRecord
  2
_D_5
340
0
  0
ENDTAB
  0
ENDSEC
  0
SECTION
  2
BLOCKS
  0
BLOCK
  5
20
330
1F
100
AcDbEntity
  8
0
100
AcDbBlockBegin
  2
*Model_Space
 70
     0
 10
0.0
 20
0.0
 30
0.0
  3
*Model_Space
  1

  0
ENDBLK
  5
21
330
1F
100
AcDbEntity
  8
0
100
AcDbBlockEnd
  0
BLOCK
  5
1C
330
1B
100
AcDbEntity
 67
     1
  8
0
100
AcDbBlockBegin
  2
*Paper_Space
 70
     0
 10
0.0
 20
0.0
 30
0.0
  3
*Paper_Space
  1

  0
ENDBLK
  5
1D
330
1B
100
AcDbEntity
 67
     1
  8
0
100
AcDbBlockEnd
  0
BLOCK
  5
24
330
23
100
AcDbEntity
  8
0
100
AcDbBlockBegin
  2
*Paper_Space0
 70
     0
 10
0.0
 20
0.0
 30
0.0
  3
*Paper_Space0
  1

  0
ENDBLK
  5
25
330
23
100
AcDbEntity
  8
0
100
AcDbBlockEnd
  0
BLOCK
  5
6F
330
6E
100
AcDbEntity
  8
0
100
AcDbBlockBegin
  2
Block1
 70
     0
 10
0.0
 20
0.0
 30
0.0
  3
Block1
  1

  0
ENDBLK
  5
70
330
6E
100
AcDbEntity
  8
0
100
AcDbBlockEnd
  0
BLOCK
  5
17A
330
179
100
AcDbEntity
  8
0
100
AcDbBlockBegin
  2
_D
 70
     0
 10
0.0
 20
0.0
 30
0.0
  3
_D
  1

  0
SOLID
  5
17C
330
179
100
AcDbEntity
  8
0
  6
Continuous
 62
     7
370
    18
100
AcDbTrace
 10
10.1229812948
 20
9.1441630247
 30
0.0
 11
10.2029812948
 21
9.6641630247
 31
0.0
 12
10.0429812948
 22
9.6641630247
 32
0.0
 13
10.0429812948
 23
9.6641630247
 33
0.0
  0
SOLID
  5
17D
330
179
100
AcDbEntity
  8
0
  6
Continuous
 62
     7
370
    18
100
AcDbTrace
 10
10.1229812948
 20
6.9241630247
 30
0.0
 11
10.0429812948
 21
6.4041630247
 31
0.0
 12
10.2029812948
 22
6.4041630247
 32
0.0
 13
10.2029812948
 23
6.4041630247
 33
0.0
  0
LINE
  5
17E
330
179
100
AcDbEntity
  8
0
  6
Continuous
 62
     7
370
     0
100
AcDbLine
 10
9.1285368661
 20
8.0341629514
 30
0.0
 11
8.9761931176
 21
8.0341629514
 31
0.0
  0
LINE
  5
17F
330
179
100
AcDbEntity
  8
0
  6
Continuous
 62
     7
370
     0
100
AcDbLine
 10
8.9761931176
 20
8.0341629514
 30
0.0
 11
8.9761931176
 21
7.2404129275
 31
0.0
  0
LINE
  5
180
330
179
100
AcDbEntity
  8
0
  6
Continuous
 62
     7
370
     0
100
AcDbLine
 10
8.9761931176
 20
7.2404129275
 30
0.0
 11
9.1285368661
 21
7.2404129275
 31
0.0
  0
LINE
  5
181
330
179
100
AcDbEntity
  8
0
  6
Continuous
 62
     7
370
     0
100
AcDbLine
 10
11.1174257969
 20
8.0341629514
 30
0.0
 11
11.2697695454
 21
8.0341629514
 31
0.0
  0
LINE
  5
182
330
179
100
AcDbEntity
  8
0
  6
Continuous
 62
     7
370
     0
100
AcDbLine
 10
11.2697695454
 20
8.0341629514
 30
0.0
 11
11.2697695454
 21
7.2404129275
 31
0.0
  0
LINE
  5
183
330
179
100
AcDbEntity
  8
0
  6
Continuous
 62
     7
370
     0
100
AcDbLine
 10
11.2697695454
 20
7.2404129275
 30
0.0
 11
11.1174257969
 21
7.2404129275
 31
0.0
  0
LINE
  5
184
330
179
100
AcDbEntity
  8
0
  6
Continuous
 62
     7
370
     0
100
AcDbLine
 10
16.319548224
 20
9.1441630247
 30
0.0
 11
9.6229812948
 21
9.1441630247
 31
0.0
  0
LINE
  5
185
330
179
100
AcDbEntity
  8
0
  6
Continuous
 62
     7
370
     0
100
AcDbLine
 10
16.319548224
 20
6.9241630247
 30
0.0
 11
9.6229812948
 21
6.9241630247
 31
0.0
  0
LINE
  5
186
330
179
100
AcDbEntity
  8
0
  6
Continuous
 62
     7
370
     0
100
AcDbLine
 10
10.1229812948
 20
9.1441630247
 30
0.0
 11
10.1229812948
 21
10.1441630247
 31
0.0
  0
LINE
  5
187
330
179
100
AcDbEntity
  8
0
  6
Continuous
 62
     7
370
     0
100
AcDbLine
 10
10.1229812948
 20
6.9241630247
 30
0.0
 11
10.1229812948
 21
5.9241630247
 31
0.0
  0
MTEXT
  5
188
330
179
100
AcDbEntity
  8
0
  6
Continuous
 62
     7
370
    18
100
AcDbMText
 10
8.8504639284
 20
8.7802593722
 30
0.0
 40
0.5
 41
0.0
 71
     1
 72
     1
  1
%%c
  7
SLDTEXTSTYLE0
 73
     1
 44
1.0
  0
MTEXT
  5
189
330
179
100
AcDbEntity
  8
0
  6
Continuous
 62
     7
370
    18
100
AcDbMText
 10
9.6045264107
 20
8.7802593722
 30
0.0
 40
0.5
 41
0.0
 71
     1
 72
     1
  1
2 1/4"
  7
SLDTEXTSTYLE0
 73
     1
 44
1.0
  0
MTEXT
  5
18A
330
179
100
AcDbEntity
  8
0
  6
Continuous
 62
     7
370
    18
100
AcDbMText
 10
9.1285368661
 20
7.8849468524
 30
0.0
 40
0.5
 41
0.0
 71
     1
 72
     1
  1
56mm
  7
SLDTEXTSTYLE0
 73
     1
 44
1.0
  0
ENDBLK
  5
17B
330
179
100
AcDbEntity
  8
0
100
AcDbBlockEnd
  0
BLOCK
  5
18E
330
18D
100
AcDbEntity
  8
0
100
AcDbBlockBegin
  2
_D_1
 70
     0
 10
0.0
 20
0.0
 30
0.0
  3
_D_1
  1

  0
SOLID
  5
190
330
18D
100
AcDbEntity
  8
0
  6
Continuous
 62
     7
370
    18
100
AcDbTrace
 10
21.539548224
 20
12.1222360667
 30
0.0
 11
21.019548224
 21
12.2022360667
 31
0.0
 12
21.019548224
 22
12.0422360667
 32
0.0
 13
21.019548224
 23
12.0422360667
 33
0.0
  0
SOLID
  5
191
330
18D
100
AcDbEntity
  8
0
  6
Continuous
 62
     7
370
    18
100
AcDbTrace
 10
20.219548224
 20
12.1222360667
 30
0.0
 11
20.739548224
 21
12.0422360667
 31
0.0
 12
20.739548224
 22
12.2022360667
 32
0.0
 13
20.739548224
 23
12.2022360667
 33
0.0
  0
LINE
  5
192
330
18D
100
AcDbEntity
  8
0
  6
Continuous
 62
     7
370
     0
100
AcDbLine
 10
23.2541556805
 20
12.1184165442
 30
0.0
 11
23.101811932
 21
12.1184165442
 31
0.0
  0
LINE
  5
193
330
18D
100
AcDbEntity
  8
0
  6
Continuous
 62
     7
370
     0
100
AcDbLine
 10
23.101811932
 20
12.1184165442
 30
0.0
 11
23.101811932
 21
11.3246665203
 31
0.0
  0
LINE
  5
194
330
18D
100
AcDbEntity
  8
0
  6
Continuous
 62
     7
370
     0
100
AcDbLine
 10
23.101811932
 20
11.3246665203
 30
0.0
 11
23.2541556805
 21
11.3246665203
 31
0.0
  0
LINE
  5
195
330
18D
100
AcDbEntity
  8
0
  6
Continuous
 62
     7
370
     0
100
AcDbLine
 10
25.2430446113
 20
12.1184165442
 30
0.0
 11
25.3953883598
 21
12.1184165442
 31
0.0
  0
LINE
  5
196
330
18D
100
AcDbEntity
  8
0
  6
Continuous
 62
     7
370
     0
100
AcDbLine
 10
25.3953883598
 20
12.1184165442
 30
0.0
 11
25.3953883598
 21
11.3246665203
 31
0.0
  0
LINE
  5
197
330
18D
100
AcDbEntity
  8
0
  6
Continuous
 62
     7
370
     0
100
AcDbLine
 10
25.3953883598
 20
11.3246665203
 30
0.0
 11
25.2430446113
 21
11.3246665203
 31
0.0
  0
LINE
  5
198
330
18D
100
AcDbEntity
  8
0
  6
Continuous
 62
     7
370
     0
100
AcDbLine
 10
21.539548224
 20
7.7641630247
 30
0.0
 11
21.539548224
 21
12.6222360667
 31
0.0
  0
LINE
  5
199
330
18D
100
AcDbEntity
  8
0
  6
Continuous
 62
     7
370
     0
100
AcDbLine
 10
20.219548224
 20
10.7051923615
 30
0.0
 11
20.219548224
 21
12.6222360667
 31
0.0
  0
LINE
  5
19A
330
18D
100
AcDbEntity
  8
0
  6
Continuous
 62
     7
370
     0
100
AcDbLine
 10
21.539548224
 20
12.1222360667
 30
0.0
 11
22.6633332336
 21
12.1222360667
 31
0.0
  0
LINE
  5
19B
330
18D
100
AcDbEntity
  8
0
  6
Continuous
 62
     7
370
     0
100
AcDbLine
 10
20.219548224
 20
12.1222360667
 30
0.0
 11
21.539548224
 21
12.1222360667
 31
0.0
  0
MTEXT
  5
19C
330
18D
100
AcDbEntity
  8
0
  6
Continuous
 62
     7
370
    18
100
AcDbMText
 10
22.9522459609
 20
12.8721518542
 30
0.0
 40
0.5
 41
0.0
 71
     1
 72
     1
  1

  7
SLDTEXTSTYLE0
 73
     1
 44
1.0
  0
MTEXT
  5
19D
330
18D
100
AcDbEntity
  8
0
  6
Continuous
 62
     7
370
    18
100
AcDbMText
 10
23.1683917612
 20
12.8645129283
 30
0.0
 40
0.5
 41
0.0
 71
     1
 72
     1
  1
1 5/16"
  7
SLDTEXTSTYLE0
 73
     1
 44
1.0
  0
MTEXT
  5
19E
330
18D
100
AcDbEntity
  8
0
  6
Continuous
 62
     7
370
    18
100
AcDbMText
 10
23.2541556805
 20
11.9692004452
 30
0.0
 40
0.5
 41
0.0
 71
     1
 72
     1
  1
34mm
  7
SLDTEXTSTYLE0
 73
     1
 44
1.0
  0
MTEXT
  5
19F
330
18D
100
AcDbEntity
  8
0
  6
Continuous
 62
     7
370
    18
100
AcDbMText
 10
25.7352319982
 20
12.8721518542
 30
0.0
 40
0.5
 41
0.0
 71
     1
 72
     1
  1

  7
SLDTEXTSTYLE0
 73
     1
 44
1.0
  0
ENDBLK
  5
18F
330
18D
100
AcDbEntity
  8
0
100
AcDbBlockEnd
  0
BLOCK
  5
1A2
330
1A1
100
AcDbEntity
  8
0
100
AcDbBlockBegin
  2
_D_2
 70
     0
 10
0.0
 20
0.0
 30
0.0
  3
_D_2
  1

  0
SOLID
  5
1A4
330
1A1
100
AcDbEntity
  8
0
  6
Continuous
 62
     7
370
    18
100
AcDbTrace
 10
19.839548224
 20
12.1222360667
 30
0.0
 11
19.319548224
 21
12.2022360667
 31
0.0
 12
19.319548224
 22
12.0422360667
 32
0.0
 13
19.319548224
 23
12.0422360667
 33
0.0
  0
SOLID
  5
1A5
330
1A1
100
AcDbEntity
  8
0
  6
Continuous
 62
     7
370
    18
100
AcDbTrace
 10
16.102048224
 20
12.1222360667
 30
0.0
 11
16.622048224
 21
12.0422360667
 31
0.0
 12
16.622048224
 22
12.2022360667
 32
0.0
 13
16.622048224
 23
12.2022360667
 33
0.0
  0
LINE
  5
1A6
330
1A1
100
AcDbEntity
  8
0
  6
Continuous
 62
     7
370
     0
100
AcDbLine
 10
16.9763538319
 20
12.1184165442
 30
0.0
 11
16.8240100834
 21
12.1184165442
 31
0.0
  0
LINE
  5
1A7
330
1A1
100
AcDbEntity
  8
0
  6
Continuous
 62
     7
370
     0
100
AcDbLine
 10
16.8240100834
 20
12.1184165442
 30
0.0
 11
16.8240100834
 21
11.3246665203
 31
0.0
  0
LINE
  5
1A8
330
1A1
100
AcDbEntity
  8
0
  6
Continuous
 62
     7
370
     0
100
AcDbLine
 10
16.8240100834
 20
11.3246665203
 30
0.0
 11
16.9763538319
 21
11.3246665203
 31
0.0
  0
LINE
  5
1A9
330
1A1
100
AcDbEntity
  8
0
  6
Continuous
 62
     7
370
     0
100
AcDbLine
 10
18.9652427627
 20
12.1184165442
 30
0.0
 11
19.1175865112
 21
12.1184165442
 31
0.0
  0
LINE
  5
1AA
330
1A1
100
AcDbEntity
  8
0
  6
Continuous
 62
     7
370
     0
100
AcDbLine
 10
19.1175865112
 20
12.1184165442
 30
0.0
 11
19.1175865112
 21
11.3246665203
 31
0.0
  0
LINE
  5
1AB
330
1A1
100
AcDbEntity
  8
0
  6
Continuous
 62
     7
370
     0
100
AcDbLine
 10
19.1175865112
 20
11.3246665203
 30
0.0
 11
18.9652427627
 21
11.3246665203
 31
0.0
  0
LINE
  5
1AC
330
1A1
100
AcDbEntity
  8
0
  6
Continuous
 62
     7
370
     0
100
AcDbLine
 10
19.839548224
 20
10.7474329171
 30
0.0
 11
19.839548224
 21
12.6222360667
 31
0.0
  0
LINE
  5
1AD
330
1A1
100
AcDbEntity
  8
0
  6
Continuous
 62
     7
370
     0
100
AcDbLine
 10
16.102048224
 20
8.2894024259
 30
0.0
 11
16.102048224
 21
12.6222360667
 31
0.0
  0
LINE
  5
1AE
330
1A1
100
AcDbEntity
  8
0
  6
Continuous
 62
     7
370
     0
100
AcDbLine
 10
19.839548224
 20
12.1222360667
 30
0.0
 11
19.556065063
 21
12.1222360667
 31
0.0
  0
LINE
  5
1AF
330
1A1
100
AcDbEntity
  8
0
  6
Continuous
 62
     7
370
     0
100
AcDbLine
 10
16.102048224
 20
12.1222360667
 30
0.0
 11
16.385531385
 21
12.1222360667
 31
0.0
  0
MTEXT
  5
1B0
330
1A1
100
AcDbEntity
  8
0
  6
Continuous
 62
     7
370
    18
100
AcDbMText
 10
16.6744441122
 20
12.8721518542
 30
0.0
 40
0.5
 41
0.0
 71
     1
 72
     1
  1

  7
SLDTEXTSTYLE0
 73
     1
 44
1.0
  0
MTEXT
  5
1B1
330
1A1
100
AcDbEntity
  8
0
  6
Continuous
 62
     7
370
    18
100
AcDbMText
 10
17.075312172
 20
12.8645129283
 30
0.0
 40
0.5
 41
0.0
 71
     1
 72
     1
  1
3 3/4"
  7
SLDTEXTSTYLE0
 73
     1
 44
1.0
  0
MTEXT
  5
1B2
330
1A1
100
AcDbEntity
  8
0
  6
Continuous
 62
     7
370
    18
100
AcDbMText
 10
16.9763538319
 20
11.9692004452
 30
0.0
 40
0.5
 41
0.0
 71
     1
 72
     1
  1
95mm
  7
SLDTEXTSTYLE0
 73
     1
 44
1.0
  0
MTEXT
  5
1B3
330
1A1
100
AcDbEntity
  8
0
  6
Continuous
 62
     7
370
    18
100
AcDbMText
 10
19.4574301496
 20
12.8721518542
 30
0.0
 40
0.5
 41
0.0
 71
     1
 72
     1
  1

  7
SLDTEXTSTYLE0
 73
     1
 44
1.0
  0
ENDBLK
  5
1A3
330
1A1
100
AcDbEntity
  8
0
100
AcDbBlockEnd
  0
BLOCK
  5
207
330
206
100
AcDbEntity
  8
0
100
AcDbBlockBegin
  2
_D_3
 70
     0
 10
0.0
 20
0.0
 30
0.0
  3
_D_3
  1

  0
SOLID
  5
209
330
206
100
AcDbEntity
  8
0
  6
Continuous
 62
     7
370
    18
100
AcDbTrace
 10
39.0951502313
 20
5.5331519631
 30
0.0
 11
39.1751502313
 21
6.0531519631
 31
0.0
 12
39.0151502313
 22
6.0531519631
 32
0.0
 13
39.0151502313
 23
6.0531519631
 33
0.0
  0
SOLID
  5
20A
330
206
100
AcDbEntity
  8
0
  6
Continuous
 62
     7
370
    18
100
AcDbTrace
 10
39.0951502313
 20
10.5351740863
 30
0.0
 11
39.0151502313
 21
10.0151740863
 31
0.0
 12
39.1751502313
 22
10.0151740863
 32
0.0
 13
39.1751502313
 23
10.0151740863
 33
0.0
  0
LINE
  5
20B
330
206
100
AcDbEntity
  8
0
  6
Continuous
 62
     7
370
     0
100
AcDbLine
 10
37.9159836532
 20
8.0303435022
 30
0.0
 11
37.7636399047
 21
8.0303435022
 31
0.0
  0
LINE
  5
20C
330
206
100
AcDbEntity
  8
0
  6
Continuous
 62
     7
370
     0
100
AcDbLine
 10
37.7636399047
 20
8.0303435022
 30
0.0
 11
37.7636399047
 21
7.2365934783
 31
0.0
  0
LINE
  5
20D
330
206
100
AcDbEntity
  8
0
  6
Continuous
 62
     7
370
     0
100
AcDbLine
 10
37.7636399047
 20
7.2365934783
 30
0.0
 11
37.9159836532
 21
7.2365934783
 31
0.0
  0
LINE
  5
20E
330
206
100
AcDbEntity
  8
0
  6
Continuous
 62
     7
370
     0
100
AcDbLine
 10
40.2743169562
 20
8.0303435022
 30
0.0
 11
40.4266607046
 21
8.0303435022
 31
0.0
  0
LINE
  5
20F
330
206
100
AcDbEntity
  8
0
  6
Continuous
 62
     7
370
     0
100
AcDbLine
 10
40.4266607046
 20
8.0303435022
 30
0.0
 11
40.4266607046
 21
7.2365934783
 31
0.0
  0
LINE
  5
210
330
206
100
AcDbEntity
  8
0
  6
Continuous
 62
     7
370
     0
100
AcDbLine
 10
40.4266607046
 20
7.2365934783
 30
0.0
 11
40.2743169562
 21
7.2365934783
 31
0.0
  0
LINE
  5
211
330
206
100
AcDbEntity
  8
0
  6
Continuous
 62
     7
370
     0
100
AcDbLine
 10
33.6608330967
 20
5.5331519631
 30
0.0
 11
39.5951502313
 21
5.5331519631
 31
0.0
  0
LINE
  5
212
330
206
100
AcDbEntity
  8
0
  6
Continuous
 62
     7
370
     0
100
AcDbLine
 10
33.6608330967
 20
10.5351740863
 30
0.0
 11
39.5951502313
 21
10.5351740863
 31
0.0
  0
LINE
  5
213
330
206
100
AcDbEntity
  8
0
  6
Continuous
 62
     7
370
     0
100
AcDbLine
 10
39.0951502313
 20
5.5331519631
 30
0.0
 11
39.0951502313
 21
7.1350311382
 31
0.0
  0
LINE
  5
214
330
206
100
AcDbEntity
  8
0
  6
Continuous
 62
     7
370
     0
100
AcDbLine
 10
39.0951502313
 20
10.5351740863
 30
0.0
 11
39.0951502313
 21
8.9332949112
 31
0.0
  0
MTEXT
  5
215
330
206
100
AcDbEntity
  8
0
  6
Continuous
 62
     7
370
    18
100
AcDbMText
 10
37.6140739335
 20
8.7840788122
 30
0.0
 40
0.5
 41
0.0
 71
     1
 72
     1
  1

  7
SLDTEXTSTYLE0
 73
     1
 44
1.0
  0
MTEXT
  5
216
330
206
100
AcDbEntity
  8
0
  6
Continuous
 62
     7
370
    18
100
AcDbMText
 10
38.8073030449
 20
8.7764398863
 30
0.0
 40
0.5
 41
0.0
 71
     1
 72
     1
  1
5"
  7
SLDTEXTSTYLE0
 73
     1
 44
1.0
  0
MTEXT
  5
217
330
206
100
AcDbEntity
  8
0
  6
Continuous
 62
     7
370
    18
100
AcDbMText
 10
37.9159836532
 20
7.8811274032
 30
0.0
 40
0.5
 41
0.0
 71
     1
 72
     1
  1
127mm
  7
SLDTEXTSTYLE0
 73
     1
 44
1.0
  0
MTEXT
  5
218
330
206
100
AcDbEntity
  8
0
  6
Continuous
 62
     7
370
    18
100
AcDbMText
 10
40.766504343
 20
8.7840788122
 30
0.0
 40
0.5
 41
0.0
 71
     1
 72
     1
  1

  7
SLDTEXTSTYLE0
 73
     1
 44
1.0
  0
ENDBLK
  5
208
330
206
100
AcDbEntity
  8
0
100
AcDbBlockEnd
  0
BLOCK
  5
21B
330
21A
100
AcDbEntity
  8
0
100
AcDbBlockBegin
  2
_D_4
 70
     0
 10
0.0
 20
0.0
 30
0.0
  3
_D_4
  1

  0
SOLID
  5
21D
330
21A
100
AcDbEntity
  8
0
  6
Continuous
 62
     7
370
    18
100
AcDbTrace
 10
35.9805181361
 20
9.6891630247
 30
0.0
 11
36.0605181361
 21
10.2091630247
 31
0.0
 12
35.9005181361
 22
10.2091630247
 32
0.0
 13
35.9005181361
 23
10.2091630247
 33
0.0
  0
SOLID
  5
21E
330
21A
100
AcDbEntity
  8
0
  6
Continuous
 62
     7
370
    18
100
AcDbTrace
 10
35.9805181361
 20
6.3791630247
 30
0.0
 11
35.9005181361
 21
5.8591630247
 31
0.0
 12
36.0605181361
 22
5.8591630247
 32
0.0
 13
36.0605181361
 23
5.8591630247
 33
0.0
  0
LINE
  5
21F
330
21A
100
AcDbEntity
  8
0
  6
Continuous
 62
     7
370
     0
100
AcDbLine
 10
34.986073744
 20
8.0303435022
 30
0.0
 11
34.8337299955
 21
8.0303435022
 31
0.0
  0
LINE
  5
220
330
21A
100
AcDbEntity
  8
0
  6
Continuous
 62
     7
370
     0
100
AcDbLine
 10
34.8337299955
 20
8.0303435022
 30
0.0
 11
34.8337299955
 21
7.2365934783
 31
0.0
  0
LINE
  5
221
330
21A
100
AcDbEntity
  8
0
  6
Continuous
 62
     7
370
     0
100
AcDbLine
 10
34.8337299955
 20
7.2365934783
 30
0.0
 11
34.986073744
 21
7.2365934783
 31
0.0
  0
LINE
  5
222
330
21A
100
AcDbEntity
  8
0
  6
Continuous
 62
     7
370
     0
100
AcDbLine
 10
36.9749626748
 20
8.0303435022
 30
0.0
 11
37.1273064233
 21
8.0303435022
 31
0.0
  0
LINE
  5
223
330
21A
100
AcDbEntity
  8
0
  6
Continuous
 62
     7
370
     0
100
AcDbLine
 10
37.1273064233
 20
8.0303435022
 30
0.0
 11
37.1273064233
 21
7.2365934783
 31
0.0
  0
LINE
  5
224
330
21A
100
AcDbEntity
  8
0
  6
Continuous
 62
     7
370
     0
100
AcDbLine
 10
37.1273064233
 20
7.2365934783
 30
0.0
 11
36.9749626748
 21
7.2365934783
 31
0.0
  0
LINE
  5
225
330
21A
100
AcDbEntity
  8
0
  6
Continuous
 62
     7
370
     0
100
AcDbLine
 10
32.0608330967
 20
9.6891630247
 30
0.0
 11
36.4805181361
 21
9.6891630247
 31
0.0
  0
LINE
  5
226
330
21A
100
AcDbEntity
  8
0
  6
Continuous
 62
     7
370
     0
100
AcDbLine
 10
32.0608330967
 20
6.3791630247
 30
0.0
 11
36.4805181361
 21
6.3791630247
 31
0.0
  0
LINE
  5
227
330
21A
100
AcDbEntity
  8
0
  6
Continuous
 62
     7
370
     0
100
AcDbLine
 10
35.9805181361
 20
9.6891630247
 30
0.0
 11
35.9805181361
 21
10.6891630247
 31
0.0
  0
LINE
  5
228
330
21A
100
AcDbEntity
  8
0
  6
Continuous
 62
     7
370
     0
100
AcDbLine
 10
35.9805181361
 20
6.3791630247
 30
0.0
 11
35.9805181361
 21
5.3791630247
 31
0.0
  0
MTEXT
  5
229
330
21A
100
AcDbEntity
  8
0
  6
Continuous
 62
     7
370
    18
100
AcDbMText
 10
34.6841640244
 20
8.7840788122
 30
0.0
 40
0.5
 41
0.0
 71
     1
 72
     1
  1

  7
SLDTEXTSTYLE0
 73
     1
 44
1.0
  0
MTEXT
  5
22A
330
21A
100
AcDbEntity
  8
0
  6
Continuous
 62
     7
370
    18
100
AcDbMText
 10
34.9003098247
 20
8.7764398863
 30
0.0
 40
0.5
 41
0.0
 71
     1
 72
     1
  1
3 5/16"
  7
SLDTEXTSTYLE0
 73
     1
 44
1.0
  0
MTEXT
  5
22B
330
21A
100
AcDbEntity
  8
0
  6
Continuous
 62
     7
370
    18
100
AcDbMText
 10
34.986073744
 20
7.8811274032
 30
0.0
 40
0.5
 41
0.0
 71
     1
 72
     1
  1
84mm
  7
SLDTEXTSTYLE0
 73
     1
 44
1.0
  0
MTEXT
  5
22C
330
21A
100
AcDbEntity
  8
0
  6
Continuous
 62
     7
370
    18
100
AcDbMText
 10
37.4671500617
 20
8.7840788122
 30
0.0
 40
0.5
 41
0.0
 71
     1
 72
     1
  1

  7
SLDTEXTSTYLE0
 73
     1
 44
1.0
  0
ENDBLK
  5
21C
330
21A
100
AcDbEntity
  8
0
100
AcDbBlockEnd
  0
BLOCK
  5
22F
330
22E
100
AcDbEntity
  8
0
100
AcDbBlockBegin
  2
_D_5
 70
     0
 10
0.0
 20
0.0
 30
0.0
  3
_D_5
  1

  0
SOLID
  5
231
330
22E
100
AcDbEntity
  8
0
  6
Continuous
 62
     7
370
    18
100
AcDbTrace
 10
30.2608330967
 20
13.0671179565
 30
0.0
 11
29.7408330967
 21
13.1471179565
 31
0.0
 12
29.7408330967
 22
12.9871179565
 32
0.0
 13
29.7408330967
 23
12.9871179565
 33
0.0
  0
SOLID
  5
232
330
22E
100
AcDbEntity
  8
0
  6
Continuous
 62
     7
370
    18
100
AcDbTrace
 10
33.4608330967
 20
13.0671179565
 30
0.0
 11
33.9808330967
 21
12.9871179565
 31
0.0
 12
33.9808330967
 22
13.1471179565
 32
0.0
 13
33.9808330967
 23
13.1471179565
 33
0.0
  0
LINE
  5
233
330
22E
100
AcDbEntity
  8
0
  6
Continuous
 62
     7
370
     0
100
AcDbLine
 10
30.8663887046
 20
13.0632984339
 30
0.0
 11
30.7140449562
 21
13.0632984339
 31
0.0
  0
LINE
  5
234
330
22E
100
AcDbEntity
  8
0
  6
Continuous
 62
     7
370
     0
100
AcDbLine
 10
30.7140449562
 20
13.0632984339
 30
0.0
 11
30.7140449562
 21
12.2695484101
 31
0.0
  0
LINE
  5
235
330
22E
100
AcDbEntity
  8
0
  6
Continuous
 62
     7
370
     0
100
AcDbLine
 10
30.7140449562
 20
12.2695484101
 30
0.0
 11
30.8663887046
 21
12.2695484101
 31
0.0
  0
LINE
  5
236
330
22E
100
AcDbEntity
  8
0
  6
Continuous
 62
     7
370
     0
100
AcDbLine
 10
32.8552776355
 20
13.0632984339
 30
0.0
 11
33.0076213839
 21
13.0632984339
 31
0.0
  0
LINE
  5
237
330
22E
100
AcDbEntity
  8
0
  6
Continuous
 62
     7
370
     0
100
AcDbLine
 10
33.0076213839
 20
13.0632984339
 30
0.0
 11
33.0076213839
 21
12.2695484101
 31
0.0
  0
LINE
  5
238
330
22E
100
AcDbEntity
  8
0
  6
Continuous
 62
     7
370
     0
100
AcDbLine
 10
33.0076213839
 20
12.2695484101
 30
0.0
 11
32.8552776355
 21
12.2695484101
 31
0.0
  0
LINE
  5
239
330
22E
100
AcDbEntity
  8
0
  6
Continuous
 62
     7
370
     0
100
AcDbLine
 10
30.2608330967
 20
10.7474329171
 30
0.0
 11
30.2608330967
 21
13.5671179565
 31
0.0
  0
LINE
  5
23A
330
22E
100
AcDbEntity
  8
0
  6
Continuous
 62
     7
370
     0
100
AcDbLine
 10
33.4608330967
 20
10.7474329171
 30
0.0
 11
33.4608330967
 21
13.5671179565
 31
0.0
  0
LINE
  5
23B
330
22E
100
AcDbEntity
  8
0
  6
Continuous
 62
     7
370
     0
100
AcDbLine
 10
30.2608330967
 20
13.0671179565
 30
0.0
 11
29.2608330967
 21
13.0671179565
 31
0.0
  0
LINE
  5
23C
330
22E
100
AcDbEntity
  8
0
  6
Continuous
 62
     7
370
     0
100
AcDbLine
 10
33.4608330967
 20
13.0671179565
 30
0.0
 11
34.4608330967
 21
13.0671179565
 31
0.0
  0
MTEXT
  5
23D
330
22E
100
AcDbEntity
  8
0
  6
Continuous
 62
     7
370
    18
100
AcDbMText
 10
30.564478985
 20
13.817033744
 30
0.0
 40
0.5
 41
0.0
 71
     1
 72
     1
  1

  7
SLDTEXTSTYLE0
 73
     1
 44
1.0
  0
MTEXT
  5
23E
330
22E
100
AcDbEntity
  8
0
  6
Continuous
 62
     7
370
    18
100
AcDbMText
 10
30.7806247854
 20
13.8093948181
 30
0.0
 40
0.5
 41
0.0
 71
     1
 72
     1
  1
3 3/16"
  7
SLDTEXTSTYLE0
 73
     1
 44
1.0
  0
MTEXT
  5
23F
330
22E
100
AcDbEntity
  8
0
  6
Continuous
 62
     7
370
    18
100
AcDbMText
 10
30.8663887046
 20
12.914082335
 30
0.0
 40
0.5
 41
0.0
 71
     1
 72
     1
  1
81mm
  7
SLDTEXTSTYLE0
 73
     1
 44
1.0
  0
MTEXT
  5
240
330
22E
100
AcDbEntity
  8
0
  6
Continuous
 62
     7
370
    18
100
AcDbMText
 10
33.3474650224
 20
13.817033744
 30
0.0
 40
0.5
 41
0.0
 71
     1
 72
     1
  1

  7
SLDTEXTSTYLE0
 73
     1
 44
1.0
  0
ENDBLK
  5
230
330
22E
100
AcDbEntity
  8
0
100
AcDbBlockEnd
  0
ENDSEC
  0
SECTION
  2
ENTITIES
  0
LINE
  5
71
330
1F
100
AcDbEntity
  8
0
  6
Continuous
 62
     7
370
    25
100
AcDbLine
 10
31.486274504
 20
21.9630444251
 30
0.0
 11
30.760723573
 21
20.3509446078
 31
0.0
  0
LINE
  5
72
330
1F
100
AcDbEntity
  8
0
  6
Continuous
 62
     7
370
    25
100
AcDbLine
 10
31.1328283349
 20
19.4942728442
 30
0.0
 11
33.3955700347
 21
18.1880198653
 31
0.0
  0
LINE
  5
73
330
1F
100
AcDbEntity
  8
0
  6
Continuous
 62
     7
370
    25
100
AcDbLine
 10
32.386125372
 20
22.2282348789
 30
0.0
 11
32.3392790049
 21
22.2011910469
 31
0.0
  0
LINE
  5
74
330
1F
100
AcDbEntity
  8
0
  6
Continuous
 62
     7
370
    25
100
AcDbLine
 10
33.6580561891
 20
20.3991391507
 30
0.0
 11
34.0645186617
 21
20.6337849415
 31
0.0
  0
LINE
  5
75
330
1F
100
AcDbEntity
  8
0
  6
Continuous
 62
     7
370
    25
100
AcDbLine
 10
34.3193249562
 20
23.3442472439
 30
0.0
 11
33.1940341694
 21
22.6946307001
 31
0.0
  0
LINE
  5
76
330
1F
100
AcDbEntity
  8
0
  6
Continuous
 62
     7
370
    25
100
AcDbLine
 10
34.0715897295
 20
20.637866982
 30
0.0
 11
35.4292347494
 21
21.4216187694
 31
0.0
  0
LINE
  5
77
330
1F
100
AcDbEntity
  8
0
  6
Continuous
 62
     7
370
    25
100
AcDbLine
 10
35.6591683799
 20
21.9298265046
 30
0.0
 11
35.6591683799
 21
21.9543187479
 31
0.0
  0
LINE
  5
78
330
1F
100
AcDbEntity
  8
0
  6
Continuous
 62
     7
370
    25
100
AcDbLine
 10
34.8956171749
 20
23.2769715413
 30
0.0
 11
34.8744074192
 21
23.2892196533
 31
0.0
  0
LINE
  5
79
330
1F
100
AcDbEntity
  8
0
  6
Continuous
 62
     7
370
    25
100
AcDbLine
 10
36.7679131006
 20
23.5741610292
 30
0.0
 11
36.41435971
 21
23.3700590012
 31
0.0
  0
LINE
  5
7A
330
1F
100
AcDbEntity
  8
0
  6
Continuous
 62
     7
370
    25
100
AcDbLine
 10
36.5493487389
 20
23.1362258084
 30
0.0
 11
36.9029021295
 21
23.3403278364
 31
0.0
  0
LINE
  5
7B
330
1F
100
AcDbEntity
  8
0
  6
Continuous
 62
     7
370
    25
100
AcDbLine
 10
36.9653131198
 20
23.6404875276
 30
0.0
 11
36.8371097482
 21
23.5664772965
 31
0.0
  0
LINE
  5
7C
330
1F
100
AcDbEntity
  8
0
  6
Continuous
 62
     7
370
    25
100
AcDbLine
 10
36.4763262574
 20
23.3582014206
 30
0.0
 11
35.413261006
 21
22.7445069138
 31
0.0
  0
LINE
  5
7D
330
1F
100
AcDbEntity
  8
0
  6
Continuous
 62
     7
370
    25
100
AcDbLine
 10
35.5026347418
 20
22.5796007868
 30
0.0
 11
36.5700686386
 21
23.1958172589
 31
0.0
  0
LINE
  5
7E
330
1F
100
AcDbEntity
  8
0
  6
Continuous
 62
     7
370
    25
100
AcDbLine
 10
36.9308521293
 20
23.4040931348
 30
0.0
 11
37.0590555009
 21
23.4781033659
 31
0.0
  0
LINE
  5
7F
330
1F
100
AcDbEntity
  8
0
  6
Continuous
 62
     7
370
    25
100
AcDbLine
 10
36.8359783695
 20
23.6814712312
 30
0.0
 11
35.3588184255
 21
22.8287249468
 31
0.0
  0
LINE
  5
80
330
1F
100
AcDbEntity
  8
0
  6
Continuous
 62
     7
370
    25
100
AcDbLine
 10
33.6686627909
 20
21.5720981643
 30
0.0
 11
33.6686627909
 21
21.7409760976
 31
0.0
  0
LINE
  5
81
330
1F
100
AcDbEntity
  8
0
  6
Continuous
 62
     7
370
    25
100
AcDbLine
 10
33.6580561891
 20
21.5659751035
 30
0.0
 11
33.6686627909
 21
21.5720981643
 31
0.0
  0
LINE
  5
82
330
1F
100
AcDbEntity
  8
0
  6
Continuous
 62
     7
370
    25
100
AcDbLine
 10
33.6580561891
 20
21.5659751035
 30
0.0
 11
33.6580561891
 21
19.1831629996
 31
0.0
  0
LINE
  5
83
330
1F
100
AcDbEntity
  8
0
  6
Continuous
 62
     7
370
    25
100
AcDbLine
 10
33.6686627909
 20
19.1892860604
 30
0.0
 11
33.6580561891
 21
19.1831629996
 31
0.0
  0
LINE
  5
84
330
1F
100
AcDbEntity
  8
0
  6
Continuous
 62
     7
370
    25
100
AcDbLine
 10
33.6686627909
 20
19.0204081272
 30
0.0
 11
33.6686627909
 21
19.1892860604
 31
0.0
  0
LINE
  5
85
330
1F
100
AcDbEntity
  8
0
  6
Continuous
 62
     7
370
    25
100
AcDbLine
 10
33.6580561891
 20
19.0142850664
 30
0.0
 11
33.6686627909
 21
19.0204081272
 31
0.0
  0
LINE
  5
86
330
1F
100
AcDbEntity
  8
0
  6
Continuous
 62
     7
370
    25
100
AcDbLine
 10
33.6580561891
 20
19.0142850664
 30
0.0
 11
33.6580561891
 21
18.3223816131
 31
0.0
  0
LINE
  5
87
330
1F
100
AcDbEntity
  8
0
  6
Continuous
 62
     7
370
    25
100
AcDbLine
 10
33.4098284856
 20
18.1890926458
 30
0.0
 11
33.6580561891
 21
18.3223816131
 31
0.0
  0
ARC
  5
88
330
1F
100
AcDbEntity
  8
0
  6
Continuous
 62
     7
370
    25
100
AcDbCircle
 10
33.402159288
 20
18.199574648
 30
0.0
 40
0.0129880314645137
100
AcDbArc
 50
170.3348340737
 51
306.1912130969
  0
LINE
  5
89
330
1F
100
AcDbEntity
  8
0
  6
Continuous
 62
     7
370
    25
100
AcDbLine
 10
33.3893556123
 20
22.2371478111
 30
0.0
 11
33.3893556123
 21
18.2017552095
 31
0.0
  0
ARC
  5
8A
330
1F
100
AcDbEntity
  8
0
  6
Continuous
 62
     7
370
    25
100
AcDbCircle
 10
33.4356364304
 20
22.2349691469
 30
0.0
 40
0.0463320698909837
100
AcDbArc
 50
123.8500425738
 51
177.3047974537
  0
LINE
  5
8B
330
1F
100
AcDbEntity
  8
0
  6
Continuous
 62
     7
370
    25
100
AcDbLine
 10
33.6580561891
 20
22.42675649
 30
0.0
 11
33.4098284856
 21
22.2734478513
 31
0.0
  0
LINE
  5
8C
330
1F
100
AcDbEntity
  8
0
  6
Continuous
 62
     7
370
    25
100
AcDbLine
 10
33.6580561891
 20
22.42675649
 30
0.0
 11
33.6580561891
 21
21.7348530368
 31
0.0
  0
LINE
  5
8D
330
1F
100
AcDbEntity
  8
0
  6
Continuous
 62
     7
370
    25
100
AcDbLine
 10
33.6686627909
 20
21.7409760976
 30
0.0
 11
33.6580561891
 21
21.7348530368
 31
0.0
  0
LINE
  5
8E
330
1F
100
AcDbEntity
  8
0
  6
Continuous
 62
     7
370
    25
100
AcDbLine
 10
31.1470867858
 20
23.5797008302
 30
0.0
 11
33.4098284856
 21
22.2734478513
 31
0.0
  0
LINE
  5
8F
330
1F
100
AcDbEntity
  8
0
  6
Continuous
 62
     7
370
    25
100
AcDbLine
 10
33.3893556123
 20
22.2371478111
 30
0.0
 11
31.1266139125
 21
23.5434007901
 31
0.0
  0
ARC
  5
90
330
1F
100
AcDbEntity
  8
0
  6
Continuous
 62
     7
370
    25
100
AcDbCircle
 10
31.1728947306
 20
23.5412221258
 30
0.0
 40
0.0463320698909834
100
AcDbArc
 50
123.8500425738
 51
177.3047974537
  0
LINE
  5
91
330
1F
100
AcDbEntity
  8
0
  6
Continuous
 62
     7
370
    25
100
AcDbLine
 10
31.1470867858
 20
23.5797008302
 30
0.0
 11
31.3953144893
 21
23.7330094689
 31
0.0
  0
LINE
  5
92
330
1F
100
AcDbEntity
  8
0
  6
Continuous
 62
     7
370
    25
100
AcDbLine
 10
31.3953144893
 20
23.7330094689
 30
0.0
 11
33.6580561891
 21
22.42675649
 31
0.0
  0
LWPOLYLINE
  5
93
330
1F
100
AcDbEntity
  8
0
  6
Continuous
 62
     7
370
    25
100
AcDbPolyline
 90
       75
 70
   128
 43
0.0
 10
32.4029416525
 20
22.140271212
 10
32.4024194437
 20
22.1547684139
 10
32.4008565796
 20
22.1697640927
 10
32.3982643209
 20
22.1851502041
 10
32.3946613447
 20
22.2008158908
 10
32.3900736106
 20
22.2166482813
 10
32.3845341733
 20
22.2325333028
 10
32.3780829446
 20
22.2483565032
 10
32.3707664058
 20
22.2640038762
 10
32.3626372726
 20
22.2793626821
 10
32.3537541157
 20
22.2943222602
 10
32.3441809384
 20
22.3087748265
 10
32.3339867157
 20
22.3226162499
 10
32.3232448972
 20
22.3357468026
 10
32.3120328779
 20
22.3480718787
 10
32.3004314407
 20
22.3595026758
 10
32.2885241742
 20
22.3699568347
 10
32.2763968705
 20
22.3793590329
 10
32.2641369072
 20
22.3876415274
 10
32.2518326176
 20
22.3947446427
 10
32.2395726542
 20
22.4006172005
 10
32.2274453506
 20
22.405216889
 10
32.2155380841
 20
22.4085105674
 10
32.2039366469
 20
22.4104745046
 10
32.1927246276
 20
22.4110945504
 10
32.1819828091
 20
22.4103662373
 10
32.1717885864
 20
22.4082948129
 10
32.1622154091
 20
22.4048952019
 10
32.1533322522
 20
22.4001918984
 10
32.145203119
 20
22.39421879
 10
32.1378865802
 20
22.3870189129
 10
32.1314353515
 20
22.3786441425
 10
32.1258959142
 20
22.3691548192
 10
32.1213081801
 20
22.3586193138
 10
32.1177052039
 20
22.3471135348
 10
32.1151129452
 20
22.3347203817
 10
32.1135500811
 20
22.3215291473
 10
32.1130278722
 20
22.3076348749
 10
32.1135500811
 20
22.293137673
 10
32.1151129452
 20
22.2781419942
 10
32.1177052039
 20
22.2627558828
 10
32.1213081801
 20
22.247090196
 10
32.1258959142
 20
22.2312578056
 10
32.1314353515
 20
22.2153727841
 10
32.1378865802
 20
22.1995495836
 10
32.145203119
 20
22.1839022106
 10
32.1533322522
 20
22.1685434048
 10
32.1622154091
 20
22.1535838267
 10
32.1717885864
 20
22.1391312604
 10
32.1819828091
 20
22.125289837
 10
32.1927246276
 20
22.1121592843
 10
32.2039366469
 20
22.0998342081
 10
32.2155380841
 20
22.088403411
 10
32.2274453506
 20
22.0779492522
 10
32.2395726542
 20
22.0685470539
 10
32.2518326176
 20
22.0602645594
 10
32.2641369072
 20
22.0531614442
 10
32.2763968705
 20
22.0472888864
 10
32.2885241742
 20
22.0426891978
 10
32.3004314407
 20
22.0393955195
 10
32.3120328779
 20
22.0374315823
 10
32.3232448972
 20
22.0368115365
 10
32.3339867157
 20
22.0375398495
 10
32.3441809384
 20
22.0396112739
 10
32.3537541157
 20
22.043010885
 10
32.3626372726
 20
22.0477141885
 10
32.3707664058
 20
22.0536872969
 10
32.3780829446
 20
22.060887174
 10
32.3845341733
 20
22.0692619444
 10
32.3900736106
 20
22.0787512677
 10
32.3946613447
 20
22.0892867731
 10
32.3982643209
 20
22.1007925521
 10
32.4008565796
 20
22.1131857052
 10
32.4024194437
 20
22.1263769396
 10
32.4029416525
 20
22.140271212
  0
ELLIPSE
  5
94
330
1F
100
AcDbEntity
  8
0
  6
Continuous
 62
     7
370
    25
100
AcDbEllipse
 10
32.8416163142
 20
21.0321877223
 30
0.0
 11
-0.08840013007984736
 21
0.4931133015601858
 31
0.0
210
0.0
220
0.0
230
1.0
 40
0.5091526124
 41
4.373850200410332
 42
5.877366168597184
  0
LINE
  5
95
330
1F
100
AcDbEntity
  8
0
  6
Continuous
 62
     7
370
    25
100
AcDbLine
 10
31.6564581718
 20
22.1975261835
 30
0.0
 11
32.859511353
 21
21.5030183651
 31
0.0
  0
ELLIPSE
  5
96
330
1F
100
AcDbEntity
  8
0
  6
Continuous
 62
     7
370
    25
100
AcDbEllipse
 10
31.6743532105
 20
21.7060343689
 30
0.0
 11
-0.1229227706222496
 21
0.5117155364485627
 31
0.0
210
0.0
220
0.0
230
1.0
 40
0.4613786991
 41
5.870434553913098
 42
7.37395052209993
  0
LINE
  5
97
330
1F
100
AcDbEntity
  8
0
  6
Continuous
 62
     7
370
    25
100
AcDbLine
 10
33.1077942446
 20
20.9108747562
 30
0.0
 11
33.1077942446
 21
19.895240269
 31
0.0
  0
LINE
  5
98
330
1F
100
AcDbEntity
  8
0
  6
Continuous
 62
     7
370
    25
100
AcDbLine
 10
31.1266139125
 20
19.5080081884
 30
0.0
 11
33.3893556123
 21
18.2017552095
 31
0.0
  0
LINE
  5
99
330
1F
100
AcDbEntity
  8
0
  6
Continuous
 62
     7
370
    25
100
AcDbLine
 10
31.1266139125
 20
19.5080081884
 30
0.0
 11
31.1266139125
 21
20.0642716
 31
0.0
  0
LINE
  5
9A
330
1F
100
AcDbEntity
  8
0
  6
Continuous
 62
     7
370
    25
100
AcDbLine
 10
31.1266139125
 20
21.1639154473
 30
0.0
 11
31.1266139125
 21
23.5434007901
 31
0.0
  0
ARC
  5
9B
330
1F
100
AcDbEntity
  8
0
  6
Continuous
 62
     7
370
    25
100
AcDbCircle
 10
32.0930029655
 20
19.4251566187
 30
0.0
 40
0.3101852200255472
100
AcDbArc
 50
2.2845116619
 51
60.3342340848
  0
LWPOLYLINE
  5
9C
330
1F
100
AcDbEntity
  8
0
  6
Continuous
 62
     7
370
    25
100
AcDbPolyline
 90
       42
 70
   128
 43
0.0
 10
32.1166354351
 20
19.6399142609
 10
32.1151129452
 20
19.6319702943
 10
32.1135500811
 20
19.61877906
 10
32.1130278722
 20
19.6048847876
 10
32.1135500811
 20
19.5903875856
 10
32.1151129452
 20
19.5753919069
 10
32.1177052039
 20
19.5600057954
 10
32.1213081801
 20
19.5443401087
 10
32.1258959142
 20
19.5285077182
 10
32.1314353515
 20
19.5126226968
 10
32.1378865802
 20
19.4967994963
 10
32.145203119
 20
19.4811521233
 10
32.1533322522
 20
19.4657933175
 10
32.1622154091
 20
19.4508337394
 10
32.1717885864
 20
19.4363811731
 10
32.1819828091
 20
19.4225397497
 10
32.1927246276
 20
19.4094091969
 10
32.2039366469
 20
19.3970841208
 10
32.2155380841
 20
19.3856533237
 10
32.2274453506
 20
19.3751991648
 10
32.2395726542
 20
19.3657969666
 10
32.2518326176
 20
19.3575144721
 10
32.2641369072
 20
19.3504113569
 10
32.2763968705
 20
19.344538799
 10
32.2885241742
 20
19.3399391105
 10
32.3004314407
 20
19.3366454321
 10
32.3120328779
 20
19.3346814949
 10
32.3232448972
 20
19.3340614491
 10
32.3339867157
 20
19.3347897622
 10
32.3441809384
 20
19.3368611866
 10
32.3537541157
 20
19.3402607977
 10
32.3626372726
 20
19.3449641011
 10
32.3707664058
 20
19.3509372096
 10
32.3780829446
 20
19.3581370866
 10
32.3845341733
 20
19.366511857
 10
32.3900736106
 20
19.3760011803
 10
32.3946613447
 20
19.3865366857
 10
32.3982643209
 20
19.3980424647
 10
32.4008565796
 20
19.4104356179
 10
32.4024194437
 20
19.4236268522
 10
32.4029416525
 20
19.4375211246
 10
32.4029416525
 20
19.4375211246
  0
LINE
  5
9D
330
1F
100
AcDbEntity
  8
0
  6
Continuous
 62
     7
370
    25
100
AcDbLine
 10
31.8471220981
 20
19.648331078
 30
0.0
 11
32.8291994458
 21
21.3880885508
 31
0.0
  0
ELLIPSE
  5
9E
330
1F
100
AcDbEntity
  8
0
  6
Continuous
 62
     7
370
    25
100
AcDbEllipse
 10
32.7090337928
 20
20.9556494618
 30
0.0
 11
0.1101140289543707
 21
0.436138318899161
 31
0.0
210
0.0
220
0.0
230
1.0
 40
0.3348498656
 41
4.708895207425689
 42
6.212411175612567
  0
LINE
  5
9F
330
1F
100
AcDbEntity
  8
0
  6
Continuous
 62
     7
370
    25
100
AcDbLine
 10
32.8546890463
 20
20.9172542539
 30
0.0
 11
32.1383873947
 21
19.6483204433
 31
0.0
  0
ELLIPSE
  5
A0
330
1F
100
AcDbEntity
  8
0
  6
Continuous
 62
     7
370
    25
100
AcDbEllipse
 10
32.0173439143
 20
19.730315594
 30
0.0
 11
0.2155532466428838
 21
0.0236466811002316
 31
0.0
210
0.0
220
0.0
230
1.0
 40
0.5090174845
 41
3.748290699989826
 42
5.251806668176664
  0
LINE
  5
A1
330
1F
100
AcDbEntity
  8
0
  6
Continuous
 62
     7
370
    25
100
AcDbLine
 10
31.6261462646
 20
22.0825963692
 30
0.0
 11
30.8020855244
 21
20.2516178507
 31
0.0
  0
LINE
  5
A2
330
1F
100
AcDbEntity
  8
0
  6
Continuous
 62
     7
370
    25
100
AcDbLine
 10
32.8291994458
 20
21.3880885508
 30
0.0
 11
31.6261462646
 21
22.0825963692
 31
0.0
  0
LINE
  5
A3
330
1F
100
AcDbEntity
  8
0
  6
Continuous
 62
     7
370
    25
100
AcDbLine
 10
30.8020855244
 20
20.2516178507
 30
0.0
 11
31.8471220981
 21
19.648331078
 31
0.0
  0
LWPOLYLINE
  5
A4
330
1F
100
AcDbEntity
  8
0
  6
Continuous
 62
     7
370
    25
100
AcDbPolyline
 90
        3
 70
   128
 43
0.0
 10
33.6580561891
 20
21.7505806336
 10
33.659792538
 20
21.7491352947
 10
33.6686627909
 20
21.7409760976
  0
LINE
  5
A5
330
1F
100
AcDbEntity
  8
0
  6
Continuous
 62
     7
370
    25
100
AcDbLine
 10
32.8546890463
 20
19.9554362572
 30
0.0
 11
32.1383873947
 21
19.6483204433
 31
0.0
  0
LINE
  5
A6
330
1F
100
AcDbEntity
  8
0
  6
Continuous
 62
     7
370
    25
100
AcDbLine
 10
32.8546890463
 20
19.9554362572
 30
0.0
 11
32.8546890463
 21
20.9172542539
 31
0.0
  0
ARC
  5
A7
330
1F
100
AcDbEntity
  8
0
  6
Continuous
 62
     7
370
    25
100
AcDbCircle
 10
32.9746289001
 20
20.6517052612
 30
0.0
 40
0.291379196380606
100
AcDbArc
 50
62.8051914431
 51
114.3071482052
  0
ARC
  5
A8
330
1F
100
AcDbEntity
  8
0
  6
Continuous
 62
     7
370
    25
100
AcDbCircle
 10
32.5978267384
 20
21.5105736091
 30
0.0
 40
0.2617936576763993
100
AcDbArc
 50
332.1039620548
 51
358.3462406651
  0
ARC
  5
A9
330
1F
100
AcDbEntity
  8
0
  6
Continuous
 62
     7
370
    25
100
AcDbCircle
 10
31.3947735573
 20
22.2050814275
 30
0.0
 40
0.2617936576761347
100
AcDbArc
 50
332.1039620547
 51
358.3462406651
  0
LWPOLYLINE
  5
AA
330
1F
100
AcDbEntity
  8
0
  6
Continuous
 62
     7
370
    25
100
AcDbPolyline
 90
       30
 70
   128
 43
0.0
 10
32.2966895161
 20
22.3629228573
 10
32.2945819085
 20
22.3620658077
 10
32.288453491
 20
22.3585267975
 10
32.2831084557
 20
22.3537341263
 10
32.2786247451
 20
22.3477576821
 10
32.275067742
 20
22.3406846147
 10
32.2724893155
 20
22.3326180656
 10
32.2709270647
 20
22.3236756632
 10
32.2704037708
 20
22.3139878077
 10
32.2709270647
 20
22.3036957701
 10
32.2724893155
 20
22.2929496313
 10
32.275067742
 20
22.2819060942
 10
32.2786247451
 20
22.2707261985
 10
32.2831084557
 20
22.2595729723
 10
32.288453491
 20
22.2486090546
 10
32.2945819085
 20
22.2379943242
 10
32.301404342
 20
22.2278835677
 10
32.3088213051
 20
22.2184242226
 10
32.3167246418
 20
22.2097542275
 10
32.3249991036
 20
22.2020000106
 10
32.3335240303
 20
22.1952746456
 10
32.3421751091
 20
22.1896762037
 10
32.350826188
 20
22.1852863226
 10
32.3593511146
 20
22.1821690167
 10
32.3676255764
 20
22.1803697435
 10
32.3755289131
 20
22.1799147402
 10
32.3829458762
 20
22.1808106419
 10
32.3897683097
 20
22.1830443844
 10
32.3958967272
 20
22.1865833946
 10
32.3976851528
 20
22.1879743271
  0
SPLINE
  5
AB
330
1F
100
AcDbEntity
  8
0
  6
Continuous
 62
     7
370
    25
100
AcDbSpline
210
0.0
220
0.0
230
1.0
 70
     8
 71
     3
 72
    14
 73
    10
 74
     0
 42
0.00000001
 43
0.00000001
 40
0.0
 40
0.0
 40
0.0
 40
0.0
 40
0.1214924034792167
 40
0.243192009269713
 40
0.422653061173982
 40
0.6023989109220331
 40
0.7994905337371726
 40
0.996662577253157
 40
1.0
 40
1.0
 40
1.0
 40
1.0
 10
32.97248463846952
 20
19.97585731142711
 30
0.0
 10
32.97906993758077
 20
19.97533328842072
 30
0.0
 10
32.99225176686923
 20
19.97428434869958
 30
0.0
 10
33.01435856636867
 20
19.9677032724591
 30
0.0
 10
33.03810908744677
 20
19.95662616287249
 30
0.0
 10
33.06325694078163
 20
19.93979025001855
 30
0.0
 10
33.08666090421423
 20
19.91938806837647
 30
0.0
 10
33.10097957321493
 20
19.90361552444743
 30
0.0
 10
33.10768267338247
 20
19.89537739037705
 30
0.0
 10
33.10779424456856
 20
19.89524026899046
 30
0.0
  0
ELLIPSE
  5
AC
330
1F
100
AcDbEntity
  8
0
  6
Continuous
 62
     7
370
    25
100
AcDbEllipse
 10
32.9752117231
 20
19.8732178109
 30
0.0
 11
0.1874479079146809
 21
-0.008089621709409302
 31
0.0
210
0.0
220
0.0
230
1.0
 40
0.5463150007
 41
1.608914043060464
 42
2.292500779676201
  0
ARC
  5
AD
330
1F
100
AcDbEntity
  8
0
  6
Continuous
 62
     7
370
    25
100
AcDbCircle
 10
32.3318128647
 20
22.3227290712
 30
0.0
 40
0.0538456735108081
100
AcDbArc
 50
132.48811797
 51
184.555618132
  0
LWPOLYLINE
  5
AE
330
1F
100
AcDbEntity
  8
0
  6
Continuous
 62
     7
370
    25
100
AcDbPolyline
 90
       20
 70
   128
 43
0.0
 10
32.3966402645
 20
22.1871388577
 10
32.3906794111
 20
22.1852751166
 10
32.3832624479
 20
22.1843792148
 10
32.3753591113
 20
22.1848342181
 10
32.3670846494
 20
22.1866334914
 10
32.3585597228
 20
22.1897507972
 10
32.3499086439
 20
22.1941406783
 10
32.3412575651
 20
22.1997391203
 10
32.3327326384
 20
22.2064644852
 10
32.3244581766
 20
22.2142187022
 10
32.31655484
 20
22.2228886972
 10
32.3091378768
 20
22.2323480423
 10
32.3023154433
 20
22.2424587988
 10
32.2961870258
 20
22.2530735293
 10
32.2908419905
 20
22.2640374469
 10
32.28635828
 20
22.2751906731
 10
32.2828012769
 20
22.2863705688
 10
32.2802228503
 20
22.2974141059
 10
32.2786605995
 20
22.3081602447
 10
32.2781373057
 20
22.3184522824
  0
ELLIPSE
  5
AF
330
1F
100
AcDbEntity
  8
0
  6
Continuous
 62
     7
370
    25
100
AcDbEllipse
 10
30.9613739671
 20
20.3399140688
 30
0.0
 11
0.2068475118555284
 21
0.02693468436084956
 31
0.0
210
0.0
220
0.0
230
1.0
 40
0.5500908635
 41
2.814679850955502
 42
3.76499879783987
  0
LWPOLYLINE
  5
B0
330
1F
100
AcDbEntity
  8
0
  6
Continuous
 62
     7
370
    25
100
AcDbPolyline
 90
        3
 70
   128
 43
0.0
 10
33.6580561891
 20
19.1988905965
 10
33.659792538
 20
19.1974452575
 10
33.6686627909
 20
19.1892860604
  0
ARC
  5
B1
330
1F
100
AcDbEntity
  8
0
  6
Continuous
 62
     7
370
    25
100
AcDbCircle
 10
31.1409459418
 20
19.5062190757
 30
0.0
 40
0.0144432679201066
100
AcDbArc
 50
172.8843952802
 51
235.8034243264
  0
LWPOLYLINE
  5
B2
330
1F
100
AcDbEntity
  8
0
  6
Continuous
 62
     7
370
    25
100
AcDbPolyline
 90
       30
 70
   128
 43
0.0
 10
32.2966895161
 20
19.66017277
 10
32.2945819085
 20
19.6593157204
 10
32.288453491
 20
19.6557767102
 10
32.2831084557
 20
19.650984039
 10
32.2786247451
 20
19.6450075947
 10
32.275067742
 20
19.6379345274
 10
32.2724893155
 20
19.6298679783
 10
32.2709270647
 20
19.6209255758
 10
32.2704037708
 20
19.6112377204
 10
32.2709270647
 20
19.6009456827
 10
32.2724893155
 20
19.5901995439
 10
32.275067742
 20
19.5791560068
 10
32.2786247451
 20
19.5679761112
 10
32.2831084557
 20
19.5568228849
 10
32.288453491
 20
19.5458589673
 10
32.2945819085
 20
19.5352442369
 10
32.301404342
 20
19.5251334803
 10
32.3088213051
 20
19.5156741352
 10
32.3167246418
 20
19.5070041402
 10
32.3249991036
 20
19.4992499232
 10
32.3335240303
 20
19.4925245583
 10
32.3421751091
 20
19.4869261163
 10
32.350826188
 20
19.4825362352
 10
32.3593511146
 20
19.4794189294
 10
32.3676255764
 20
19.4776196561
 10
32.3755289131
 20
19.4771646529
 10
32.3829458762
 20
19.4780605546
 10
32.3897683097
 20
19.4802942971
 10
32.3958967272
 20
19.4838333073
 10
32.3976851528
 20
19.4852242397
  0
ARC
  5
B3
330
1F
100
AcDbEntity
  8
0
  6
Continuous
 62
     7
370
    25
100
AcDbCircle
 10
32.3318128647
 20
19.6199789838
 30
0.0
 40
0.0538456735088998
100
AcDbArc
 50
132.4881179641
 51
184.5556181325
  0
LWPOLYLINE
  5
B4
330
1F
100
AcDbEntity
  8
0
  6
Continuous
 62
     7
370
    25
100
AcDbPolyline
 90
       20
 70
   128
 43
0.0
 10
32.3966402645
 20
19.4843887704
 10
32.3906794111
 20
19.4825250292
 10
32.3832624479
 20
19.4816291275
 10
32.3753591113
 20
19.4820841307
 10
32.3670846494
 20
19.483883404
 10
32.3585597228
 20
19.4870007099
 10
32.3499086439
 20
19.491390591
 10
32.3412575651
 20
19.4969890329
 10
32.3327326384
 20
19.5037143979
 10
32.3244581766
 20
19.5114686148
 10
32.31655484
 20
19.5201386099
 10
32.3091378768
 20
19.529597955
 10
32.3023154433
 20
19.5397087115
 10
32.2961870258
 20
19.5503234419
 10
32.2908419905
 20
19.5612873596
 10
32.28635828
 20
19.5724405858
 10
32.2828012769
 20
19.5836204815
 10
32.2802228503
 20
19.5946640185
 10
32.2786605995
 20
19.6054101574
 10
32.2781373057
 20
19.615702195
  0
LWPOLYLINE
  5
B5
330
1F
100
AcDbEntity
  8
0
  6
Continuous
 62
     7
370
    25
100
AcDbPolyline
 90
       42
 70
   128
 43
0.0
 10
33.9638328335
 20
21.5414155011
 10
33.9662207839
 20
21.5320850423
 10
33.9696939598
 20
21.5232641865
 10
33.9741709529
 20
21.5151596871
 10
33.9795468262
 20
21.5079615068
 10
33.9856955739
 20
21.5018383648
 10
33.9924730744
 20
21.4969337824
 10
33.9997204691
 20
21.4933627188
 10
34.0072678849
 20
21.4912088766
 10
34.014938417
 20
21.4905227403
 10
34.0225522746
 20
21.4913203922
 10
34.0299309952
 20
21.4935831359
 10
34.0369016279
 20
21.4972579348
 10
34.0433007871
 20
21.5022586547
 10
34.0489784818
 20
21.5084680829
 10
34.0538016317
 20
21.5157406757
 10
34.0576571862
 20
21.5239059696
 10
34.0604547744
 20
21.5327725771
 10
34.0621288232
 20
21.5421326725
 10
34.0626400944
 20
21.5517668631
 10
34.0619766041
 20
21.5614493315
 10
34.0601539041
 20
21.5709531289
 10
34.0572147168
 20
21.5800554944
 10
34.0532279343
 20
21.5885430762
 10
34.0482870034
 20
21.5962169327
 10
34.0425077354
 20
21.602897195
 10
34.0360255914
 20
21.6084272836
 10
34.0289925073
 20
21.6126775779
 10
34.0215733327
 20
21.6155484545
 10
34.0139419668
 20
21.6169726225
 10
34.0062772823
 20
21.6169167006
 10
33.9987589329
 20
21.6153819997
 10
33.9915631423
 20
21.6124044918
 10
33.9848585738
 20
21.6080539671
 10
33.9788023768
 20
21.6024323982
 10
33.9735365034
 20
21.5956715501
 10
33.9691843812
 20
21.5879298912
 10
33.9658480203
 20
21.5793888794
 10
33.9636056221
 20
21.5702487089
 10
33.9625097466
 20
21.5607236174
 10
33.9625860801
 20
21.5510368651
 10
33.9638328335
 20
21.5414155011
  0
LWPOLYLINE
  5
B6
330
1F
100
AcDbEntity
  8
0
  6
Continuous
 62
     7
370
    25
100
AcDbPolyline
 90
       45
 70
   128
 43
0.0
 10
33.991861499
 20
21.6260153587
 10
34.0001281755
 20
21.62734554
 10
34.0085107458
 20
21.627166893
 10
34.0168385651
 20
21.6254830543
 10
34.024942103
 20
21.6223283022
 10
34.0326563947
 20
21.6177668582
 10
34.0398243996
 20
21.6118915802
 10
34.0463001978
 20
21.6048220719
 10
34.0519519606
 20
21.5967022481
 10
34.0566646345
 20
21.587697405
 10
34.060342283
 20
21.5779908553
 10
34.0629100398
 20
21.5677801963
 10
34.0643156328
 20
21.5572732875
 10
34.0645304482
 20
21.5466840194
 10
34.0635501129
 20
21.536227959
 10
34.0613945838
 20
21.5261179613
 10
34.0581077411
 20
21.5165598369
 10
34.0537564956
 20
21.5077481616
 10
34.0484294261
 20
21.4998623156
 10
34.0422349763
 20
21.4930628322
 10
34.0352992473
 20
21.4874881291
 10
34.0277634306
 20
21.4832516912
 10
34.0197809338
 20
21.4804397602
 10
34.0115142573
 20
21.4791095788
 10
34.0031316869
 20
21.4792882259
 10
33.9948038676
 20
21.4809720645
 10
33.9867003298
 20
21.4841268166
 10
33.9789860381
 20
21.4886882606
 10
33.9718180332
 20
21.4945635386
 10
33.965342235
 20
21.5016330469
 10
33.9596904722
 20
21.5097528707
 10
33.9549777983
 20
21.5187577138
 10
33.9513001498
 20
21.5284642635
 10
33.948732393
 20
21.5386749225
 10
33.9473268
 20
21.5491818313
 10
33.9471119846
 20
21.5597710994
 10
33.9480923199
 20
21.5702271599
 10
33.950247849
 20
21.5803371575
 10
33.9535346916
 20
21.5898952819
 10
33.9578859371
 20
21.5987069573
 10
33.9632130067
 20
21.6065928032
 10
33.9694074565
 20
21.6133922867
 10
33.9763431855
 20
21.6189669898
 10
33.9838790021
 20
21.6232034277
 10
33.991861499
 20
21.6260153587
  0
LINE
  5
B7
330
1F
100
AcDbEntity
  8
0
  6
Continuous
 62
     7
370
    25
100
AcDbLine
 10
34.0371355198
 20
21.5200486245
 30
0.0
 11
34.0471035352
 21
21.5626422179
 31
0.0
  0
LINE
  5
B8
330
1F
100
AcDbEntity
  8
0
  6
Continuous
 62
     7
370
    25
100
AcDbLine
 10
34.0224884888
 20
21.5964201673
 30
0.0
 11
34.0471035352
 21
21.5626422179
 31
0.0
  0
LINE
  5
B9
330
1F
100
AcDbEntity
  8
0
  6
Continuous
 62
     7
370
    25
100
AcDbLine
 10
33.987905427
 20
21.5876045234
 30
0.0
 11
34.0224884888
 21
21.5964201673
 31
0.0
  0
LINE
  5
BA
330
1F
100
AcDbEntity
  8
0
  6
Continuous
 62
     7
370
    25
100
AcDbLine
 10
33.987905427
 20
21.5876045234
 30
0.0
 11
33.9779374117
 21
21.54501093
 31
0.0
  0
LINE
  5
BB
330
1F
100
AcDbEntity
  8
0
  6
Continuous
 62
     7
370
    25
100
AcDbLine
 10
34.002552458
 20
21.5112329806
 30
0.0
 11
33.9779374117
 21
21.54501093
 31
0.0
  0
LINE
  5
BC
330
1F
100
AcDbEntity
  8
0
  6
Continuous
 62
     7
370
    25
100
AcDbLine
 10
34.002552458
 20
21.5112329806
 30
0.0
 11
34.0371355198
 21
21.5200486245
 31
0.0
  0
LINE
  5
BD
330
1F
100
AcDbEntity
  8
0
  6
Continuous
 62
     7
370
    25
100
AcDbLine
 10
33.9986367835
 20
21.5166062573
 30
0.0
 11
34.0371355198
 21
21.5200486245
 31
0.0
  0
LINE
  5
BE
330
1F
100
AcDbEntity
  8
0
  6
Continuous
 62
     7
370
    25
100
AcDbLine
 10
33.991990016
 20
21.5577142388
 30
0.0
 11
34.0471035352
 21
21.5626422179
 31
0.0
  0
LINE
  5
BF
330
1F
100
AcDbEntity
  8
0
  6
Continuous
 62
     7
370
    25
100
AcDbLine
 10
33.9836035609
 20
21.5692225354
 30
0.0
 11
33.991990016
 21
21.5577142388
 31
0.0
  0
LINE
  5
C0
330
1F
100
AcDbEntity
  8
0
  6
Continuous
 62
     7
370
    25
100
AcDbLine
 10
33.9863238668
 20
21.5335026333
 30
0.0
 11
33.991990016
 21
21.5577142388
 31
0.0
  0
LWPOLYLINE
  5
C1
330
1F
100
AcDbEntity
  8
0
  6
Continuous
 62
     7
370
    25
100
AcDbPolyline
 90
       23
 70
   128
 43
0.0
 10
34.2944522922
 20
21.1419926767
 10
34.293934688
 20
21.1093806287
 10
34.2923825582
 20
21.0774092066
 10
34.2897979498
 20
21.0461205783
 10
34.2861842717
 20
21.015556011
 10
34.2815462902
 20
20.9857558172
 10
34.2758901223
 20
20.956759301
 10
34.2692232282
 20
20.9286047066
 10
34.261554401
 20
20.9013291678
 10
34.2528937552
 20
20.874968659
 10
34.2432527135
 20
20.8495579476
 10
34.2326439919
 20
20.8251305486
 10
34.2210815824
 20
20.8017186796
 10
34.2085807349
 20
20.7793532193
 10
34.1951579371
 20
20.758063666
 10
34.1808308926
 20
20.7378780989
 10
34.1656184978
 20
20.7188231414
 10
34.1495408166
 20
20.7009239254
 10
34.1326190543
 20
20.6842040587
 10
34.1148755294
 20
20.6686855934
 10
34.0963336442
 20
20.6543889974
 10
34.0770178541
 20
20.6413331266
 10
34.0645186617
 20
20.6337849415
  0
LWPOLYLINE
  5
C2
330
1F
100
AcDbEntity
  8
0
  6
Continuous
 62
     7
370
    25
100
AcDbPolyline
 90
       40
 70
   128
 43
0.0
 10
33.6580561891
 20
22.3993683552
 10
33.6583169445
 20
22.3991597568
 10
33.6862024208
 20
22.3762376249
 10
33.713854924
 20
22.3522852307
 10
33.7412379827
 20
22.3273341656
 10
33.7683154807
 20
22.3014173381
 10
33.7950517049
 20
22.2745689306
 10
33.8214113921
 20
22.2468243541
 10
33.847359776
 20
22.2182202016
 10
33.8728626326
 20
22.1887941998
 10
33.8978863256
 20
22.1585851593
 10
33.9223978506
 20
22.1276329236
 10
33.9463648788
 20
22.0959783164
 10
33.9697557995
 20
22.0636630876
 10
33.9925397619
 20
22.0307298586
 10
34.0146867156
 20
21.9972220658
 10
34.0361674505
 20
21.9631839034
 10
34.0569536351
 20
21.9286602653
 10
34.0770178541
 20
21.8936966854
 10
34.0963336442
 20
21.8583392781
 10
34.1148755294
 20
21.822634677
 10
34.1326190543
 20
21.786629974
 10
34.1495408166
 20
21.7503726563
 10
34.1656184978
 20
21.7139105448
 10
34.1808308926
 20
21.67729173
 10
34.1951579371
 20
21.6405645095
 10
34.2085807349
 20
21.6037773237
 10
34.2210815824
 20
21.5669786921
 10
34.2326439919
 20
21.5302171493
 10
34.2432527135
 20
21.493541181
 10
34.2528937552
 20
21.4569991599
 10
34.261554401
 20
21.4206392823
 10
34.2692232282
 20
21.384509504
 10
34.2758901223
 20
21.3486574775
 10
34.2815462902
 20
21.3131304889
 10
34.2861842717
 20
21.2779753956
 10
34.2897979498
 20
21.2432385645
 10
34.2923825582
 20
21.2089658108
 10
34.293934688
 20
21.1752023377
 10
34.2944522922
 20
21.1419926767
  0
SPLINE
  5
C3
330
1F
100
AcDbEntity
  8
0
  6
Continuous
 62
     7
370
    25
100
AcDbSpline
210
0.0
220
0.0
230
1.0
 70
    11
 71
     3
 72
    45
 73
    41
 74
     0
 42
0.00000001
 43
0.00000001
 40
0.0
 40
0.0
 40
0.0
 40
0.0
 40
0.0237175399948463
 40
0.0474321274804067
 40
0.0737704074114303
 40
0.1001058302052719
 40
0.1256831926192587
 40
0.1512613530838337
 40
0.1766109339555993
 40
0.2019638704002131
 40
0.2277790104241763
 40
0.2535981923459833
 40
0.2802998405742468
 40
0.3070046344696886
 40
0.334590109763829
 40
0.3621768307668801
 40
0.3903008030868582
 40
0.418423580319375
 40
0.4465839298029451
 40
0.474740451268067
 40
0.5024000164995926
 40
0.5300542399531946
 40
0.5567908251397564
 40
0.583523484559649
 40
0.6093175702390934
 40
0.6351113171116066
 40
0.660453835068484
 40
0.6857990961317748
 40
0.7114024556147754
 40
0.7370098334383316
 40
0.7634096901586904
 40
0.7898131155645001
 40
0.8171426391285795
 40
0.8444740854076926
 40
0.8724773226205952
 40
0.9004801841984563
 40
0.9286871977639589
 40
0.9568911912208109
 40
0.9784464809506987
 40
1.0
 40
1.0
 40
1.0
 40
1.0
 10
34.03742326999964
 20
21.62927089990665
 30
0.0
 10
34.04052526984818
 20
21.62747800697397
 30
0.0
 10
34.04672888338872
 20
21.62389244429924
 30
0.0
 10
34.05544698091848
 20
21.61619409166238
 30
0.0
 10
34.06336754872284
 20
21.60666028235667
 30
0.0
 10
34.07001200955763
 20
21.59536588324895
 30
0.0
 10
34.07488169393257
 20
21.58300544221451
 30
0.0
 10
34.07796111396636
 20
21.57004150760425
 30
0.0
 10
34.07916680547665
 20
21.55671344703595
 30
0.0
 10
34.07859616674985
 20
21.54332554459041
 30
0.0
 10
34.07620321998335
 20
21.53020553782334
 30
0.0
 10
34.07209201094503
 20
21.51754795550664
 30
0.0
 10
34.06630882592293
 20
21.50581324578475
 30
0.0
 10
34.05897240254985
 20
21.49518596316065
 30
0.0
 10
34.05027599569976
 20
21.48617360990293
 30
0.0
 10
34.04041297830626
 20
21.4789635039056
 30
0.0
 10
34.0297025114305
 20
21.47397021728234
 30
0.0
 10
34.01844065919908
 20
21.47130079508182
 30
0.0
 10
34.00699052878699
 20
21.47118107937692
 30
0.0
 10
33.99572455649297
 20
21.47353219905292
 30
0.0
 10
33.9849689363412
 20
21.47837465611288
 30
0.0
 10
33.97509643711713
 20
21.4853763638215
 30
0.0
 10
33.96634138708646
 20
21.49439893143032
 30
0.0
 10
33.9589580965189
 20
21.5049136383291
 30
0.0
 10
33.95307944476173
 20
21.51671997080167
 30
0.0
 10
33.94878017850143
 20
21.52929624674403
 30
0.0
 10
33.94614975534247
 20
21.54243204870189
 30
0.0
 10
33.94515251486201
 20
21.5557712615787
 30
0.0
 10
33.94588081875045
 20
21.56903062105692
 30
0.0
 10
33.94828513263637
 20
21.58199787083764
 30
0.0
 10
33.95241897646349
 20
21.59425627044456
 30
0.0
 10
33.95823054873235
 20
21.60563007306104
 30
0.0
 10
33.96565082381363
 20
21.61561887471306
 30
0.0
 10
33.9745546082306
 20
21.62403377021278
 30
0.0
 10
33.98470884980299
 20
21.6304223960281
 30
0.0
 10
33.99584362238289
 20
21.63463591214775
 30
0.0
 10
34.00760208170978
 20
21.63639821410052
 30
0.0
 10
34.01866161102712
 20
21.63571275388478
 30
0.0
 10
34.02869683641609
 20
21.63328725526453
 30
0.0
 10
34.03451453845855
 20
21.63060964836533
 30
0.0
 10
34.03742326999964
 20
21.62927089990665
 30
0.0
  0
ARC
  5
C4
330
1F
100
AcDbEntity
  8
0
  6
Continuous
 62
     7
370
    25
100
AcDbCircle
 10
33.8850651444
 20
20.9608175853
 30
0.0
 40
0.3729447035750984
100
AcDbArc
 50
299.381986194
 51
310.2389746127
  0
ARC
  5
C5
330
1F
100
AcDbEntity
  8
0
  6
Continuous
 62
     7
370
    25
100
AcDbCircle
 10
34.5356541201
 20
22.9279989879
 30
0.0
 40
0.4691065100883896
100
AcDbArc
 50
69.2808717552
 51
117.4614357414
  0
LWPOLYLINE
  5
C6
330
1F
100
AcDbEntity
  8
0
  6
Continuous
 62
     7
370
    25
100
AcDbPolyline
 90
       72
 70
   128
 43
0.0
 10
35.4292347494
 20
21.4216187694
 10
35.4487151342
 20
21.4336831913
 10
35.4677575829
 20
21.4471839483
 10
35.4860172796
 20
21.4619188872
 10
35.5034701411
 20
21.4778685739
 10
35.5200931484
 20
21.4950119718
 10
35.535864377
 20
21.5133264701
 10
35.5507630259
 20
21.5327879134
 10
35.5647694448
 20
21.5533706335
 10
35.5778651604
 20
21.5750474834
 10
35.5900329003
 20
21.5977898729
 10
35.6012566164
 20
21.6215678067
 10
35.6115215053
 20
21.6463499232
 10
35.6208140285
 20
21.672103537
 10
35.6291219298
 20
21.6987946808
 10
35.6364342517
 20
21.7263881512
 10
35.6427413498
 20
21.7548475543
 10
35.6480349056
 20
21.7841353545
 10
35.6523079372
 20
21.8142129233
 10
35.6555548088
 20
21.8450405907
 10
35.6577712382
 20
21.8765776973
 10
35.6589543018
 20
21.9087826482
 10
35.6591024395
 20
21.9416129673
 10
35.6582154558
 20
21.9750253541
 10
35.6562945205
 20
22.0089757401
 10
35.6533421673
 20
22.0434193473
 10
35.64936229
 20
22.0783107473
 10
35.6443601379
 20
22.1136039209
 10
35.6383423083
 20
22.1492523191
 10
35.6313167384
 20
22.1852089244
 10
35.6232926944
 20
22.2214263128
 10
35.6142807592
 20
22.2578567162
 10
35.6042928191
 20
22.2944520857
 10
35.5933420473
 20
22.3311641548
 10
35.5814428871
 20
22.3679445032
 10
35.5686110325
 20
22.4047446202
 10
35.5548634079
 20
22.4415159694
 10
35.5402181452
 20
22.4782100521
 10
35.5246945604
 20
22.5147784716
 10
35.5083131281
 20
22.5511729969
 10
35.491095454
 20
22.5873456265
 10
35.473064247
 20
22.6232486513
 10
35.4542432888
 20
22.6588347181
 10
35.4346574029
 20
22.6940568915
 10
35.4143324216
 20
22.7288687161
 10
35.393295152
 20
22.7632242777
 10
35.3715733405
 20
22.7970782641
 10
35.3491956368
 20
22.8303860243
 10
35.3261915551
 20
22.8631036279
 10
35.3025914363
 20
22.895187923
 10
35.278426407
 20
22.9265965927
 10
35.2537283391
 20
22.9572882114
 10
35.2285298075
 20
22.9872222993
 10
35.202864047
 20
23.0163593754
 10
35.176764909
 20
23.0446610103
 10
35.1502668161
 20
23.0720898762
 10
35.1234047174
 20
23.0986097965
 10
35.096214042
 20
23.1241857935
 10
35.0687306521
 20
23.1487841343
 10
35.0409907965
 20
23.1723723757
 10
35.0130310617
 20
23.1949194065
 10
34.9848883247
 20
23.2163954889
 10
34.9565997035
 20
23.2367722975
 10
34.9282025086
 20
23.256022957
 10
34.8997341939
 20
23.2741220771
 10
34.8712323068
 20
23.2910457865
 10
34.8427344392
 20
23.3067717642
 10
34.8142781776
 20
23.3212792686
 10
34.7859010537
 20
23.3345491656
 10
34.7576404947
 20
23.3465639532
 10
34.7295337741
 20
23.3573077847
 10
34.7016179626
 20
23.3667664898
  0
ARC
  5
C7
330
1F
100
AcDbEntity
  8
0
  6
Continuous
 62
     7
370
    25
100
AcDbCircle
 10
34.0032360627
 20
21.8800901299
 30
0.0
 40
1.657595163728822
100
AcDbArc
 50
2.5666153878
 51
57.4280080795
  0
ARC
  5
C8
330
1F
100
AcDbEntity
  8
0
  6
Continuous
 62
     7
370
    25
100
AcDbCircle
 10
36.4441698043
 20
23.3185565006
 30
0.0
 40
0.0489068080053466
100
AcDbArc
 50
68.1014246558
 51
170.2323557662
  0
LWPOLYLINE
  5
C9
330
1F
100
AcDbEntity
  8
0
  6
Continuous
 62
     7
370
    25
100
AcDbPolyline
 90
       33
 70
   128
 43
0.0
 10
36.4873821915
 20
23.148083389
 10
36.4918617858
 20
23.1459538922
 10
36.501298131
 20
23.1423503459
 10
36.5105065142
 20
23.1400457352
 10
36.5193789754
 20
23.1390670795
 10
36.5278114933
 20
23.1394258527
 10
36.5357052042
 20
23.1411178485
 10
36.5429675615
 20
23.1441232297
 10
36.5495134209
 20
23.1484067612
 10
36.5552660381
 20
23.1539182223
 10
36.5601579689
 20
23.1605929962
 10
36.5641318599
 20
23.1683528273
 10
36.5671411208
 20
23.1771067387
 10
36.5691504708
 20
23.1867520988
 10
36.5701363522
 20
23.1971758245
 10
36.5700872064
 20
23.2082557072
 10
36.5690036095
 20
23.2198618453
 10
36.5668982657
 20
23.2318581676
 10
36.5637958583
 20
23.2441040282
 10
36.5597327602
 20
23.2564558554
 10
36.5547566074
 20
23.2687688354
 10
36.5489257409
 20
23.2808986099
 10
36.5423085222
 20
23.2927029682
 10
36.5349825321
 20
23.304043515
 10
36.5270336611
 20
23.3147872929
 10
36.5185551026
 20
23.3248083409
 10
36.5096462598
 20
23.3339891712
 10
36.5004115809
 20
23.3422221472
 10
36.4909593339
 20
23.3494107446
 10
36.4814003378
 20
23.3554706838
 10
36.4718466631
 20
23.3603309174
 10
36.4624103179
 20
23.3639344637
 10
36.4624103179
 20
23.3639344637
  0
ARC
  5
CA
330
1F
100
AcDbEntity
  8
0
  6
Continuous
 62
     7
370
    25
100
AcDbCircle
 10
36.4409923205
 20
23.3243419817
 30
0.0
 40
0.0523687634794599
100
AcDbArc
 50
67.7108373944
 51
167.3815653443
  0
LWPOLYLINE
  5
CB
330
1F
100
AcDbEntity
  8
0
  6
Continuous
 62
     7
370
    25
100
AcDbPolyline
 90
       35
 70
   128
 43
0.0
 10
36.4801520913
 20
23.1439095411
 10
36.4830338071
 20
23.1422368529
 10
36.4930048094
 20
23.1372269199
 10
36.5028536435
 20
23.1334869812
 10
36.5124724036
 20
23.1310580124
 10
36.5217557046
 20
23.1299666257
 10
36.5306018366
 20
23.1302247786
 10
36.5389138795
 20
23.1318296428
 10
36.5466007649
 20
23.1347636349
 10
36.5535782737
 20
23.1389946097
 10
36.5597699588
 20
23.1444762116
 10
36.5651079828
 20
23.151148383
 10
36.5695338611
 20
23.1589380223
 10
36.5729991031
 20
23.1677597845
 10
36.5754657427
 20
23.1775170166
 10
36.5769067549
 20
23.1881028162
 10
36.5773063516
 20
23.1994012032
 10
36.5766601549
 20
23.21128839
 10
36.5749752446
 20
23.2236341382
 10
36.5722700809
 20
23.2363031851
 10
36.5685743022
 20
23.2491567261
 10
36.5639284001
 20
23.2620539349
 10
36.5583832762
 20
23.2748535072
 10
36.551999684
 20
23.2874152081
 10
36.5448475635
 20
23.299601409
 10
36.5370052747
 20
23.3112785953
 10
36.5285587395
 20
23.3223188294
 10
36.5196004999
 20
23.3326011521
 10
36.5102287042
 20
23.3420129081
 10
36.5005460317
 20
23.3504509803
 10
36.4906585679
 20
23.3578229193
 10
36.4806746418
 20
23.3640479568
 10
36.4707036395
 20
23.3690578898
 10
36.4608548054
 20
23.3727978285
 10
36.4608548054
 20
23.3727978285
  0
ARC
  5
CC
330
1F
100
AcDbEntity
  8
0
  6
Continuous
 62
     7
370
    25
100
AcDbCircle
 10
36.7942074695
 20
23.5238067548
 30
0.0
 40
0.0568062213740101
100
AcDbArc
 50
69.1693100371
 51
117.5729974595
  0
LWPOLYLINE
  5
CD
330
1F
100
AcDbEntity
  8
0
  6
Continuous
 62
     7
370
    25
100
AcDbPolyline
 90
       26
 70
   128
 43
0.0
 10
36.9029021295
 20
23.3403278364
 10
36.9071316643
 20
23.3430966376
 10
36.9133233494
 20
23.3485782395
 10
36.9186613734
 20
23.355250411
 10
36.9230872517
 20
23.3630400502
 10
36.9265524937
 20
23.3718618124
 10
36.9290191333
 20
23.3816190445
 10
36.9304601455
 20
23.3922048442
 10
36.9308597422
 20
23.4035032311
 10
36.9302135455
 20
23.415390418
 10
36.9285286352
 20
23.4277361662
 10
36.9258234715
 20
23.4404052131
 10
36.9221276928
 20
23.453258754
 10
36.9174817907
 20
23.4661559629
 10
36.9119366668
 20
23.4789555352
 10
36.9055530746
 20
23.4915172361
 10
36.8984009541
 20
23.503703437
 10
36.8905586653
 20
23.5153806233
 10
36.8821121301
 20
23.5264208574
 10
36.8731538905
 20
23.53670318
 10
36.8637820948
 20
23.546114936
 10
36.8540994223
 20
23.5545530082
 10
36.8442119585
 20
23.5619249473
 10
36.8342280324
 20
23.5681499847
 10
36.8242570301
 20
23.5731599177
 10
36.814408196
 20
23.5768998564
  0
LWPOLYLINE
  5
CE
330
1F
100
AcDbEntity
  8
0
  6
Continuous
 62
     7
370
    25
100
AcDbPolyline
 90
       28
 70
   128
 43
0.0
 10
37.0590555009
 20
23.4781033659
 10
37.0594493884
 20
23.4783346059
 10
37.0648698553
 20
23.4824201366
 10
37.0694700886
 20
23.4877024986
 10
37.0731784697
 20
23.4940994536
 10
37.0759372648
 20
23.5015114108
 10
37.0777035236
 20
23.5098229774
 10
37.0784497481
 20
23.5189047548
 10
37.0781643209
 20
23.5286153537
 10
37.0768516855
 20
23.5388035949
 10
37.0745322776
 20
23.549310863
 10
37.071242207
 20
23.5599735758
 10
37.067032695
 20
23.5706257312
 10
37.0619692774
 20
23.5811014913
 10
37.0561307836
 20
23.5912377646
 10
37.0496081103
 20
23.6008767447
 10
37.0425028056
 20
23.6098683674
 10
37.034925488
 20
23.6180726468
 10
37.0269941251
 20
23.6253618549
 10
37.0188321959
 20
23.6316225098
 10
37.0105667692
 20
23.6367571425
 10
37.0023265252
 20
23.6406858148
 10
36.9942397519
 20
23.6433473632
 10
36.986432348
 20
23.6447003514
 10
36.9790258629
 20
23.6447237155
 10
36.9721356042
 20
23.6434170917
 10
36.9658688428
 20
23.6408008222
 10
36.9653131198
 20
23.6404875276
  0
LWPOLYLINE
  5
CF
330
1F
100
AcDbEntity
  8
0
  6
Continuous
 62
     7
370
    25
100
AcDbPolyline
 90
       15
 70
   128
 43
0.0
 10
36.9328215449
 20
23.6217305407
 10
36.9317391954
 20
23.6237542749
 10
36.9257834152
 20
23.6338205354
 10
36.9191592204
 20
23.6433646076
 10
36.9119697395
 20
23.652237905
 10
36.9043269018
 20
23.6603022838
 10
36.8963496947
 20
23.667432194
 10
36.888162311
 20
23.6735166336
 10
36.879892216
 20
23.6784608774
 10
36.8716681622
 20
23.6821879508
 10
36.8636181858
 20
23.6846398292
 10
36.8558676126
 20
23.6857783404
 10
36.8485371071
 20
23.6855857597
 10
36.8417407942
 20
23.6840650851
 10
36.8359783695
 20
23.6814712312
  0
LINE
  5
D0
330
1F
100
AcDbEntity
  8
0
  6
Continuous
 62
     7
370
    25
100
AcDbLine
 10
31.4081752802
 20
21.7895159531
 30
0.0
 11
31.4081752802
 21
21.8920438995
 31
0.0
  0
LINE
  5
D1
330
1F
100
AcDbEntity
  8
0
  6
Continuous
 62
     7
370
    25
100
AcDbLine
 10
33.1077942446
 20
19.895240269
 30
0.0
 11
32.9680242968
 21
19.9759277424
 31
0.0
  0
ELLIPSE
  5
D2
330
1F
100
AcDbEntity
  8
0
  6
Continuous
 62
     7
370
    25
100
AcDbEllipse
 10
31.5417706891
 20
21.6294961084
 30
0.0
 11
0.06486966595169719
 21
0.4608031458886365
 31
0.0
210
0.0
220
0.0
230
1.0
 40
0.3024614216
 41
6.137811832249437
 42
7.088130779133761
  0
ARC
  5
D3
330
1F
100
AcDbEntity
  8
0
  6
Continuous
 62
     7
370
    25
100
AcDbCircle
 10
31.3422462182
 20
21.7736309862
 30
0.0
 40
0.135529551185214
100
AcDbArc
 50
42.4722864103
 51
60.8921393769
  0
LWPOLYLINE
  5
D4
330
1F
100
AcDbEntity
  8
0
  6
Continuous
 62
     7
370
    25
100
AcDbPolyline
 90
       59
 70
   128
 43
0.0
 10
33.6580561891
 20
22.4090668742
 10
33.6833457766
 20
22.3886205883
 10
33.7110856323
 20
22.365032347
 10
33.7385690221
 20
22.3404340061
 10
33.7657596976
 20
22.3148580092
 10
33.7926217963
 20
22.2883380889
 10
33.8191198891
 20
22.260909223
 10
33.8452190271
 20
22.2326075881
 10
33.8708847876
 20
22.2034705119
 10
33.8960833192
 20
22.1735364241
 10
33.9207813871
 20
22.1428448053
 10
33.9449464164
 20
22.1114361356
 10
33.9685465353
 20
22.0793518406
 10
33.9915506169
 20
22.0466342369
 10
34.0139283207
 20
22.0133264767
 10
34.0356501321
 20
21.9794724904
 10
34.0566874017
 20
21.9451169287
 10
34.0770123831
 20
21.9103051041
 10
34.096598269
 20
21.8750829308
 10
34.1154192271
 20
21.839496864
 10
34.1334504341
 20
21.8035938391
 10
34.1506681082
 20
21.7674212096
 10
34.1670495406
 20
21.7310266842
 10
34.1825731253
 20
21.6944582647
 10
34.197218388
 20
21.657764182
 10
34.2109660126
 20
21.6209928329
 10
34.2237978672
 20
21.5841927158
 10
34.2356970274
 20
21.5474123675
 10
34.2466477992
 20
21.5107002983
 10
34.2566357394
 20
21.4741049288
 10
34.2656476745
 20
21.4376745254
 10
34.2736717186
 20
21.4014571371
 10
34.2806972885
 20
21.3655005318
 10
34.286715118
 20
21.3298521336
 10
34.2917172701
 20
21.29455896
 10
34.2956971474
 20
21.25966756
 10
34.2986495006
 20
21.2252239528
 10
34.3005704359
 20
21.1912735668
 10
34.3014574196
 20
21.15786118
 10
34.3013092819
 20
21.1250308608
 10
34.3001262183
 20
21.09282591
 10
34.297909789
 20
21.0612888033
 10
34.2946629173
 20
21.0304611359
 10
34.2903898857
 20
21.0003835671
 10
34.2850963299
 20
20.971095767
 10
34.2787892318
 20
20.9426363638
 10
34.2714769099
 20
20.9150428935
 10
34.2631690086
 20
20.8883517496
 10
34.2538764855
 20
20.8625981359
 10
34.2436115965
 20
20.8378160193
 10
34.2323878805
 20
20.8140380856
 10
34.2202201405
 20
20.791295696
 10
34.2071244249
 20
20.7696188462
 10
34.193118006
 20
20.749036126
 10
34.1782193572
 20
20.7295746827
 10
34.1624481286
 20
20.7112601844
 10
34.1458251213
 20
20.6941167865
 10
34.1283722598
 20
20.6781670999
 10
34.1259788822
 20
20.6761277139
  0
LINE
  5
D5
330
1F
100
AcDbEntity
  8
0
  6
Continuous
 62
     7
370
    25
100
AcDbLine
 10
19.839548224
 20
6.5816630247
 30
0.0
 11
19.824548224
 21
6.5816630247
 31
0.0
  0
LINE
  5
D6
330
1F
100
AcDbEntity
  8
0
  6
Continuous
 62
     7
370
    25
100
AcDbLine
 10
19.824548224
 20
6.3616630247
 30
0.0
 11
19.839548224
 21
6.3616630247
 31
0.0
  0
LINE
  5
D7
330
1F
100
AcDbEntity
  8
0
  6
Continuous
 62
     7
370
    25
100
AcDbLine
 10
19.824548224
 20
9.4866630247
 30
0.0
 11
19.839548224
 21
9.4866630247
 31
0.0
  0
LINE
  5
D8
330
1F
100
AcDbEntity
  8
0
  6
Continuous
 62
     7
370
    25
100
AcDbLine
 10
19.839548224
 20
9.7066630247
 30
0.0
 11
19.824548224
 21
9.7066630247
 31
0.0
  0
LINE
  5
D9
330
1F
100
AcDbEntity
  8
0
  6
Continuous
 62
     7
370
    25
100
AcDbLine
 10
19.839548224
 20
9.2105492585
 30
0.0
 11
19.829548224
 21
9.2103747078
 31
0.0
  0
LINE
  5
DA
330
1F
100
AcDbEntity
  8
0
  6
Continuous
 62
     7
370
    25
100
AcDbLine
 10
19.829548224
 20
6.8579513416
 30
0.0
 11
19.839548224
 21
6.8577767909
 31
0.0
  0
LINE
  5
DB
330
1F
100
AcDbEntity
  8
0
  6
Continuous
 62
     7
370
    25
100
AcDbLine
 10
18.6348767568
 20
6.9254344919
 30
0.0
 11
18.636148224
 21
6.9241630247
 31
0.0
  0
LINE
  5
DC
330
1F
100
AcDbEntity
  8
0
  6
Continuous
 62
     7
370
    25
100
AcDbLine
 10
18.762948224
 20
6.9241630247
 30
0.0
 11
18.764214699
 21
6.9254294997
 31
0.0
  0
LINE
  5
DD
330
1F
100
AcDbEntity
  8
0
  6
Continuous
 62
     7
370
    25
100
AcDbLine
 10
18.784426578
 20
6.9241630247
 30
0.0
 11
19.5235768644
 21
6.9241630247
 31
0.0
  0
LINE
  5
DE
330
1F
100
AcDbEntity
  8
0
  6
Continuous
 62
     7
370
    25
100
AcDbLine
 10
18.449548224
 20
6.9241630247
 30
0.0
 11
18.6148237134
 21
6.9241630247
 31
0.0
  0
LINE
  5
DF
330
1F
100
AcDbEntity
  8
0
  6
Continuous
 62
     7
370
    25
100
AcDbLine
 10
19.5235768644
 20
9.1441630247
 30
0.0
 11
18.449548224
 21
9.1441630247
 31
0.0
  0
ARC
  5
E0
330
1F
100
AcDbEntity
  8
0
  6
Continuous
 62
     7
370
    25
100
AcDbCircle
 10
19.568298224
 20
6.8841630247
 30
0.0
 40
0.0600000000000002
100
AcDbArc
 50
41.8103148958
 51
138.1896851042
  0
ARC
  5
E1
330
1F
100
AcDbEntity
  8
0
  6
Continuous
 62
     7
370
    25
100
AcDbCircle
 10
19.568298224
 20
9.1841630247
 30
0.0
 40
0.0599999999999996
100
AcDbArc
 50
221.8103148958
 51
318.1896851042
  0
LINE
  5
E2
330
1F
100
AcDbEntity
  8
0
  6
Continuous
 62
     7
370
    25
100
AcDbLine
 10
19.6130195835
 20
6.9241630247
 30
0.0
 11
19.829548224
 21
6.9241630247
 31
0.0
  0
LINE
  5
E3
330
1F
100
AcDbEntity
  8
0
  6
Continuous
 62
     7
370
    25
100
AcDbLine
 10
19.829548224
 20
9.1441630247
 30
0.0
 11
19.6130195835
 21
9.1441630247
 31
0.0
  0
LINE
  5
E4
330
1F
100
AcDbEntity
  8
0
  6
Continuous
 62
     7
370
    25
100
AcDbLine
 10
16.519548224
 20
9.1441630247
 30
0.0
 11
16.489548224
 21
9.1141630247
 31
0.0
  0
LINE
  5
E5
330
1F
100
AcDbEntity
  8
0
  6
Continuous
 62
     7
370
    25
100
AcDbLine
 10
16.489548224
 20
6.9541630247
 30
0.0
 11
16.519548224
 21
6.9241630247
 31
0.0
  0
LINE
  5
E6
330
1F
100
AcDbEntity
  8
0
  6
Continuous
 62
     7
370
    25
100
AcDbLine
 10
16.519548224
 20
6.9241630247
 30
0.0
 11
18.439548224
 21
6.9241630247
 31
0.0
  0
LINE
  5
E7
330
1F
100
AcDbEntity
  8
0
  6
Continuous
 62
     7
370
    25
100
AcDbLine
 10
18.439548224
 20
9.1441630247
 30
0.0
 11
16.519548224
 21
9.1441630247
 31
0.0
  0
ARC
  5
E8
330
1F
100
AcDbEntity
  8
0
  6
Continuous
 62
     7
370
    25
100
AcDbCircle
 10
18.439548224
 20
9.1341630247
 30
0.0
 40
0.0099999999999998
100
AcDbArc
 50
360.0
 51
90.0
  0
ARC
  5
E9
330
1F
100
AcDbEntity
  8
0
  6
Continuous
 62
     7
370
    25
100
AcDbCircle
 10
18.439548224
 20
6.9341630247
 30
0.0
 40
0.0100000000000016
100
AcDbArc
 50
270.0
 51
0.0
  0
LINE
  5
EA
330
1F
100
AcDbEntity
  8
0
  6
Continuous
 62
     7
370
    25
100
AcDbLine
 10
13.837548224
 20
7.919786402
 30
0.0
 11
14.337548224
 21
7.919786402
 31
0.0
  0
LINE
  5
EB
330
1F
100
AcDbEntity
  8
0
  6
Continuous
 62
     7
370
    25
100
AcDbLine
 10
14.337548224
 20
8.189786402
 30
0.0
 11
13.837548224
 21
8.189786402
 31
0.0
  0
LINE
  5
EC
330
1F
100
AcDbEntity
  8
0
  6
Continuous
 62
     7
370
    25
100
AcDbLine
 10
13.587548224
 20
7.9197896474
 30
0.0
 11
16.102048224
 21
7.9197896474
 31
0.0
  0
LINE
  5
ED
330
1F
100
AcDbEntity
  8
0
  6
Continuous
 62
     7
370
    25
100
AcDbLine
 10
16.102048224
 20
8.1072896474
 30
0.0
 11
13.587548224
 21
8.1072896474
 31
0.0
  0
LINE
  5
EE
330
1F
100
AcDbEntity
  8
0
  6
Continuous
 62
     7
370
    25
100
AcDbLine
 10
16.102048224
 20
8.148536402
 30
0.0
 11
14.337548224
 21
8.148536402
 31
0.0
  0
LINE
  5
EF
330
1F
100
AcDbEntity
  8
0
  6
Continuous
 62
     7
370
    25
100
AcDbLine
 10
13.837548224
 20
8.148536402
 30
0.0
 11
13.587548224
 21
8.148536402
 31
0.0
  0
LINE
  5
F0
330
1F
100
AcDbEntity
  8
0
  6
Continuous
 62
     7
370
    25
100
AcDbLine
 10
16.364548224
 20
7.5391630247
 30
0.0
 11
16.489548224
 21
7.5391630247
 31
0.0
  0
LINE
  5
F1
330
1F
100
AcDbEntity
  8
0
  6
Continuous
 62
     7
370
    25
100
AcDbLine
 10
16.489548224
 20
8.5291630247
 30
0.0
 11
16.364548224
 21
8.5291630247
 31
0.0
  0
LINE
  5
F2
330
1F
100
AcDbEntity
  8
0
  6
Continuous
 62
     7
370
    25
100
AcDbLine
 10
16.364548224
 20
8.3779130247
 30
0.0
 11
16.351548224
 21
8.3779130247
 31
0.0
  0
LINE
  5
F3
330
1F
100
AcDbEntity
  8
0
  6
Continuous
 62
     7
370
    25
100
AcDbLine
 10
16.351548224
 20
7.6904130247
 30
0.0
 11
16.364548224
 21
7.6904130247
 31
0.0
  0
LINE
  5
F4
330
1F
100
AcDbEntity
  8
0
  6
Continuous
 62
     7
370
    25
100
AcDbLine
 10
16.122048224
 20
8.3746040409
 30
0.0
 11
16.102048224
 21
8.3399630247
 31
0.0
  0
LINE
  5
F5
330
1F
100
AcDbEntity
  8
0
  6
Continuous
 62
     7
370
    25
100
AcDbLine
 10
16.142048224
 20
8.3399630247
 30
0.0
 11
16.122048224
 21
8.3746040409
 31
0.0
  0
LINE
  5
F6
330
1F
100
AcDbEntity
  8
0
  6
Continuous
 62
     7
370
    25
100
AcDbLine
 10
16.162048224
 20
8.3746040409
 30
0.0
 11
16.142048224
 21
8.3399630247
 31
0.0
  0
LINE
  5
F7
330
1F
100
AcDbEntity
  8
0
  6
Continuous
 62
     7
370
    25
100
AcDbLine
 10
16.222048224
 20
8.3399630247
 30
0.0
 11
16.202048224
 21
8.3746040409
 31
0.0
  0
LINE
  5
F8
330
1F
100
AcDbEntity
  8
0
  6
Continuous
 62
     7
370
    25
100
AcDbLine
 10
16.242048224
 20
8.3746040409
 30
0.0
 11
16.222048224
 21
8.3399630247
 31
0.0
  0
LINE
  5
F9
330
1F
100
AcDbEntity
  8
0
  6
Continuous
 62
     7
370
    25
100
AcDbLine
 10
16.182048224
 20
8.3399630247
 30
0.0
 11
16.162048224
 21
8.3746040409
 31
0.0
  0
LINE
  5
FA
330
1F
100
AcDbEntity
  8
0
  6
Continuous
 62
     7
370
    25
100
AcDbLine
 10
16.202048224
 20
8.3746040409
 30
0.0
 11
16.182048224
 21
8.3399630247
 31
0.0
  0
LINE
  5
FB
330
1F
100
AcDbEntity
  8
0
  6
Continuous
 62
     7
370
    25
100
AcDbLine
 10
16.262048224
 20
8.3399630247
 30
0.0
 11
16.242048224
 21
8.3746040409
 31
0.0
  0
LINE
  5
FC
330
1F
100
AcDbEntity
  8
0
  6
Continuous
 62
     7
370
    25
100
AcDbLine
 10
16.281548224
 20
8.3737380155
 30
0.0
 11
16.262048224
 21
8.3399630247
 31
0.0
  0
LINE
  5
FD
330
1F
100
AcDbEntity
  8
0
  6
Continuous
 62
     7
370
    25
100
AcDbLine
 10
16.351548224
 20
8.3341630247
 30
0.0
 11
16.281548224
 21
8.3341630247
 31
0.0
  0
LINE
  5
FE
330
1F
100
AcDbEntity
  8
0
  6
Continuous
 62
     7
370
    25
100
AcDbLine
 10
16.281548224
 20
7.7341630247
 30
0.0
 11
16.351548224
 21
7.7341630247
 31
0.0
  0
LINE
  5
FF
330
1F
100
AcDbEntity
  8
0
  6
Continuous
 62
     7
370
    25
100
AcDbLine
 10
16.102048224
 20
7.7283630247
 30
0.0
 11
16.122048224
 21
7.6937220086
 31
0.0
  0
LINE
  5
100
330
1F
100
AcDbEntity
  8
0
  6
Continuous
 62
     7
370
    25
100
AcDbLine
 10
16.122048224
 20
7.6937220086
 30
0.0
 11
16.142048224
 21
7.7283630247
 31
0.0
  0
LINE
  5
101
330
1F
100
AcDbEntity
  8
0
  6
Continuous
 62
     7
370
    25
100
AcDbLine
 10
16.142048224
 20
7.7283630247
 30
0.0
 11
16.162048224
 21
7.6937220086
 31
0.0
  0
LINE
  5
102
330
1F
100
AcDbEntity
  8
0
  6
Continuous
 62
     7
370
    25
100
AcDbLine
 10
16.202048224
 20
7.6937220086
 30
0.0
 11
16.222048224
 21
7.7283630247
 31
0.0
  0
LINE
  5
103
330
1F
100
AcDbEntity
  8
0
  6
Continuous
 62
     7
370
    25
100
AcDbLine
 10
16.162048224
 20
7.6937220086
 30
0.0
 11
16.182048224
 21
7.7283630247
 31
0.0
  0
LINE
  5
104
330
1F
100
AcDbEntity
  8
0
  6
Continuous
 62
     7
370
    25
100
AcDbLine
 10
16.222048224
 20
7.7283630247
 30
0.0
 11
16.242048224
 21
7.6937220086
 31
0.0
  0
LINE
  5
105
330
1F
100
AcDbEntity
  8
0
  6
Continuous
 62
     7
370
    25
100
AcDbLine
 10
16.182048224
 20
7.7283630247
 30
0.0
 11
16.202048224
 21
7.6937220086
 31
0.0
  0
LINE
  5
106
330
1F
100
AcDbEntity
  8
0
  6
Continuous
 62
     7
370
    25
100
AcDbLine
 10
16.242048224
 20
7.6937220086
 30
0.0
 11
16.262048224
 21
7.7283630247
 31
0.0
  0
LINE
  5
107
330
1F
100
AcDbEntity
  8
0
  6
Continuous
 62
     7
370
    25
100
AcDbLine
 10
16.262048224
 20
7.7283630247
 30
0.0
 11
16.281548224
 21
7.694588034
 31
0.0
  0
LINE
  5
108
330
1F
100
AcDbEntity
  8
0
  6
Continuous
 62
     7
370
    25
100
AcDbLine
 10
19.824548224
 20
9.7000736141
 30
0.0
 11
19.824548224
 21
9.4932524353
 31
0.0
  0
LINE
  5
109
330
1F
100
AcDbEntity
  8
0
  6
Continuous
 62
     7
370
    25
100
AcDbLine
 10
19.839548224
 20
9.7000736141
 30
0.0
 11
19.824548224
 21
9.7000736141
 31
0.0
  0
LINE
  5
10A
330
1F
100
AcDbEntity
  8
0
  6
Continuous
 62
     7
370
    25
100
AcDbLine
 10
19.839548224
 20
9.7000736141
 30
0.0
 11
19.839548224
 21
10.5474329171
 31
0.0
  0
LINE
  5
10B
330
1F
100
AcDbEntity
  8
0
  6
Continuous
 62
     7
370
    25
100
AcDbLine
 10
20.1905952089
 20
10.5351740863
 30
0.0
 11
19.839548224
 21
10.5474329171
 31
0.0
  0
ARC
  5
10C
330
1F
100
AcDbEntity
  8
0
  6
Continuous
 62
     7
370
    25
100
AcDbCircle
 10
20.189548224
 20
10.5051923615
 30
0.0
 40
0.0300000000000011
100
AcDbArc
 50
0.0
 51
88.0
  0
LINE
  5
10D
330
1F
100
AcDbEntity
  8
0
  6
Continuous
 62
     7
370
    25
100
AcDbLine
 10
20.219548224
 20
5.563133688
 30
0.0
 11
20.219548224
 21
10.5051923615
 31
0.0
  0
ARC
  5
10E
330
1F
100
AcDbEntity
  8
0
  6
Continuous
 62
     7
370
    25
100
AcDbCircle
 10
20.189548224
 20
5.563133688
 30
0.0
 40
0.0300000000000011
100
AcDbArc
 50
272.0
 51
0.0
  0
LINE
  5
10F
330
1F
100
AcDbEntity
  8
0
  6
Continuous
 62
     7
370
    25
100
AcDbLine
 10
19.839548224
 20
5.5208931323
 30
0.0
 11
20.1905952089
 21
5.5331519631
 31
0.0
  0
LINE
  5
110
330
1F
100
AcDbEntity
  8
0
  6
Continuous
 62
     7
370
    25
100
AcDbLine
 10
19.839548224
 20
5.5208931323
 30
0.0
 11
19.839548224
 21
6.3682524353
 31
0.0
  0
LINE
  5
111
330
1F
100
AcDbEntity
  8
0
  6
Continuous
 62
     7
370
    25
100
AcDbLine
 10
19.824548224
 20
6.3682524353
 30
0.0
 11
19.839548224
 21
6.3682524353
 31
0.0
  0
LINE
  5
112
330
1F
100
AcDbEntity
  8
0
  6
Continuous
 62
     7
370
    25
100
AcDbLine
 10
19.824548224
 20
6.5750736141
 30
0.0
 11
19.824548224
 21
6.3682524353
 31
0.0
  0
LINE
  5
113
330
1F
100
AcDbEntity
  8
0
  6
Continuous
 62
     7
370
    25
100
AcDbLine
 10
19.839548224
 20
6.5750736141
 30
0.0
 11
19.824548224
 21
6.5750736141
 31
0.0
  0
LINE
  5
114
330
1F
100
AcDbEntity
  8
0
  6
Continuous
 62
     7
370
    25
100
AcDbLine
 10
19.839548224
 20
6.5750736141
 30
0.0
 11
19.839548224
 21
9.4932524353
 31
0.0
  0
LINE
  5
115
330
1F
100
AcDbEntity
  8
0
  6
Continuous
 62
     7
370
    25
100
AcDbLine
 10
19.824548224
 20
9.4932524353
 30
0.0
 11
19.839548224
 21
9.4932524353
 31
0.0
  0
LINE
  5
116
330
1F
100
AcDbEntity
  8
0
  6
Continuous
 62
     7
370
    25
100
AcDbLine
 10
19.824548224
 20
6.5750736141
 30
0.0
 11
19.824548224
 21
6.5816630247
 31
0.0
  0
LINE
  5
117
330
1F
100
AcDbEntity
  8
0
  6
Continuous
 62
     7
370
    25
100
AcDbLine
 10
19.824548224
 20
6.3616630247
 30
0.0
 11
19.824548224
 21
6.3682524353
 31
0.0
  0
LINE
  5
118
330
1F
100
AcDbEntity
  8
0
  6
Continuous
 62
     7
370
    25
100
AcDbLine
 10
19.824548224
 20
9.4866630247
 30
0.0
 11
19.824548224
 21
9.4932524353
 31
0.0
  0
LINE
  5
119
330
1F
100
AcDbEntity
  8
0
  6
Continuous
 62
     7
370
    25
100
AcDbLine
 10
19.824548224
 20
9.7000736141
 30
0.0
 11
19.824548224
 21
9.7066630247
 31
0.0
  0
ARC
  5
11A
330
1F
100
AcDbEntity
  8
0
  6
Continuous
 62
     7
370
    25
100
AcDbCircle
 10
20.407048224
 20
9.2315242102
 30
0.0
 40
0.1875
100
AcDbArc
 50
180.0
 51
219.5226312712
  0
ELLIPSE
  5
11B
330
1F
100
AcDbEntity
  8
0
  6
Continuous
 62
     7
370
    25
100
AcDbEllipse
 10
20.407048224
 20
8.6422563847
 30
0.0
 11
-0.1447346925070043
 21
0.4700133395768855
 31
0.0
210
0.0
220
0.0
230
1.0
 40
0.0080804497
 41
6.263590043484864
 42
7.767106011670001
  0
LINE
  5
11C
330
1F
100
AcDbEntity
  8
0
  6
Continuous
 62
     7
370
    25
100
AcDbLine
 10
20.219548224
 20
8.6818726314
 30
0.0
 11
20.3907065222
 21
8.6818726314
 31
0.0
  0
SPLINE
  5
11D
330
1F
100
AcDbEntity
  8
0
  6
Continuous
 62
     7
370
    25
100
AcDbSpline
210
0.0
220
0.0
230
1.0
 70
     8
 71
     3
 72
    19
 73
    15
 74
     0
 42
0.00000001
 43
0.00000001
 40
0.0
 40
0.0
 40
0.0
 40
0.0
 40
0.0033352877599329
 40
0.1010088582897165
 40
0.1986801745110513
 40
0.2981307462637034
 40
0.397572979099817
 40
0.4863086427660652
 40
0.5750327860223398
 40
0.6659484735669979
 40
0.7568379083111124
 40
0.8768834634668595
 40
0.9384504565209636
 40
1.0
 40
1.0
 40
1.0
 40
1.0
 10
20.21954822396464
 20
7.438046882053826
 30
0.0
 10
20.21954835528678
 20
7.438136064471689
 30
0.0
 10
20.21955233236466
 20
7.440836945132139
 30
0.0
 10
20.21992556690464
 20
7.446150290320651
 30
0.0
 10
20.2215076482279
 20
7.453944222224377
 30
0.0
 10
20.22416316797054
 20
7.461606572022967
 30
0.0
 10
20.22779971510005
 20
7.468759790365626
 30
0.0
 10
20.23229489696294
 20
7.4752900193965
 30
0.0
 10
20.23758622414875
 20
7.481186316683498
 30
0.0
 10
20.24390780358918
 20
7.486564859819815
 30
0.0
 10
20.25209800245733
 20
7.491743192778251
 30
0.0
 10
20.26074309639401
 20
7.495286451068996
 30
0.0
 10
20.26933281752851
 20
7.497343422603609
 30
0.0
 10
20.27404987308907
 20
7.497757596527861
 30
0.0
 10
20.27640806659007
 20
7.497964654139101
 30
0.0
  0
LINE
  5
11E
330
1F
100
AcDbEntity
  8
0
  6
Continuous
 62
     7
370
    25
100
AcDbLine
 10
20.3907065222
 20
8.6818726314
 30
0.0
 11
20.3907065222
 21
7.5039547824
 31
0.0
  0
LINE
  5
11F
330
1F
100
AcDbEntity
  8
0
  6
Continuous
 62
     7
370
    25
100
AcDbLine
 10
20.3907065222
 20
7.5039547824
 30
0.0
 11
20.2764080666
 21
7.4979646541
 31
0.0
  0
LINE
  5
120
330
1F
100
AcDbEntity
  8
0
  6
Continuous
 62
     7
370
    25
100
AcDbLine
 10
19.829548224
 20
8.0341630247
 30
0.0
 11
19.829548224
 21
9.2103747078
 31
0.0
  0
LINE
  5
121
330
1F
100
AcDbEntity
  8
0
  6
Continuous
 62
     7
370
    25
100
AcDbLine
 10
19.829548224
 20
6.8579513416
 30
0.0
 11
19.829548224
 21
8.0341630247
 31
0.0
  0
LINE
  5
122
330
1F
100
AcDbEntity
  8
0
  6
Continuous
 62
     7
370
    25
100
AcDbLine
 10
21.3222137134
 20
7.5527730057
 30
0.0
 11
20.3907065222
 21
8.6818726314
 31
0.0
  0
LINE
  5
123
330
1F
100
AcDbEntity
  8
0
  6
Continuous
 62
     7
370
    25
100
AcDbLine
 10
20.2624157342
 20
9.1122024062
 30
0.0
 11
21.539548224
 21
7.5641630247
 31
0.0
  0
LINE
  5
124
330
1F
100
AcDbEntity
  8
0
  6
Continuous
 62
     7
370
    25
100
AcDbLine
 10
21.539548224
 20
7.5641630247
 30
0.0
 11
21.3222137134
 21
7.5527730057
 31
0.0
  0
LINE
  5
125
330
1F
100
AcDbEntity
  8
0
  6
Continuous
 62
     7
370
    25
100
AcDbLine
 10
20.3907065222
 20
7.5039547824
 30
0.0
 11
21.3222137134
 21
7.5527730057
 31
0.0
  0
LINE
  5
126
330
1F
100
AcDbEntity
  8
0
  6
Continuous
 62
     7
370
    25
100
AcDbLine
 10
18.762948224
 20
6.9241630247
 30
0.0
 11
18.636148224
 21
6.9241630247
 31
0.0
  0
LWPOLYLINE
  5
127
330
1F
100
AcDbEntity
  8
0
  6
Continuous
 62
     7
370
    25
100
AcDbPolyline
 90
       51
 70
   128
 43
0.0
 10
18.7613667158
 20
8.576975919
 10
18.7626430052
 20
8.5837819061
 10
18.7629242521
 20
8.5906727567
 10
18.7622060212
 20
8.5975397979
 10
18.7604996395
 20
8.6042747324
 10
18.7578320175
 20
8.6107713463
 10
18.7542452252
 20
8.616927184
 10
18.7497958286
 20
8.6226451643
 10
18.7445539972
 20
8.6278351113
 10
18.7386023979
 20
8.6324151764
 10
18.732034891
 20
8.6363131292
 10
18.7249550499
 20
8.6394674967
 10
18.7174745279
 20
8.6418285326
 10
18.7097112975
 20
8.643359002
 10
18.7017877893
 20
8.6440347684
 10
18.6938289618
 20
8.6438451747
 10
18.6859603306
 20
8.6427932108
 10
18.6783059885
 20
8.6408954669
 10
18.6709866491
 20
8.6381818714
 10
18.6641177429
 20
8.6346952194
 10
18.6578075965
 20
8.6304904976
 10
18.6521557247
 20
8.6256340167
 10
18.647251261
 20
8.6202023666
 10
18.6431715516
 20
8.6142812075
 10
18.639980936
 20
8.6079639196
 10
18.6377297321
 20
8.6013501304
 10
18.6364534427
 20
8.5945441433
 10
18.6361721958
 20
8.5876532927
 10
18.6368904267
 20
8.5807862515
 10
18.6385968085
 20
8.574051317
 10
18.6412644305
 20
8.5675547031
 10
18.6448512227
 20
8.5613988654
 10
18.6493006193
 20
8.5556808851
 10
18.6545424507
 20
8.5504909381
 10
18.66049405
 20
8.5459108731
 10
18.667061557
 20
8.5420129203
 10
18.6741413981
 20
8.5388585528
 10
18.68162192
 20
8.5364975168
 10
18.6893851504
 20
8.5349670474
 10
18.6973086586
 20
8.534291281
 10
18.7052674861
 20
8.5344808747
 10
18.7131361174
 20
8.5355328386
 10
18.7207904595
 20
8.5374305825
 10
18.7281097988
 20
8.540144178
 10
18.7349787051
 20
8.54363083
 10
18.7412888515
 20
8.5478355519
 10
18.7469407232
 20
8.5526920327
 10
18.751845187
 20
8.5581236828
 10
18.7559248964
 20
8.5640448419
 10
18.759115512
 20
8.5703621298
 10
18.7613667158
 20
8.576975919
  0
LWPOLYLINE
  5
128
330
1F
100
AcDbEntity
  8
0
  6
Continuous
 62
     7
370
    25
100
AcDbPolyline
 90
       55
 70
   128
 43
0.0
 10
18.6830475259
 20
8.5209188724
 10
18.6747440519
 20
8.5230022998
 10
18.6667760117
 20
8.5259064662
 10
18.6592511595
 20
8.5295920977
 10
18.6522712559
 20
8.5340093526
 10
18.6459306922
 20
8.539098495
 10
18.6403152137
 20
8.5447907029
 10
18.63550076
 20
8.5510089991
 10
18.6315524384
 20
8.5576692918
 10
18.6285236431
 20
8.5646815118
 10
18.6264553335
 20
8.5719508311
 10
18.6253754798
 20
8.5793789444
 10
18.6252986852
 20
8.5868653994
 10
18.6262259883
 20
8.5943089545
 10
18.6281448488
 20
8.6016089484
 10
18.6310293175
 20
8.6086666613
 10
18.6348403868
 20
8.6153866497
 10
18.6395265187
 20
8.6216780372
 10
18.6450243411
 20
8.6274557437
 10
18.6512595055
 20
8.6326416355
 10
18.658147692
 20
8.6371655825
 10
18.6655957497
 20
8.6409664059
 10
18.6735029564
 20
8.6439927061
 10
18.6817623806
 20
8.6462035577
 10
18.6902623278
 20
8.6475690626
 10
18.6988878508
 20
8.6480707548
 10
18.7075223043
 20
8.6477018497
 10
18.716048922
 20
8.6464673361
 10
18.7243523961
 20
8.6443839087
 10
18.7323204362
 20
8.6414797423
 10
18.7398452885
 20
8.6377941108
 10
18.746825192
 20
8.6333768559
 10
18.7531657557
 20
8.6282877135
 10
18.7587812343
 20
8.6225955056
 10
18.763595688
 20
8.6163772094
 10
18.7675440096
 20
8.6097169167
 10
18.7705728048
 20
8.6027046967
 10
18.7726411145
 20
8.5954353774
 10
18.7737209682
 20
8.5880072641
 10
18.7737977627
 20
8.5805208091
 10
18.7728704597
 20
8.573077254
 10
18.7709515991
 20
8.5657772601
 10
18.7680671304
 20
8.5587195472
 10
18.7642560611
 20
8.5519995588
 10
18.7595699292
 20
8.5457081713
 10
18.7540721068
 20
8.5399304648
 10
18.7478369424
 20
8.534744573
 10
18.7409487559
 20
8.530220626
 10
18.7335006982
 20
8.5264198026
 10
18.7255934916
 20
8.5233935024
 10
18.7173340674
 20
8.5211826508
 10
18.7088341201
 20
8.5198171459
 10
18.7002085971
 20
8.5193154537
 10
18.6915741436
 20
8.5196843588
 10
18.6830475259
 20
8.5209188724
  0
LINE
  5
129
330
1F
100
AcDbEntity
  8
0
  6
Continuous
 62
     7
370
    25
100
AcDbLine
 10
18.6862497989
 20
8.6264237804
 30
0.0
 11
18.6556382557
 21
8.5978195838
 31
0.0
  0
LINE
  5
12A
330
1F
100
AcDbEntity
  8
0
  6
Continuous
 62
     7
370
    25
100
AcDbLine
 10
18.6689366808
 20
8.560558828
 30
0.0
 11
18.6556382557
 21
8.5978195838
 31
0.0
  0
LINE
  5
12B
330
1F
100
AcDbEntity
  8
0
  6
Continuous
 62
     7
370
    25
100
AcDbLine
 10
18.7128466491
 20
8.551902269
 30
0.0
 11
18.6689366808
 21
8.560558828
 31
0.0
  0
LINE
  5
12C
330
1F
100
AcDbEntity
  8
0
  6
Continuous
 62
     7
370
    25
100
AcDbLine
 10
18.7128466491
 20
8.551902269
 30
0.0
 11
18.7434581922
 21
8.5805064657
 31
0.0
  0
LINE
  5
12D
330
1F
100
AcDbEntity
  8
0
  6
Continuous
 62
     7
370
    25
100
AcDbLine
 10
18.7301597672
 20
8.6177672214
 30
0.0
 11
18.7434581922
 21
8.5805064657
 31
0.0
  0
LINE
  5
12E
330
1F
100
AcDbEntity
  8
0
  6
Continuous
 62
     7
370
    25
100
AcDbLine
 10
18.7301597672
 20
8.6177672214
 30
0.0
 11
18.6862497989
 21
8.6264237804
 31
0.0
  0
LINE
  5
12F
330
1F
100
AcDbEntity
  8
0
  6
Continuous
 62
     7
370
    25
100
AcDbLine
 10
18.7301597672
 20
8.5727672214
 30
0.0
 11
18.731414248
 21
8.569252301
 31
0.0
  0
LINE
  5
130
330
1F
100
AcDbEntity
  8
0
  6
Continuous
 62
     7
370
    25
100
AcDbLine
 10
18.7301597672
 20
8.5727672214
 30
0.0
 11
18.7301597672
 21
8.6177672214
 31
0.0
  0
LINE
  5
131
330
1F
100
AcDbEntity
  8
0
  6
Continuous
 62
     7
370
    25
100
AcDbLine
 10
18.6862497989
 20
8.5814237804
 30
0.0
 11
18.6862497989
 21
8.6264237804
 31
0.0
  0
LINE
  5
132
330
1F
100
AcDbEntity
  8
0
  6
Continuous
 62
     7
370
    25
100
AcDbLine
 10
18.6862497989
 20
8.5814237804
 30
0.0
 11
18.6676821999
 21
8.5640737485
 31
0.0
  0
LINE
  5
133
330
1F
100
AcDbEntity
  8
0
  6
Continuous
 62
     7
370
    25
100
AcDbLine
 10
18.7301597672
 20
8.5727672214
 30
0.0
 11
18.6862497989
 21
8.5814237804
 31
0.0
  0
LINE
  5
134
330
1F
100
AcDbEntity
  8
0
  6
Continuous
 62
     7
370
    25
100
AcDbLine
 10
19.5235768644
 20
6.9241630247
 30
0.0
 11
19.5235768644
 21
9.1441630247
 31
0.0
  0
LINE
  5
135
330
1F
100
AcDbEntity
  8
0
  6
Continuous
 62
     7
370
    25
100
AcDbLine
 10
18.449548224
 20
6.9241630247
 30
0.0
 11
18.449548224
 21
9.1441630247
 31
0.0
  0
SPLINE
  5
136
330
1F
100
AcDbEntity
  8
0
  6
Continuous
 62
     7
370
    25
100
AcDbSpline
210
0.0
220
0.0
230
1.0
 70
     8
 71
     3
 72
    21
 73
    17
 74
     0
 42
0.00000001
 43
0.00000001
 40
0.0
 40
0.0
 40
0.0
 40
0.0
 40
0.0625763532083444
 40
0.1265035522581418
 40
0.1987179559887257
 40
0.2729336853926324
 40
0.3468040294901855
 40
0.4227821782271733
 40
0.4971988772878779
 40
0.573819051948453
 40
0.6473702073296097
 40
0.7231773256259465
 40
0.7945918410701553
 40
0.8682338625790321
 40
0.9370455568130892
 40
1.0
 40
1.0
 40
1.0
 40
1.0
 10
18.64055953030122
 20
6.925732170508216
 30
0.0
 10
18.64366850765647
 20
6.925879532808664
 30
0.0
 10
18.64995357636316
 20
6.926177438543337
 30
0.0
 10
18.66124539520596
 20
6.92659650659462
 30
0.0
 10
18.67404524288535
 20
6.926947011829498
 30
0.0
 10
18.68817046075503
 20
6.927168550548281
 30
0.0
 10
18.70284024200904
 20
6.927219648721477
 30
0.0
 10
18.7174398701748
 20
6.927088549982925
 30
0.0
 10
18.73170525029963
 20
6.926785848288422
 30
0.0
 10
18.74490814396656
 20
6.92635129532648
 30
0.0
 10
18.75686970674586
 20
6.92583060229425
 30
0.0
 10
18.76690546874234
 20
6.92530013029395
 30
0.0
 10
18.77499104443733
 20
6.924811404672616
 30
0.0
 10
18.78061385442012
 20
6.924439233896891
 30
0.0
 10
18.78400373880265
 20
6.924201988707247
 30
0.0
 10
18.784289871317
 20
6.92418144798988
 30
0.0
 10
18.78442657801169
 20
6.924171634167832
 30
0.0
  0
SPLINE
  5
137
330
1F
100
AcDbEntity
  8
0
  6
Continuous
 62
     7
370
    25
100
AcDbSpline
210
0.0
220
0.0
230
1.0
 70
     8
 71
     3
 72
    13
 73
     9
 74
     0
 42
0.00000001
 43
0.00000001
 40
0.0
 40
0.0
 40
0.0
 40
0.0
 40
0.093173583376912
 40
0.2982980077227745
 40
0.4959724107543881
 40
0.6991839199548558
 40
0.8484928612262874
 40
1.0
 40
1.0
 40
1.0
 40
1.0
 10
18.61482371335492
 20
6.924182588224817
 30
0.0
 10
18.61476516546092
 20
6.92417843655568
 30
0.0
 10
18.61457772263104
 20
6.924165144863041
 30
0.0
 10
18.61668779395177
 20
6.924314777720906
 30
0.0
 10
18.62097698959719
 20
6.924607248960061
 30
0.0
 10
18.62685437349732
 20
6.924980555753751
 30
0.0
 10
18.63347470728266
 20
6.925368500162524
 30
0.0
 10
18.63818644570242
 20
6.925610357938707
 30
0.0
 10
18.64055953030122
 20
6.925732170508216
 30
0.0
  0
SPLINE
  5
138
330
1F
100
AcDbEntity
  8
0
  6
Continuous
 62
     7
370
    25
100
AcDbSpline
210
0.0
220
0.0
230
1.0
 70
    11
 71
     3
 72
    45
 73
    41
 74
     0
 42
0.00000001
 43
0.00000001
 40
0.0
 40
0.0
 40
0.0
 40
0.0
 40
0.0241082832578814
 40
0.04821888997963
 40
0.0738454176449412
 40
0.0994759773969326
 40
0.1258909503469022
 40
0.1523094731858002
 40
0.1796529962458195
 40
0.206998409133836
 40
0.2350092503307512
 40
0.2630196752528075
 40
0.2912259374907563
 40
0.3194291371889555
 40
0.3472945027467434
 40
0.3751547349970685
 40
0.4021959954177149
 40
0.4292325688917418
 40
0.4552801931632621
 40
0.481326335666339
 40
0.5067319793450722
 40
0.5321396062819261
 40
0.5575936281237297
 40
0.5830514827549625
 40
0.6091771677778222
 40
0.6353067113275647
 40
0.662368005953019
 40
0.6894318084863258
 40
0.7172757288805602
 40
0.7451200155648602
 40
0.7733210565283022
 40
0.8015198844911082
 40
0.8295519839817208
 40
0.8575794303070438
 40
0.8849223608802672
 40
0.9122601029120553
 40
0.9386104409843274
 40
0.9649581106329315
 40
0.9824790027327754
 40
0.9999999999999999
 40
0.9999999999999999
 40
0.9999999999999999
 40
0.9999999999999999
 10
18.61557707298793
 20
8.60013181350791
 30
0.0
 10
18.61645097649225
 20
8.603676426783238
 30
0.0
 10
18.61819886772438
 20
8.610765994950132
 30
0.0
 10
18.6233382115518
 20
8.620915198417569
 30
0.0
 10
18.63035854928522
 20
8.630387299864132
 30
0.0
 10
18.63937981800427
 20
8.638981624024918
 30
0.0
 10
18.65006460103925
 20
8.646241436768683
 30
0.0
 10
18.6622541502313
 20
8.65208527664419
 30
0.0
 10
18.67559383151626
 20
8.656203544810976
 30
0.0
 10
18.68983058281587
 20
8.658529377884124
 30
0.0
 10
18.7044578104608
 20
8.658849232038579
 30
0.0
 10
18.71910115165262
 20
8.657170034459625
 30
0.0
 10
18.73321485776004
 20
8.6534288805366
 30
0.0
 10
18.74635880605466
 20
8.647781729259117
 30
0.0
 10
18.75806527015522
 20
8.64030817923173
 30
0.0
 10
18.76795163576377
 20
8.63135830953107
 30
0.0
 10
18.77570916238986
 20
8.621111497874567
 30
0.0
 10
18.78116801028854
 20
8.610066343630345
 30
0.0
 10
18.78419729237696
 20
8.598431997652737
 30
0.0
 10
18.78489077281257
 20
8.58668854695525
 30
0.0
 10
18.78322291933447
 20
8.575034787445299
 30
0.0
 10
18.77941671228719
 20
8.563791998169838
 30
0.0
 10
18.77349206394381
 20
8.553201440150504
 30
0.0
 10
18.7656508293707
 20
8.543442232179824
 30
0.0
 10
18.75600851456746
 20
8.53485138353695
 30
0.0
 10
18.74473220502773
 20
8.527558058720848
 30
0.0
 10
18.73211311227837
 20
8.521945783689347
 30
0.0
 10
18.71837092097965
 20
8.518127479220142
 30
0.0
 10
18.7039729576767
 20
8.516409149130476
 30
0.0
 10
18.68925734249795
 20
8.51682454481507
 30
0.0
 10
18.67477128984958
 20
8.519499647301402
 30
0.0
 10
18.66094457303807
 20
8.524297175618019
 30
0.0
 10
18.64828027448862
 20
8.531145334274425
 30
0.0
 10
18.63719637653844
 20
8.539688175781627
 30
0.0
 10
18.62805713052174
 20
8.549710043569831
 30
0.0
 10
18.62111805104317
 20
8.560682043316918
 30
0.0
 10
18.616548445306
 20
8.572344860569514
 30
0.0
 10
18.61460439743421
 20
8.582953542791229
 30
0.0
 10
18.61440835612226
 20
8.592276529340023
 30
0.0
 10
18.61518749991992
 20
8.597513380213018
 30
0.0
 10
18.61557707298793
 20
8.60013181350791
 30
0.0
  0
LINE
  5
139
330
1F
100
AcDbEntity
  8
0
  6
Continuous
 62
     7
370
    25
100
AcDbLine
 10
19.6130195835
 20
6.9241630247
 30
0.0
 11
19.6130195835
 21
9.1441630247
 31
0.0
  0
LINE
  5
13A
330
1F
100
AcDbEntity
  8
0
  6
Continuous
 62
     7
370
    25
100
AcDbLine
 10
16.519548224
 20
9.1169722154
 30
0.0
 11
16.519548224
 21
6.9241630247
 31
0.0
  0
LINE
  5
13B
330
1F
100
AcDbEntity
  8
0
  6
Continuous
 62
     7
370
    25
100
AcDbLine
 10
16.519548224
 20
9.1441630247
 30
0.0
 11
16.519548224
 21
9.1169722154
 31
0.0
  0
LINE
  5
13C
330
1F
100
AcDbEntity
  8
0
  6
Continuous
 62
     7
370
    25
100
AcDbLine
 10
16.489548224
 20
9.0877071021
 30
0.0
 11
16.489548224
 21
9.1141630247
 31
0.0
  0
LINE
  5
13D
330
1F
100
AcDbEntity
  8
0
  6
Continuous
 62
     7
370
    25
100
AcDbLine
 10
16.489548224
 20
6.9541630247
 30
0.0
 11
16.489548224
 21
9.0877071021
 31
0.0
  0
LINE
  5
13E
330
1F
100
AcDbEntity
  8
0
  6
Continuous
 62
     7
370
    25
100
AcDbLine
 10
13.837548224
 20
8.1864794116
 30
0.0
 11
13.837548224
 21
8.1072896474
 31
0.0
  0
LINE
  5
13F
330
1F
100
AcDbEntity
  8
0
  6
Continuous
 62
     7
370
    25
100
AcDbLine
 10
13.837548224
 20
7.9197896474
 30
0.0
 11
13.837548224
 21
7.919786402
 31
0.0
  0
LINE
  5
140
330
1F
100
AcDbEntity
  8
0
  6
Continuous
 62
     7
370
    25
100
AcDbLine
 10
13.837548224
 20
8.189786402
 30
0.0
 11
13.837548224
 21
8.1864794116
 31
0.0
  0
LINE
  5
141
330
1F
100
AcDbEntity
  8
0
  6
Continuous
 62
     7
370
    25
100
AcDbLine
 10
14.337548224
 20
8.1864794116
 30
0.0
 11
14.337548224
 21
8.1072896474
 31
0.0
  0
LINE
  5
142
330
1F
100
AcDbEntity
  8
0
  6
Continuous
 62
     7
370
    25
100
AcDbLine
 10
14.337548224
 20
7.9197896474
 30
0.0
 11
14.337548224
 21
7.919786402
 31
0.0
  0
LINE
  5
143
330
1F
100
AcDbEntity
  8
0
  6
Continuous
 62
     7
370
    25
100
AcDbLine
 10
14.337548224
 20
8.189786402
 30
0.0
 11
14.337548224
 21
8.1864794116
 31
0.0
  0
LINE
  5
144
330
1F
100
AcDbEntity
  8
0
  6
Continuous
 62
     7
370
    25
100
AcDbLine
 10
13.587548224
 20
8.1072896474
 30
0.0
 11
13.587548224
 21
7.9197896474
 31
0.0
  0
LINE
  5
145
330
1F
100
AcDbEntity
  8
0
  6
Continuous
 62
     7
370
    25
100
AcDbLine
 10
13.587548224
 20
8.148536402
 30
0.0
 11
13.587548224
 21
8.1072896474
 31
0.0
  0
LINE
  5
146
330
1F
100
AcDbEntity
  8
0
  6
Continuous
 62
     7
370
    25
100
AcDbLine
 10
16.364548224
 20
8.5291630247
 30
0.0
 11
16.364548224
 21
7.5391630247
 31
0.0
  0
LINE
  5
147
330
1F
100
AcDbEntity
  8
0
  6
Continuous
 62
     7
370
    25
100
AcDbLine
 10
16.351548224
 20
8.3779130247
 30
0.0
 11
16.351548224
 21
7.6904130247
 31
0.0
  0
LINE
  5
148
330
1F
100
AcDbEntity
  8
0
  6
Continuous
 62
     7
370
    25
100
AcDbLine
 10
16.102048224
 20
8.3399630247
 30
0.0
 11
16.102048224
 21
8.0894024259
 31
0.0
  0
LINE
  5
149
330
1F
100
AcDbEntity
  8
0
  6
Continuous
 62
     7
370
    25
100
AcDbLine
 10
16.122048224
 20
8.1594232077
 30
0.0
 11
16.122048224
 21
8.3746040409
 31
0.0
  0
SPLINE
  5
14A
330
1F
100
AcDbEntity
  8
0
  6
Continuous
 62
     7
370
    25
100
AcDbSpline
210
0.0
220
0.0
230
1.0
 70
     8
 71
     3
 72
     9
 73
     5
 74
     0
 42
0.00000001
 43
0.00000001
 40
0.0
 40
0.0
 40
0.0
 40
0.0
 40
0.4995107894512582
 40
1.0
 40
1.0
 40
1.0
 40
1.0
 10
16.12204822396463
 20
8.159423207721014
 30
0.0
 10
16.11830806518367
 20
8.14787596991801
 30
0.0
 10
16.11082042155325
 20
8.124758876059657
 30
0.0
 10
16.10497419651748
 20
8.101195594209376
 30
0.0
 10
16.10204822396464
 20
8.089402425878193
 30
0.0
  0
LINE
  5
14B
330
1F
100
AcDbEntity
  8
0
  6
Continuous
 62
     7
370
    25
100
AcDbLine
 10
16.142048224
 20
8.3399630247
 30
0.0
 11
16.142048224
 21
8.0894024259
 31
0.0
  0
SPLINE
  5
14C
330
1F
100
AcDbEntity
  8
0
  6
Continuous
 62
     7
370
    25
100
AcDbSpline
210
0.0
220
0.0
230
1.0
 70
     8
 71
     3
 72
    10
 73
     6
 74
     0
 42
0.00000001
 43
0.00000001
 40
0.0
 40
0.0
 40
0.0
 40
0.0
 40
0.4661492107783554
 40
0.9332262706972273
 40
1.0
 40
1.0
 40
1.0
 40
1.0
 10
16.14204822396464
 20
8.089402425878193
 30
0.0
 10
16.13932033145112
 20
8.100384077810425
 30
0.0
 10
16.13385911667613
 20
8.122369240161548
 30
0.0
 10
16.12663978029083
 20
8.145572926462428
 30
0.0
 10
16.12255868487614
 20
8.15788341887956
 30
0.0
 10
16.12204822396463
 20
8.159423207721014
 30
0.0
  0
LINE
  5
14D
330
1F
100
AcDbEntity
  8
0
  6
Continuous
 62
     7
370
    25
100
AcDbLine
 10
16.162048224
 20
8.1594232077
 30
0.0
 11
16.162048224
 21
8.3746040409
 31
0.0
  0
SPLINE
  5
14E
330
1F
100
AcDbEntity
  8
0
  6
Continuous
 62
     7
370
    25
100
AcDbSpline
210
0.0
220
0.0
230
1.0
 70
     8
 71
     3
 72
     9
 73
     5
 74
     0
 42
0.00000001
 43
0.00000001
 40
0.0
 40
0.0
 40
0.0
 40
0.0
 40
0.4995107894512587
 40
0.9999999999999999
 40
0.9999999999999999
 40
0.9999999999999999
 40
0.9999999999999999
 10
16.16204822396464
 20
8.159423207721014
 30
0.0
 10
16.15830806518367
 20
8.14787596991801
 30
0.0
 10
16.15082042155324
 20
8.124758876059659
 30
0.0
 10
16.14497419651748
 20
8.101195594209377
 30
0.0
 10
16.14204822396464
 20
8.089402425878193
 30
0.0
  0
LINE
  5
14F
330
1F
100
AcDbEntity
  8
0
  6
Continuous
 62
     7
370
    25
100
AcDbLine
 10
16.202048224
 20
8.1594232077
 30
0.0
 11
16.202048224
 21
8.3746040409
 31
0.0
  0
LINE
  5
150
330
1F
100
AcDbEntity
  8
0
  6
Continuous
 62
     7
370
    25
100
AcDbLine
 10
16.222048224
 20
8.3399630247
 30
0.0
 11
16.222048224
 21
8.0894024259
 31
0.0
  0
SPLINE
  5
151
330
1F
100
AcDbEntity
  8
0
  6
Continuous
 62
     7
370
    25
100
AcDbSpline
210
0.0
220
0.0
230
1.0
 70
     8
 71
     3
 72
    10
 73
     6
 74
     0
 42
0.00000001
 43
0.00000001
 40
0.0
 40
0.0
 40
0.0
 40
0.0
 40
0.4661492107783555
 40
0.9332262706972275
 40
1.0
 40
1.0
 40
1.0
 40
1.0
 10
16.22204822396463
 20
8.089402425878193
 30
0.0
 10
16.21932033145112
 20
8.100384077810425
 30
0.0
 10
16.21385911667613
 20
8.12236924016155
 30
0.0
 10
16.20663978029082
 20
8.145572926462428
 30
0.0
 10
16.20255868487614
 20
8.15788341887956
 30
0.0
 10
16.20204822396463
 20
8.159423207721016
 30
0.0
  0
LINE
  5
152
330
1F
100
AcDbEntity
  8
0
  6
Continuous
 62
     7
370
    25
100
AcDbLine
 10
16.242048224
 20
8.1594232077
 30
0.0
 11
16.242048224
 21
8.3746040409
 31
0.0
  0
SPLINE
  5
153
330
1F
100
AcDbEntity
  8
0
  6
Continuous
 62
     7
370
    25
100
AcDbSpline
210
0.0
220
0.0
230
1.0
 70
     8
 71
     3
 72
     9
 73
     5
 74
     0
 42
0.00000001
 43
0.00000001
 40
0.0
 40
0.0
 40
0.0
 40
0.0
 40
0.4995107894512585
 40
1.0
 40
1.0
 40
1.0
 40
1.0
 10
16.24204822396463
 20
8.159423207721016
 30
0.0
 10
16.23830806518367
 20
8.14787596991801
 30
0.0
 10
16.23082042155324
 20
8.124758876059659
 30
0.0
 10
16.22497419651748
 20
8.101195594209377
 30
0.0
 10
16.22204822396464
 20
8.089402425878193
 30
0.0
  0
LINE
  5
154
330
1F
100
AcDbEntity
  8
0
  6
Continuous
 62
     7
370
    25
100
AcDbLine
 10
16.182048224
 20
8.3399630247
 30
0.0
 11
16.182048224
 21
8.0894024259
 31
0.0
  0
SPLINE
  5
155
330
1F
100
AcDbEntity
  8
0
  6
Continuous
 62
     7
370
    25
100
AcDbSpline
210
0.0
220
0.0
230
1.0
 70
     8
 71
     3
 72
    10
 73
     6
 74
     0
 42
0.00000001
 43
0.00000001
 40
0.0
 40
0.0
 40
0.0
 40
0.0
 40
0.4661492107783586
 40
0.9332262706972255
 40
1.0
 40
1.0
 40
1.0
 40
1.0
 10
16.18204822396463
 20
8.089402425878193
 30
0.0
 10
16.17932033145111
 20
8.100384077810423
 30
0.0
 10
16.17385911667612
 20
8.122369240161548
 30
0.0
 10
16.16663978029084
 20
8.145572926462428
 30
0.0
 10
16.16255868487615
 20
8.15788341887956
 30
0.0
 10
16.16204822396464
 20
8.159423207721014
 30
0.0
  0
SPLINE
  5
156
330
1F
100
AcDbEntity
  8
0
  6
Continuous
 62
     7
370
    25
100
AcDbSpline
210
0.0
220
0.0
230
1.0
 70
     8
 71
     3
 72
     9
 73
     5
 74
     0
 42
0.00000001
 43
0.00000001
 40
0.0
 40
0.0
 40
0.0
 40
0.0
 40
0.4995107894512589
 40
1.0
 40
1.0
 40
1.0
 40
1.0
 10
16.20204822396463
 20
8.159423207721016
 30
0.0
 10
16.19830806518366
 20
8.14787596991801
 30
0.0
 10
16.19082042155323
 20
8.124758876059659
 30
0.0
 10
16.18497419651747
 20
8.101195594209377
 30
0.0
 10
16.18204822396463
 20
8.089402425878193
 30
0.0
  0
LINE
  5
157
330
1F
100
AcDbEntity
  8
0
  6
Continuous
 62
     7
370
    25
100
AcDbLine
 10
16.262048224
 20
8.3399630247
 30
0.0
 11
16.262048224
 21
8.0894024259
 31
0.0
  0
SPLINE
  5
158
330
1F
100
AcDbEntity
  8
0
  6
Continuous
 62
     7
370
    25
100
AcDbSpline
210
0.0
220
0.0
230
1.0
 70
     8
 71
     3
 72
    10
 73
     6
 74
     0
 42
0.00000001
 43
0.00000001
 40
0.0
 40
0.0
 40
0.0
 40
0.0
 40
0.466149210778371
 40
0.93322627069726
 40
1.0
 40
1.0
 40
1.0
 40
1.0
 10
16.26204822396463
 20
8.089402425878193
 30
0.0
 10
16.25932033145112
 20
8.100384077810427
 30
0.0
 10
16.25385911667614
 20
8.122369240161552
 30
0.0
 10
16.24663978029081
 20
8.145572926462421
 30
0.0
 10
16.24255868487615
 20
8.15788341887956
 30
0.0
 10
16.24204822396463
 20
8.159423207721016
 30
0.0
  0
SPLINE
  5
159
330
1F
100
AcDbEntity
  8
0
  6
Continuous
 62
     7
370
    25
100
AcDbSpline
210
0.0
220
0.0
230
1.0
 70
     8
 71
     3
 72
     9
 73
     5
 74
     0
 42
0.00000001
 43
0.00000001
 40
0.0
 40
0.0
 40
0.0
 40
0.0
 40
0.4995271105052533
 40
1.0
 40
1.0
 40
1.0
 40
1.0
 10
16.28154822396463
 20
8.157919783198798
 30
0.0
 10
16.27790705962735
 20
8.146617803142792
 30
0.0
 10
16.27061783695913
 20
8.123992444441893
 30
0.0
 10
16.26490656216403
 20
8.100939699666645
 30
0.0
 10
16.26204822396463
 20
8.089402425878193
 30
0.0
  0
LINE
  5
15A
330
1F
100
AcDbEntity
  8
0
  6
Continuous
 62
     7
370
    25
100
AcDbLine
 10
16.281548224
 20
8.3737380155
 30
0.0
 11
16.281548224
 21
8.1579197832
 31
0.0
  0
LINE
  5
15B
330
1F
100
AcDbEntity
  8
0
  6
Continuous
 62
     7
370
    25
100
AcDbLine
 10
16.351548224
 20
8.0741311771
 30
0.0
 11
16.281548224
 21
8.0741311771
 31
0.0
  0
SPLINE
  5
15C
330
1F
100
AcDbEntity
  8
0
  6
Continuous
 62
     7
370
    25
100
AcDbSpline
210
0.0
220
0.0
230
1.0
 70
     8
 71
     3
 72
    10
 73
     6
 74
     0
 42
0.00000001
 43
0.00000001
 40
0.0
 40
0.0
 40
0.0
 40
0.0
 40
0.476507751173703
 40
0.9539639696989651
 40
0.9999999999999999
 40
0.9999999999999999
 40
0.9999999999999999
 40
0.9999999999999999
 10
16.26204822396463
 20
7.855183359977345
 30
0.0
 10
16.26477565122368
 20
7.844201578529094
 30
0.0
 10
16.27023593456367
 20
7.822216156888132
 30
0.0
 10
16.27730322150832
 20
7.799518243420604
 30
0.0
 10
16.28120509251907
 20
7.787704873186866
 30
0.0
 10
16.28154822396464
 20
7.786666002656772
 30
0.0
  0
SPLINE
  5
15D
330
1F
100
AcDbEntity
  8
0
  6
Continuous
 62
     7
370
    25
100
AcDbSpline
210
0.0
220
0.0
230
1.0
 70
     8
 71
     3
 72
     9
 73
     5
 74
     0
 42
0.00000001
 43
0.00000001
 40
0.0
 40
0.0
 40
0.0
 40
0.0
 40
0.4995107894512569
 40
1.0
 40
1.0
 40
1.0
 40
1.0
 10
16.24204822396464
 20
7.785162578134541
 30
0.0
 10
16.24578838274561
 20
7.79670981593755
 30
0.0
 10
16.25327602637602
 20
7.819826909795913
 30
0.0
 10
16.25912225141179
 20
7.843390191646171
 30
0.0
 10
16.26204822396463
 20
7.855183359977345
 30
0.0
  0
SPLINE
  5
15E
330
1F
100
AcDbEntity
  8
0
  6
Continuous
 62
     7
370
    25
100
AcDbSpline
210
0.0
220
0.0
230
1.0
 70
     8
 71
     3
 72
    10
 73
     6
 74
     0
 42
0.00000001
 43
0.00000001
 40
0.0
 40
0.0
 40
0.0
 40
0.0
 40
0.4661492107782158
 40
0.9332262706969423
 40
1.0
 40
1.0
 40
1.0
 40
1.0
 10
16.22204822396463
 20
7.855183359977344
 30
0.0
 10
16.22477611647815
 20
7.844201708045127
 30
0.0
 10
16.23023733125315
 20
7.822216545694031
 30
0.0
 10
16.23745666763843
 20
7.799012859393144
 30
0.0
 10
16.24153776305313
 20
7.786702366976003
 30
0.0
 10
16.24204822396464
 20
7.785162578134541
 30
0.0
  0
SPLINE
  5
15F
330
1F
100
AcDbEntity
  8
0
  6
Continuous
 62
     7
370
    25
100
AcDbSpline
210
0.0
220
0.0
230
1.0
 70
     8
 71
     3
 72
     9
 73
     5
 74
     0
 42
0.00000001
 43
0.00000001
 40
0.0
 40
0.0
 40
0.0
 40
0.0
 40
0.499510789451256
 40
0.9999999999999999
 40
0.9999999999999999
 40
0.9999999999999999
 40
0.9999999999999999
 10
16.20204822396464
 20
7.785162578134541
 30
0.0
 10
16.20578838274561
 20
7.79670981593755
 30
0.0
 10
16.21327602637603
 20
7.819826909795911
 30
0.0
 10
16.21912225141179
 20
7.84339019164617
 30
0.0
 10
16.22204822396463
 20
7.855183359977344
 30
0.0
  0
SPLINE
  5
160
330
1F
100
AcDbEntity
  8
0
  6
Continuous
 62
     7
370
    25
100
AcDbSpline
210
0.0
220
0.0
230
1.0
 70
     8
 71
     3
 72
    10
 73
     6
 74
     0
 42
0.00000001
 43
0.00000001
 40
0.0
 40
0.0
 40
0.0
 40
0.0
 40
0.4661492107782286
 40
0.9332262706969765
 40
1.0
 40
1.0
 40
1.0
 40
1.0
 10
16.18204822396462
 20
7.855183359977345
 30
0.0
 10
16.18477611647814
 20
7.844201708045127
 30
0.0
 10
16.19023733125313
 20
7.822216545694027
 30
0.0
 10
16.19745666763846
 20
7.799012859393151
 30
0.0
 10
16.20153776305312
 20
7.786702366976003
 30
0.0
 10
16.20204822396464
 20
7.785162578134541
 30
0.0
  0
SPLINE
  5
161
330
1F
100
AcDbEntity
  8
0
  6
Continuous
 62
     7
370
    25
100
AcDbSpline
210
0.0
220
0.0
230
1.0
 70
     8
 71
     3
 72
     9
 73
     5
 74
     0
 42
0.00000001
 43
0.00000001
 40
0.0
 40
0.0
 40
0.0
 40
0.0
 40
0.499510789451257
 40
0.9999999999999999
 40
0.9999999999999999
 40
0.9999999999999999
 40
0.9999999999999999
 10
16.16204822396464
 20
7.785162578134541
 30
0.0
 10
16.1657883827456
 20
7.79670981593755
 30
0.0
 10
16.17327602637603
 20
7.819826909795913
 30
0.0
 10
16.17912225141179
 20
7.843390191646171
 30
0.0
 10
16.18204822396462
 20
7.855183359977345
 30
0.0
  0
SPLINE
  5
162
330
1F
100
AcDbEntity
  8
0
  6
Continuous
 62
     7
370
    25
100
AcDbSpline
210
0.0
220
0.0
230
1.0
 70
     8
 71
     3
 72
    10
 73
     6
 74
     0
 42
0.00000001
 43
0.00000001
 40
0.0
 40
0.0
 40
0.0
 40
0.0
 40
0.4661492107782147
 40
0.9332262706969405
 40
1.0
 40
1.0
 40
1.0
 40
1.0
 10
16.14204822396463
 20
7.855183359977344
 30
0.0
 10
16.14477611647815
 20
7.844201708045127
 30
0.0
 10
16.15023733125315
 20
7.822216545694031
 30
0.0
 10
16.15745666763844
 20
7.799012859393144
 30
0.0
 10
16.16153776305313
 20
7.786702366976003
 30
0.0
 10
16.16204822396464
 20
7.785162578134541
 30
0.0
  0
SPLINE
  5
163
330
1F
100
AcDbEntity
  8
0
  6
Continuous
 62
     7
370
    25
100
AcDbSpline
210
0.0
220
0.0
230
1.0
 70
     8
 71
     3
 72
     9
 73
     5
 74
     0
 42
0.00000001
 43
0.00000001
 40
0.0
 40
0.0
 40
0.0
 40
0.0
 40
0.4995107894512553
 40
1.0
 40
1.0
 40
1.0
 40
1.0
 10
16.12204822396464
 20
7.785162578134541
 30
0.0
 10
16.1257883827456
 20
7.796709815937549
 30
0.0
 10
16.13327602637603
 20
7.819826909795911
 30
0.0
 10
16.13912225141179
 20
7.84339019164617
 30
0.0
 10
16.14204822396463
 20
7.855183359977344
 30
0.0
  0
SPLINE
  5
164
330
1F
100
AcDbEntity
  8
0
  6
Continuous
 62
     7
370
    25
100
AcDbSpline
210
0.0
220
0.0
230
1.0
 70
     8
 71
     3
 72
    10
 73
     6
 74
     0
 42
0.00000001
 43
0.00000001
 40
0.0
 40
0.0
 40
0.0
 40
0.0
 40
0.4661492107782285
 40
0.9332262706969725
 40
1.0
 40
1.0
 40
1.0
 40
1.0
 10
16.10204822396464
 20
7.855183359977344
 30
0.0
 10
16.10477611647816
 20
7.844201708045127
 30
0.0
 10
16.11023733125314
 20
7.822216545694028
 30
0.0
 10
16.11745666763845
 20
7.79901285939315
 30
0.0
 10
16.12153776305312
 20
7.786702366976003
 30
0.0
 10
16.12204822396464
 20
7.785162578134541
 30
0.0
  0
LINE
  5
165
330
1F
100
AcDbEntity
  8
0
  6
Continuous
 62
     7
370
    25
100
AcDbLine
 10
16.281548224
 20
7.8704546087
 30
0.0
 11
16.351548224
 21
7.8704546087
 31
0.0
  0
LINE
  5
166
330
1F
100
AcDbEntity
  8
0
  6
Continuous
 62
     7
370
    25
100
AcDbLine
 10
16.281548224
 20
7.7866660027
 30
0.0
 11
16.281548224
 21
7.8704546087
 31
0.0
  0
LINE
  5
167
330
1F
100
AcDbEntity
  8
0
  6
Continuous
 62
     7
370
    25
100
AcDbLine
 10
16.102048224
 20
8.0894024259
 30
0.0
 11
16.102048224
 21
7.85518336
 31
0.0
  0
LINE
  5
168
330
1F
100
AcDbEntity
  8
0
  6
Continuous
 62
     7
370
    25
100
AcDbLine
 10
16.281548224
 20
8.0741311771
 30
0.0
 11
16.281548224
 21
8.1579197832
 31
0.0
  0
LINE
  5
169
330
1F
100
AcDbEntity
  8
0
  6
Continuous
 62
     7
370
    25
100
AcDbLine
 10
16.122048224
 20
7.6937220086
 30
0.0
 11
16.122048224
 21
7.7851625781
 31
0.0
  0
LINE
  5
16A
330
1F
100
AcDbEntity
  8
0
  6
Continuous
 62
     7
370
    25
100
AcDbLine
 10
16.102048224
 20
7.85518336
 30
0.0
 11
16.102048224
 21
7.7283630247
 31
0.0
  0
LINE
  5
16B
330
1F
100
AcDbEntity
  8
0
  6
Continuous
 62
     7
370
    25
100
AcDbLine
 10
16.142048224
 20
7.85518336
 30
0.0
 11
16.142048224
 21
7.7283630247
 31
0.0
  0
LINE
  5
16C
330
1F
100
AcDbEntity
  8
0
  6
Continuous
 62
     7
370
    25
100
AcDbLine
 10
16.162048224
 20
7.6937220086
 30
0.0
 11
16.162048224
 21
7.7851625781
 31
0.0
  0
LINE
  5
16D
330
1F
100
AcDbEntity
  8
0
  6
Continuous
 62
     7
370
    25
100
AcDbLine
 10
16.222048224
 20
7.85518336
 30
0.0
 11
16.222048224
 21
7.7283630247
 31
0.0
  0
LINE
  5
16E
330
1F
100
AcDbEntity
  8
0
  6
Continuous
 62
     7
370
    25
100
AcDbLine
 10
16.202048224
 20
7.6937220086
 30
0.0
 11
16.202048224
 21
7.7851625781
 31
0.0
  0
LINE
  5
16F
330
1F
100
AcDbEntity
  8
0
  6
Continuous
 62
     7
370
    25
100
AcDbLine
 10
16.182048224
 20
7.85518336
 30
0.0
 11
16.182048224
 21
7.7283630247
 31
0.0
  0
LINE
  5
170
330
1F
100
AcDbEntity
  8
0
  6
Continuous
 62
     7
370
    25
100
AcDbLine
 10
16.242048224
 20
7.6937220086
 30
0.0
 11
16.242048224
 21
7.7851625781
 31
0.0
  0
LINE
  5
171
330
1F
100
AcDbEntity
  8
0
  6
Continuous
 62
     7
370
    25
100
AcDbLine
 10
16.262048224
 20
7.85518336
 30
0.0
 11
16.262048224
 21
7.7283630247
 31
0.0
  0
LINE
  5
172
330
1F
100
AcDbEntity
  8
0
  6
Continuous
 62
     7
370
    25
100
AcDbLine
 10
16.281548224
 20
7.7866660027
 30
0.0
 11
16.281548224
 21
7.694588034
 31
0.0
  0
LINE
  5
173
330
1F
100
AcDbEntity
  8
0
  6
Continuous
 62
     7
370
    25
100
AcDbLine
 10
18.439548224
 20
9.1169722154
 30
0.0
 11
18.439548224
 21
9.1441630247
 31
0.0
  0
LINE
  5
174
330
1F
100
AcDbEntity
  8
0
  6
Continuous
 62
     7
370
    25
100
AcDbLine
 10
18.439548224
 20
6.9241630247
 30
0.0
 11
18.439548224
 21
9.1169722154
 31
0.0
  0
POINT
  5
175
330
1F
100
AcDbEntity
  8
VP
100
AcDbPoint
 10
21.219548224
 20
8.0341630247
 30
0.0
  0
DIMENSION
  5
176
330
1F
100
AcDbEntity
  8
0
  6
Continuous
 62
     7
370
    18
100
AcDbDimension
  2
_D
 10
10.1229812948
 20
6.9241630247
 30
0.0
 11
10.1229812948
 21
8.0341630247
 31
0.0
 70
   160
  1
%%c<>
 71
     2
 42
-1.0
  3
SLDDIMSTYLE0
100
AcDbAlignedDimension
 13
16.519548224
 23
9.1441630247
 33
0.0
 14
16.519548224
 24
6.9241630247
 34
0.0
 50
90.0
100
AcDbRotatedDimension
  0
DIMENSION
  5
18B
330
1F
100
AcDbEntity
  8
0
  6
Continuous
 62
     7
370
    18
100
AcDbDimension
  2
_D_1
 10
20.219548224
 20
12.1222360667
 30
0.0
 11
24.2486000726
 21
12.1222360667
 31
0.0
 70
   160
  1
<>
 71
     2
 42
-1.0
  3
SLDDIMSTYLE1
100
AcDbAlignedDimension
 13
21.539548224
 23
7.5641630247
 33
0.0
 14
20.219548224
 24
10.5051923615
 34
0.0
 50
0.0
100
AcDbRotatedDimension
  0
DIMENSION
  5
1A0
330
1F
100
AcDbEntity
  8
0
  6
Continuous
 62
     7
370
    18
100
AcDbDimension
  2
_D_2
 10
16.102048224
 20
12.1222360667
 30
0.0
 11
17.970798224
 21
12.1222360667
 31
0.0
 70
   160
  1
<>
 71
     2
 42
-1.0
  3
SLDDIMSTYLE1
100
AcDbAlignedDimension
 13
19.839548224
 23
10.5474329171
 33
0.0
 14
16.102048224
 24
8.0894024259
 34
0.0
 50
0.0
100
AcDbRotatedDimension
  0
LINE
  5
1B4
330
1F
100
AcDbEntity
  8
0
  6
Continuous
 62
     7
370
    25
100
AcDbLine
 10
30.9273038267
 20
7.5527730057
 30
0.0
 11
30.8458075075
 21
8.6818726314
 31
0.0
  0
ELLIPSE
  5
1B5
330
1F
100
AcDbEntity
  8
0
  6
Continuous
 62
     7
370
    25
100
AcDbEllipse
 10
31.0354534407
 20
8.6422563847
 30
0.0
 11
-0.03391080412099257
 21
0.4698209269473991
 31
0.0
210
0.0
220
0.0
230
1.0
 40
0.3980527077
 41
6.237355505486619
 42
7.740871473673455
  0
LINE
  5
1B6
330
1F
100
AcDbEntity
  8
0
  6
Continuous
 62
     7
370
    25
100
AcDbLine
 10
31.0101460342
 20
9.1122024062
 30
0.0
 11
31.1218806489
 21
7.5641630247
 31
0.0
  0
ELLIPSE
  5
1B7
330
1F
100
AcDbEntity
  8
0
  6
Continuous
 62
     7
370
    25
100
AcDbEllipse
 10
31.1141495864
 20
7.5519520678
 30
0.0
 11
0.1879494542362821
 21
0.0005044077137164039
 31
0.0
210
0.0
220
0.0
230
1.0
 40
0.064913913
 41
1.529476774672297
 42
3.032992742859124
  0
SPLINE
  5
1B8
330
1F
100
AcDbEntity
  8
0
  6
Continuous
 62
     7
370
    25
100
AcDbSpline
210
0.0
220
0.0
230
1.0
 70
     8
 71
     3
 72
    17
 73
    13
 74
     0
 42
0.00000001
 43
0.00000001
 40
0.0
 40
0.0
 40
0.0
 40
0.0
 40
0.0567536053495267
 40
0.1135414026571109
 40
0.2108342400853136
 40
0.3082431531935638
 40
0.4338723759568789
 40
0.5595719520099709
 40
0.6836533873973355
 40
0.8076472052926014
 40
0.9039079963072052
 40
1.0
 40
1.0
 40
1.0
 40
1.0
 10
32.53960552821108
 20
7.550559528496898
 30
0.0
 10
32.53946252550953
 20
7.550723644224923
 30
0.0
 10
32.53917643395258
 20
7.551051974554658
 30
0.0
 10
32.53682727533538
 20
7.551650996923535
 30
0.0
 10
32.53218201649998
 20
7.552339580104839
 30
0.0
 10
32.52368839221596
 20
7.553155700443213
 30
0.0
 10
32.5118573851357
 20
7.553957646635882
 30
0.0
 10
32.49662405217898
 20
7.554700350803461
 30
0.0
 10
32.4794252484179
 20
7.555307000375799
 30
0.0
 10
32.46204377110787
 20
7.555720063491463
 30
0.0
 10
32.44513321858558
 20
7.555972968740809
 30
0.0
 10
32.43449863931602
 20
7.556005923717224
 30
0.0
 10
32.42918601554054
 20
7.556022386746629
 30
0.0
  0
LINE
  5
1B9
330
1F
100
AcDbEntity
  8
0
  6
Continuous
 62
     7
370
    25
100
AcDbLine
 10
31.2924801779
 20
7.5560223867
 30
0.0
 11
32.4291860155
 21
7.5560223867
 31
0.0
  0
SPLINE
  5
1BA
330
1F
100
AcDbEntity
  8
0
  6
Continuous
 62
     7
370
    25
100
AcDbSpline
210
0.0
220
0.0
230
1.0
 70
     8
 71
     3
 72
    17
 73
    13
 74
     0
 42
0.00000001
 43
0.00000001
 40
0.0
 40
0.0
 40
0.0
 40
0.0
 40
0.0859223598659862
 40
0.1737593353502088
 40
0.2620584018686133
 40
0.3500691870355098
 40
0.4654377939790801
 40
0.5808003109579164
 40
0.6936963756470239
 40
0.8064755477894501
 40
0.9033517808576678
 40
0.9999999999999999
 40
0.9999999999999999
 40
0.9999999999999999
 40
0.9999999999999999
 10
31.29248017787728
 20
7.556022386746629
 30
0.0
 10
31.2877305681682
 20
7.556009164707227
 30
0.0
 10
31.27812551277275
 20
7.555982426000536
 30
0.0
 10
31.26403253685621
 20
7.555791182852699
 30
0.0
 10
31.25043172094976
 20
7.555511209644056
 30
0.0
 10
31.23624672305424
 20
7.555107061393567
 30
0.0
 10
31.22195995876192
 20
7.554562849672874
 30
0.0
 10
31.20835664296096
 20
7.553865185306555
 30
0.0
 10
31.19695554988432
 20
7.55307491077863
 30
0.0
 10
31.18867323923809
 20
7.552245751544412
 30
0.0
 10
31.18324527843541
 20
7.551399011469858
 30
0.0
 10
31.18245522599844
 20
7.550839136269587
 30
0.0
 10
31.18206066520681
 20
7.550559528496875
 30
0.0
  0
ELLIPSE
  5
1BB
330
1F
100
AcDbEntity
  8
0
  6
Continuous
 62
     7
370
    25
100
AcDbEllipse
 10
31.8608330967
 20
7.421543632
 30
0.0
 11
7.105427357601002E-14
 21
0.9193961754804514
 31
0.0
210
0.0
220
0.0
230
1.0
 40
0.7456587883
 41
1.430004883296314
 42
1.487579429977003
  0
LINE
  5
1BC
330
1F
100
AcDbEntity
  8
0
  6
Continuous
 62
     7
370
    25
100
AcDbLine
 10
30.793517839
 20
7.4979646541
 30
0.0
 11
31.1776496439
 21
7.4979646541
 31
0.0
  0
ELLIPSE
  5
1BD
330
1F
100
AcDbEntity
  8
0
  6
Continuous
 62
     7
370
    25
100
AcDbEllipse
 10
30.6590210016
 20
7.5048112147
 30
0.0
 11
0.1875
 21
0.0
 31
0.0
210
0.0
220
0.0
230
1.0
 40
0.0524077793
 41
5.512332107964152
 42
6.195918844580204
  0
LINE
  5
1BE
330
1F
100
AcDbEntity
  8
0
  6
Continuous
 62
     7
370
    25
100
AcDbLine
 10
30.8458075075
 20
7.5039547824
 30
0.0
 11
30.9273038267
 21
7.5527730057
 31
0.0
  0
LINE
  5
1BF
330
1F
100
AcDbEntity
  8
0
  6
Continuous
 62
     7
370
    25
100
AcDbLine
 10
31.1218806489
 20
7.5641630247
 30
0.0
 11
32.5997855445
 21
7.5641630247
 31
0.0
  0
ELLIPSE
  5
1C0
330
1F
100
AcDbEntity
  8
0
  6
Continuous
 62
     7
370
    25
100
AcDbEllipse
 10
32.6075166071
 20
7.5519520678
 30
0.0
 11
0.187949454236275
 21
-0.0005044077137172921
 31
0.0
210
0.0
220
0.0
230
1.0
 40
0.064913913
 41
0.1085999107306665
 42
1.612115878917517
  0
LINE
  5
1C1
330
1F
100
AcDbEntity
  8
0
  6
Continuous
 62
     7
370
    25
100
AcDbLine
 10
32.8758586859
 20
7.5039547824
 30
0.0
 11
32.7943623667
 21
7.5527730057
 31
0.0
  0
ELLIPSE
  5
1C2
330
1F
100
AcDbEntity
  8
0
  6
Continuous
 62
     7
370
    25
100
AcDbEllipse
 10
33.0626451918
 20
7.5048112147
 30
0.0
 11
0.1875
 21
0.0
 31
0.0
210
0.0
220
0.0
230
1.0
 40
0.0524077793
 41
3.228859116189799
 42
3.912445852805473
  0
LINE
  5
1C3
330
1F
100
AcDbEntity
  8
0
  6
Continuous
 62
     7
370
    25
100
AcDbLine
 10
32.5440165495
 20
7.4979646541
 30
0.0
 11
32.9281483544
 21
7.4979646541
 31
0.0
  0
ELLIPSE
  5
1C4
330
1F
100
AcDbEntity
  8
0
  6
Continuous
 62
     7
370
    25
100
AcDbEllipse
 10
31.8608330967
 20
7.421543632
 30
0.0
 11
7.105427357601002E-14
 21
0.9193961754804514
 31
0.0
210
0.0
220
0.0
230
1.0
 40
0.7456587883
 41
4.795605877202711
 42
4.853180423883406
  0
LINE
  5
1C5
330
1F
100
AcDbEntity
  8
0
  6
Continuous
 62
     7
370
    25
100
AcDbLine
 10
32.7115201592
 20
9.1122024062
 30
0.0
 11
31.0101460342
 21
9.1122024062
 31
0.0
  0
LINE
  5
1C6
330
1F
100
AcDbEntity
  8
0
  6
Continuous
 62
     7
370
    25
100
AcDbLine
 10
32.5997855445
 20
7.5641630247
 30
0.0
 11
32.7115201592
 21
9.1122024062
 31
0.0
  0
ELLIPSE
  5
1C7
330
1F
100
AcDbEntity
  8
0
  6
Continuous
 62
     7
370
    25
100
AcDbEllipse
 10
32.6862127528
 20
8.6422563847
 30
0.0
 11
0.03391080412098547
 21
0.4698209269473993
 31
0.0
210
0.0
220
0.0
230
1.0
 40
0.3980527077
 41
4.825499140685717
 42
6.329015108872531
  0
LINE
  5
1C8
330
1F
100
AcDbEntity
  8
0
  6
Continuous
 62
     7
370
    25
100
AcDbLine
 10
32.8758586859
 20
8.6818726314
 30
0.0
 11
32.7943623667
 21
7.5527730057
 31
0.0
  0
LINE
  5
1C9
330
1F
100
AcDbEntity
  8
0
  6
Continuous
 62
     7
370
    25
100
AcDbLine
 10
30.8458075075
 20
8.6818726314
 30
0.0
 11
30.8458075075
 21
7.5039547824
 31
0.0
  0
LINE
  5
1CA
330
1F
100
AcDbEntity
  8
0
  6
Continuous
 62
     7
370
    25
100
AcDbLine
 10
32.8758586859
 20
7.5039547824
 30
0.0
 11
32.8758586859
 21
8.6818726314
 31
0.0
  0
SPLINE
  5
1CB
330
1F
100
AcDbEntity
  8
0
  6
Continuous
 62
     7
370
    25
100
AcDbSpline
210
0.0
220
0.0
230
1.0
 70
     8
 71
     3
 72
    16
 73
    12
 74
     0
 42
0.00000001
 43
0.00000001
 40
0.0
 40
0.0
 40
0.0
 40
0.0
 40
0.0033361472264154
 40
0.1347004150495057
 40
0.2663082538875657
 40
0.39761692885384
 40
0.5173602008077962
 40
0.6373545597935977
 40
0.7569009356172184
 40
0.8785540293692078
 40
1.0
 40
1.0
 40
1.0
 40
1.0
 10
30.65902100158064
 20
7.438046882053829
 30
0.0
 10
30.65917865537547
 20
7.438136064087525
 30
0.0
 10
30.66554409135825
 20
7.441736881479121
 30
0.0
 10
30.67813338976648
 20
7.448861036613295
 30
0.0
 10
30.69669805852056
 20
7.45919072061468
 30
0.0
 10
30.71458020779822
 20
7.468783850290879
 30
0.0
 10
30.73168437617171
 20
7.47746271952309
 30
0.0
 10
30.74796299463832
 20
7.485024359511896
 30
0.0
 10
30.76387976702359
 20
7.491349799761779
 30
0.0
 10
30.77930438696982
 20
7.496277507628665
 30
0.0
 10
30.78878271354991
 20
7.497402591496971
 30
0.0
 10
30.79351783901983
 20
7.497964654139103
 30
0.0
  0
LINE
  5
1CC
330
1F
100
AcDbEntity
  8
0
  6
Continuous
 62
     7
370
    25
100
AcDbLine
 10
30.6590210016
 20
7.4380468821
 30
0.0
 11
30.6590210016
 21
8.6818726314
 31
0.0
  0
LINE
  5
1CD
330
1F
100
AcDbEntity
  8
0
  6
Continuous
 62
     7
370
    25
100
AcDbLine
 10
30.6590210016
 20
8.6818726314
 30
0.0
 11
30.8458075075
 21
8.6818726314
 31
0.0
  0
ELLIPSE
  5
1CE
330
1F
100
AcDbEntity
  8
0
  6
Continuous
 62
     7
370
    25
100
AcDbEllipse
 10
31.0354534407
 20
8.6422563847
 30
0.0
 11
0.04248760103774885
 21
-0.5886490934306893
 31
5.329070518200752E-15
210
-6.500459461645401E-16
220
9.006132319828554E-15
230
1.0
 40
0.6353988963
 41
3.095762851896806
 42
4.599278820083672
  0
LINE
  5
1CF
330
1F
100
AcDbEntity
  8
0
  6
Continuous
 62
     7
370
    25
100
AcDbLine
 10
31.0101460342
 20
9.2315242102
 30
0.0
 11
31.0101460342
 21
9.1122024062
 31
0.0
  0
LINE
  5
1D0
330
1F
100
AcDbEntity
  8
0
  6
Continuous
 62
     7
370
    25
100
AcDbLine
 10
32.8758586859
 20
8.6818726314
 30
0.0
 11
33.0626451918
 21
8.6818726314
 31
0.0
  0
LINE
  5
1D1
330
1F
100
AcDbEntity
  8
0
  6
Continuous
 62
     7
370
    25
100
AcDbLine
 10
33.0626451918
 20
8.6818726314
 30
0.0
 11
33.0626451918
 21
7.4380468821
 31
0.0
  0
SPLINE
  5
1D2
330
1F
100
AcDbEntity
  8
0
  6
Continuous
 62
     7
370
    25
100
AcDbSpline
210
0.0
220
0.0
230
1.0
 70
     8
 71
     3
 72
    16
 73
    12
 74
     0
 42
0.00000001
 43
0.00000001
 40
0.0
 40
0.0
 40
0.0
 40
0.0
 40
0.1214459706307884
 40
0.2430990643827736
 40
0.3626454402063895
 40
0.4826397991921847
 40
0.6023830711461362
 40
0.7336917461124333
 40
0.865299584950506
 40
0.9966638527736019
 40
0.9999999999999999
 40
0.9999999999999999
 40
0.9999999999999999
 40
0.9999999999999999
 10
32.92814835439797
 20
7.497964654139103
 30
0.0
 10
32.9328834798679
 20
7.497402591496971
 30
0.0
 10
32.94236180644798
 20
7.496277507628667
 30
0.0
 10
32.95778642639421
 20
7.491349799761779
 30
0.0
 10
32.97370319877948
 20
7.485024359511895
 30
0.0
 10
32.98998181724609
 20
7.477462719523094
 30
0.0
 10
33.00708598561958
 20
7.468783850290863
 30
0.0
 10
33.02496813489727
 20
7.459190720614735
 30
0.0
 10
33.04353280365152
 20
7.448861036613643
 30
0.0
 10
33.05612210205949
 20
7.441736881479001
 30
0.0
 10
33.06248753804233
 20
7.438136064087522
 30
0.0
 10
33.06264519183717
 20
7.438046882053829
 30
0.0
  0
LINE
  5
1D3
330
1F
100
AcDbEntity
  8
0
  6
Continuous
 62
     7
370
    25
100
AcDbLine
 10
32.7115201592
 20
9.2315242102
 30
0.0
 11
32.7115201592
 21
9.1122024062
 31
0.0
  0
ELLIPSE
  5
1D4
330
1F
100
AcDbEntity
  8
0
  6
Continuous
 62
     7
370
    25
100
AcDbEllipse
 10
32.6862127528
 20
8.6422563847
 30
0.0
 11
-0.04248760103774885
 21
-0.5886490934306893
 31
3.552713678800502E-15
210
4.333639641096934E-16
220
6.004088213219036E-15
230
1.0
 40
0.6353988963
 41
1.683906487095925
 42
3.187422455282792
  0
LINE
  5
1D5
330
1F
100
AcDbEntity
  8
0
  6
Continuous
 62
     7
370
    25
100
AcDbLine
 10
31.2265250656
 20
7.4380468821
 30
0.0
 11
30.6590210016
 21
7.4380468821
 31
0.0
  0
SPLINE
  5
1D6
330
1F
100
AcDbEntity
  8
0
  6
Continuous
 62
     7
370
    25
100
AcDbSpline
210
0.0
220
0.0
230
1.0
 70
     8
 71
     3
 72
    17
 73
    13
 74
     0
 42
0.00000001
 43
0.00000001
 40
0.0
 40
0.0
 40
0.0
 40
0.0
 40
0.0801022235642797
 40
0.1602290590881944
 40
0.2400244853561979
 40
0.3198707314545356
 40
0.4048731968776731
 40
0.4899315022913667
 40
0.6174064108896082
 40
0.7450369536113778
 40
0.8724873160539244
 40
0.9999999999999999
 40
0.9999999999999999
 40
0.9999999999999999
 40
0.9999999999999999
 10
31.17764964390188
 20
7.497964654139103
 30
0.0
 10
31.17773433351172
 20
7.497696946134262
 30
0.0
 10
31.17790373875286
 20
7.49716144786945
 30
0.0
 10
31.1793185664718
 20
7.494908606548459
 30
0.0
 10
31.18153232371545
 20
7.491697662850896
 30
0.0
 10
31.18455477733743
 20
7.487542142950073
 30
0.0
 10
31.18833212701952
 20
7.482553628089135
 30
0.0
 10
31.19350519751793
 20
7.475946006515409
 30
0.0
 10
31.20022588893245
 20
7.467687126879087
 30
0.0
 10
31.20852248797119
 20
7.457917045187994
 30
0.0
 10
31.21733262979909
 20
7.447943202545616
 30
0.0
 10
31.22346042107909
 20
7.441346193061077
 30
0.0
 10
31.22652506563775
 20
7.438046882053829
 30
0.0
  0
LINE
  5
1D7
330
1F
100
AcDbEntity
  8
0
  6
Continuous
 62
     7
370
    25
100
AcDbLine
 10
33.0626451918
 20
7.4380468821
 30
0.0
 11
32.4951411278
 21
7.4380468821
 31
0.0
  0
SPLINE
  5
1D8
330
1F
100
AcDbEntity
  8
0
  6
Continuous
 62
     7
370
    25
100
AcDbSpline
210
0.0
220
0.0
230
1.0
 70
     8
 71
     3
 72
    16
 73
    12
 74
     0
 42
0.00000001
 43
0.00000001
 40
0.0
 40
0.0
 40
0.0
 40
0.0
 40
0.1436550458136241
 40
0.2872028912026983
 40
0.4081468147244289
 40
0.5289547107662912
 40
0.6250911171799072
 40
0.7211313244626418
 40
0.8025421879391719
 40
0.8839013801503282
 40
1.0
 40
1.0
 40
1.0
 40
1.0
 10
32.49514112778005
 20
7.438046882053829
 30
0.0
 10
32.49859051355806
 20
7.441766148160123
 30
0.0
 10
32.50548671106163
 20
7.449201904926129
 30
0.0
 10
32.51480369671563
 20
7.459834521566616
 30
0.0
 10
32.52300491115488
 20
7.469584081354292
 30
0.0
 10
32.52953386763578
 20
7.477669386232406
 30
0.0
 10
32.53478470165695
 20
7.48444069062339
 30
0.0
 10
32.53863214497371
 20
7.489602671323781
 30
0.0
 10
32.54140029689874
 20
7.493508755252447
 30
0.0
 10
32.54354400502539
 20
7.49673640863019
 30
0.0
 10
32.54384158336124
 20
7.497509879196193
 30
0.0
 10
32.54401654951592
 20
7.497964654139103
 30
0.0
  0
LINE
  5
1D9
330
1F
100
AcDbEntity
  8
0
  6
Continuous
 62
     7
370
    25
100
AcDbLine
 10
31.0101460342
 20
9.2315242102
 30
0.0
 11
32.7115201592
 21
9.2315242102
 31
0.0
  0
LINE
  5
1DA
330
1F
100
AcDbEntity
  8
0
  6
Continuous
 62
     7
370
    25
100
AcDbLine
 10
30.2608330967
 20
5.563133688
 30
0.0
 11
33.4608330967
 21
5.563133688
 31
0.0
  0
LINE
  5
1DB
330
1F
100
AcDbEntity
  8
0
  6
Continuous
 62
     7
370
    25
100
AcDbLine
 10
33.4608330967
 20
5.5331519631
 30
0.0
 11
33.4608330967
 21
5.563133688
 31
0.0
  0
LINE
  5
1DC
330
1F
100
AcDbEntity
  8
0
  6
Continuous
 62
     7
370
    25
100
AcDbLine
 10
33.4608330967
 20
5.5331519631
 30
0.0
 11
30.2608330967
 21
5.5331519631
 31
0.0
  0
LINE
  5
1DD
330
1F
100
AcDbEntity
  8
0
  6
Continuous
 62
     7
370
    25
100
AcDbLine
 10
30.2608330967
 20
5.563133688
 30
0.0
 11
30.2608330967
 21
5.5331519631
 31
0.0
  0
CIRCLE
  5
1DE
330
1F
100
AcDbEntity
  8
0
  6
Continuous
 62
     7
370
    25
100
AcDbCircle
 10
31.8608330967
 20
9.6891630247
 30
0.0
 40
0.2050000000000054
  0
LINE
  5
1DF
330
1F
100
AcDbEntity
  8
0
  6
Continuous
 62
     7
370
    25
100
AcDbLine
 10
33.4608330967
 20
10.5051923615
 30
0.0
 11
33.4608330967
 21
5.563133688
 31
0.0
  0
LINE
  5
1E0
330
1F
100
AcDbEntity
  8
0
  6
Continuous
 62
     7
370
    25
100
AcDbLine
 10
33.4608330967
 20
10.5051923615
 30
0.0
 11
30.2608330967
 21
10.5051923615
 31
0.0
  0
CIRCLE
  5
1E1
330
1F
100
AcDbEntity
  8
0
  6
Continuous
 62
     7
370
    25
100
AcDbCircle
 10
31.8608330967
 20
6.3791630247
 30
0.0
 40
0.2050000000000054
  0
LINE
  5
1E2
330
1F
100
AcDbEntity
  8
0
  6
Continuous
 62
     7
370
    25
100
AcDbLine
 10
30.2608330967
 20
5.563133688
 30
0.0
 11
30.2608330967
 21
10.5051923615
 31
0.0
  0
ARC
  5
1E3
330
1F
100
AcDbEntity
  8
0
  6
Continuous
 62
     7
370
    25
100
AcDbCircle
 10
31.8608330967
 20
8.0341630247
 30
0.0
 40
0.8704602999660755
100
AcDbArc
 50
223.2221320796
 51
316.7778679204
  0
CIRCLE
  5
1E4
330
1F
100
AcDbEntity
  8
0
  6
Continuous
 62
     7
370
    25
100
AcDbCircle
 10
31.8608330967
 20
6.3791630247
 30
0.0
 40
0.1015000000000015
  0
LINE
  5
1E5
330
1F
100
AcDbEntity
  8
0
  6
Continuous
 62
     7
370
    25
100
AcDbLine
 10
30.2608330967
 20
10.5351740863
 30
0.0
 11
33.4608330967
 21
10.5351740863
 31
0.0
  0
LINE
  5
1E6
330
1F
100
AcDbEntity
  8
0
  6
Continuous
 62
     7
370
    25
100
AcDbLine
 10
33.4608330967
 20
10.5051923615
 30
0.0
 11
33.4608330967
 21
10.5351740863
 31
0.0
  0
LINE
  5
1E7
330
1F
100
AcDbEntity
  8
0
  6
Continuous
 62
     7
370
    25
100
AcDbLine
 10
30.2608330967
 20
10.5351740863
 30
0.0
 11
30.2608330967
 21
10.5051923615
 31
0.0
  0
CIRCLE
  5
1E8
330
1F
100
AcDbEntity
  8
0
  6
Continuous
 62
     7
370
    25
100
AcDbCircle
 10
31.8608330967
 20
9.6891630247
 30
0.0
 40
0.1015000000000015
  0
LINE
  5
1E9
330
1F
100
AcDbEntity
  8
0
  6
Continuous
 62
     7
370
    25
100
AcDbLine
 10
33.4608330967
 20
5.5208931323
 30
0.0
 11
30.2608330967
 21
5.5208931323
 31
0.0
  0
LINE
  5
1EA
330
1F
100
AcDbEntity
  8
0
  6
Continuous
 62
     7
370
    25
100
AcDbLine
 10
33.4608330967
 20
5.5331519631
 30
0.0
 11
33.4608330967
 21
5.5208931323
 31
0.0
  0
LINE
  5
1EB
330
1F
100
AcDbEntity
  8
0
  6
Continuous
 62
     7
370
    25
100
AcDbLine
 10
30.2608330967
 20
5.5208931323
 30
0.0
 11
30.2608330967
 21
5.5331519631
 31
0.0
  0
LINE
  5
1EC
330
1F
100
AcDbEntity
  8
0
  6
Continuous
 62
     7
370
    25
100
AcDbLine
 10
30.2608330967
 20
10.5474329171
 30
0.0
 11
33.4608330967
 21
10.5474329171
 31
0.0
  0
LINE
  5
1ED
330
1F
100
AcDbEntity
  8
0
  6
Continuous
 62
     7
370
    25
100
AcDbLine
 10
33.4608330967
 20
10.5474329171
 30
0.0
 11
33.4608330967
 21
10.5351740863
 31
0.0
  0
LINE
  5
1EE
330
1F
100
AcDbEntity
  8
0
  6
Continuous
 62
     7
370
    25
100
AcDbLine
 10
30.2608330967
 20
10.5351740863
 30
0.0
 11
30.2608330967
 21
10.5474329171
 31
0.0
  0
LINE
  5
1EF
330
1F
100
AcDbEntity
  8
0
  6
Continuous
 62
     7
370
    25
100
AcDbLine
 10
32.4858330967
 20
7.5550458382
 30
0.0
 11
32.4858330967
 21
7.4282949419
 31
0.0
  0
LINE
  5
1F0
330
1F
100
AcDbEntity
  8
0
  6
Continuous
 62
     7
370
    25
100
AcDbLine
 10
31.2358330967
 20
7.5550608013
 30
0.0
 11
31.2358330967
 21
7.4282949419
 31
0.0
  0
LINE
  5
1F1
330
1F
100
AcDbEntity
  8
0
  6
Continuous
 62
     7
370
    25
100
AcDbLine
 10
31.2983330967
 20
7.5560223867
 30
0.0
 11
31.2983330967
 21
7.3698627283
 31
0.0
  0
LINE
  5
1F2
330
1F
100
AcDbEntity
  8
0
  6
Continuous
 62
     7
370
    25
100
AcDbLine
 10
32.4233330967
 20
7.5560223867
 30
0.0
 11
32.4233330967
 21
7.3698627283
 31
0.0
  0
LINE
  5
1F3
330
1F
100
AcDbEntity
  8
0
  6
Continuous
 62
     7
370
    25
100
AcDbLine
 10
32.3608330967
 20
7.5560223867
 30
0.0
 11
32.3608330967
 21
7.321631528
 31
0.0
  0
LINE
  5
1F4
330
1F
100
AcDbEntity
  8
0
  6
Continuous
 62
     7
370
    25
100
AcDbLine
 10
31.4233330967
 20
7.5560223867
 30
0.0
 11
31.4233330967
 21
7.2816373548
 31
0.0
  0
LINE
  5
1F5
330
1F
100
AcDbEntity
  8
0
  6
Continuous
 62
     7
370
    25
100
AcDbLine
 10
31.3608330967
 20
7.5560223867
 30
0.0
 11
31.3608330967
 21
7.321631528
 31
0.0
  0
LINE
  5
1F6
330
1F
100
AcDbEntity
  8
0
  6
Continuous
 62
     7
370
    25
100
AcDbLine
 10
32.2983330967
 20
7.5560223867
 30
0.0
 11
32.2983330967
 21
7.2816373548
 31
0.0
  0
LINE
  5
1F7
330
1F
100
AcDbEntity
  8
0
  6
Continuous
 62
     7
370
    25
100
AcDbLine
 10
32.2358330967
 20
7.5560223867
 30
0.0
 11
32.2358330967
 21
7.2486210883
 31
0.0
  0
LINE
  5
1F8
330
1F
100
AcDbEntity
  8
0
  6
Continuous
 62
     7
370
    25
100
AcDbLine
 10
31.5483330967
 20
7.5560223867
 30
0.0
 11
31.5483330967
 21
7.2217315606
 31
0.0
  0
LINE
  5
1F9
330
1F
100
AcDbEntity
  8
0
  6
Continuous
 62
     7
370
    25
100
AcDbLine
 10
31.4858330967
 20
7.5560223867
 30
0.0
 11
31.4858330967
 21
7.2486210883
 31
0.0
  0
LINE
  5
1FA
330
1F
100
AcDbEntity
  8
0
  6
Continuous
 62
     7
370
    25
100
AcDbLine
 10
32.1733330967
 20
7.5560223867
 30
0.0
 11
32.1733330967
 21
7.2217315606
 31
0.0
  0
LINE
  5
1FB
330
1F
100
AcDbEntity
  8
0
  6
Continuous
 62
     7
370
    25
100
AcDbLine
 10
32.1108330967
 20
7.5560223867
 30
0.0
 11
32.1108330967
 21
7.2003758014
 31
0.0
  0
LINE
  5
1FC
330
1F
100
AcDbEntity
  8
0
  6
Continuous
 62
     7
370
    25
100
AcDbLine
 10
31.6733330967
 20
7.5560223867
 30
0.0
 11
31.6733330967
 21
7.1841366229
 31
0.0
  0
LINE
  5
1FD
330
1F
100
AcDbEntity
  8
0
  6
Continuous
 62
     7
370
    25
100
AcDbLine
 10
31.6108330967
 20
7.5560223867
 30
0.0
 11
31.6108330967
 21
7.2003758014
 31
0.0
  0
LINE
  5
1FE
330
1F
100
AcDbEntity
  8
0
  6
Continuous
 62
     7
370
    25
100
AcDbLine
 10
31.9858330967
 20
7.5560223867
 30
0.0
 11
31.9858330967
 21
7.1727246149
 31
0.0
  0
LINE
  5
1FF
330
1F
100
AcDbEntity
  8
0
  6
Continuous
 62
     7
370
    25
100
AcDbLine
 10
32.0483330967
 20
7.5560223867
 30
0.0
 11
32.0483330967
 21
7.1841366229
 31
0.0
  0
LINE
  5
200
330
1F
100
AcDbEntity
  8
0
  6
Continuous
 62
     7
370
    25
100
AcDbLine
 10
31.7358330967
 20
7.5560223867
 30
0.0
 11
31.7358330967
 21
7.1727246149
 31
0.0
  0
LINE
  5
201
330
1F
100
AcDbEntity
  8
0
  6
Continuous
 62
     7
370
    25
100
AcDbLine
 10
31.7983330967
 20
7.5560223867
 30
0.0
 11
31.7983330967
 21
7.1659494082
 31
0.0
  0
LINE
  5
202
330
1F
100
AcDbEntity
  8
0
  6
Continuous
 62
     7
370
    25
100
AcDbLine
 10
31.9233330967
 20
7.5560223867
 30
0.0
 11
31.9233330967
 21
7.1659494082
 31
0.0
  0
LINE
  5
203
330
1F
100
AcDbEntity
  8
0
  6
Continuous
 62
     7
370
    25
100
AcDbLine
 10
31.8608330967
 20
7.5560223867
 30
0.0
 11
31.8608330967
 21
7.1637027247
 31
0.0
  0
DIMENSION
  5
204
330
1F
100
AcDbEntity
  8
0
  6
Continuous
 62
     7
370
    18
100
AcDbDimension
  2
_D_3
 10
39.0951502313
 20
10.5351740863
 30
0.0
 11
39.0951502313
 21
8.0341630247
 31
0.0
 70
   160
  1
<>
 71
     2
 42
-1.0
  3
SLDDIMSTYLE2
100
AcDbAlignedDimension
 13
33.4608330967
 23
5.5331519631
 33
0.0
 14
33.4608330967
 24
10.5351740863
 34
0.0
 50
90.0
100
AcDbRotatedDimension
  0
DIMENSION
  5
219
330
1F
100
AcDbEntity
  8
0
  6
Continuous
 62
     7
370
    18
100
AcDbDimension
  2
_D_4
 10
35.9805181361
 20
6.3791630247
 30
0.0
 11
35.9805181361
 21
8.0341630247
 31
0.0
 70
   160
  1
<>
 71
     2
 42
-1.0
  3
SLDDIMSTYLE0
100
AcDbAlignedDimension
 13
31.8608330967
 23
9.6891630247
 33
0.0
 14
31.8608330967
 24
6.3791630247
 34
0.0
 50
90.0
100
AcDbRotatedDimension
  0
DIMENSION
  5
22D
330
1F
100
AcDbEntity
  8
0
  6
Continuous
 62
     7
370
    18
100
AcDbDimension
  2
_D_5
 10
33.4608330967
 20
13.0671179565
 30
0.0
 11
31.8608330967
 21
13.0671179565
 31
0.0
 70
   160
  1
<>
 71
     2
 42
-1.0
  3
SLDDIMSTYLE0
100
AcDbAlignedDimension
 13
30.2608330967
 23
10.5474329171
 33
0.0
 14
33.4608330967
 24
10.5474329171
 34
0.0
 50
0.0
100
AcDbRotatedDimension
  0
ENDSEC
  0
SECTION
  2
OBJECTS
  0
DICTIONARY
  5
C
330
0
100
AcDbDictionary
281
     1
  3
ACAD_GROUP
350
D
  3
ACAD_LAYOUT
350
1A
  3
ACAD_MLINESTYLE
350
17
  3
ACAD_PLOTSETTINGS
350
19
  3
ACAD_PLOTSTYLENAME
350
E
  3
ACAD_SCALELIST
350
47
  3
DWGPROPS
350
241
  0
DICTIONARY
  5
D
102
{ACAD_REACTORS
330
C
102
}
330
C
100
AcDbDictionary
281
     1
  0
DICTIONARY
  5
1A
102
{ACAD_REACTORS
330
C
102
}
330
C
100
AcDbDictionary
281
     1
  3
Layout1
350
1E
  3
Layout2
350
26
  3
Model
350
22
  0
DICTIONARY
  5
17
102
{ACAD_REACTORS
330
C
102
}
330
C
100
AcDbDictionary
281
     1
  3
Standard
350
18
  0
DICTIONARY
  5
19
102
{ACAD_REACTORS
330
C
102
}
330
C
100
AcDbDictionary
281
     1
  0
ACDBDICTIONARYWDFLT
  5
E
102
{ACAD_REACTORS
330
C
102
}
330
C
100
AcDbDictionary
281
     1
  3
Normal
350
F
100
AcDbDictionaryWithDefault
340
F
  0
DICTIONARY
  5
47
102
{ACAD_REACTORS
330
C
102
}
330
C
100
AcDbDictionary
281
     1
  3
A0
350
48
  3
A1
350
49
  3
A2
350
4A
  3
A3
350
4B
  3
A4
350
4C
  3
A5
350
4D
  3
A6
350
4E
  3
A7
350
4F
  3
A8
350
50
  3
A9
350
51
  3
B1
350
52
  3
B2
350
53
  3
B3
350
54
  3
B4
350
55
  3
B5
350
56
  3
B6
350
57
  3
B7
350
58
  0
XRECORD
  5
241
102
{ACAD_REACTORS
330
C
102
}
330
C
100
AcDbXrecord
280
     1
  1
DWGPROPS COOKIE
  2

  3

  4

  6

  7

  8
gurisher.rai
  9

300
=
301
=
302
=
303
=
304
=
305
=
306
=
307
=
308
=
309
=
 40
0.0
 41
2460566.628031516
 42
2460566.628033727
  1

 90
        0
  0
LAYOUT
  5
1E
102
{ACAD_REACTORS
330
1A
102
}
330
1A
100
AcDbPlotSettings
  1

  2
none_device
  4

  6

 40
0.0
 41
0.0
 42
0.0
 43
0.0
 44
0.0
 45
0.0
 46
0.0
 47
0.0
 48
0.0
 49
0.0
140
0.0
141
0.0
142
1.0
143
1.0
 70
   688
 72
     0
 73
     0
 74
     5
  7

 75
    16
147
1.0
148
0.0
149
0.0
100
AcDbLayout
  1
Layout1
 70
     1
 71
     1
 10
0.0
 20
0.0
 11
12.0
 21
9.0
 12
0.0
 22
0.0
 32
0.0
 14
1.0000000000E+20
 24
1.0000000000E+20
 34
1.0000000000E+20
 15
-1.0000000000E+20
 25
-1.0000000000E+20
 35
-1.0000000000E+20
146
0.0
 13
0.0
 23
0.0
 33
0.0
 16
1.0
 26
0.0
 36
0.0
 17
0.0
 27
1.0
 37
0.0
 76
     0
330
1B
  0
LAYOUT
  5
26
102
{ACAD_REACTORS
330
1A
102
}
330
1A
100
AcDbPlotSettings
  1

  2
none_device
  4

  6

 40
0.0
 41
0.0
 42
0.0
 43
0.0
 44
0.0
 45
0.0
 46
0.0
 47
0.0
 48
0.0
 49
0.0
140
0.0
141
0.0
142
1.0
143
1.0
 70
   688
 72
     0
 73
     0
 74
     5
  7

 75
    16
147
1.0
148
0.0
149
0.0
100
AcDbLayout
  1
Layout2
 70
     1
 71
     2
 10
0.0
 20
0.0
 11
0.0
 21
0.0
 12
0.0
 22
0.0
 32
0.0
 14
0.0
 24
0.0
 34
0.0
 15
0.0
 25
0.0
 35
0.0
146
0.0
 13
0.0
 23
0.0
 33
0.0
 16
1.0
 26
0.0
 36
0.0
 17
0.0
 27
1.0
 37
0.0
 76
     0
330
23
  0
LAYOUT
  5
22
102
{ACAD_REACTORS
330
1A
102
}
330
1A
100
AcDbPlotSettings
  1

  2
none_device
  4
Letter_(8.50_x_11.00_Inches)
  6

 40
6.35
 41
6.35
 42
6.35000508
 43
6.35000508
 44
215.9
 45
279.4
 46
0.0
 47
0.0
 48
0.0
 49
0.0
140
0.0
141
0.0
142
1.0
143
1.0
 70
  1712
 72
     0
 73
     0
 74
     0
  7

 75
     0
147
1.0
148
0.0
149
0.0
100
AcDbLayout
  1
Model
 70
     1
 71
     0
 10
0.0
 20
0.0
 11
44.0
 21
34.0
 12
0.0
 22
0.0
 32
0.0
 14
0.0
 24
0.0
 34
0.0
 15
44.0
 25
34.0
 35
0.0
146
0.0
 13
0.0
 23
0.0
 33
0.0
 16
1.0
 26
0.0
 36
0.0
 17
0.0
 27
1.0
 37
0.0
 76
     0
330
1F
331
29
  0
MLINESTYLE
  5
18
102
{ACAD_REACTORS
330
17
102
}
330
17
100
AcDbMlineStyle
  2
Standard
 70
     0
  3

 62
   256
 51
90.0
 52
90.0
 71
     2
 49
0.5
 62
   256
  6
BYLAYER
 49
-0.5
 62
   256
  6
BYLAYER
  0
ACDBPLACEHOLDER
  5
F
102
{ACAD_REACTORS
330
E
102
}
330
E
  0
SCALE
  5
48
102
{ACAD_REACTORS
330
47
102
}
330
47
100
AcDbScale
 70
     0
300
1:1
140
1.0
141
1.0
290
     1
  0
SCALE
  5
49
102
{ACAD_REACTORS
330
47
102
}
330
47
100
AcDbScale
 70
     0
300
1/128" = 1'-0"
140
0.0078125
141
12.0
290
     0
  0
SCALE
  5
4A
102
{ACAD_REACTORS
330
47
102
}
330
47
100
AcDbScale
 70
     0
300
1/64" = 1'-0"
140
0.015625
141
12.0
290
     0
  0
SCALE
  5
4B
102
{ACAD_REACTORS
330
47
102
}
330
47
100
AcDbScale
 70
     0
300
1/32" = 1'-0"
140
0.03125
141
12.0
290
     0
  0
SCALE
  5
4C
102
{ACAD_REACTORS
330
47
102
}
330
47
100
AcDbScale
 70
     0
300
1/16" = 1'-0"
140
0.0625
141
12.0
290
     0
  0
SCALE
  5
4D
102
{ACAD_REACTORS
330
47
102
}
330
47
100
AcDbScale
 70
     0
300
3/32" = 1'-0"
140
0.09375
141
12.0
290
     0
  0
SCALE
  5
4E
102
{ACAD_REACTORS
330
47
102
}
330
47
100
AcDbScale
 70
     0
300
1/8" = 1'-0"
140
0.125
141
12.0
290
     0
  0
SCALE
  5
4F
102
{ACAD_REACTORS
330
47
102
}
330
47
100
AcDbScale
 70
     0
300
3/16" = 1'-0"
140
0.1875
141
12.0
290
     0
  0
SCALE
  5
50
102
{ACAD_REACTORS
330
47
102
}
330
47
100
AcDbScale
 70
     0
300
1/4" = 1'-0"
140
0.25
141
12.0
290
     0
  0
SCALE
  5
51
102
{ACAD_REACTORS
330
47
102
}
330
47
100
AcDbScale
 70
     0
300
3/8" = 1'-0"
140
0.375
141
12.0
290
     0
  0
SCALE
  5
52
102
{ACAD_REACTORS
330
47
102
}
330
47
100
AcDbScale
 70
     0
300
1/2" = 1'-0"
140
0.5
141
12.0
290
     0
  0
SCALE
  5
53
102
{ACAD_REACTORS
330
47
102
}
330
47
100
AcDbScale
 70
     0
300
3/4" = 1'-0"
140
0.75
141
12.0
290
     0
  0
SCALE
  5
54
102
{ACAD_REACTORS
330
47
102
}
330
47
100
AcDbScale
 70
     0
300
1" = 1'-0"
140
1.0
141
12.0
290
     0
  0
SCALE
  5
55
102
{ACAD_REACTORS
330
47
102
}
330
47
100
AcDbScale
 70
     0
300
1-1/2" = 1'-0"
140
1.5
141
12.0
290
     0
  0
SCALE
  5
56
102
{ACAD_REACTORS
330
47
102
}
330
47
100
AcDbScale
 70
     0
300
3" = 1'-0"
140
3.0
141
12.0
290
     0
  0
SCALE
  5
57
102
{ACAD_REACTORS
330
47
102
}
330
47
100
AcDbScale
 70
     0
300
6" = 1'-0"
140
6.0
141
12.0
290
     0
  0
SCALE
  5
58
102
{ACAD_REACTORS
330
47
102
}
330
47
100
AcDbScale
 70
     0
300
1'-0" = 1'-0"
140
12.0
141
12.0
290
     0
  0
ENDSEC
  0
EOF
