  0
SECTION
  2
HEADER
  9
$ACADVER
  1
AC1015
  9
$ACADMAINTVER
 70
     6
  9
$DWGCODEPAGE
  3
ANSI_1252
  9
$INSBASE
 10
0.0
 20
0.0
 30
0.0
  9
$EXTMIN
 10
0.0
 20
0.0
 30
0.0
  9
$EXTMAX
 10
22.0
 20
17.0
 30
0.0
  9
$LIMMIN
 10
0.0
 20
0.0
  9
$LIMMAX
 10
22.0
 20
17.0
  9
$ORTHOMODE
 70
     0
  9
$REGENMODE
 70
     1
  9
$FILLMODE
 70
     1
  9
$QTEXTMODE
 70
     0
  9
$MIRRTEXT
 70
     1
  9
$LTSCALE
 40
2.0
  9
$ATTMODE
 70
     1
  9
$TEXTSIZE
 40
0.25
  9
$TRACEWID
 40
0.05
  9
$TEXTSTYLE
  7
Standard
  9
$CLAYER
  8
0
  9
$CELTYPE
  6
ByLayer
  9
$CECOLOR
 62
   256
  9
$CELTSCALE
 40
1.0
  9
$DISPSILH
 70
     0
  9
$DIMSCALE
 40
1.0
  9
$DIMASZ
 40
0.26
  9
$DIMEXO
 40
0.1
  9
$DIMDLI
 40
0.38
  9
$DIMRND
 40
0.0
  9
$DIMDLE
 40
0.0
  9
$DIMEXE
 40
0.25
  9
$DIMTP
 40
0.0
  9
$DIMTM
 40
0.0
  9
$DIMTXT
 40
0.25
  9
$DIMCEN
 40
0.09
  9
$DIMTSZ
 40
0.0
  9
$DIMTOL
 70
     0
  9
$DIMLIM
 70
     0
  9
$DIMTIH
 70
     1
  9
$DIMTOH
 70
     1
  9
$DIMSE1
 70
     0
  9
$DIMSE2
 70
     0
  9
$DIMTAD
 70
     0
  9
$DIMZIN
 70
     1
  9
$DIMBLK
  1

  9
$DIMASO
 70
     1
  9
$DIMSHO
 70
     1
  9
$DIMPOST
  1

  9
$DIMAPOST
  1

  9
$DIMALT
 70
     0
  9
$DIMALTD
 70
     2
  9
$DIMALTF
 40
25.4
  9
$DIMLFAC
 40
1.0
  9
$DIMTOFL
 70
     0
  9
$DIMTVP
 40
0.0
  9
$DIMTIX
 70
     0
  9
$DIMSOXD
 70
     0
  9
$DIMSAH
 70
     0
  9
$DIMBLK1
  1

  9
$DIMBLK2
  1

  9
$DIMSTYLE
  2
Standard
  9
$DIMCLRD
 70
     0
  9
$DIMCLRE
 70
     0
  9
$DIMCLRT
 70
     0
  9
$DIMTFAC
 40
1.0
  9
$DIMGAP
 40
0.12
  9
$DIMJUST
 70
     0
  9
$DIMSD1
 70
     0
  9
$DIMSD2
 70
     0
  9
$DIMTOLJ
 70
     1
  9
$DIMTZIN
 70
     1
  9
$DIMALTZ
 70
     0
  9
$DIMALTTZ
 70
     0
  9
$DIMUPT
 70
     0
  9
$DIMDEC
 70
     0
  9
$DIMTDEC
 70
     0
  9
$DIMALTU
 70
     2
  9
$DIMALTTD
 70
     2
  9
$DIMTXSTY
  7
Standard
  9
$DIMAUNIT
 70
     0
  9
$DIMADEC
 70
     0
  9
$DIMALTRND
 40
0.0
  9
$DIMAZIN
 70
     0
  9
$DIMDSEP
 70
    46
  9
$DIMATFIT
 70
     3
  9
$DIMFRAC
 70
     0
  9
$DIMLDRBLK
  1

  9
$DIMLUNIT
 70
     2
  9
$DIMLWD
 70
    -2
  9
$DIMLWE
 70
    -2
  9
$DIMTMOVE
 70
     0
  9
$LUNITS
 70
     2
  9
$LUPREC
 70
     6
  9
$SKETCHINC
 40
0.1
  9
$FILLETRAD
 40
0.0
  9
$AUNITS
 70
     0
  9
$AUPREC
 70
     2
  9
$MENU
  1
.
  9
$ELEVATION
 40
0.0
  9
$PELEVATION
 40
0.0
  9
$THICKNESS
 40
0.0
  9
$LIMCHECK
 70
     0
  9
$CHAMFERA
 40
0.0
  9
$CHAMFERB
 40
0.0
  9
$CHAMFERC
 40
0.0
  9
$CHAMFERD
 40
0.0
  9
$SKPOLY
 70
     0
  9
$TDCREATE
 40
2460537.971690255
  9
$TDUCREATE
 40
2460538.263356922
  9
$TDUPDATE
 40
2460537.971690845
  9
$TDUUPDATE
 40
2460538.263357512
  9
$TDINDWG
 40
0.0000000116
  9
$TDUSRTIMER
 40
0.0000000116
  9
$USRTIMER
 70
     1
  9
$ANGBASE
 50
0.0
  9
$ANGDIR
 70
     0
  9
$PDMODE
 70
     0
  9
$PDSIZE
 40
-1.0
  9
$PLINEWID
 40
0.0
  9
$SPLFRAME
 70
     0
  9
$SPLINETYPE
 70
     6
  9
$SPLINESEGS
 70
     8
  9
$HANDSEED
  5
213
  9
$SURFTAB1
 70
     6
  9
$SURFTAB2
 70
     6
  9
$SURFTYPE
 70
     6
  9
$SURFU
 70
     6
  9
$SURFV
 70
     6
  9
$UCSBASE
  2

  9
$UCSNAME
  2

  9
$UCSORG
 10
0.0
 20
0.0
 30
0.0
  9
$UCSXDIR
 10
1.0
 20
0.0
 30
0.0
  9
$UCSYDIR
 10
0.0
 20
1.0
 30
0.0
  9
$UCSORTHOREF
  2

  9
$UCSORTHOVIEW
 70
     0
  9
$UCSORGTOP
 10
0.0
 20
0.0
 30
0.0
  9
$UCSORGBOTTOM
 10
0.0
 20
0.0
 30
0.0
  9
$UCSORGLEFT
 10
0.0
 20
0.0
 30
0.0
  9
$UCSORGRIGHT
 10
0.0
 20
0.0
 30
0.0
  9
$UCSORGFRONT
 10
0.0
 20
0.0
 30
0.0
  9
$UCSORGBACK
 10
0.0
 20
0.0
 30
0.0
  9
$PUCSBASE
  2

  9
$PUCSNAME
  2

  9
$PUCSORG
 10
0.0
 20
0.0
 30
0.0
  9
$PUCSXDIR
 10
1.0
 20
0.0
 30
0.0
  9
$PUCSYDIR
 10
0.0
 20
1.0
 30
0.0
  9
$PUCSORTHOREF
  2

  9
$PUCSORTHOVIEW
 70
     0
  9
$PUCSORGTOP
 10
0.0
 20
0.0
 30
0.0
  9
$PUCSORGBOTTOM
 10
0.0
 20
0.0
 30
0.0
  9
$PUCSORGLEFT
 10
0.0
 20
0.0
 30
0.0
  9
$PUCSORGRIGHT
 10
0.0
 20
0.0
 30
0.0
  9
$PUCSORGFRONT
 10
0.0
 20
0.0
 30
0.0
  9
$PUCSORGBACK
 10
0.0
 20
0.0
 30
0.0
  9
$USERI1
 70
     0
  9
$USERI2
 70
     0
  9
$USERI3
 70
     0
  9
$USERI4
 70
     0
  9
$USERI5
 70
     0
  9
$USERR1
 40
0.0
  9
$USERR2
 40
0.0
  9
$USERR3
 40
0.0
  9
$USERR4
 40
0.0
  9
$USERR5
 40
0.0
  9
$WORLDVIEW
 70
     1
  9
$SHADEDGE
 70
     3
  9
$SHADEDIF
 70
    70
  9
$TILEMODE
 70
     1
  9
$MAXACTVP
 70
    64
  9
$PINSBASE
 10
0.0
 20
0.0
 30
0.0
  9
$PLIMCHECK
 70
     0
  9
$PEXTMIN
 10
1.0000000000E+20
 20
1.0000000000E+20
 30
1.0000000000E+20
  9
$PEXTMAX
 10
-1.0000000000E+20
 20
-1.0000000000E+20
 30
-1.0000000000E+20
  9
$PLIMMIN
 10
0.0
 20
0.0
  9
$PLIMMAX
 10
12.0
 20
9.0
  9
$UNITMODE
 70
     0
  9
$VISRETAIN
 70
     1
  9
$PLINEGEN
 70
     0
  9
$PSLTSCALE
 70
     1
  9
$TREEDEPTH
 70
  3020
  9
$CMLSTYLE
  2
Standard
  9
$CMLJUST
 70
     0
  9
$CMLSCALE
 40
1.0
  9
$PROXYGRAPHICS
 70
     1
  9
$MEASUREMENT
 70
     0
  9
$CELWEIGHT
370
    -1
  9
$ENDCAPS
280
     0
  9
$JOINSTYLE
280
     0
  9
$LWDISPLAY
290
     1
  9
$INSUNITS
 70
     1
  9
$HYPERLINKBASE
  1

  9
$STYLESHEET
  1

  9
$XEDIT
290
     1
  9
$CEPSNTYPE
380
     0
  9
$PSTYLEMODE
290
     1
  9
$FINGERPRINTGUID
  2
{579086f1-c559-4894-b544-68589c89ab70}
  9
$VERSIONGUID
  2
{FAEB1C32-E019-11D5-929B-00C0DF256EC4}
  9
$EXTNAMES
290
     1
  9
$PSVPSCALE
 40
0.0
  9
$OLESTARTUP
290
     0
  0
ENDSEC
  0
SECTION
  2
CLASSES
  0
CLASS
  1
ACDBDICTIONARYWDFLT
  2
AcDbDictionaryWithDefault
  3
ObjectDBX Classes
 90
        0
280
     0
281
     0
  0
CLASS
  1
VISUALSTYLE
  2
AcDbVisualStyle
  3
ObjectDBX Classes
 90
     4095
280
     0
281
     0
  0
CLASS
  1
MATERIAL
  2
AcDbMaterial
  3
ObjectDBX Classes
 90
     1153
280
     0
281
     0
  0
CLASS
  1
SCALE
  2
AcDbScale
  3
ObjectDBX Classes
 90
     1153
280
     0
281
     0
  0
CLASS
  1
TABLESTYLE
  2
AcDbTableStyle
  3
ObjectDBX Classes
 90
     4095
280
     0
281
     0
  0
CLASS
  1
MLEADERSTYLE
  2
AcDbMLeaderStyle
  3
ACDB_MLEADERSTYLE_CLASS
 90
     4095
280
     0
281
     0
  0
CLASS
  1
SUN
  2
AcDbSun
  3
SCENEOE
 90
     1153
280
     0
281
     0
  0
CLASS
  1
ACDBPLACEHOLDER
  2
AcDbPlaceHolder
  3
ObjectDBX Classes
 90
        0
280
     0
281
     0
  0
CLASS
  1
LAYOUT
  2
AcDbLayout
  3
ObjectDBX Classes
 90
        0
280
     0
281
     0
  0
ENDSEC
  0
SECTION
  2
TABLES
  0
TABLE
  2
VPORT
  5
8
330
0
100
AcDbSymbolTable
 70
     1
  0
VPORT
  5
29
330
8
100
AcDbSymbolTableRecord
100
AcDbViewportTableRecord
  2
*Active
 70
     0
 10
0.0
 20
0.0
 11
1.0
 21
1.0
 12
11.0
 22
8.5
 13
0.0
 23
0.0
 14
0.5
 24
0.5
 15
0.5
 25
0.5
 16
0.0
 26
0.0
 36
1.0
 17
0.0
 27
0.0
 37
0.0
 40
17.0
 41
1.2941176471
 42
50.0
 43
0.0
 44
0.0
 50
0.0
 51
0.0
 71
     0
 72
  2000
 73
     1
 74
     3
 75
     0
 76
     0
 77
     0
 78
     0
281
     0
 65
     1
110
0.0
120
0.0
130
0.0
111
1.0
121
0.0
131
0.0
112
0.0
122
1.0
132
0.0
 79
     0
146
0.0
  0
ENDTAB
  0
TABLE
  2
LTYPE
  5
5
330
0
100
AcDbSymbolTable
 70
     6
  0
LTYPE
  5
14
330
5
100
AcDbSymbolTableRecord
100
AcDbLinetypeTableRecord
  2
ByBlock
 70
     0
  3

 72
    65
 73
     0
 40
0.0
  0
LTYPE
  5
15
330
5
100
AcDbSymbolTableRecord
100
AcDbLinetypeTableRecord
  2
ByLayer
 70
     0
  3

 72
    65
 73
     0
 40
0.0
  0
LTYPE
  5
16
330
5
100
AcDbSymbolTableRecord
100
AcDbLinetypeTableRecord
  2
Continuous
 70
     0
  3
Solid line
 72
    65
 73
     0
 40
0.0
  0
LTYPE
  5
5E
330
5
100
AcDbSymbolTableRecord
100
AcDbLinetypeTableRecord
  2
HIDDEN
 70
     0
  3
Hidden __ __ __ __ __ __ __ __ __ __ __ __ __ __
 72
    65
 73
     2
 40
0.075
 49
0.05
 74
     0
 49
-0.025
 74
     0
  0
LTYPE
  5
5F
330
5
100
AcDbSymbolTableRecord
100
AcDbLinetypeTableRecord
  2
PHANTOM
 70
     0
  3
Phantom ______  __  __  ______  __  __  ______
 72
    65
 73
     6
 40
0.5
 49
0.25
 74
     0
 49
-0.05
 74
     0
 49
0.05
 74
     0
 49
-0.05
 74
     0
 49
0.05
 74
     0
 49
-0.05
 74
     0
  0
LTYPE
  5
60
330
5
100
AcDbSymbolTableRecord
100
AcDbLinetypeTableRecord
  2
CENTER
 70
     0
  3
Center ____ _ ____ _ ____ _ ____ _ ____ _ ____
 72
    65
 73
     4
 40
0.4
 49
0.25
 74
     0
 49
-0.05
 74
     0
 49
0.05
 74
     0
 49
-0.05
 74
     0
  0
LTYPE
  5
61
330
5
100
AcDbSymbolTableRecord
100
AcDbLinetypeTableRecord
  2
CENTERX2
 70
     0
  3
Center (2x) ________  __  ________  __  _____
 72
    65
 73
     4
 40
0.8
 49
0.5
 74
     0
 49
-0.1
 74
     0
 49
0.1
 74
     0
 49
-0.1
 74
     0
  0
LTYPE
  5
62
330
5
100
AcDbSymbolTableRecord
100
AcDbLinetypeTableRecord
  2
DOT2
 70
     0
  3
Dot (.5x) ........................................
 72
    65
 73
     2
 40
0.025
 49
0.0
 74
     0
 49
-0.025
 74
     0
  0
ENDTAB
  0
TABLE
  2
LAYER
  5
2
330
0
100
AcDbSymbolTable
 70
    12
  0
LAYER
  5
10
330
2
100
AcDbSymbolTableRecord
100
AcDbLayerTableRecord
  2
0
 70
     0
 62
     7
  6
Continuous
370
    -3
390
F
  0
LAYER
  5
63
330
2
100
AcDbSymbolTableRecord
100
AcDbLayerTableRecord
  2
SLD-0
 70
     0
 62
     7
  6
Continuous
370
    -3
390
F
  0
LAYER
  5
64
330
2
100
AcDbSymbolTableRecord
100
AcDbLayerTableRecord
  2
DIM
 70
     0
 62
     7
  6
Continuous
370
    -3
390
F
  0
LAYER
  5
65
330
2
100
AcDbSymbolTableRecord
100
AcDbLayerTableRecord
  2
CEN
 70
     0
 62
     1
  6
CENTER
370
    -3
390
F
  0
LAYER
  5
66
330
2
100
AcDbSymbolTableRecord
100
AcDbLayerTableRecord
  2
HAT
 70
     0
 62
     4
  6
Continuous
370
    -3
390
F
  0
LAYER
  5
67
330
2
100
AcDbSymbolTableRecord
100
AcDbLayerTableRecord
  2
OBJ
 70
     0
 62
     5
  6
Continuous
370
    -3
390
F
  0
LAYER
  5
68
330
2
100
AcDbSymbolTableRecord
100
AcDbLayerTableRecord
  2
SLD-DEFPOINTS
 70
     0
 62
     7
  6
Continuous
370
    -3
390
F
  0
LAYER
  5
69
330
2
100
AcDbSymbolTableRecord
100
AcDbLayerTableRecord
  2
HID
 70
     0
 62
     4
  6
HIDDEN
370
    -3
390
F
  0
LAYER
  5
6A
330
2
100
AcDbSymbolTableRecord
100
AcDbLayerTableRecord
  2
NOTE
 70
     0
 62
     7
  6
Continuous
370
    -3
390
F
  0
LAYER
  5
6B
330
2
100
AcDbSymbolTableRecord
100
AcDbLayerTableRecord
  2
VP
 70
     0
 62
    -5
  6
Continuous
290
     0
370
    -3
390
F
  0
LAYER
  5
6C
330
2
100
AcDbSymbolTableRecord
100
AcDbLayerTableRecord
  2
TITLE
 70
     0
 62
     7
  6
Continuous
370
    -3
390
F
  0
LAYER
  5
6D
330
2
100
AcDbSymbolTableRecord
100
AcDbLayerTableRecord
  2
THICK_TITLE
 70
     0
 62
     7
  6
Continuous
370
   100
390
F
  0
ENDTAB
  0
TABLE
  2
STYLE
  5
3
330
0
100
AcDbSymbolTable
 70
     2
  0
STYLE
  5
11
330
3
100
AcDbSymbolTableRecord
100
AcDbTextStyleTableRecord
  2
Standard
 70
     0
 40
0.0
 41
1.0
 50
0.0
 71
     0
 42
0.25
  3
txt
  4

  0
STYLE
  5
D7
330
3
100
AcDbSymbolTableRecord
100
AcDbTextStyleTableRecord
  2
SLDTEXTSTYLE0
 70
     0
 40
0.0
 41
0.75
 50
0.0
 71
     0
 42
0.25
  3
TXT
  4

  0
ENDTAB
  0
TABLE
  2
VIEW
  5
6
330
0
100
AcDbSymbolTable
 70
     0
  0
ENDTAB
  0
TABLE
  2
UCS
  5
7
330
0
100
AcDbSymbolTable
 70
     0
  0
ENDTAB
  0
TABLE
  2
APPID
  5
9
330
0
100
AcDbSymbolTable
 70
     1
  0
APPID
  5
12
330
9
100
AcDbSymbolTableRecord
100
AcDbRegAppTableRecord
  2
ACAD
 70
     0
  0
ENDTAB
  0
TABLE
  2
DIMSTYLE
  5
A
330
0
100
AcDbSymbolTable
 70
     5
100
AcDbDimStyleTable
  0
DIMSTYLE
105
27
330
A
100
AcDbSymbolTableRecord
100
AcDbDimStyleTableRecord
  2
Standard
 70
     0
178
     0
340
11
  0
DIMSTYLE
105
D8
102
{ACAD_REACTORS
330
D6
102
}
330
A
100
AcDbSymbolTableRecord
100
AcDbDimStyleTableRecord
  2
SLDDIMSTYLE0
 70
     0
 41
0.26
 44
0.0
 78
    12
 79
     3
140
0.25
144
2.0
147
0.0625
148
0.000000001
170
     1
173
     1
178
     0
179
     2
272
     2
276
     2
277
     5
284
    12
340
D7
  0
DIMSTYLE
105
E6
102
{ACAD_REACTORS
330
E5
330
F9
330
1EB
330
1FF
102
}
330
A
100
AcDbSymbolTableRecord
100
AcDbDimStyleTableRecord
  2
SLDDIMSTYLE1
 70
     0
 41
0.26
 44
0.0
 45
0.000000001
 78
    12
 79
     3
140
0.25
147
0.0625
148
0.000000001
170
     1
173
     1
178
     0
271
     6
272
     0
276
     2
277
     5
284
    12
340
D7
  0
DIMSTYLE
105
10F
102
{ACAD_REACTORS
330
10E
102
}
330
A
100
AcDbSymbolTableRecord
100
AcDbDimStyleTableRecord
  2
SLDDIMSTYLE2
 70
     0
 41
0.26
 44
0.0
 45
0.000000001
 78
    12
 79
     3
140
0.25
147
0.0625
148
0.000000001
170
     1
172
     1
173
     1
178
     0
271
     6
272
     0
276
     2
277
     5
284
    12
289
     0
340
D7
  0
DIMSTYLE
105
1D7
102
{ACAD_REACTORS
330
1D6
102
}
330
A
100
AcDbSymbolTableRecord
100
AcDbDimStyleTableRecord
  2
SLDDIMSTYLE3
 70
     0
 41
0.26
 44
0.0
 45
0.000000001
 78
    12
 79
     3
140
0.25
147
0.0625
148
0.000000001
170
     1
173
     1
178
     0
271
     0
272
     0
276
     2
277
     5
284
    12
340
D7
  0
ENDTAB
  0
TABLE
  2
BLOCK_RECORD
  5
1
330
0
100
AcDbSymbolTable
 70
     8
  0
BLOCK_RECORD
  5
1F
330
1
100
AcDbSymbolTableRecord
100
AcDbBlockTableRecord
  2
*Model_Space
340
22
  0
BLOCK_RECORD
  5
1B
330
1
100
AcDbSymbolTableRecord
100
AcDbBlockTableRecord
  2
*Paper_Space
340
1E
  0
BLOCK_RECORD
  5
23
330
1
100
AcDbSymbolTableRecord
100
AcDbBlockTableRecord
  2
*Paper_Space0
340
26
  0
BLOCK_RECORD
  5
D9
330
1
100
AcDbSymbolTableRecord
100
AcDbBlockTableRecord
  2
_D
340
0
  0
BLOCK_RECORD
  5
E7
330
1
100
AcDbSymbolTableRecord
100
AcDbBlockTableRecord
  2
_D_1
340
0
  0
BLOCK_RECORD
  5
FA
330
1
100
AcDbSymbolTableRecord
100
AcDbBlockTableRecord
  2
_D_2
340
0
  0
BLOCK_RECORD
  5
110
330
1
100
AcDbSymbolTableRecord
100
AcDbBlockTableRecord
  2
_D_3
340
0
  0
BLOCK_RECORD
  5
1D8
330
1
100
AcDbSymbolTableRecord
100
AcDbBlockTableRecord
  2
_D_4
340
0
  0
BLOCK_RECORD
  5
1EC
330
1
100
AcDbSymbolTableRecord
100
AcDbBlockTableRecord
  2
_D_5
340
0
  0
BLOCK_RECORD
  5
200
330
1
100
AcDbSymbolTableRecord
100
AcDbBlockTableRecord
  2
_D_6
340
0
  0
ENDTAB
  0
ENDSEC
  0
SECTION
  2
BLOCKS
  0
BLOCK
  5
20
330
1F
100
AcDbEntity
  8
0
100
AcDbBlockBegin
  2
*Model_Space
 70
     0
 10
0.0
 20
0.0
 30
0.0
  3
*Model_Space
  1

  0
ENDBLK
  5
21
330
1F
100
AcDbEntity
  8
0
100
AcDbBlockEnd
  0
BLOCK
  5
1C
330
1B
100
AcDbEntity
 67
     1
  8
0
100
AcDbBlockBegin
  2
*Paper_Space
 70
     0
 10
0.0
 20
0.0
 30
0.0
  3
*Paper_Space
  1

  0
ENDBLK
  5
1D
330
1B
100
AcDbEntity
 67
     1
  8
0
100
AcDbBlockEnd
  0
BLOCK
  5
24
330
23
100
AcDbEntity
  8
0
100
AcDbBlockBegin
  2
*Paper_Space0
 70
     0
 10
0.0
 20
0.0
 30
0.0
  3
*Paper_Space0
  1

  0
ENDBLK
  5
25
330
23
100
AcDbEntity
  8
0
100
AcDbBlockEnd
  0
BLOCK
  5
DA
330
D9
100
AcDbEntity
  8
0
100
AcDbBlockBegin
  2
_D
 70
     0
 10
0.0
 20
0.0
 30
0.0
  3
_D
  1

  0
ARC
  5
DC
330
D9
100
AcDbEntity
  8
0
  6
Continuous
 62
     7
370
    18
100
AcDbCircle
 10
9.0069782503
 20
3.908669835
 30
0.0
 40
2.291079448913746
100
AcDbArc
 50
317.5593445011
 51
330.0
  0
ARC
  5
DD
330
D9
100
AcDbEntity
  8
0
  6
Continuous
 62
     7
370
    18
100
AcDbCircle
 10
9.0069782503
 20
3.908669835
 30
0.0
 40
2.291079448913745
100
AcDbArc
 50
0.0
 51
12.4406554989
  0
SOLID
  5
DE
330
D9
100
AcDbEntity
  8
0
  6
Continuous
 62
     7
370
    18
100
AcDbTrace
 10
10.9911112552
 20
2.7631301106
 30
0.0
 11
10.8151471917
 21
2.5675881755
 31
0.0
 12
10.8820598687
 22
2.5237396448
 32
0.0
 13
10.8820598687
 23
2.5237396448
 33
0.0
  0
SOLID
  5
DF
330
D9
100
AcDbEntity
  8
0
  6
Continuous
 62
     7
370
    18
100
AcDbTrace
 10
11.2980576992
 20
3.908669835
 30
0.0
 11
11.3233116612
 21
4.1705137531
 31
0.0
 12
11.2434393176
 22
4.16599615
 32
0.0
 13
11.2434393176
 23
4.16599615
 33
0.0
  0
LINE
  5
E0
330
D9
100
AcDbEntity
  8
0
  6
Continuous
 62
     7
370
     0
100
AcDbLine
 10
9.2153276152
 20
3.7883792731
 30
0.0
 11
11.2076176061
 21
2.6381301106
 31
0.0
  0
LINE
  5
E1
330
D9
100
AcDbEntity
  8
0
  6
Continuous
 62
     7
370
     0
100
AcDbLine
 10
9.2287250749
 20
3.908669835
 30
0.0
 11
11.5480576992
 21
3.908669835
 31
0.0
  0
MTEXT
  5
E2
330
D9
100
AcDbEntity
  8
0
  6
Continuous
 62
     7
370
    18
100
AcDbMText
 10
10.2838800208
 20
3.6379618023
 30
0.0
 40
0.25
 41
0.0
 71
     1
 72
     1
  1
30°
  7
SLDTEXTSTYLE0
 73
     1
 44
1.0
  0
MTEXT
  5
E3
330
D9
100
AcDbEntity
  8
0
  6
Continuous
 62
     7
370
    18
100
AcDbMText
 10
10.8804078127
 20
3.6379618023
 30
0.0
 40
0.25
 41
0.0
 71
     1
 72
     1
  1
LOUVER
  7
SLDTEXTSTYLE0
 73
     1
 44
1.0
  0
MTEXT
  5
E4
330
D9
100
AcDbEntity
  8
0
  6
Continuous
 62
     7
370
    18
100
AcDbMText
 10
10.6618313647
 20
3.2410867903
 30
0.0
 40
0.25
 41
0.0
 71
     1
 72
     1
  1
ANGLE
  7
SLDTEXTSTYLE0
 73
     1
 44
1.0
  0
ENDBLK
  5
DB
330
D9
100
AcDbEntity
  8
0
100
AcDbBlockEnd
  0
BLOCK
  5
E8
330
E7
100
AcDbEntity
  8
0
100
AcDbBlockBegin
  2
_D_1
 70
     0
 10
0.0
 20
0.0
 30
0.0
  3
_D_1
  1

  0
SOLID
  5
EA
330
E7
100
AcDbEntity
  8
0
  6
Continuous
 62
     7
370
    18
100
AcDbTrace
 10
1.5993235
 20
5.0147792731
 30
0.0
 11
1.5593235
 21
4.7547792731
 31
0.0
 12
1.6393235
 22
4.7547792731
 32
0.0
 13
1.6393235
 23
4.7547792731
 33
0.0
  0
SOLID
  5
EB
330
E7
100
AcDbEntity
  8
0
  6
Continuous
 62
     7
370
    18
100
AcDbTrace
 10
1.5993235
 20
2.7947792731
 30
0.0
 11
1.6393235
 21
3.0547792731
 31
0.0
 12
1.5593235
 22
3.0547792731
 32
0.0
 13
1.5593235
 23
3.0547792731
 33
0.0
  0
LINE
  5
EC
330
E7
100
AcDbEntity
  8
0
  6
Continuous
 62
     7
370
     0
100
AcDbLine
 10
1.1021012857
 20
3.9047792365
 30
0.0
 11
1.0259294114
 21
3.9047792365
 31
0.0
  0
LINE
  5
ED
330
E7
100
AcDbEntity
  8
0
  6
Continuous
 62
     7
370
     0
100
AcDbLine
 10
1.0259294114
 20
3.9047792365
 30
0.0
 11
1.0259294114
 21
3.5079042245
 31
0.0
  0
LINE
  5
EE
330
E7
100
AcDbEntity
  8
0
  6
Continuous
 62
     7
370
     0
100
AcDbLine
 10
1.0259294114
 20
3.5079042245
 30
0.0
 11
1.1021012857
 21
3.5079042245
 31
0.0
  0
LINE
  5
EF
330
E7
100
AcDbEntity
  8
0
  6
Continuous
 62
     7
370
     0
100
AcDbLine
 10
2.0965457511
 20
3.9047792365
 30
0.0
 11
2.1727176253
 21
3.9047792365
 31
0.0
  0
LINE
  5
F0
330
E7
100
AcDbEntity
  8
0
  6
Continuous
 62
     7
370
     0
100
AcDbLine
 10
2.1727176253
 20
3.9047792365
 30
0.0
 11
2.1727176253
 21
3.5079042245
 31
0.0
  0
LINE
  5
F1
330
E7
100
AcDbEntity
  8
0
  6
Continuous
 62
     7
370
     0
100
AcDbLine
 10
2.1727176253
 20
3.5079042245
 30
0.0
 11
2.0965457511
 21
3.5079042245
 31
0.0
  0
LINE
  5
F2
330
E7
100
AcDbEntity
  8
0
  6
Continuous
 62
     7
370
     0
100
AcDbLine
 10
5.2187250749
 20
5.0147792731
 30
0.0
 11
1.3493235
 21
5.0147792731
 31
0.0
  0
LINE
  5
F3
330
E7
100
AcDbEntity
  8
0
  6
Continuous
 62
     7
370
     0
100
AcDbLine
 10
5.2187250749
 20
2.7947792731
 30
0.0
 11
1.3493235
 21
2.7947792731
 31
0.0
  0
LINE
  5
F4
330
E7
100
AcDbEntity
  8
0
  6
Continuous
 62
     7
370
     0
100
AcDbLine
 10
1.5993235
 20
5.0147792731
 30
0.0
 11
1.5993235
 21
4.3524355284
 31
0.0
  0
LINE
  5
F5
330
E7
100
AcDbEntity
  8
0
  6
Continuous
 62
     7
370
     0
100
AcDbLine
 10
1.5993235
 20
2.7947792731
 30
0.0
 11
1.5993235
 21
3.4571230178
 31
0.0
  0
MTEXT
  5
F6
330
E7
100
AcDbEntity
  8
0
  6
Continuous
 62
     7
370
    18
100
AcDbMText
 10
0.9630648168
 20
4.2778274469
 30
0.0
 40
0.25
 41
0.0
 71
     1
 72
     1
  1
%%c
  7
SLDTEXTSTYLE0
 73
     1
 44
1.0
  0
MTEXT
  5
F7
330
E7
100
AcDbEntity
  8
0
  6
Continuous
 62
     7
370
    18
100
AcDbMText
 10
1.340096058
 20
4.2778274469
 30
0.0
 40
0.25
 41
0.0
 71
     1
 72
     1
  1
2 1/4"
  7
SLDTEXTSTYLE0
 73
     1
 44
1.0
  0
MTEXT
  5
F8
330
E7
100
AcDbEntity
  8
0
  6
Continuous
 62
     7
370
    18
100
AcDbMText
 10
1.1021012857
 20
3.830171187
 30
0.0
 40
0.25
 41
0.0
 71
     1
 72
     1
  1
56mm
  7
SLDTEXTSTYLE0
 73
     1
 44
1.0
  0
ENDBLK
  5
E9
330
E7
100
AcDbEntity
  8
0
100
AcDbBlockEnd
  0
BLOCK
  5
FB
330
FA
100
AcDbEntity
  8
0
100
AcDbBlockBegin
  2
_D_2
 70
     0
 10
0.0
 20
0.0
 30
0.0
  3
_D_2
  1

  0
SOLID
  5
FD
330
FA
100
AcDbEntity
  8
0
  6
Continuous
 62
     7
370
    18
100
AcDbTrace
 10
8.7487250749
 20
7.1921808479
 30
0.0
 11
8.4887250749
 21
7.2321808479
 31
0.0
 12
8.4887250749
 22
7.1521808479
 32
0.0
 13
8.4887250749
 23
7.1521808479
 33
0.0
  0
SOLID
  5
FE
330
FA
100
AcDbEntity
  8
0
  6
Continuous
 62
     7
370
    18
100
AcDbTrace
 10
4.9012250749
 20
7.1921808479
 30
0.0
 11
5.1612250749
 21
7.1521808479
 31
0.0
 12
5.1612250749
 22
7.2321808479
 32
0.0
 13
5.1612250749
 23
7.2321808479
 33
0.0
  0
LINE
  5
FF
330
FA
100
AcDbEntity
  8
0
  6
Continuous
 62
     7
370
     0
100
AcDbLine
 10
6.3277528788
 20
7.1902710867
 30
0.0
 11
6.2515810046
 21
7.1902710867
 31
0.0
  0
LINE
  5
100
330
FA
100
AcDbEntity
  8
0
  6
Continuous
 62
     7
370
     0
100
AcDbLine
 10
6.2515810046
 20
7.1902710867
 30
0.0
 11
6.2515810046
 21
6.7933960747
 31
0.0
  0
LINE
  5
101
330
FA
100
AcDbEntity
  8
0
  6
Continuous
 62
     7
370
     0
100
AcDbLine
 10
6.2515810046
 20
6.7933960747
 30
0.0
 11
6.3277528788
 21
6.7933960747
 31
0.0
  0
LINE
  5
102
330
FA
100
AcDbEntity
  8
0
  6
Continuous
 62
     7
370
     0
100
AcDbLine
 10
7.3221973442
 20
7.1902710867
 30
0.0
 11
7.3983692185
 21
7.1902710867
 31
0.0
  0
LINE
  5
103
330
FA
100
AcDbEntity
  8
0
  6
Continuous
 62
     7
370
     0
100
AcDbLine
 10
7.3983692185
 20
7.1902710867
 30
0.0
 11
7.3983692185
 21
6.7933960747
 31
0.0
  0
LINE
  5
104
330
FA
100
AcDbEntity
  8
0
  6
Continuous
 62
     7
370
     0
100
AcDbLine
 10
7.3983692185
 20
6.7933960747
 30
0.0
 11
7.3221973442
 21
6.7933960747
 31
0.0
  0
LINE
  5
105
330
FA
100
AcDbEntity
  8
0
  6
Continuous
 62
     7
370
     0
100
AcDbLine
 10
8.7487250749
 20
6.5047792731
 30
0.0
 11
8.7487250749
 21
7.4421808479
 31
0.0
  0
LINE
  5
106
330
FA
100
AcDbEntity
  8
0
  6
Continuous
 62
     7
370
     0
100
AcDbLine
 10
4.9012250749
 20
4.2527307192
 30
0.0
 11
4.9012250749
 21
4.9547792731
 31
0.0
  0
LINE
  5
107
330
FA
100
AcDbEntity
  8
0
  6
Continuous
 62
     7
370
     0
100
AcDbLine
 10
4.9012250749
 20
5.0747792731
 30
0.0
 11
4.9012250749
 21
7.4421808479
 31
0.0
  0
LINE
  5
108
330
FA
100
AcDbEntity
  8
0
  6
Continuous
 62
     7
370
     0
100
AcDbLine
 10
8.7487250749
 20
7.1921808479
 30
0.0
 11
7.6176183783
 21
7.1921808479
 31
0.0
  0
LINE
  5
109
330
FA
100
AcDbEntity
  8
0
  6
Continuous
 62
     7
370
     0
100
AcDbLine
 10
4.9012250749
 20
7.1921808479
 30
0.0
 11
6.0323317714
 21
7.1921808479
 31
0.0
  0
MTEXT
  5
10A
330
FA
100
AcDbEntity
  8
0
  6
Continuous
 62
     7
370
    18
100
AcDbMText
 10
6.176798019
 20
7.5671387417
 30
0.0
 40
0.25
 41
0.0
 71
     1
 72
     1
  1

  7
SLDTEXTSTYLE0
 73
     1
 44
1.0
  0
MTEXT
  5
10B
330
FA
100
AcDbEntity
  8
0
  6
Continuous
 62
     7
370
    18
100
AcDbMText
 10
6.3772320489
 20
7.5633192787
 30
0.0
 40
0.25
 41
0.0
 71
     1
 72
     1
  1
3 7/8"
  7
SLDTEXTSTYLE0
 73
     1
 44
1.0
  0
MTEXT
  5
10C
330
FA
100
AcDbEntity
  8
0
  6
Continuous
 62
     7
370
    18
100
AcDbMText
 10
6.3277528788
 20
7.1156630372
 30
0.0
 40
0.25
 41
0.0
 71
     1
 72
     1
  1
98mm
  7
SLDTEXTSTYLE0
 73
     1
 44
1.0
  0
MTEXT
  5
10D
330
FA
100
AcDbEntity
  8
0
  6
Continuous
 62
     7
370
    18
100
AcDbMText
 10
7.5682910377
 20
7.5671387417
 30
0.0
 40
0.25
 41
0.0
 71
     1
 72
     1
  1

  7
SLDTEXTSTYLE0
 73
     1
 44
1.0
  0
ENDBLK
  5
FC
330
FA
100
AcDbEntity
  8
0
100
AcDbBlockEnd
  0
BLOCK
  5
111
330
110
100
AcDbEntity
  8
0
100
AcDbBlockBegin
  2
_D_3
 70
     0
 10
0.0
 20
0.0
 30
0.0
  3
_D_3
  1

  0
SOLID
  5
113
330
110
100
AcDbEntity
  8
0
  6
Continuous
 62
     7
370
    18
100
AcDbTrace
 10
8.7487250749
 20
7.1921808479
 30
0.0
 11
8.4887250749
 21
7.2321808479
 31
0.0
 12
8.4887250749
 22
7.1521808479
 32
0.0
 13
8.4887250749
 23
7.1521808479
 33
0.0
  0
SOLID
  5
114
330
110
100
AcDbEntity
  8
0
  6
Continuous
 62
     7
370
    18
100
AcDbTrace
 10
9.1287250749
 20
7.1921808479
 30
0.0
 11
9.3887250749
 21
7.1521808479
 31
0.0
 12
9.3887250749
 22
7.2321808479
 32
0.0
 13
9.3887250749
 23
7.2321808479
 33
0.0
  0
LINE
  5
115
330
110
100
AcDbEntity
  8
0
  6
Continuous
 62
     7
370
     0
100
AcDbLine
 10
9.9770387572
 20
7.1902710867
 30
0.0
 11
9.900866883
 21
7.1902710867
 31
0.0
  0
LINE
  5
116
330
110
100
AcDbEntity
  8
0
  6
Continuous
 62
     7
370
     0
100
AcDbLine
 10
9.900866883
 20
7.1902710867
 30
0.0
 11
9.900866883
 21
6.7933960747
 31
0.0
  0
LINE
  5
117
330
110
100
AcDbEntity
  8
0
  6
Continuous
 62
     7
370
     0
100
AcDbLine
 10
9.900866883
 20
6.7933960747
 30
0.0
 11
9.9770387572
 21
6.7933960747
 31
0.0
  0
LINE
  5
118
330
110
100
AcDbEntity
  8
0
  6
Continuous
 62
     7
370
     0
100
AcDbLine
 10
10.9714832227
 20
7.1902710867
 30
0.0
 11
11.0476550969
 21
7.1902710867
 31
0.0
  0
LINE
  5
119
330
110
100
AcDbEntity
  8
0
  6
Continuous
 62
     7
370
     0
100
AcDbLine
 10
11.0476550969
 20
7.1902710867
 30
0.0
 11
11.0476550969
 21
6.7933960747
 31
0.0
  0
LINE
  5
11A
330
110
100
AcDbEntity
  8
0
  6
Continuous
 62
     7
370
     0
100
AcDbLine
 10
11.0476550969
 20
6.7933960747
 30
0.0
 11
10.9714832227
 21
6.7933960747
 31
0.0
  0
LINE
  5
11B
330
110
100
AcDbEntity
  8
0
  6
Continuous
 62
     7
370
     0
100
AcDbLine
 10
8.7487250749
 20
6.5047792731
 30
0.0
 11
8.7487250749
 21
7.4421808479
 31
0.0
  0
LINE
  5
11C
330
110
100
AcDbEntity
  8
0
  6
Continuous
 62
     7
370
     0
100
AcDbLine
 10
9.1287250749
 20
6.5047792731
 30
0.0
 11
9.1287250749
 21
7.4421808479
 31
0.0
  0
LINE
  5
11D
330
110
100
AcDbEntity
  8
0
  6
Continuous
 62
     7
370
     0
100
AcDbLine
 10
8.7487250749
 20
7.1921808479
 30
0.0
 11
8.2487250749
 21
7.1921808479
 31
0.0
  0
LINE
  5
11E
330
110
100
AcDbEntity
  8
0
  6
Continuous
 62
     7
370
     0
100
AcDbLine
 10
9.1287250749
 20
7.1921808479
 30
0.0
 11
9.6816176498
 21
7.1921808479
 31
0.0
  0
MTEXT
  5
11F
330
110
100
AcDbEntity
  8
0
  6
Continuous
 62
     7
370
    18
100
AcDbMText
 10
9.8260838974
 20
7.5671387417
 30
0.0
 40
0.25
 41
0.0
 71
     1
 72
     1
  1

  7
SLDTEXTSTYLE0
 73
     1
 44
1.0
  0
MTEXT
  5
120
330
110
100
AcDbEntity
  8
0
  6
Continuous
 62
     7
370
    18
100
AcDbMText
 10
10.1650595669
 20
7.5633192787
 30
0.0
 40
0.25
 41
0.0
 71
     1
 72
     1
  1
3/8"
  7
SLDTEXTSTYLE0
 73
     1
 44
1.0
  0
MTEXT
  5
121
330
110
100
AcDbEntity
  8
0
  6
Continuous
 62
     7
370
    18
100
AcDbMText
 10
9.9770387572
 20
7.1156630372
 30
0.0
 40
0.25
 41
0.0
 71
     1
 72
     1
  1
10mm
  7
SLDTEXTSTYLE0
 73
     1
 44
1.0
  0
MTEXT
  5
122
330
110
100
AcDbEntity
  8
0
  6
Continuous
 62
     7
370
    18
100
AcDbMText
 10
11.2175769161
 20
7.5671387417
 30
0.0
 40
0.25
 41
0.0
 71
     1
 72
     1
  1

  7
SLDTEXTSTYLE0
 73
     1
 44
1.0
  0
ENDBLK
  5
112
330
110
100
AcDbEntity
  8
0
100
AcDbBlockEnd
  0
BLOCK
  5
1D9
330
1D8
100
AcDbEntity
  8
0
100
AcDbBlockBegin
  2
_D_4
 70
     0
 10
0.0
 20
0.0
 30
0.0
  3
_D_4
  1

  0
SOLID
  5
1DB
330
1D8
100
AcDbEntity
  8
0
  6
Continuous
 62
     7
370
    18
100
AcDbTrace
 10
13.9652282646
 20
1.4047792731
 30
0.0
 11
14.0052282646
 21
1.6647792731
 31
0.0
 12
13.9252282646
 22
1.6647792731
 32
0.0
 13
13.9252282646
 23
1.6647792731
 33
0.0
  0
SOLID
  5
1DC
330
1D8
100
AcDbEntity
  8
0
  6
Continuous
 62
     7
370
    18
100
AcDbTrace
 10
13.9652282646
 20
6.4047792731
 30
0.0
 11
13.9252282646
 21
6.1447792731
 31
0.0
 12
14.0052282646
 22
6.1447792731
 32
0.0
 13
14.0052282646
 23
6.1447792731
 33
0.0
  0
LINE
  5
1DD
330
1D8
100
AcDbEntity
  8
0
  6
Continuous
 62
     7
370
     0
100
AcDbLine
 10
13.3756449755
 20
3.9028695119
 30
0.0
 11
13.2994731013
 21
3.9028695119
 31
0.0
  0
LINE
  5
1DE
330
1D8
100
AcDbEntity
  8
0
  6
Continuous
 62
     7
370
     0
100
AcDbLine
 10
13.2994731013
 20
3.9028695119
 30
0.0
 11
13.2994731013
 21
3.5059944999
 31
0.0
  0
LINE
  5
1DF
330
1D8
100
AcDbEntity
  8
0
  6
Continuous
 62
     7
370
     0
100
AcDbLine
 10
13.2994731013
 20
3.5059944999
 30
0.0
 11
13.3756449755
 21
3.5059944999
 31
0.0
  0
LINE
  5
1E0
330
1D8
100
AcDbEntity
  8
0
  6
Continuous
 62
     7
370
     0
100
AcDbLine
 10
14.554811627
 20
3.9028695119
 30
0.0
 11
14.6309835012
 21
3.9028695119
 31
0.0
  0
LINE
  5
1E1
330
1D8
100
AcDbEntity
  8
0
  6
Continuous
 62
     7
370
     0
100
AcDbLine
 10
14.6309835012
 20
3.9028695119
 30
0.0
 11
14.6309835012
 21
3.5059944999
 31
0.0
  0
LINE
  5
1E2
330
1D8
100
AcDbEntity
  8
0
  6
Continuous
 62
     7
370
     0
100
AcDbLine
 10
14.6309835012
 20
3.5059944999
 30
0.0
 11
14.554811627
 21
3.5059944999
 31
0.0
  0
LINE
  5
1E3
330
1D8
100
AcDbEntity
  8
0
  6
Continuous
 62
     7
370
     0
100
AcDbLine
 10
14.833219697
 20
1.4047792731
 30
0.0
 11
13.7152282646
 21
1.4047792731
 31
0.0
  0
LINE
  5
1E4
330
1D8
100
AcDbEntity
  8
0
  6
Continuous
 62
     7
370
     0
100
AcDbLine
 10
14.833219697
 20
6.4047792731
 30
0.0
 11
13.7152282646
 21
6.4047792731
 31
0.0
  0
LINE
  5
1E5
330
1D8
100
AcDbEntity
  8
0
  6
Continuous
 62
     7
370
     0
100
AcDbLine
 10
13.9652282646
 20
1.4047792731
 30
0.0
 11
13.9652282646
 21
3.4552133299
 31
0.0
  0
LINE
  5
1E6
330
1D8
100
AcDbEntity
  8
0
  6
Continuous
 62
     7
370
     0
100
AcDbLine
 10
13.9652282646
 20
6.4047792731
 30
0.0
 11
13.9652282646
 21
4.3543452164
 31
0.0
  0
MTEXT
  5
1E7
330
1D8
100
AcDbEntity
  8
0
  6
Continuous
 62
     7
370
    18
100
AcDbMText
 10
13.2246901157
 20
4.2797371669
 30
0.0
 40
0.25
 41
0.0
 71
     1
 72
     1
  1

  7
SLDTEXTSTYLE0
 73
     1
 44
1.0
  0
MTEXT
  5
1E8
330
1D8
100
AcDbEntity
  8
0
  6
Continuous
 62
     7
370
    18
100
AcDbMText
 10
13.8213046714
 20
4.2759177039
 30
0.0
 40
0.25
 41
0.0
 71
     1
 72
     1
  1
5"
  7
SLDTEXTSTYLE0
 73
     1
 44
1.0
  0
MTEXT
  5
1E9
330
1D8
100
AcDbEntity
  8
0
  6
Continuous
 62
     7
370
    18
100
AcDbMText
 10
13.3756449755
 20
3.8282614624
 30
0.0
 40
0.25
 41
0.0
 71
     1
 72
     1
  1
127mm
  7
SLDTEXTSTYLE0
 73
     1
 44
1.0
  0
MTEXT
  5
1EA
330
1D8
100
AcDbEntity
  8
0
  6
Continuous
 62
     7
370
    18
100
AcDbMText
 10
14.8009053205
 20
4.2797371669
 30
0.0
 40
0.25
 41
0.0
 71
     1
 72
     1
  1

  7
SLDTEXTSTYLE0
 73
     1
 44
1.0
  0
ENDBLK
  5
1DA
330
1D8
100
AcDbEntity
  8
0
100
AcDbBlockEnd
  0
BLOCK
  5
1ED
330
1EC
100
AcDbEntity
  8
0
100
AcDbBlockBegin
  2
_D_5
 70
     0
 10
0.0
 20
0.0
 30
0.0
  3
_D_5
  1

  0
SOLID
  5
1EF
330
1EC
100
AcDbEntity
  8
0
  6
Continuous
 62
     7
370
    18
100
AcDbTrace
 10
18.153219697
 20
7.1921808479
 30
0.0
 11
17.893219697
 21
7.2321808479
 31
0.0
 12
17.893219697
 22
7.1521808479
 32
0.0
 13
17.893219697
 23
7.1521808479
 33
0.0
  0
SOLID
  5
1F0
330
1EC
100
AcDbEntity
  8
0
  6
Continuous
 62
     7
370
    18
100
AcDbTrace
 10
14.903219697
 20
7.1921808479
 30
0.0
 11
15.163219697
 21
7.1521808479
 31
0.0
 12
15.163219697
 22
7.2321808479
 32
0.0
 13
15.163219697
 23
7.2321808479
 33
0.0
  0
LINE
  5
1F1
330
1EC
100
AcDbEntity
  8
0
  6
Continuous
 62
     7
370
     0
100
AcDbLine
 10
16.0309975009
 20
7.1902710867
 30
0.0
 11
15.9548256267
 21
7.1902710867
 31
0.0
  0
LINE
  5
1F2
330
1EC
100
AcDbEntity
  8
0
  6
Continuous
 62
     7
370
     0
100
AcDbLine
 10
15.9548256267
 20
7.1902710867
 30
0.0
 11
15.9548256267
 21
6.7933960747
 31
0.0
  0
LINE
  5
1F3
330
1EC
100
AcDbEntity
  8
0
  6
Continuous
 62
     7
370
     0
100
AcDbLine
 10
15.9548256267
 20
6.7933960747
 30
0.0
 11
16.0309975009
 21
6.7933960747
 31
0.0
  0
LINE
  5
1F4
330
1EC
100
AcDbEntity
  8
0
  6
Continuous
 62
     7
370
     0
100
AcDbLine
 10
17.0254419663
 20
7.1902710867
 30
0.0
 11
17.1016138406
 21
7.1902710867
 31
0.0
  0
LINE
  5
1F5
330
1EC
100
AcDbEntity
  8
0
  6
Continuous
 62
     7
370
     0
100
AcDbLine
 10
17.1016138406
 20
7.1902710867
 30
0.0
 11
17.1016138406
 21
6.7933960747
 31
0.0
  0
LINE
  5
1F6
330
1EC
100
AcDbEntity
  8
0
  6
Continuous
 62
     7
370
     0
100
AcDbLine
 10
17.1016138406
 20
6.7933960747
 30
0.0
 11
17.0254419663
 21
6.7933960747
 31
0.0
  0
LINE
  5
1F7
330
1EC
100
AcDbEntity
  8
0
  6
Continuous
 62
     7
370
     0
100
AcDbLine
 10
18.153219697
 20
6.4747792731
 30
0.0
 11
18.153219697
 21
7.4421808479
 31
0.0
  0
LINE
  5
1F8
330
1EC
100
AcDbEntity
  8
0
  6
Continuous
 62
     7
370
     0
100
AcDbLine
 10
14.903219697
 20
6.4747792731
 30
0.0
 11
14.903219697
 21
7.4421808479
 31
0.0
  0
LINE
  5
1F9
330
1EC
100
AcDbEntity
  8
0
  6
Continuous
 62
     7
370
     0
100
AcDbLine
 10
18.153219697
 20
7.1921808479
 30
0.0
 11
17.3208630004
 21
7.1921808479
 31
0.0
  0
LINE
  5
1FA
330
1EC
100
AcDbEntity
  8
0
  6
Continuous
 62
     7
370
     0
100
AcDbLine
 10
14.903219697
 20
7.1921808479
 30
0.0
 11
15.7355763935
 21
7.1921808479
 31
0.0
  0
MTEXT
  5
1FB
330
1EC
100
AcDbEntity
  8
0
  6
Continuous
 62
     7
370
    18
100
AcDbMText
 10
15.8800426411
 20
7.5671387417
 30
0.0
 40
0.25
 41
0.0
 71
     1
 72
     1
  1

  7
SLDTEXTSTYLE0
 73
     1
 44
1.0
  0
MTEXT
  5
1FC
330
1EC
100
AcDbEntity
  8
0
  6
Continuous
 62
     7
370
    18
100
AcDbMText
 10
16.080476671
 20
7.5633192787
 30
0.0
 40
0.25
 41
0.0
 71
     1
 72
     1
  1
3 1/4"
  7
SLDTEXTSTYLE0
 73
     1
 44
1.0
  0
MTEXT
  5
1FD
330
1EC
100
AcDbEntity
  8
0
  6
Continuous
 62
     7
370
    18
100
AcDbMText
 10
16.0309975009
 20
7.1156630372
 30
0.0
 40
0.25
 41
0.0
 71
     1
 72
     1
  1
83mm
  7
SLDTEXTSTYLE0
 73
     1
 44
1.0
  0
MTEXT
  5
1FE
330
1EC
100
AcDbEntity
  8
0
  6
Continuous
 62
     7
370
    18
100
AcDbMText
 10
17.2715356598
 20
7.5671387417
 30
0.0
 40
0.25
 41
0.0
 71
     1
 72
     1
  1

  7
SLDTEXTSTYLE0
 73
     1
 44
1.0
  0
ENDBLK
  5
1EE
330
1EC
100
AcDbEntity
  8
0
100
AcDbBlockEnd
  0
BLOCK
  5
201
330
200
100
AcDbEntity
  8
0
100
AcDbBlockBegin
  2
_D_6
 70
     0
 10
0.0
 20
0.0
 30
0.0
  3
_D_6
  1

  0
SOLID
  5
203
330
200
100
AcDbEntity
  8
0
  6
Continuous
 62
     7
370
    18
100
AcDbTrace
 10
19.4130622167
 20
2.2482792731
 30
0.0
 11
19.4530622167
 21
2.5082792731
 31
0.0
 12
19.3730622167
 22
2.5082792731
 32
0.0
 13
19.3730622167
 23
2.5082792731
 33
0.0
  0
SOLID
  5
204
330
200
100
AcDbEntity
  8
0
  6
Continuous
 62
     7
370
    18
100
AcDbTrace
 10
19.4130622167
 20
5.5612792731
 30
0.0
 11
19.3730622167
 21
5.3012792731
 31
0.0
 12
19.4530622167
 22
5.3012792731
 32
0.0
 13
19.4530622167
 23
5.3012792731
 33
0.0
  0
LINE
  5
205
330
200
100
AcDbEntity
  8
0
  6
Continuous
 62
     7
370
     0
100
AcDbLine
 10
18.4970900197
 20
3.9028695119
 30
0.0
 11
18.4209181455
 21
3.9028695119
 31
0.0
  0
LINE
  5
206
330
200
100
AcDbEntity
  8
0
  6
Continuous
 62
     7
370
     0
100
AcDbLine
 10
18.4209181455
 20
3.9028695119
 30
0.0
 11
18.4209181455
 21
3.5059944999
 31
0.0
  0
LINE
  5
207
330
200
100
AcDbEntity
  8
0
  6
Continuous
 62
     7
370
     0
100
AcDbLine
 10
18.4209181455
 20
3.5059944999
 30
0.0
 11
18.4970900197
 21
3.5059944999
 31
0.0
  0
LINE
  5
208
330
200
100
AcDbEntity
  8
0
  6
Continuous
 62
     7
370
     0
100
AcDbLine
 10
19.4915344851
 20
3.9028695119
 30
0.0
 11
19.5677063594
 21
3.9028695119
 31
0.0
  0
LINE
  5
209
330
200
100
AcDbEntity
  8
0
  6
Continuous
 62
     7
370
     0
100
AcDbLine
 10
19.5677063594
 20
3.9028695119
 30
0.0
 11
19.5677063594
 21
3.5059944999
 31
0.0
  0
LINE
  5
20A
330
200
100
AcDbEntity
  8
0
  6
Continuous
 62
     7
370
     0
100
AcDbLine
 10
19.5677063594
 20
3.5059944999
 30
0.0
 11
19.4915344851
 21
3.5059944999
 31
0.0
  0
LINE
  5
20B
330
200
100
AcDbEntity
  8
0
  6
Continuous
 62
     7
370
     0
100
AcDbLine
 10
16.628219697
 20
2.2482792731
 30
0.0
 11
19.6630622167
 21
2.2482792731
 31
0.0
  0
LINE
  5
20C
330
200
100
AcDbEntity
  8
0
  6
Continuous
 62
     7
370
     0
100
AcDbLine
 10
16.628219697
 20
5.5612792731
 30
0.0
 11
19.6630622167
 21
5.5612792731
 31
0.0
  0
LINE
  5
20D
330
200
100
AcDbEntity
  8
0
  6
Continuous
 62
     7
370
     0
100
AcDbLine
 10
19.4130622167
 20
2.2482792731
 30
0.0
 11
19.4130622167
 21
3.4552133299
 31
0.0
  0
LINE
  5
20E
330
200
100
AcDbEntity
  8
0
  6
Continuous
 62
     7
370
     0
100
AcDbLine
 10
19.4130622167
 20
5.5612792731
 30
0.0
 11
19.4130622167
 21
4.3543452164
 31
0.0
  0
MTEXT
  5
20F
330
200
100
AcDbEntity
  8
0
  6
Continuous
 62
     7
370
    18
100
AcDbMText
 10
18.4542080601
 20
4.2759177039
 30
0.0
 40
0.25
 41
0.0
 71
     1
 72
     1
  1
3 5/16"
  7
SLDTEXTSTYLE0
 73
     1
 44
1.0
  0
MTEXT
  5
210
330
200
100
AcDbEntity
  8
0
  6
Continuous
 62
     7
370
    18
100
AcDbMText
 10
18.4970900197
 20
3.8282614624
 30
0.0
 40
0.25
 41
0.0
 71
     1
 72
     1
  1
84mm
  7
SLDTEXTSTYLE0
 73
     1
 44
1.0
  0
MTEXT
  5
211
330
200
100
AcDbEntity
  8
0
  6
Continuous
 62
     7
370
    18
100
AcDbMText
 10
19.7376281969
 20
4.2797371669
 30
0.0
 40
0.25
 41
0.0
 71
     1
 72
     1
  1
O.C.
  7
SLDTEXTSTYLE0
 73
     1
 44
1.0
  0
ENDBLK
  5
202
330
200
100
AcDbEntity
  8
0
100
AcDbBlockEnd
  0
ENDSEC
  0
SECTION
  2
ENTITIES
  0
LINE
  5
6E
330
1F
100
AcDbEntity
  8
0
  6
Continuous
 62
     7
370
    25
100
AcDbLine
 10
8.6287250749
 20
2.6797792731
 30
0.0
 11
8.7487250749
 21
2.6797792731
 31
0.0
  0
LINE
  5
6F
330
1F
100
AcDbEntity
  8
0
  6
Continuous
 62
     7
370
    25
100
AcDbLine
 10
8.7487250749
 20
5.1297792731
 30
0.0
 11
8.6287250749
 21
5.1297792731
 31
0.0
  0
ARC
  5
70
330
1F
100
AcDbEntity
  8
0
  6
Continuous
 62
     7
370
    25
100
AcDbCircle
 10
8.3674750749
 20
2.7547792731
 30
0.0
 40
0.0600000000000008
100
AcDbArc
 50
41.8103148958
 51
138.1896851042
  0
ARC
  5
71
330
1F
100
AcDbEntity
  8
0
  6
Continuous
 62
     7
370
    25
100
AcDbCircle
 10
8.3674750749
 20
5.0547792731
 30
0.0
 40
0.0600000000000014
100
AcDbArc
 50
221.8103148958
 51
318.1896851042
  0
LINE
  5
72
330
1F
100
AcDbEntity
  8
0
  6
Continuous
 62
     7
370
    25
100
AcDbLine
 10
8.4121964344
 20
2.7947792731
 30
0.0
 11
8.6287250749
 21
2.7947792731
 31
0.0
  0
LINE
  5
73
330
1F
100
AcDbEntity
  8
0
  6
Continuous
 62
     7
370
    25
100
AcDbLine
 10
8.6287250749
 20
5.0147792731
 30
0.0
 11
8.4121964344
 21
5.0147792731
 31
0.0
  0
LINE
  5
74
330
1F
100
AcDbEntity
  8
0
  6
Continuous
 62
     7
370
    25
100
AcDbLine
 10
7.2487250749
 20
2.7947792731
 30
0.0
 11
8.3227537153
 21
2.7947792731
 31
0.0
  0
LINE
  5
75
330
1F
100
AcDbEntity
  8
0
  6
Continuous
 62
     7
370
    25
100
AcDbLine
 10
7.4146072309
 20
5.0147792731
 30
0.0
 11
7.2487250749
 21
5.0147792731
 31
0.0
  0
LINE
  5
76
330
1F
100
AcDbEntity
  8
0
  6
Continuous
 62
     7
370
    25
100
AcDbLine
 10
8.3227537153
 20
5.0147792731
 30
0.0
 11
7.5834694031
 21
5.0147792731
 31
0.0
  0
LINE
  5
77
330
1F
100
AcDbEntity
  8
0
  6
Continuous
 62
     7
370
    25
100
AcDbLine
 10
5.3187250749
 20
2.7947792731
 30
0.0
 11
7.2387250749
 21
2.7947792731
 31
0.0
  0
LINE
  5
78
330
1F
100
AcDbEntity
  8
0
  6
Continuous
 62
     7
370
    25
100
AcDbLine
 10
7.2387250749
 20
5.0147792731
 30
0.0
 11
5.3187250749
 21
5.0147792731
 31
0.0
  0
LINE
  5
79
330
1F
100
AcDbEntity
  8
0
  6
Continuous
 62
     7
370
    25
100
AcDbLine
 10
5.3187250749
 20
5.0147792731
 30
0.0
 11
5.2887250749
 21
4.9847792731
 31
0.0
  0
LINE
  5
7A
330
1F
100
AcDbEntity
  8
0
  6
Continuous
 62
     7
370
    25
100
AcDbLine
 10
5.2887250749
 20
2.8247792731
 30
0.0
 11
5.3187250749
 21
2.7947792731
 31
0.0
  0
ARC
  5
7B
330
1F
100
AcDbEntity
  8
0
  6
Continuous
 62
     7
370
    25
100
AcDbCircle
 10
7.2387250749
 20
5.0047792731
 30
0.0
 40
0.0099999999999998
100
AcDbArc
 50
360.0
 51
90.0
  0
ARC
  5
7C
330
1F
100
AcDbEntity
  8
0
  6
Continuous
 62
     7
370
    25
100
AcDbCircle
 10
7.2387250749
 20
2.8047792731
 30
0.0
 40
0.0100000000000007
100
AcDbArc
 50
270.0
 51
0.0
  0
LINE
  5
7D
330
1F
100
AcDbEntity
  8
0
  6
Continuous
 62
     7
370
    25
100
AcDbLine
 10
2.6367250749
 20
3.6783257942
 30
0.0
 11
3.1367250749
 21
3.6783257942
 31
0.0
  0
LINE
  5
7E
330
1F
100
AcDbEntity
  8
0
  6
Continuous
 62
     7
370
    25
100
AcDbLine
 10
4.9012250749
 20
4.0899827521
 30
0.0
 11
2.3867250749
 21
4.0899827521
 31
0.0
  0
LINE
  5
7F
330
1F
100
AcDbEntity
  8
0
  6
Continuous
 62
     7
370
    25
100
AcDbLine
 10
2.3867250749
 20
3.7195757942
 30
0.0
 11
2.6367250749
 21
3.7195757942
 31
0.0
  0
LINE
  5
80
330
1F
100
AcDbEntity
  8
0
  6
Continuous
 62
     7
370
    25
100
AcDbLine
 10
3.1367250749
 20
3.7195757942
 30
0.0
 11
4.9012250749
 21
3.7195757942
 31
0.0
  0
LINE
  5
81
330
1F
100
AcDbEntity
  8
0
  6
Continuous
 62
     7
370
    25
100
AcDbLine
 10
5.1637250749
 20
3.4097792731
 30
0.0
 11
5.2887250749
 21
3.4097792731
 31
0.0
  0
LINE
  5
82
330
1F
100
AcDbEntity
  8
0
  6
Continuous
 62
     7
370
    25
100
AcDbLine
 10
5.2887250749
 20
4.3997792731
 30
0.0
 11
5.1637250749
 21
4.3997792731
 31
0.0
  0
LINE
  5
83
330
1F
100
AcDbEntity
  8
0
  6
Continuous
 62
     7
370
    25
100
AcDbLine
 10
5.1637250749
 20
4.2485292731
 30
0.0
 11
5.1507250749
 21
4.2485292731
 31
0.0
  0
LINE
  5
84
330
1F
100
AcDbEntity
  8
0
  6
Continuous
 62
     7
370
    25
100
AcDbLine
 10
5.1507250749
 20
3.5610292731
 30
0.0
 11
5.1637250749
 21
3.5610292731
 31
0.0
  0
LINE
  5
85
330
1F
100
AcDbEntity
  8
0
  6
Continuous
 62
     7
370
    25
100
AcDbLine
 10
8.7487250749
 20
1.4347792731
 30
0.0
 11
9.1287250749
 21
1.4347792731
 31
0.0
  0
LINE
  5
86
330
1F
100
AcDbEntity
  8
0
  6
Continuous
 62
     7
370
    25
100
AcDbLine
 10
9.1287250749
 20
1.4347792731
 30
0.0
 11
9.1287250749
 21
1.4047792731
 31
0.0
  0
LINE
  5
87
330
1F
100
AcDbEntity
  8
0
  6
Continuous
 62
     7
370
    25
100
AcDbLine
 10
9.1287250749
 20
1.4047792731
 30
0.0
 11
8.7487250749
 21
1.4047792731
 31
0.0
  0
LINE
  5
88
330
1F
100
AcDbEntity
  8
0
  6
Continuous
 62
     7
370
    25
100
AcDbLine
 10
8.7487250749
 20
1.4047792731
 30
0.0
 11
8.7487250749
 21
1.4347792731
 31
0.0
  0
LINE
  5
89
330
1F
100
AcDbEntity
  8
0
  6
Continuous
 62
     7
370
    25
100
AcDbLine
 10
9.1287250749
 20
6.3747792731
 30
0.0
 11
8.7487250749
 21
6.3747792731
 31
0.0
  0
LINE
  5
8A
330
1F
100
AcDbEntity
  8
0
  6
Continuous
 62
     7
370
    25
100
AcDbLine
 10
9.1287250749
 20
1.4347792731
 30
0.0
 11
9.1287250749
 21
6.3747792731
 31
0.0
  0
LINE
  5
8B
330
1F
100
AcDbEntity
  8
0
  6
Continuous
 62
     7
370
    25
100
AcDbLine
 10
8.7487250749
 20
1.4347792731
 30
0.0
 11
8.7487250749
 21
6.3747792731
 31
0.0
  0
LINE
  5
8C
330
1F
100
AcDbEntity
  8
0
  6
Continuous
 62
     7
370
    25
100
AcDbLine
 10
8.7487250749
 20
6.4047792731
 30
0.0
 11
9.1287250749
 21
6.4047792731
 31
0.0
  0
LINE
  5
8D
330
1F
100
AcDbEntity
  8
0
  6
Continuous
 62
     7
370
    25
100
AcDbLine
 10
9.1287250749
 20
6.4047792731
 30
0.0
 11
9.1287250749
 21
6.3747792731
 31
0.0
  0
LINE
  5
8E
330
1F
100
AcDbEntity
  8
0
  6
Continuous
 62
     7
370
    25
100
AcDbLine
 10
8.7487250749
 20
6.3747792731
 30
0.0
 11
8.7487250749
 21
6.4047792731
 31
0.0
  0
LINE
  5
8F
330
1F
100
AcDbEntity
  8
0
  6
Continuous
 62
     7
370
    25
100
AcDbLine
 10
8.6287250749
 20
3.9047792731
 30
0.0
 11
8.6287250749
 21
5.1297792731
 31
0.0
  0
LINE
  5
90
330
1F
100
AcDbEntity
  8
0
  6
Continuous
 62
     7
370
    25
100
AcDbLine
 10
8.6287250749
 20
2.6797792731
 30
0.0
 11
8.6287250749
 21
3.9047792731
 31
0.0
  0
LINE
  5
91
330
1F
100
AcDbEntity
  8
0
  6
Continuous
 62
     7
370
    25
100
AcDbLine
 10
8.4121964344
 20
3.9047792731
 30
0.0
 11
8.4121964344
 21
5.0147792731
 31
0.0
  0
LINE
  5
92
330
1F
100
AcDbEntity
  8
0
  6
Continuous
 62
     7
370
    25
100
AcDbLine
 10
8.4121964344
 20
2.7947792731
 30
0.0
 11
8.4121964344
 21
3.9047792731
 31
0.0
  0
LINE
  5
93
330
1F
100
AcDbEntity
  8
0
  6
Continuous
 62
     7
370
    25
100
AcDbLine
 10
8.3227537153
 20
3.9047792731
 30
0.0
 11
8.3227537153
 21
5.0147792731
 31
0.0
  0
LINE
  5
94
330
1F
100
AcDbEntity
  8
0
  6
Continuous
 62
     7
370
    25
100
AcDbLine
 10
8.3227537153
 20
2.7947792731
 30
0.0
 11
8.3227537153
 21
3.9047792731
 31
0.0
  0
LINE
  5
95
330
1F
100
AcDbEntity
  8
0
  6
Continuous
 62
     7
370
    25
100
AcDbLine
 10
7.2487250749
 20
3.9047792731
 30
0.0
 11
7.2487250749
 21
5.0147792731
 31
0.0
  0
LINE
  5
96
330
1F
100
AcDbEntity
  8
0
  6
Continuous
 62
     7
370
    25
100
AcDbLine
 10
7.2487250749
 20
2.7947792731
 30
0.0
 11
7.2487250749
 21
3.9047792731
 31
0.0
  0
SPLINE
  5
97
330
1F
100
AcDbEntity
  8
0
  6
Continuous
 62
     7
370
    25
100
AcDbSpline
210
0.0
220
0.0
230
1.0
 70
     8
 71
     3
 72
    18
 73
    14
 74
     0
 42
0.00000001
 43
0.00000001
 40
0.0
 40
0.0
 40
0.0
 40
0.0
 40
0.0060217174030574
 40
0.1076951400217214
 40
0.2094308751320465
 40
0.3137583508962233
 40
0.4218092491754448
 40
0.5330407012535671
 40
0.6457841065821902
 40
0.7579452724954627
 40
0.8674377980181066
 40
0.9729927665633148
 40
0.9999999999999999
 40
0.9999999999999999
 40
0.9999999999999999
 40
0.9999999999999999
 10
7.583469403137941
 20
5.014761505245344
 30
0.0
 10
7.583554086124153
 20
5.014767387993206
 30
0.0
 10
7.585068595266146
 20
5.014872597738613
 30
0.0
 10
7.579504304133851
 20
5.01447460210933
 30
0.0
 10
7.566700256519074
 20
5.013649862225924
 30
0.0
 10
7.545577704756014
 20
5.012589862383575
 30
0.0
 10
7.51918555589805
 20
5.011811563947163
 30
0.0
 10
7.489779428796385
 20
5.011658058757759
 30
0.0
 10
7.461056858865549
 20
5.012240189237456
 30
0.0
 10
7.436509663129909
 20
5.013316219368464
 30
0.0
 10
7.42034005973657
 20
5.014306273744319
 30
0.0
 10
7.413056198504537
 20
5.014826252478804
 30
0.0
 10
7.414344717593604
 20
5.014735674740881
 30
0.0
 10
7.414607230853838
 20
5.014717221108731
 30
0.0
  0
SPLINE
  5
98
330
1F
100
AcDbEntity
  8
0
  6
Continuous
 62
     7
370
    25
100
AcDbSpline
210
0.0
220
0.0
230
1.0
 70
    11
 71
     3
 72
    26
 73
    22
 74
     0
 42
0.00000001
 43
0.00000001
 40
0.0
 40
0.0
 40
0.0
 40
0.0
 40
0.047458196258598
 40
0.1001153071792775
 40
0.1512625975550418
 40
0.2019666159786794
 40
0.2536077575076184
 40
0.3070206782631726
 40
0.3621945091141365
 40
0.4184357349873674
 40
0.4747391662415997
 40
0.5300332319414974
 40
0.5834829016945918
 40
0.6350591220999201
 40
0.6857456411559482
 40
0.7369621202002865
 40
0.7897725701786863
 40
0.8444370658924263
 40
0.9004400547798298
 40
0.9568401303711098
 40
1.0
 40
1.0
 40
1.0
 40
1.0
 10
7.435154575505567
 20
3.303338320599999
 30
0.0
 10
7.430075357062021
 20
3.308898846857011
 30
0.0
 10
7.419360505786688
 20
3.320629039704329
 30
0.0
 10
7.412584927361486
 20
3.343102346780367
 30
0.0
 10
7.414616619940797
 20
3.366785232132714
 30
0.0
 10
7.425593043989529
 20
3.388747243376959
 30
0.0
 10
7.444247460725157
 20
3.406848764736321
 30
0.0
 10
7.469123320316883
 20
3.419139720898421
 30
0.0
 10
7.497894474134768
 20
3.423752223197339
 30
0.0
 10
7.527287679623121
 20
3.419573469829654
 30
0.0
 10
7.553507460305115
 20
3.406857060688433
 30
0.0
 10
7.573061728484865
 20
3.387400944196925
 30
0.0
 10
7.5836226449241
 20
3.364126191961324
 30
0.0
 10
7.584493873153882
 20
3.340158144808633
 30
0.0
 10
7.57623395727593
 20
3.317991421355207
 30
0.0
 10
7.559883730555891
 20
3.299437785895146
 30
0.0
 10
7.536786183842973
 20
3.286090465293053
 30
0.0
 10
7.508912101128017
 20
3.279440519282826
 30
0.0
 10
7.479421419920804
 20
3.280743591341822
 30
0.0
 10
7.453479820149411
 20
3.28910345479101
 30
0.0
 10
7.440696308940285
 20
3.299033557780971
 30
0.0
 10
7.435154575505567
 20
3.303338320599999
 30
0.0
  0
SPLINE
  5
99
330
1F
100
AcDbEntity
  8
0
  6
Continuous
 62
     7
370
    25
100
AcDbSpline
210
0.0
220
0.0
230
1.0
 70
     8
 71
     3
 72
    11
 73
     7
 74
     0
 42
0.00000001
 43
0.00000001
 40
0.0
 40
0.0
 40
0.0
 40
0.0
 40
0.2605004864962381
 40
0.5209873405303457
 40
0.7818278532932494
 40
1.0
 40
1.0
 40
1.0
 40
1.0
 10
7.498725074850652
 20
3.329507661797063
 30
0.0
 10
7.50637298449895
 20
3.330128702302149
 30
0.0
 10
7.521668403566584
 20
3.331370750812148
 30
0.0
 10
7.541843344199744
 20
3.341193051700869
 30
0.0
 10
7.557049182214114
 20
3.354754907824365
 30
0.0
 10
7.56156539623329
 20
3.36618597332604
 30
0.0
 10
7.563622360883539
 20
3.371392391257472
 30
0.0
  0
SPLINE
  5
9A
330
1F
100
AcDbEntity
  8
0
  6
Continuous
 62
     7
370
    25
100
AcDbSpline
210
0.0
220
0.0
230
1.0
 70
     8
 71
     3
 72
    12
 73
     8
 74
     0
 42
0.00000001
 43
0.00000001
 40
0.0
 40
0.0
 40
0.0
 40
0.0
 40
0.0574584635731158
 40
0.3160251928729451
 40
0.5750752772836282
 40
0.8343436385828236
 40
1.0
 40
1.0
 40
1.0
 40
1.0
 10
7.433826464628838
 20
3.371828559589672
 30
0.0
 10
7.434077376074558
 20
3.370386461675137
 30
0.0
 10
7.435457404935355
 20
3.362454831707296
 30
0.0
 10
7.445280192296462
 20
3.349998967211643
 30
0.0
 10
7.462229188893104
 20
3.337064776568658
 30
0.0
 10
7.481363056140504
 20
3.330437951210627
 30
0.0
 10
7.49385507660037
 20
3.32976860540575
 30
0.0
 10
7.498725074850652
 20
3.329507661797063
 30
0.0
  0
LWPOLYLINE
  5
9B
330
1F
100
AcDbEntity
  8
0
  6
Continuous
 62
     7
370
    25
100
AcDbPolyline
 90
       21
 70
   128
 43
0.0
 10
7.4987250749
 20
3.2993895457
 10
7.5197382305
 20
3.3022718141
 10
7.538694472
 20
3.3106364828
 10
7.5537382305
 20
3.3236647598
 10
7.563396918
 20
3.3400813466
 10
7.5667250749
 20
3.3582792731
 10
7.563396918
 20
3.3764771997
 10
7.5537382305
 20
3.3928937864
 10
7.538694472
 20
3.4059220634
 10
7.5197382305
 20
3.4142867322
 10
7.4987250749
 20
3.4171690006
 10
7.4777119192
 20
3.4142867322
 10
7.4587556777
 20
3.4059220634
 10
7.4437119192
 20
3.3928937864
 10
7.4340532317
 20
3.3764771997
 10
7.4307250749
 20
3.3582792731
 10
7.4340532317
 20
3.3400813466
 10
7.4437119192
 20
3.3236647598
 10
7.4587556777
 20
3.3106364828
 10
7.4777119192
 20
3.3022718141
 10
7.4987250749
 20
3.2993895457
  0
LINE
  5
9C
330
1F
100
AcDbEntity
  8
0
  6
Continuous
 62
     7
370
    25
100
AcDbLine
 10
5.3187250749
 20
5.0147792731
 30
0.0
 11
5.3187250749
 21
2.7947792731
 31
0.0
  0
LINE
  5
9D
330
1F
100
AcDbEntity
  8
0
  6
Continuous
 62
     7
370
    25
100
AcDbLine
 10
5.2887250749
 20
2.8247792731
 30
0.0
 11
5.2887250749
 21
4.9847792731
 31
0.0
  0
LINE
  5
9E
330
1F
100
AcDbEntity
  8
0
  6
Continuous
 62
     7
370
    25
100
AcDbLine
 10
3.1367250749
 20
3.9152657265
 30
0.0
 11
3.1367250749
 21
3.6783257942
 31
0.0
  0
LINE
  5
9F
330
1F
100
AcDbEntity
  8
0
  6
Continuous
 62
     7
370
    25
100
AcDbLine
 10
2.6367250749
 20
3.9152657265
 30
0.0
 11
2.6367250749
 21
3.6783257942
 31
0.0
  0
LINE
  5
A0
330
1F
100
AcDbEntity
  8
0
  6
Continuous
 62
     7
370
    25
100
AcDbLine
 10
4.9012250749
 20
3.9025913443
 30
0.0
 11
3.1367250749
 21
3.9025913443
 31
0.0
  0
LINE
  5
A1
330
1F
100
AcDbEntity
  8
0
  6
Continuous
 62
     7
370
    25
100
AcDbLine
 10
2.6367250749
 20
3.9025913443
 30
0.0
 11
2.3867250749
 21
3.9025913443
 31
0.0
  0
LINE
  5
A2
330
1F
100
AcDbEntity
  8
0
  6
Continuous
 62
     7
370
    25
100
AcDbLine
 10
2.3867250749
 20
4.0899827521
 30
0.0
 11
2.3867250749
 21
3.9025913443
 31
0.0
  0
LINE
  5
A3
330
1F
100
AcDbEntity
  8
0
  6
Continuous
 62
     7
370
    25
100
AcDbLine
 10
4.9012250749
 20
3.8959680674
 30
0.0
 11
3.1367250749
 21
3.8959680674
 31
0.0
  0
LINE
  5
A4
330
1F
100
AcDbEntity
  8
0
  6
Continuous
 62
     7
370
    25
100
AcDbLine
 10
2.6367250749
 20
3.8959680674
 30
0.0
 11
2.3867250749
 21
3.8959680674
 31
0.0
  0
LINE
  5
A5
330
1F
100
AcDbEntity
  8
0
  6
Continuous
 62
     7
370
    25
100
AcDbLine
 10
2.3867250749
 20
3.8959680674
 30
0.0
 11
2.3867250749
 21
3.7195757942
 31
0.0
  0
LINE
  5
A6
330
1F
100
AcDbEntity
  8
0
  6
Continuous
 62
     7
370
    25
100
AcDbLine
 10
2.3867250749
 20
3.9025913443
 30
0.0
 11
2.3867250749
 21
3.8959680674
 31
0.0
  0
LINE
  5
A7
330
1F
100
AcDbEntity
  8
0
  6
Continuous
 62
     7
370
    25
100
AcDbLine
 10
5.1637250749
 20
4.3997792731
 30
0.0
 11
5.1637250749
 21
3.4097792731
 31
0.0
  0
LINE
  5
A8
330
1F
100
AcDbEntity
  8
0
  6
Continuous
 62
     7
370
    25
100
AcDbLine
 10
5.1507250749
 20
4.2485292731
 30
0.0
 11
5.1507250749
 21
3.5610292731
 31
0.0
  0
LINE
  5
A9
330
1F
100
AcDbEntity
  8
0
  6
Continuous
 62
     7
370
    25
100
AcDbLine
 10
4.9212250749
 20
3.5882196863
 30
0.0
 11
4.9212250749
 21
4.1369405599
 31
0.0
  0
LINE
  5
AA
330
1F
100
AcDbEntity
  8
0
  6
Continuous
 62
     7
370
    25
100
AcDbLine
 10
4.9212250749
 20
3.5882196863
 30
0.0
 11
4.9012250749
 21
3.6040098456
 31
0.0
  0
LINE
  5
AB
330
1F
100
AcDbEntity
  8
0
  6
Continuous
 62
     7
370
    25
100
AcDbLine
 10
4.9012250749
 20
4.1527307192
 30
0.0
 11
4.9012250749
 21
3.6040098456
 31
0.0
  0
SPLINE
  5
AC
330
1F
100
AcDbEntity
  8
0
  6
Continuous
 62
     7
370
    25
100
AcDbSpline
210
0.0
220
0.0
230
1.0
 70
     8
 71
     3
 72
     9
 73
     5
 74
     0
 42
0.00000001
 43
0.00000001
 40
0.0
 40
0.0
 40
0.0
 40
0.0
 40
0.9332117044284142
 40
0.9999999999999999
 40
0.9999999999999999
 40
0.9999999999999999
 40
0.9999999999999999
 10
4.901225074850655
 20
4.152730719212774
 30
0.0
 10
4.906935188091098
 20
4.147785246965131
 30
0.0
 10
4.91305396394158
 20
4.142485836098149
 30
0.0
 10
4.920713507023364
 20
4.137287732408934
 30
0.0
 10
4.921225074850653
 20
4.136940559923326
 30
0.0
  0
LINE
  5
AD
330
1F
100
AcDbEntity
  8
0
  6
Continuous
 62
     7
370
    25
100
AcDbLine
 10
4.9612250749
 20
3.5882196863
 30
0.0
 11
4.9612250749
 21
4.1369405599
 31
0.0
  0
LINE
  5
AE
330
1F
100
AcDbEntity
  8
0
  6
Continuous
 62
     7
370
    25
100
AcDbLine
 10
4.9612250749
 20
3.5882196863
 30
0.0
 11
4.9412250749
 21
3.6040098456
 31
0.0
  0
LINE
  5
AF
330
1F
100
AcDbEntity
  8
0
  6
Continuous
 62
     7
370
    25
100
AcDbLine
 10
4.9412250749
 20
4.1527307192
 30
0.0
 11
4.9412250749
 21
3.6040098456
 31
0.0
  0
SPLINE
  5
B0
330
1F
100
AcDbEntity
  8
0
  6
Continuous
 62
     7
370
    25
100
AcDbSpline
210
0.0
220
0.0
230
1.0
 70
     8
 71
     3
 72
     9
 73
     5
 74
     0
 42
0.00000001
 43
0.00000001
 40
0.0
 40
0.0
 40
0.0
 40
0.0
 40
0.9332117044283816
 40
1.0
 40
1.0
 40
1.0
 40
1.0
 10
4.941225074850651
 20
4.152730719212774
 30
0.0
 10
4.946935188091076
 20
4.14778524696513
 30
0.0
 10
4.95305396394154
 20
4.142485836098146
 30
0.0
 10
4.960713507023366
 20
4.137287732408934
 30
0.0
 10
4.961225074850658
 20
4.136940559923326
 30
0.0
  0
SPLINE
  5
B1
330
1F
100
AcDbEntity
  8
0
  6
Continuous
 62
     7
370
    25
100
AcDbSpline
210
0.0
220
0.0
230
1.0
 70
     8
 71
     3
 72
     9
 73
     5
 74
     0
 42
0.00000001
 43
0.00000001
 40
0.0
 40
0.0
 40
0.0
 40
0.0
 40
0.9332117044283083
 40
1.0
 40
1.0
 40
1.0
 40
1.0
 10
4.941225074850649
 20
3.604009845568579
 30
0.0
 10
4.935514961610197
 20
3.599064373320995
 30
0.0
 10
4.929396185759708
 20
3.593764962454076
 30
0.0
 10
4.921736642677931
 20
3.588566858764795
 30
0.0
 10
4.921225074850644
 20
3.588219686279183
 30
0.0
  0
LINE
  5
B2
330
1F
100
AcDbEntity
  8
0
  6
Continuous
 62
     7
370
    25
100
AcDbLine
 10
4.9212250749
 20
4.1369405599
 30
0.0
 11
4.9412250749
 21
4.1527307192
 31
0.0
  0
LINE
  5
B3
330
1F
100
AcDbEntity
  8
0
  6
Continuous
 62
     7
370
    25
100
AcDbLine
 10
4.9812250749
 20
4.1527307192
 30
0.0
 11
4.9812250749
 21
3.6040098456
 31
0.0
  0
SPLINE
  5
B4
330
1F
100
AcDbEntity
  8
0
  6
Continuous
 62
     7
370
    25
100
AcDbSpline
210
0.0
220
0.0
230
1.0
 70
     8
 71
     3
 72
     9
 73
     5
 74
     0
 42
0.00000001
 43
0.00000001
 40
0.0
 40
0.0
 40
0.0
 40
0.0
 40
0.9332117044283054
 40
1.0
 40
1.0
 40
1.0
 40
1.0
 10
4.981225074850646
 20
3.604009845568579
 30
0.0
 10
4.975514961610197
 20
3.599064373320994
 30
0.0
 10
4.96939618575971
 20
3.593764962454075
 30
0.0
 10
4.961736642677937
 20
3.588566858764795
 30
0.0
 10
4.961225074850649
 20
3.588219686279182
 30
0.0
  0
LINE
  5
B5
330
1F
100
AcDbEntity
  8
0
  6
Continuous
 62
     7
370
    25
100
AcDbLine
 10
4.9612250749
 20
4.1369405599
 30
0.0
 11
4.9812250749
 21
4.1527307192
 31
0.0
  0
LINE
  5
B6
330
1F
100
AcDbEntity
  8
0
  6
Continuous
 62
     7
370
    25
100
AcDbLine
 10
5.0212250749
 20
4.1527307192
 30
0.0
 11
5.0212250749
 21
3.6040098456
 31
0.0
  0
SPLINE
  5
B7
330
1F
100
AcDbEntity
  8
0
  6
Continuous
 62
     7
370
    25
100
AcDbSpline
210
0.0
220
0.0
230
1.0
 70
     8
 71
     3
 72
     9
 73
     5
 74
     0
 42
0.00000001
 43
0.00000001
 40
0.0
 40
0.0
 40
0.0
 40
0.0
 40
0.9332117044283075
 40
1.0
 40
1.0
 40
1.0
 40
1.0
 10
5.021225074850652
 20
3.604009845568579
 30
0.0
 10
5.015514961610203
 20
3.599064373320995
 30
0.0
 10
5.009396185759714
 20
3.593764962454075
 30
0.0
 10
5.001736642677933
 20
3.588566858764795
 30
0.0
 10
5.001225074850645
 20
3.588219686279183
 30
0.0
  0
LINE
  5
B8
330
1F
100
AcDbEntity
  8
0
  6
Continuous
 62
     7
370
    25
100
AcDbLine
 10
5.0012250749
 20
3.5882196863
 30
0.0
 11
5.0012250749
 21
4.1369405599
 31
0.0
  0
LINE
  5
B9
330
1F
100
AcDbEntity
  8
0
  6
Continuous
 62
     7
370
    25
100
AcDbLine
 10
5.0012250749
 20
4.1369405599
 30
0.0
 11
5.0212250749
 21
4.1527307192
 31
0.0
  0
LINE
  5
BA
330
1F
100
AcDbEntity
  8
0
  6
Continuous
 62
     7
370
    25
100
AcDbLine
 10
5.0412250749
 20
3.5882196863
 30
0.0
 11
5.0412250749
 21
4.1369405599
 31
0.0
  0
LINE
  5
BB
330
1F
100
AcDbEntity
  8
0
  6
Continuous
 62
     7
370
    25
100
AcDbLine
 10
5.0412250749
 20
3.5882196863
 30
0.0
 11
5.0212250749
 21
3.6040098456
 31
0.0
  0
SPLINE
  5
BC
330
1F
100
AcDbEntity
  8
0
  6
Continuous
 62
     7
370
    25
100
AcDbSpline
210
0.0
220
0.0
230
1.0
 70
     8
 71
     3
 72
     9
 73
     5
 74
     0
 42
0.00000001
 43
0.00000001
 40
0.0
 40
0.0
 40
0.0
 40
0.0
 40
0.9332117044283814
 40
1.0
 40
1.0
 40
1.0
 40
1.0
 10
5.021225074850652
 20
4.152730719212774
 30
0.0
 10
5.02693518809108
 20
4.14778524696513
 30
0.0
 10
5.033053963941547
 20
4.142485836098146
 30
0.0
 10
5.040713507023366
 20
4.137287732408934
 30
0.0
 10
5.041225074850659
 20
4.136940559923326
 30
0.0
  0
LINE
  5
BD
330
1F
100
AcDbEntity
  8
0
  6
Continuous
 62
     7
370
    25
100
AcDbLine
 10
5.0012250749
 20
3.5882196863
 30
0.0
 11
4.9812250749
 21
3.6040098456
 31
0.0
  0
SPLINE
  5
BE
330
1F
100
AcDbEntity
  8
0
  6
Continuous
 62
     7
370
    25
100
AcDbSpline
210
0.0
220
0.0
230
1.0
 70
     8
 71
     3
 72
     9
 73
     5
 74
     0
 42
0.00000001
 43
0.00000001
 40
0.0
 40
0.0
 40
0.0
 40
0.0
 40
0.9332117044284172
 40
1.0
 40
1.0
 40
1.0
 40
1.0
 10
4.981225074850646
 20
4.152730719212774
 30
0.0
 10
4.986935188091094
 20
4.147785246965131
 30
0.0
 10
4.993053963941579
 20
4.142485836098149
 30
0.0
 10
5.000713507023364
 20
4.137287732408934
 30
0.0
 10
5.001225074850654
 20
4.136940559923327
 30
0.0
  0
LINE
  5
BF
330
1F
100
AcDbEntity
  8
0
  6
Continuous
 62
     7
370
    25
100
AcDbLine
 10
5.0612250749
 20
4.1527307192
 30
0.0
 11
5.0612250749
 21
3.6040098456
 31
0.0
  0
SPLINE
  5
C0
330
1F
100
AcDbEntity
  8
0
  6
Continuous
 62
     7
370
    25
100
AcDbSpline
210
0.0
220
0.0
230
1.0
 70
     8
 71
     3
 72
     9
 73
     5
 74
     0
 42
0.00000001
 43
0.00000001
 40
0.0
 40
0.0
 40
0.0
 40
0.0
 40
0.9332117044283416
 40
1.0
 40
1.0
 40
1.0
 40
1.0
 10
5.061225074850649
 20
3.604009845568579
 30
0.0
 10
5.055514961610182
 20
3.599064373320996
 30
0.0
 10
5.049396185759674
 20
3.593764962454078
 30
0.0
 10
5.041736642677936
 20
3.588566858764795
 30
0.0
 10
5.04122507485065
 20
3.588219686279183
 30
0.0
  0
LINE
  5
C1
330
1F
100
AcDbEntity
  8
0
  6
Continuous
 62
     7
370
    25
100
AcDbLine
 10
5.0412250749
 20
4.1369405599
 30
0.0
 11
5.0612250749
 21
4.1527307192
 31
0.0
  0
LINE
  5
C2
330
1F
100
AcDbEntity
  8
0
  6
Continuous
 62
     7
370
    25
100
AcDbLine
 10
5.0807250749
 20
3.5885587187
 30
0.0
 11
5.0612250749
 21
3.6040098456
 31
0.0
  0
SPLINE
  5
C3
330
1F
100
AcDbEntity
  8
0
  6
Continuous
 62
     7
370
    25
100
AcDbSpline
210
0.0
220
0.0
230
1.0
 70
     8
 71
     3
 72
     9
 73
     5
 74
     0
 42
0.00000001
 43
0.00000001
 40
0.0
 40
0.0
 40
0.0
 40
0.0
 40
0.9539537040202161
 40
1.0
 40
1.0
 40
1.0
 40
1.0
 10
5.061225074850649
 20
4.152730719212774
 30
0.0
 10
5.066933839525525
 20
4.14778520217952
 30
0.0
 10
5.072918159991831
 20
4.142600970478955
 30
0.0
 10
5.080381419399017
 20
4.137513836008115
 30
0.0
 10
5.080725074850652
 20
4.137279592308582
 30
0.0
  0
LINE
  5
C4
330
1F
100
AcDbEntity
  8
0
  6
Continuous
 62
     7
370
    25
100
AcDbLine
 10
5.0807250749
 20
4.1372795923
 30
0.0
 11
5.0807250749
 21
3.5885587187
 31
0.0
  0
LINE
  5
C5
330
1F
100
AcDbEntity
  8
0
  6
Continuous
 62
     7
370
    25
100
AcDbLine
 10
5.1507250749
 20
3.6074536153
 30
0.0
 11
5.0807250749
 21
3.6074536153
 31
0.0
  0
LINE
  5
C6
330
1F
100
AcDbEntity
  8
0
  6
Continuous
 62
     7
370
    25
100
AcDbLine
 10
5.0807250749
 20
4.156174489
 30
0.0
 11
5.1507250749
 21
4.156174489
 31
0.0
  0
LINE
  5
C7
330
1F
100
AcDbEntity
  8
0
  6
Continuous
 62
     7
370
    25
100
AcDbLine
 10
4.9212250749
 20
4.22133886
 30
0.0
 11
4.9012250749
 21
4.2055487007
 31
0.0
  0
SPLINE
  5
C8
330
1F
100
AcDbEntity
  8
0
  6
Continuous
 62
     7
370
    25
100
AcDbSpline
210
0.0
220
0.0
230
1.0
 70
     8
 71
     3
 72
     9
 73
     5
 74
     0
 42
0.00000001
 43
0.00000001
 40
0.0
 40
0.0
 40
0.0
 40
0.0
 40
0.933211704428668
 40
0.9999999999999999
 40
0.9999999999999999
 40
0.9999999999999999
 40
0.9999999999999999
 10
4.941225074850649
 20
4.205548700701367
 30
0.0
 10
4.935514961610218
 20
4.210494172948953
 30
0.0
 10
4.929396185759748
 20
4.215793583815874
 30
0.0
 10
4.921736642677931
 20
4.220991687505154
 30
0.0
 10
4.921225074850644
 20
4.221338859990763
 30
0.0
  0
LINE
  5
C9
330
1F
100
AcDbEntity
  8
0
  6
Continuous
 62
     7
370
    25
100
AcDbLine
 10
4.9612250749
 20
4.22133886
 30
0.0
 11
4.9412250749
 21
4.2055487007
 31
0.0
  0
SPLINE
  5
CA
330
1F
100
AcDbEntity
  8
0
  6
Continuous
 62
     7
370
    25
100
AcDbSpline
210
0.0
220
0.0
230
1.0
 70
     8
 71
     3
 72
     9
 73
     5
 74
     0
 42
0.00000001
 43
0.00000001
 40
0.0
 40
0.0
 40
0.0
 40
0.0
 40
0.9332117044286674
 40
0.9999999999999999
 40
0.9999999999999999
 40
0.9999999999999999
 40
0.9999999999999999
 10
4.981225074850647
 20
4.205548700701366
 30
0.0
 10
4.975514961610218
 20
4.210494172948953
 30
0.0
 10
4.969396185759755
 20
4.215793583815874
 30
0.0
 10
4.961736642677939
 20
4.220991687505153
 30
0.0
 10
4.961225074850649
 20
4.221338859990763
 30
0.0
  0
LINE
  5
CB
330
1F
100
AcDbEntity
  8
0
  6
Continuous
 62
     7
370
    25
100
AcDbLine
 10
5.0012250749
 20
4.22133886
 30
0.0
 11
4.9812250749
 21
4.2055487007
 31
0.0
  0
SPLINE
  5
CC
330
1F
100
AcDbEntity
  8
0
  6
Continuous
 62
     7
370
    25
100
AcDbSpline
210
0.0
220
0.0
230
1.0
 70
     8
 71
     3
 72
     9
 73
     5
 74
     0
 42
0.00000001
 43
0.00000001
 40
0.0
 40
0.0
 40
0.0
 40
0.0
 40
0.9332117044286672
 40
1.0
 40
1.0
 40
1.0
 40
1.0
 10
5.021225074850651
 20
4.205548700701367
 30
0.0
 10
5.015514961610219
 20
4.210494172948954
 30
0.0
 10
5.00939618575975
 20
4.215793583815875
 30
0.0
 10
5.001736642677934
 20
4.220991687505154
 30
0.0
 10
5.001225074850645
 20
4.221338859990763
 30
0.0
  0
LINE
  5
CD
330
1F
100
AcDbEntity
  8
0
  6
Continuous
 62
     7
370
    25
100
AcDbLine
 10
5.0412250749
 20
4.22133886
 30
0.0
 11
5.0212250749
 21
4.2055487007
 31
0.0
  0
SPLINE
  5
CE
330
1F
100
AcDbEntity
  8
0
  6
Continuous
 62
     7
370
    25
100
AcDbSpline
210
0.0
220
0.0
230
1.0
 70
     8
 71
     3
 72
     9
 73
     5
 74
     0
 42
0.00000001
 43
0.00000001
 40
0.0
 40
0.0
 40
0.0
 40
0.0
 40
0.9332117044287015
 40
0.9999999999999999
 40
0.9999999999999999
 40
0.9999999999999999
 40
0.9999999999999999
 10
5.061225074850649
 20
4.205548700701367
 30
0.0
 10
5.0555149616102
 20
4.210494172948951
 30
0.0
 10
5.049396185759714
 20
4.215793583815871
 30
0.0
 10
5.041736642677936
 20
4.220991687505153
 30
0.0
 10
5.04122507485065
 20
4.221338859990763
 30
0.0
  0
LINE
  5
CF
330
1F
100
AcDbEntity
  8
0
  6
Continuous
 62
     7
370
    25
100
AcDbLine
 10
5.0807250749
 20
4.2209998276
 30
0.0
 11
5.0612250749
 21
4.2055487007
 31
0.0
  0
LINE
  5
D0
330
1F
100
AcDbEntity
  8
0
  6
Continuous
 62
     7
370
    25
100
AcDbLine
 10
5.0807250749
 20
4.2021049309
 30
0.0
 11
5.0807250749
 21
4.2209998276
 31
0.0
  0
LINE
  5
D1
330
1F
100
AcDbEntity
  8
0
  6
Continuous
 62
     7
370
    25
100
AcDbLine
 10
5.1507250749
 20
4.2021049309
 30
0.0
 11
5.0807250749
 21
4.2021049309
 31
0.0
  0
LINE
  5
D2
330
1F
100
AcDbEntity
  8
0
  6
Continuous
 62
     7
370
    25
100
AcDbLine
 10
4.9012250749
 20
4.2055487007
 30
0.0
 11
4.9012250749
 21
4.1527307192
 31
0.0
  0
LINE
  5
D3
330
1F
100
AcDbEntity
  8
0
  6
Continuous
 62
     7
370
    25
100
AcDbLine
 10
5.0807250749
 20
4.1372795923
 30
0.0
 11
5.0807250749
 21
4.156174489
 31
0.0
  0
LINE
  5
D4
330
1F
100
AcDbEntity
  8
0
  6
Continuous
 62
     7
370
    25
100
AcDbLine
 10
7.2387250749
 20
2.7947792731
 30
0.0
 11
7.2387250749
 21
5.0147792731
 31
0.0
  0
LINE
  5
D5
330
1F
100
AcDbEntity
  8
VP
100
AcDbLine
 10
8.8987250749
 20
3.908669835
 30
0.0
 11
9.1287250749
 21
3.908669835
 31
0.0
  0
DIMENSION
  5
D6
330
1F
100
AcDbEntity
  8
0
  6
Continuous
 62
     7
370
    18
100
AcDbDimension
  2
_D
 10
8.8987250749
 20
3.908669835
 30
0.0
 11
11.2199910601
 21
3.3156948398
 31
0.0
 70
   162
  1
<> LOUVER\PANGLE
 71
     1
 42
-1.0
  3
SLDDIMSTYLE0
100
AcDb2LineAngularDimension
 13
9.1287250749
 23
3.8383792731
 33
0.0
 14
8.8987250749
 24
3.971169835
 34
0.0
 15
9.1287250749
 25
3.908669835
 35
0.0
 16
10.8553082514
 26
2.5548894805
 36
0.0
  0
DIMENSION
  5
E5
330
1F
100
AcDbEntity
  8
0
  6
Continuous
 62
     7
370
    18
100
AcDbDimension
  2
_D_1
 10
1.5993235
 20
2.7947792731
 30
0.0
 11
1.5993235
 21
3.9047792731
 31
0.0
 70
   160
  1
%%c<>
 71
     2
 42
-1.0
  3
SLDDIMSTYLE1
100
AcDbAlignedDimension
 13
5.3187250749
 23
5.0147792731
 33
0.0
 14
5.3187250749
 24
2.7947792731
 34
0.0
 50
90.0
100
AcDbRotatedDimension
  0
DIMENSION
  5
F9
330
1F
100
AcDbEntity
  8
0
  6
Continuous
 62
     7
370
    18
100
AcDbDimension
  2
_D_2
 10
4.9012250749
 20
7.1921808479
 30
0.0
 11
6.8249750749
 21
7.1921808479
 31
0.0
 70
   160
  1
<>
 71
     2
 42
-1.0
  3
SLDDIMSTYLE1
100
AcDbAlignedDimension
 13
8.7487250749
 23
6.4047792731
 33
0.0
 14
4.9012250749
 24
4.1527307192
 34
0.0
100
AcDbRotatedDimension
  0
DIMENSION
  5
10E
330
1F
100
AcDbEntity
  8
0
  6
Continuous
 62
     7
370
    18
100
AcDbDimension
  2
_D_3
 10
9.1287250749
 20
7.1921808479
 30
0.0
 11
10.4742609533
 21
7.1921808479
 31
0.0
 70
   160
  1
<>
 71
     2
 42
-1.0
  3
SLDDIMSTYLE2
100
AcDbAlignedDimension
 13
8.7487250749
 23
6.4047792731
 33
0.0
 14
9.1287250749
 24
6.4047792731
 34
0.0
100
AcDbRotatedDimension
  0
LINE
  5
123
330
1F
100
AcDbEntity
  8
0
  6
Continuous
 62
     7
370
    25
100
AcDbLine
 10
12.8090925078
 20
15.4677305979
 30
0.0
 11
12.540391931
 21
15.3126130566
 31
0.0
  0
LINE
  5
124
330
1F
100
AcDbEntity
  8
0
  6
Continuous
 62
     7
370
    25
100
AcDbLine
 10
14.8260601249
 20
9.9247675758
 30
0.0
 11
15.0947607018
 21
10.079885117
 31
0.0
  0
LINE
  5
125
330
1F
100
AcDbEntity
  8
0
  6
Continuous
 62
     7
370
    25
100
AcDbLine
 10
13.8117319826
 20
13.9745581045
 30
0.0
 11
13.7978979892
 21
13.9665719102
 31
0.0
  0
LINE
  5
126
330
1F
100
AcDbEntity
  8
0
  6
Continuous
 62
     7
370
    25
100
AcDbLine
 10
15.1009751242
 20
12.1554565685
 30
0.0
 11
15.5675416732
 21
12.4247997041
 31
0.0
  0
LINE
  5
127
330
1F
100
AcDbEntity
  8
0
  6
Continuous
 62
     7
370
    25
100
AcDbLine
 10
15.8223479676
 20
15.1352620065
 30
0.0
 11
14.6098906788
 21
14.4353253122
 31
0.0
  0
LINE
  5
128
330
1F
100
AcDbEntity
  8
0
  6
Continuous
 62
     7
370
    25
100
AcDbLine
 10
15.574612741
 20
12.4288817446
 30
0.0
 11
16.9322577609
 21
13.212633532
 31
0.0
  0
LINE
  5
129
330
1F
100
AcDbEntity
  8
0
  6
Continuous
 62
     7
370
    25
100
AcDbLine
 10
17.1621913914
 20
13.7208412672
 30
0.0
 11
17.1621913914
 21
13.7453335105
 31
0.0
  0
LINE
  5
12A
330
1F
100
AcDbEntity
  8
0
  6
Continuous
 62
     7
370
    25
100
AcDbLine
 10
16.3986401864
 20
15.0679863039
 30
0.0
 11
16.3774304307
 21
15.0802344159
 31
0.0
  0
LINE
  5
12B
330
1F
100
AcDbEntity
  8
0
  6
Continuous
 62
     7
370
    25
100
AcDbLine
 10
18.0022873052
 20
14.8646383786
 30
0.0
 11
18.3558406958
 21
15.0687404066
 31
0.0
  0
LINE
  5
12C
330
1F
100
AcDbEntity
  8
0
  6
Continuous
 62
     7
370
    25
100
AcDbLine
 10
18.3890858262
 20
15.5350881862
 30
0.0
 11
16.8450908385
 21
14.6437588523
 31
0.0
  0
LINE
  5
12D
330
1F
100
AcDbEntity
  8
0
  6
Continuous
 62
     7
370
    25
100
AcDbLine
 10
16.9457585263
 20
14.485372585
 30
0.0
 11
17.9558790304
 21
15.0685027397
 31
0.0
  0
LINE
  5
12E
330
1F
100
AcDbEntity
  8
0
  6
Continuous
 62
     7
370
    25
100
AcDbLine
 10
18.3152011541
 20
15.2759349864
 30
0.0
 11
18.4828282074
 21
15.3727040245
 31
0.0
  0
LINE
  5
12F
330
1F
100
AcDbEntity
  8
0
  6
Continuous
 62
     7
370
    25
100
AcDbLine
 10
17.0180811538
 20
14.3440983683
 30
0.0
 11
18.0230072049
 21
14.9242298291
 31
0.0
  0
LINE
  5
130
330
1F
100
AcDbEntity
  8
0
  6
Continuous
 62
     7
370
    25
100
AcDbLine
 10
18.3837906956
 20
15.1325057051
 30
0.0
 11
18.5119940672
 21
15.2065159361
 31
0.0
  0
ARC
  5
131
330
1F
100
AcDbEntity
  8
0
  6
Continuous
 62
     7
370
    25
100
AcDbCircle
 10
12.5802339916
 20
11.2672619273
 30
0.0
 40
0.046104144227161
100
AcDbArc
 50
182.6054784857
 51
237.39452166
  0
LINE
  5
132
330
1F
100
AcDbEntity
  8
0
  6
Continuous
 62
     7
370
    25
100
AcDbLine
 10
12.5341775085
 20
11.2651661017
 30
0.0
 11
12.5341775085
 21
15.2988777124
 31
0.0
  0
ARC
  5
133
330
1F
100
AcDbEntity
  8
0
  6
Continuous
 62
     7
370
    25
100
AcDbCircle
 10
12.5471097395
 20
15.3009755283
 30
0.0
 40
0.0131012759228532
100
AcDbArc
 50
50.7967147643
 51
189.2140369905
  0
LINE
  5
134
330
1F
100
AcDbEntity
  8
0
  6
Continuous
 62
     7
370
    25
100
AcDbLine
 10
12.5553907119
 20
15.3111278151
 30
0.0
 11
14.8110613439
 21
14.0089568767
 31
0.0
  0
ARC
  5
135
330
1F
100
AcDbEntity
  8
0
  6
Continuous
 62
     7
370
    25
100
AcDbCircle
 10
14.7862180643
 20
13.9701187051
 30
0.0
 40
0.0461041442271718
100
AcDbArc
 50
2.6054784857
 51
57.39452166
  0
LINE
  5
136
330
1F
100
AcDbEntity
  8
0
  6
Continuous
 62
     7
370
    25
100
AcDbLine
 10
14.8322745474
 20
13.9722145307
 30
0.0
 11
14.8322745474
 21
9.93850292
 31
0.0
  0
ARC
  5
137
330
1F
100
AcDbEntity
  8
0
  6
Continuous
 62
     7
370
    25
100
AcDbCircle
 10
14.8193423163
 20
9.9364051041
 30
0.0
 40
0.0131012759228532
100
AcDbArc
 50
230.7967147643
 51
9.2140369905
  0
LINE
  5
138
330
1F
100
AcDbEntity
  8
0
  6
Continuous
 62
     7
370
    25
100
AcDbLine
 10
14.8110613439
 20
9.9262528173
 30
0.0
 11
12.5553907119
 21
11.2284237557
 31
0.0
  0
LWPOLYLINE
  5
139
330
1F
100
AcDbEntity
  8
0
  6
Continuous
 62
     7
370
    25
100
AcDbPolyline
 90
       30
 70
   128
 43
0.0
 10
13.8281829181
 20
11.1824086298
 10
13.8247939065
 20
11.2203491528
 10
13.8147853383
 20
11.2604284885
 10
13.798625203
 20
11.3007725718
 10
13.7770691305
 20
11.3394949581
 10
13.7511250588
 20
11.3747850317
 10
13.7220061039
 20
11.4049926681
 10
13.6910738358
 20
11.4287053916
 10
13.6597746128
 20
11.4448144217
 10
13.629571952
 20
11.4525665181
 10
13.6018780962
 20
11.4515992013
 10
13.5779879792
 20
11.441957702
 10
13.5590186764
 20
11.424092846
 10
13.5458571713
 20
11.398839974
 10
13.5391188813
 20
11.3673798825
 10
13.5391188813
 20
11.3311836101
 10
13.5458571713
 20
11.2919436545
 10
13.5590186764
 20
11.2514948323
 10
13.5779879792
 20
11.2117284854
 10
13.6018780962
 20
11.1745040442
 10
13.629571952
 20
11.141562082
 10
13.6597746128
 20
11.1144429284
 10
13.6910738358
 20
11.094414645
 10
13.7220061039
 20
11.0824137319
 10
13.7511250588
 20
11.0790013385
 10
13.7770691305
 20
11.0843370246
 10
13.798625203
 20
11.0981712993
 10
13.8147853383
 20
11.1198572875
 10
13.8247939065
 20
11.1483809763
 10
13.8281829181
 20
11.1824086298
  0
LWPOLYLINE
  5
13A
330
1F
100
AcDbEntity
  8
0
  6
Continuous
 62
     7
370
    25
100
AcDbPolyline
 90
       30
 70
   128
 43
0.0
 10
13.8281829181
 20
13.8876083396
 10
13.8247939065
 20
13.9255488626
 10
13.8147853383
 20
13.9656281983
 10
13.798625203
 20
14.0059722816
 10
13.7770691305
 20
14.0446946679
 10
13.7511250588
 20
14.0799847415
 10
13.7220061039
 20
14.1101923779
 10
13.6910738358
 20
14.1339051014
 10
13.6597746128
 20
14.1500141315
 10
13.629571952
 20
14.1577662278
 10
13.6018780962
 20
14.1567989111
 10
13.5779879792
 20
14.1471574118
 10
13.5590186764
 20
14.1292925557
 10
13.5458571713
 20
14.1040396838
 10
13.5391188813
 20
14.0725795922
 10
13.5391188813
 20
14.0363833199
 10
13.5458571713
 20
13.9971433643
 10
13.5590186764
 20
13.956694542
 10
13.5779879792
 20
13.9169281952
 10
13.6018780962
 20
13.879703754
 10
13.629571952
 20
13.8467617918
 10
13.6597746128
 20
13.8196426382
 10
13.6910738358
 20
13.7996143548
 10
13.7220061039
 20
13.7876134416
 10
13.7511250588
 20
13.7842010483
 10
13.7770691305
 20
13.7895367343
 10
13.798625203
 20
13.8033710091
 10
13.8147853383
 20
13.8250569973
 10
13.8247939065
 20
13.8535806861
 10
13.8281829181
 20
13.8876083396
  0
LINE
  5
13B
330
1F
100
AcDbEntity
  8
0
  6
Continuous
 62
     7
370
    25
100
AcDbLine
 10
13.306691667
 20
13.394246275
 30
0.0
 11
14.0597603889
 21
12.9595089554
 31
0.0
  0
SPLINE
  5
13C
330
1F
100
AcDbEntity
  8
0
  6
Continuous
 62
     7
370
    25
100
AcDbSpline
210
0.0
220
0.0
230
1.0
 70
     8
 71
     3
 72
    20
 73
    16
 74
     0
 42
0.00000001
 43
0.00000001
 40
0.0
 40
0.0
 40
0.0
 40
0.0
 40
0.122020833641537
 40
0.2292653365593435
 40
0.3365098394771503
 40
0.443754342394959
 40
0.550998845312762
 40
0.6040432035165513
 40
0.6570875617203393
 40
0.7101319199241278
 40
0.7631762781279169
 40
0.8162206363317054
 40
0.8692649945354933
 40
0.9223093527392816
 40
1.0
 40
1.0
 40
1.0
 40
1.0
 10
13.30669166695849
 20
13.29217867349103
 30
0.0
 10
13.30102798087393
 20
13.29617802590395
 30
0.0
 10
13.29038646288399
 20
13.3036924220083
 30
0.0
 10
13.27693430276094
 20
13.32142394741735
 30
0.0
 10
13.26741950773161
 20
13.3403992670919
 30
0.0
 10
13.2623317260455
 20
13.35980113677713
 30
0.0
 10
13.26226870187485
 20
13.37437647849285
 30
0.0
 10
13.26467991114523
 20
13.38404560160886
 30
0.0
 10
13.26763542039597
 20
13.39014170412539
 30
0.0
 10
13.27166863076724
 20
13.39494139474487
 30
0.0
 10
13.27666775834177
 20
13.39831270950774
 30
0.0
 10
13.28249477210072
 20
13.40017281284294
 30
0.0
 10
13.28899009075155
 20
13.40042938307248
 30
0.0
 10
13.29705123434698
 20
13.39904339112448
 30
0.0
 10
13.30309819638676
 20
13.39603439968035
 30
0.0
 10
13.30669166695849
 20
13.39424627497675
 30
0.0
  0
LINE
  5
13D
330
1F
100
AcDbEntity
  8
0
  6
Continuous
 62
     7
370
    25
100
AcDbLine
 10
14.0597603889
 20
12.8574413539
 30
0.0
 11
13.306691667
 21
13.2921786735
 31
0.0
  0
SPLINE
  5
13E
330
1F
100
AcDbEntity
  8
0
  6
Continuous
 62
     7
370
    25
100
AcDbSpline
210
0.0
220
0.0
230
1.0
 70
     8
 71
     3
 72
    25
 73
    21
 74
     0
 42
0.00000001
 43
0.00000001
 40
0.0
 40
0.0
 40
0.0
 40
0.0
 40
0.0600333226356736
 40
0.1129709835186546
 40
0.165908644401635
 40
0.2188463052846157
 40
0.271783966167595
 40
0.3247216270505751
 40
0.3776592879335553
 40
0.4305969488165361
 40
0.4835346096995153
 40
0.5364722705824919
 40
0.5894099314654719
 40
0.6423475923484522
 40
0.6952852532314312
 40
0.7482229141144106
 40
0.8011605749973907
 40
0.8540982358803695
 40
0.907035896763349
 40
1.0
 40
1.0
 40
1.0
 40
1.0
 10
14.05976038892216
 20
12.95950895543116
 30
0.0
 10
14.06253919531554
 20
12.95773102178513
 30
0.0
 10
14.0677683660075
 20
12.95438529804696
 30
0.0
 10
14.07518781210353
 20
12.94762586663007
 30
0.0
 10
14.08186542315931
 20
12.94018225870193
 30
0.0
 10
14.08793308134769
 20
12.93183557241364
 30
0.0
 10
14.09322376969206
 20
12.92285222491313
 30
0.0
 10
14.09759147344584
 20
12.91347028831691
 30
0.0
 10
14.10091574963674
 20
12.90395112820698
 30
0.0
 10
14.10310490367233
 20
12.894556600641
 30
0.0
 10
14.10409855764294
 20
12.88554600164585
 30
0.0
 10
14.10386930403551
 20
12.87716782229596
 30
0.0
 10
14.10242346879217
 20
12.86965309589312
 30
0.0
 10
14.09980091993453
 20
12.8632093153348
 30
0.0
 10
14.09607402841779
 20
12.85801335095491
 30
0.0
 10
14.09134544706603
 20
12.85421171951255
 30
0.0
 10
14.08574611870148
 20
12.8518973130329
 30
0.0
 10
14.07942853180481
 20
12.85117860951792
 30
0.0
 10
14.0708466758137
 20
12.8520928584148
 30
0.0
 10
14.06407505610548
 20
12.85535977529139
 30
0.0
 10
14.05976038892216
 20
12.85744135394544
 30
0.0
  0
LINE
  5
13F
330
1F
100
AcDbEntity
  8
0
  6
Continuous
 62
     7
370
    25
100
AcDbLine
 10
14.0597603889
 20
12.7043399517
 30
0.0
 11
13.306691667
 21
13.1390772713
 31
0.0
  0
SPLINE
  5
140
330
1F
100
AcDbEntity
  8
0
  6
Continuous
 62
     7
370
    25
100
AcDbSpline
210
0.0
220
0.0
230
1.0
 70
     8
 71
     3
 72
    25
 73
    21
 74
     0
 42
0.00000001
 43
0.00000001
 40
0.0
 40
0.0
 40
0.0
 40
0.0
 40
0.0600333226356733
 40
0.1129709835186543
 40
0.1659086444016345
 40
0.2188463052846151
 40
0.2717839661675944
 40
0.3247216270505743
 40
0.3776592879335545
 40
0.4305969488165353
 40
0.4835346096995152
 40
0.5364722705824947
 40
0.5894099314654734
 40
0.6423475923484533
 40
0.6952852532314329
 40
0.7482229141144124
 40
0.8011605749973919
 40
0.854098235880371
 40
0.9070358967633508
 40
1.0
 40
1.0
 40
1.0
 40
1.0
 10
14.05976038892216
 20
12.80640755320258
 30
0.0
 10
14.06253919531554
 20
12.80462961955655
 30
0.0
 10
14.0677683660075
 20
12.80128389581838
 30
0.0
 10
14.07518781210353
 20
12.79452446440149
 30
0.0
 10
14.08186542315931
 20
12.78708085647336
 30
0.0
 10
14.08793308134769
 20
12.77873417018507
 30
0.0
 10
14.09322376969206
 20
12.76975082268455
 30
0.0
 10
14.09759147344584
 20
12.76036888608833
 30
0.0
 10
14.10091574963674
 20
12.75084972597841
 30
0.0
 10
14.10310490367233
 20
12.74145519841242
 30
0.0
 10
14.10409855764294
 20
12.73244459941727
 30
0.0
 10
14.10386930403551
 20
12.72406642006738
 30
0.0
 10
14.10242346879217
 20
12.71655169366454
 30
0.0
 10
14.09980091993453
 20
12.71010791310622
 30
0.0
 10
14.09607402841779
 20
12.70491194872633
 30
0.0
 10
14.09134544706603
 20
12.70111031728397
 30
0.0
 10
14.08574611870148
 20
12.69879591080432
 30
0.0
 10
14.07942853180481
 20
12.69807720728934
 30
0.0
 10
14.0708466758137
 20
12.69899145618622
 30
0.0
 10
14.06407505610548
 20
12.70225837306281
 30
0.0
 10
14.05976038892216
 20
12.70433995171686
 30
0.0
  0
LINE
  5
141
330
1F
100
AcDbEntity
  8
0
  6
Continuous
 62
     7
370
    25
100
AcDbLine
 10
13.306691667
 20
13.2411448727
 30
0.0
 11
14.0597603889
 21
12.8064075532
 31
0.0
  0
SPLINE
  5
142
330
1F
100
AcDbEntity
  8
0
  6
Continuous
 62
     7
370
    25
100
AcDbSpline
210
0.0
220
0.0
230
1.0
 70
     8
 71
     3
 72
    20
 73
    16
 74
     0
 42
0.00000001
 43
0.00000001
 40
0.0
 40
0.0
 40
0.0
 40
0.0
 40
0.1220208336415366
 40
0.229265336559343
 40
0.3365098394771507
 40
0.4437543423949576
 40
0.5509988453127641
 40
0.6040432035165525
 40
0.6570875617203409
 40
0.7101319199241288
 40
0.7631762781279164
 40
0.816220636331705
 40
0.8692649945354936
 40
0.9223093527392816
 40
1.0
 40
1.0
 40
1.0
 40
1.0
 10
13.30669166695849
 20
13.13907727126246
 30
0.0
 10
13.30102798087393
 20
13.14307662367537
 30
0.0
 10
13.29038646288399
 20
13.15059101977972
 30
0.0
 10
13.27693430276094
 20
13.16832254518877
 30
0.0
 10
13.26741950773162
 20
13.18729786486332
 30
0.0
 10
13.2623317260455
 20
13.20669973454855
 30
0.0
 10
13.26226870187485
 20
13.22127507626427
 30
0.0
 10
13.26467991114523
 20
13.23094419938028
 30
0.0
 10
13.26763542039597
 20
13.23704030189681
 30
0.0
 10
13.27166863076724
 20
13.2418399925163
 30
0.0
 10
13.27666775834177
 20
13.24521130727916
 30
0.0
 10
13.28249477210072
 20
13.24707141061436
 30
0.0
 10
13.28899009075155
 20
13.2473279808439
 30
0.0
 10
13.29705123434698
 20
13.2459419888959
 30
0.0
 10
13.30309819638676
 20
13.24293299745177
 30
0.0
 10
13.30669166695849
 20
13.24114487274817
 30
0.0
  0
LINE
  5
143
330
1F
100
AcDbEntity
  8
0
  6
Continuous
 62
     7
370
    25
100
AcDbLine
 10
13.306691667
 20
13.0880434705
 30
0.0
 11
14.0597603889
 21
12.653306151
 31
0.0
  0
SPLINE
  5
144
330
1F
100
AcDbEntity
  8
0
  6
Continuous
 62
     7
370
    25
100
AcDbSpline
210
0.0
220
0.0
230
1.0
 70
     8
 71
     3
 72
    20
 73
    16
 74
     0
 42
0.00000001
 43
0.00000001
 40
0.0
 40
0.0
 40
0.0
 40
0.0
 40
0.1220208336415363
 40
0.2292653365593433
 40
0.3365098394771497
 40
0.4437543423949565
 40
0.5509988453127629
 40
0.6040432035165527
 40
0.6570875617203412
 40
0.7101319199241284
 40
0.763176278127916
 40
0.8162206363317034
 40
0.8692649945354909
 40
0.9223093527392786
 40
1.0
 40
1.0
 40
1.0
 40
1.0
 10
13.30669166695849
 20
12.98597586903388
 30
0.0
 10
13.30102798087393
 20
12.98997522144679
 30
0.0
 10
13.29038646288399
 20
12.99748961755115
 30
0.0
 10
13.27693430276094
 20
13.01522114296019
 30
0.0
 10
13.26741950773162
 20
13.03419646263474
 30
0.0
 10
13.2623317260455
 20
13.05359833231997
 30
0.0
 10
13.26226870187485
 20
13.06817367403569
 30
0.0
 10
13.26467991114523
 20
13.07784279715171
 30
0.0
 10
13.26763542039597
 20
13.08393889966823
 30
0.0
 10
13.27166863076724
 20
13.08873859028772
 30
0.0
 10
13.27666775834177
 20
13.09210990505058
 30
0.0
 10
13.28249477210072
 20
13.09397000838578
 30
0.0
 10
13.28899009075155
 20
13.09422657861532
 30
0.0
 10
13.29705123434698
 20
13.09284058666732
 30
0.0
 10
13.30309819638676
 20
13.0898315952232
 30
0.0
 10
13.30669166695849
 20
13.0880434705196
 30
0.0
  0
LINE
  5
145
330
1F
100
AcDbEntity
  8
0
  6
Continuous
 62
     7
370
    25
100
AcDbLine
 10
14.0597603889
 20
12.5512385495
 30
0.0
 11
13.306691667
 21
12.985975869
 31
0.0
  0
SPLINE
  5
146
330
1F
100
AcDbEntity
  8
0
  6
Continuous
 62
     7
370
    25
100
AcDbSpline
210
0.0
220
0.0
230
1.0
 70
     8
 71
     3
 72
    25
 73
    21
 74
     0
 42
0.00000001
 43
0.00000001
 40
0.0
 40
0.0
 40
0.0
 40
0.0
 40
0.0600333226356737
 40
0.112970983518654
 40
0.1659086444016351
 40
0.2188463052846154
 40
0.2717839661675956
 40
0.3247216270505758
 40
0.3776592879335561
 40
0.4305969488165354
 40
0.4835346096995152
 40
0.5364722705824947
 40
0.5894099314654746
 40
0.6423475923484541
 40
0.695285253231434
 40
0.7482229141144146
 40
0.8011605749973941
 40
0.8540982358803736
 40
0.9070358967633537
 40
0.9999999999999999
 40
0.9999999999999999
 40
0.9999999999999999
 40
0.9999999999999999
 10
14.05976038892216
 20
12.653306150974
 30
0.0
 10
14.06253919531554
 20
12.65152821732797
 30
0.0
 10
14.0677683660075
 20
12.6481824935898
 30
0.0
 10
14.07518781210353
 20
12.64142306217291
 30
0.0
 10
14.08186542315931
 20
12.63397945424478
 30
0.0
 10
14.08793308134769
 20
12.62563276795649
 30
0.0
 10
14.09322376969206
 20
12.61664942045597
 30
0.0
 10
14.09759147344584
 20
12.60726748385975
 30
0.0
 10
14.10091574963674
 20
12.59774832374983
 30
0.0
 10
14.10310490367233
 20
12.58835379618385
 30
0.0
 10
14.10409855764294
 20
12.5793431971887
 30
0.0
 10
14.10386930403551
 20
12.5709650178388
 30
0.0
 10
14.10242346879217
 20
12.56345029143596
 30
0.0
 10
14.09980091993453
 20
12.55700651087765
 30
0.0
 10
14.09607402841779
 20
12.55181054649776
 30
0.0
 10
14.09134544706603
 20
12.54800891505539
 30
0.0
 10
14.08574611870148
 20
12.54569450857574
 30
0.0
 10
14.07942853180481
 20
12.54497580506076
 30
0.0
 10
14.0708466758137
 20
12.54589005395765
 30
0.0
 10
14.06407505610548
 20
12.54915697083423
 30
0.0
 10
14.05976038892216
 20
12.55123854948828
 30
0.0
  0
LINE
  5
147
330
1F
100
AcDbEntity
  8
0
  6
Continuous
 62
     7
370
    25
100
AcDbLine
 10
14.0597603889
 20
12.3981371473
 30
0.0
 11
13.306691667
 21
12.8328744668
 31
0.0
  0
SPLINE
  5
148
330
1F
100
AcDbEntity
  8
0
  6
Continuous
 62
     7
370
    25
100
AcDbSpline
210
0.0
220
0.0
230
1.0
 70
     8
 71
     3
 72
    25
 73
    21
 74
     0
 42
0.00000001
 43
0.00000001
 40
0.0
 40
0.0
 40
0.0
 40
0.0
 40
0.0600333226356737
 40
0.1129709835186544
 40
0.1659086444016352
 40
0.2188463052846158
 40
0.271783966167597
 40
0.3247216270505768
 40
0.3776592879335571
 40
0.4305969488165374
 40
0.4835346096995172
 40
0.5364722705824968
 40
0.5894099314654775
 40
0.6423475923484574
 40
0.6952852532314375
 40
0.7482229141144174
 40
0.8011605749973978
 40
0.8540982358803775
 40
0.907035896763357
 40
1.0
 40
1.0
 40
1.0
 40
1.0
 10
14.05976038892216
 20
12.50020474874543
 30
0.0
 10
14.06253919531554
 20
12.49842681509939
 30
0.0
 10
14.06776836600751
 20
12.49508109136122
 30
0.0
 10
14.07518781210353
 20
12.48832165994433
 30
0.0
 10
14.08186542315931
 20
12.4808780520162
 30
0.0
 10
14.08793308134769
 20
12.47253136572791
 30
0.0
 10
14.09322376969206
 20
12.4635480182274
 30
0.0
 10
14.09759147344584
 20
12.45416608163118
 30
0.0
 10
14.10091574963674
 20
12.44464692152125
 30
0.0
 10
14.10310490367233
 20
12.43525239395527
 30
0.0
 10
14.10409855764294
 20
12.42624179496012
 30
0.0
 10
14.10386930403551
 20
12.41786361561022
 30
0.0
 10
14.10242346879217
 20
12.41034888920738
 30
0.0
 10
14.09980091993453
 20
12.40390510864907
 30
0.0
 10
14.09607402841779
 20
12.39870914426918
 30
0.0
 10
14.09134544706603
 20
12.39490751282682
 30
0.0
 10
14.08574611870148
 20
12.39259310634716
 30
0.0
 10
14.07942853180481
 20
12.39187440283218
 30
0.0
 10
14.0708466758137
 20
12.39278865172907
 30
0.0
 10
14.06407505610548
 20
12.39605556860565
 30
0.0
 10
14.05976038892216
 20
12.39813714725971
 30
0.0
  0
LINE
  5
149
330
1F
100
AcDbEntity
  8
0
  6
Continuous
 62
     7
370
    25
100
AcDbLine
 10
13.306691667
 20
12.9349420683
 30
0.0
 11
14.0597603889
 21
12.5002047487
 31
0.0
  0
SPLINE
  5
14A
330
1F
100
AcDbEntity
  8
0
  6
Continuous
 62
     7
370
    25
100
AcDbSpline
210
0.0
220
0.0
230
1.0
 70
     8
 71
     3
 72
    20
 73
    16
 74
     0
 42
0.00000001
 43
0.00000001
 40
0.0
 40
0.0
 40
0.0
 40
0.0
 40
0.1220208336415362
 40
0.2292653365593431
 40
0.3365098394771499
 40
0.4437543423949566
 40
0.550998845312763
 40
0.604043203516552
 40
0.6570875617203407
 40
0.7101319199241288
 40
0.7631762781279162
 40
0.8162206363317036
 40
0.8692649945354914
 40
0.9223093527392792
 40
1.0
 40
1.0
 40
1.0
 40
1.0
 10
13.30669166695849
 20
12.8328744668053
 30
0.0
 10
13.30102798087393
 20
12.83687381921822
 30
0.0
 10
13.29038646288399
 20
12.84438821532257
 30
0.0
 10
13.27693430276094
 20
12.86211974073162
 30
0.0
 10
13.26741950773161
 20
12.88109506040617
 30
0.0
 10
13.2623317260455
 20
12.90049693009139
 30
0.0
 10
13.26226870187485
 20
12.91507227180711
 30
0.0
 10
13.26467991114523
 20
12.92474139492313
 30
0.0
 10
13.26763542039597
 20
12.93083749743965
 30
0.0
 10
13.27166863076724
 20
12.93563718805914
 30
0.0
 10
13.27666775834177
 20
12.939008502822
 30
0.0
 10
13.28249477210072
 20
12.9408686061572
 30
0.0
 10
13.28899009075155
 20
12.94112517638674
 30
0.0
 10
13.29705123434698
 20
12.93973918443874
 30
0.0
 10
13.30309819638676
 20
12.93673019299462
 30
0.0
 10
13.30669166695849
 20
12.93494206829102
 30
0.0
  0
LINE
  5
14B
330
1F
100
AcDbEntity
  8
0
  6
Continuous
 62
     7
370
    25
100
AcDbLine
 10
13.306691667
 20
12.7818406661
 30
0.0
 11
14.0597603889
 21
12.3471033465
 31
0.0
  0
SPLINE
  5
14C
330
1F
100
AcDbEntity
  8
0
  6
Continuous
 62
     7
370
    25
100
AcDbSpline
210
0.0
220
0.0
230
1.0
 70
     8
 71
     3
 72
    20
 73
    16
 74
     0
 42
0.00000001
 43
0.00000001
 40
0.0
 40
0.0
 40
0.0
 40
0.0
 40
0.1220208336415361
 40
0.2292653365593433
 40
0.3365098394771498
 40
0.443754342394957
 40
0.5509988453127633
 40
0.6040432035165515
 40
0.65708756172034
 40
0.7101319199241286
 40
0.7631762781279157
 40
0.8162206363317029
 40
0.8692649945354899
 40
0.9223093527392774
 40
1.0
 40
1.0
 40
1.0
 40
1.0
 10
13.30669166695849
 20
12.67977306457672
 30
0.0
 10
13.30102798087393
 20
12.68377241698964
 30
0.0
 10
13.29038646288399
 20
12.69128681309399
 30
0.0
 10
13.27693430276094
 20
12.70901833850304
 30
0.0
 10
13.26741950773162
 20
12.72799365817759
 30
0.0
 10
13.2623317260455
 20
12.74739552786282
 30
0.0
 10
13.26226870187485
 20
12.76197086957854
 30
0.0
 10
13.26467991114523
 20
12.77163999269455
 30
0.0
 10
13.26763542039597
 20
12.77773609521108
 30
0.0
 10
13.27166863076724
 20
12.78253578583056
 30
0.0
 10
13.27666775834177
 20
12.78590710059343
 30
0.0
 10
13.28249477210072
 20
12.78776720392863
 30
0.0
 10
13.28899009075155
 20
12.78802377415816
 30
0.0
 10
13.29705123434697
 20
12.78663778221017
 30
0.0
 10
13.30309819638676
 20
12.78362879076604
 30
0.0
 10
13.30669166695849
 20
12.78184066606244
 30
0.0
  0
LINE
  5
14D
330
1F
100
AcDbEntity
  8
0
  6
Continuous
 62
     7
370
    25
100
AcDbLine
 10
14.0597603889
 20
12.245035745
 30
0.0
 11
13.306691667
 21
12.6797730646
 31
0.0
  0
SPLINE
  5
14E
330
1F
100
AcDbEntity
  8
0
  6
Continuous
 62
     7
370
    25
100
AcDbSpline
210
0.0
220
0.0
230
1.0
 70
     8
 71
     3
 72
    25
 73
    21
 74
     0
 42
0.00000001
 43
0.00000001
 40
0.0
 40
0.0
 40
0.0
 40
0.0
 40
0.0600333226356738
 40
0.1129709835186544
 40
0.1659086444016357
 40
0.2188463052846158
 40
0.2717839661675963
 40
0.3247216270505761
 40
0.3776592879335571
 40
0.4305969488165372
 40
0.4835346096995161
 40
0.5364722705824957
 40
0.589409931465475
 40
0.6423475923484544
 40
0.6952852532314343
 40
0.7482229141144143
 40
0.801160574997394
 40
0.8540982358803737
 40
0.9070358967633533
 40
1.0
 40
1.0
 40
1.0
 40
1.0
 10
14.05976038892216
 20
12.34710334651685
 30
0.0
 10
14.06253919531554
 20
12.34532541287082
 30
0.0
 10
14.06776836600751
 20
12.34197968913264
 30
0.0
 10
14.07518781210353
 20
12.33522025771575
 30
0.0
 10
14.08186542315931
 20
12.32777664978762
 30
0.0
 10
14.08793308134769
 20
12.31942996349933
 30
0.0
 10
14.09322376969206
 20
12.31044661599882
 30
0.0
 10
14.09759147344584
 20
12.3010646794026
 30
0.0
 10
14.10091574963674
 20
12.29154551929267
 30
0.0
 10
14.10310490367233
 20
12.28215099172669
 30
0.0
 10
14.10409855764294
 20
12.27314039273154
 30
0.0
 10
14.10386930403551
 20
12.26476221338164
 30
0.0
 10
14.10242346879217
 20
12.2572474869788
 30
0.0
 10
14.09980091993453
 20
12.25080370642049
 30
0.0
 10
14.09607402841779
 20
12.2456077420406
 30
0.0
 10
14.09134544706603
 20
12.24180611059824
 30
0.0
 10
14.08574611870148
 20
12.23949170411859
 30
0.0
 10
14.07942853180481
 20
12.23877300060361
 30
0.0
 10
14.0708466758137
 20
12.23968724950049
 30
0.0
 10
14.06407505610548
 20
12.24295416637708
 30
0.0
 10
14.05976038892216
 20
12.24503574503113
 30
0.0
  0
LINE
  5
14F
330
1F
100
AcDbEntity
  8
0
  6
Continuous
 62
     7
370
    25
100
AcDbLine
 10
14.0597603889
 20
11.9388329406
 30
0.0
 11
13.306691667
 21
12.3735702601
 31
0.0
  0
SPLINE
  5
150
330
1F
100
AcDbEntity
  8
0
  6
Continuous
 62
     7
370
    25
100
AcDbSpline
210
0.0
220
0.0
230
1.0
 70
     8
 71
     3
 72
    25
 73
    21
 74
     0
 42
0.00000001
 43
0.00000001
 40
0.0
 40
0.0
 40
0.0
 40
0.0
 40
0.0600333226356733
 40
0.1129709835186544
 40
0.1659086444016349
 40
0.2188463052846154
 40
0.2717839661675963
 40
0.3247216270505766
 40
0.3776592879335569
 40
0.4305969488165375
 40
0.4835346096995178
 40
0.5364722705824977
 40
0.589409931465478
 40
0.642347592348458
 40
0.6952852532314379
 40
0.7482229141144179
 40
0.8011605749973981
 40
0.8540982358803784
 40
0.9070358967633584
 40
1.0
 40
1.0
 40
1.0
 40
1.0
 10
14.05976038892216
 20
12.04090054205969
 30
0.0
 10
14.06253919531554
 20
12.03912260841366
 30
0.0
 10
14.0677683660075
 20
12.03577688467549
 30
0.0
 10
14.07518781210353
 20
12.0290174532586
 30
0.0
 10
14.08186542315931
 20
12.02157384533047
 30
0.0
 10
14.08793308134769
 20
12.01322715904218
 30
0.0
 10
14.09322376969206
 20
12.00424381154166
 30
0.0
 10
14.09759147344584
 20
11.99486187494544
 30
0.0
 10
14.10091574963674
 20
11.98534271483552
 30
0.0
 10
14.10310490367233
 20
11.97594818726954
 30
0.0
 10
14.10409855764293
 20
11.96693758827438
 30
0.0
 10
14.10386930403551
 20
11.95855940892449
 30
0.0
 10
14.10242346879217
 20
11.95104468252165
 30
0.0
 10
14.09980091993453
 20
11.94460090196333
 30
0.0
 10
14.09607402841779
 20
11.93940493758345
 30
0.0
 10
14.09134544706603
 20
11.93560330614108
 30
0.0
 10
14.08574611870148
 20
11.93328889966143
 30
0.0
 10
14.07942853180481
 20
11.93257019614645
 30
0.0
 10
14.0708466758137
 20
11.93348444504333
 30
0.0
 10
14.06407505610548
 20
11.93675136191992
 30
0.0
 10
14.05976038892216
 20
11.93883294057397
 30
0.0
  0
LINE
  5
151
330
1F
100
AcDbEntity
  8
0
  6
Continuous
 62
     7
370
    25
100
AcDbLine
 10
13.306691667
 20
12.4756378616
 30
0.0
 11
14.0597603889
 21
12.0409005421
 31
0.0
  0
SPLINE
  5
152
330
1F
100
AcDbEntity
  8
0
  6
Continuous
 62
     7
370
    25
100
AcDbSpline
210
0.0
220
0.0
230
1.0
 70
     8
 71
     3
 72
    20
 73
    16
 74
     0
 42
0.00000001
 43
0.00000001
 40
0.0
 40
0.0
 40
0.0
 40
0.0
 40
0.1220208336415366
 40
0.2292653365593432
 40
0.3365098394771499
 40
0.4437543423949561
 40
0.5509988453127637
 40
0.6040432035165529
 40
0.6570875617203404
 40
0.710131919924127
 40
0.7631762781279133
 40
0.8162206363317003
 40
0.8692649945354878
 40
0.9223093527392753
 40
1.0
 40
1.0
 40
1.0
 40
1.0
 10
13.30669166695849
 20
12.37357026011957
 30
0.0
 10
13.30102798087393
 20
12.37756961253248
 30
0.0
 10
13.29038646288399
 20
12.38508400863683
 30
0.0
 10
13.27693430276094
 20
12.40281553404588
 30
0.0
 10
13.26741950773161
 20
12.42179085372043
 30
0.0
 10
13.2623317260455
 20
12.44119272340566
 30
0.0
 10
13.26226870187485
 20
12.45576806512138
 30
0.0
 10
13.26467991114523
 20
12.46543718823739
 30
0.0
 10
13.26763542039597
 20
12.47153329075392
 30
0.0
 10
13.27166863076724
 20
12.47633298137341
 30
0.0
 10
13.27666775834177
 20
12.47970429613627
 30
0.0
 10
13.28249477210071
 20
12.48156439947147
 30
0.0
 10
13.28899009075155
 20
12.48182096970101
 30
0.0
 10
13.29705123434697
 20
12.48043497775301
 30
0.0
 10
13.30309819638676
 20
12.47742598630888
 30
0.0
 10
13.30669166695849
 20
12.47563786160529
 30
0.0
  0
LINE
  5
153
330
1F
100
AcDbEntity
  8
0
  6
Continuous
 62
     7
370
    25
100
AcDbLine
 10
14.0597603889
 20
12.0919343428
 30
0.0
 11
13.306691667
 21
12.5266716623
 31
0.0
  0
SPLINE
  5
154
330
1F
100
AcDbEntity
  8
0
  6
Continuous
 62
     7
370
    25
100
AcDbSpline
210
0.0
220
0.0
230
1.0
 70
     8
 71
     3
 72
    25
 73
    21
 74
     0
 42
0.00000001
 43
0.00000001
 40
0.0
 40
0.0
 40
0.0
 40
0.0
 40
0.0600333226356737
 40
0.1129709835186544
 40
0.1659086444016355
 40
0.2188463052846157
 40
0.2717839661675966
 40
0.3247216270505763
 40
0.3776592879335566
 40
0.4305969488165365
 40
0.4835346096995167
 40
0.5364722705824968
 40
0.5894099314654768
 40
0.6423475923484565
 40
0.6952852532314368
 40
0.7482229141144172
 40
0.8011605749973975
 40
0.8540982358803788
 40
0.907035896763359
 40
1.0
 40
1.0
 40
1.0
 40
1.0
 10
14.05976038892216
 20
12.19400194428827
 30
0.0
 10
14.06253919531554
 20
12.19222401064224
 30
0.0
 10
14.0677683660075
 20
12.18887828690407
 30
0.0
 10
14.07518781210353
 20
12.18211885548718
 30
0.0
 10
14.08186542315931
 20
12.17467524755904
 30
0.0
 10
14.08793308134769
 20
12.16632856127075
 30
0.0
 10
14.09322376969206
 20
12.15734521377024
 30
0.0
 10
14.09759147344584
 20
12.14796327717402
 30
0.0
 10
14.10091574963674
 20
12.13844411706409
 30
0.0
 10
14.10310490367233
 20
12.12904958949811
 30
0.0
 10
14.10409855764294
 20
12.12003899050296
 30
0.0
 10
14.10386930403551
 20
12.11166081115307
 30
0.0
 10
14.10242346879217
 20
12.10414608475022
 30
0.0
 10
14.09980091993453
 20
12.09770230419191
 30
0.0
 10
14.09607402841779
 20
12.09250633981202
 30
0.0
 10
14.09134544706603
 20
12.08870470836966
 30
0.0
 10
14.08574611870148
 20
12.08639030189001
 30
0.0
 10
14.07942853180481
 20
12.08567159837503
 30
0.0
 10
14.0708466758137
 20
12.08658584727191
 30
0.0
 10
14.06407505610548
 20
12.0898527641485
 30
0.0
 10
14.05976038892216
 20
12.09193434280255
 30
0.0
  0
LINE
  5
155
330
1F
100
AcDbEntity
  8
0
  6
Continuous
 62
     7
370
    25
100
AcDbLine
 10
13.306691667
 20
12.6287392638
 30
0.0
 11
14.0597603889
 21
12.1940019443
 31
0.0
  0
SPLINE
  5
156
330
1F
100
AcDbEntity
  8
0
  6
Continuous
 62
     7
370
    25
100
AcDbSpline
210
0.0
220
0.0
230
1.0
 70
     8
 71
     3
 72
    20
 73
    16
 74
     0
 42
0.00000001
 43
0.00000001
 40
0.0
 40
0.0
 40
0.0
 40
0.0
 40
0.1220208336415368
 40
0.2292653365593424
 40
0.3365098394771486
 40
0.443754342394955
 40
0.5509988453127621
 40
0.604043203516551
 40
0.6570875617203398
 40
0.7101319199241283
 40
0.7631762781279169
 40
0.8162206363317048
 40
0.8692649945354933
 40
0.922309352739282
 40
1.0
 40
1.0
 40
1.0
 40
1.0
 10
13.30669166695849
 20
12.52667166234814
 30
0.0
 10
13.30102798087393
 20
12.53067101476106
 30
0.0
 10
13.29038646288399
 20
12.53818541086541
 30
0.0
 10
13.27693430276094
 20
12.55591693627446
 30
0.0
 10
13.26741950773161
 20
12.57489225594901
 30
0.0
 10
13.2623317260455
 20
12.59429412563424
 30
0.0
 10
13.26226870187485
 20
12.60886946734996
 30
0.0
 10
13.26467991114523
 20
12.61853859046597
 30
0.0
 10
13.26763542039597
 20
12.6246346929825
 30
0.0
 10
13.27166863076724
 20
12.62943438360199
 30
0.0
 10
13.27666775834177
 20
12.63280569836485
 30
0.0
 10
13.28249477210072
 20
12.63466580170005
 30
0.0
 10
13.28899009075155
 20
12.63492237192959
 30
0.0
 10
13.29705123434698
 20
12.63353637998159
 30
0.0
 10
13.30309819638676
 20
12.63052738853746
 30
0.0
 10
13.30669166695849
 20
12.62873926383386
 30
0.0
  0
LINE
  5
157
330
1F
100
AcDbEntity
  8
0
  6
Continuous
 62
     7
370
    25
100
AcDbLine
 10
13.306691667
 20
12.3225364594
 30
0.0
 11
14.0597603889
 21
11.8877991398
 31
0.0
  0
SPLINE
  5
158
330
1F
100
AcDbEntity
  8
0
  6
Continuous
 62
     7
370
    25
100
AcDbSpline
210
0.0
220
0.0
230
1.0
 70
     8
 71
     3
 72
    20
 73
    16
 74
     0
 42
0.00000001
 43
0.00000001
 40
0.0
 40
0.0
 40
0.0
 40
0.0
 40
0.122020833641536
 40
0.2292653365593428
 40
0.3365098394771495
 40
0.4437543423949562
 40
0.5509988453127632
 40
0.6040432035165515
 40
0.6570875617203406
 40
0.7101319199241288
 40
0.7631762781279174
 40
0.8162206363317059
 40
0.8692649945354943
 40
0.9223093527392826
 40
0.9999999999999999
 40
0.9999999999999999
 40
0.9999999999999999
 40
0.9999999999999999
 10
13.30669166695849
 20
12.22046885789099
 30
0.0
 10
13.30102798087393
 20
12.2244682103039
 30
0.0
 10
13.29038646288399
 20
12.23198260640826
 30
0.0
 10
13.27693430276094
 20
12.2497141318173
 30
0.0
 10
13.26741950773161
 20
12.26868945149185
 30
0.0
 10
13.2623317260455
 20
12.28809132117708
 30
0.0
 10
13.26226870187485
 20
12.3026666628928
 30
0.0
 10
13.26467991114523
 20
12.31233578600881
 30
0.0
 10
13.26763542039597
 20
12.31843188852534
 30
0.0
 10
13.27166863076724
 20
12.32323157914483
 30
0.0
 10
13.27666775834177
 20
12.32660289390769
 30
0.0
 10
13.28249477210072
 20
12.32846299724289
 30
0.0
 10
13.28899009075155
 20
12.32871956747243
 30
0.0
 10
13.29705123434697
 20
12.32733357552443
 30
0.0
 10
13.30309819638676
 20
12.3243245840803
 30
0.0
 10
13.30669166695849
 20
12.32253645937671
 30
0.0
  0
LINE
  5
159
330
1F
100
AcDbEntity
  8
0
  6
Continuous
 62
     7
370
    25
100
AcDbLine
 10
14.0597603889
 20
11.7857315383
 30
0.0
 11
13.306691667
 21
12.2204688579
 31
0.0
  0
SPLINE
  5
15A
330
1F
100
AcDbEntity
  8
0
  6
Continuous
 62
     7
370
    25
100
AcDbSpline
210
0.0
220
0.0
230
1.0
 70
     8
 71
     3
 72
    25
 73
    21
 74
     0
 42
0.00000001
 43
0.00000001
 40
0.0
 40
0.0
 40
0.0
 40
0.0
 40
0.0600333226356733
 40
0.1129709835186539
 40
0.1659086444016351
 40
0.2188463052846158
 40
0.2717839661675963
 40
0.3247216270505763
 40
0.3776592879335561
 40
0.4305969488165368
 40
0.4835346096995165
 40
0.5364722705824976
 40
0.5894099314654769
 40
0.6423475923484565
 40
0.6952852532314364
 40
0.7482229141144152
 40
0.8011605749973945
 40
0.854098235880374
 40
0.9070358967633537
 40
1.0
 40
1.0
 40
1.0
 40
1.0
 10
14.05976038892216
 20
11.88779913983111
 30
0.0
 10
14.06253919531554
 20
11.88602120618508
 30
0.0
 10
14.0677683660075
 20
11.88267548244691
 30
0.0
 10
14.07518781210353
 20
11.87591605103002
 30
0.0
 10
14.08186542315931
 20
11.86847244310188
 30
0.0
 10
14.08793308134769
 20
11.8601257568136
 30
0.0
 10
14.09322376969206
 20
11.85114240931308
 30
0.0
 10
14.09759147344584
 20
11.84176047271686
 30
0.0
 10
14.10091574963674
 20
11.83224131260694
 30
0.0
 10
14.10310490367233
 20
11.82284678504096
 30
0.0
 10
14.10409855764294
 20
11.8138361860458
 30
0.0
 10
14.10386930403551
 20
11.80545800669591
 30
0.0
 10
14.10242346879217
 20
11.79794328029307
 30
0.0
 10
14.09980091993453
 20
11.79149949973476
 30
0.0
 10
14.09607402841779
 20
11.78630353535487
 30
0.0
 10
14.09134544706603
 20
11.78250190391251
 30
0.0
 10
14.08574611870148
 20
11.78018749743285
 30
0.0
 10
14.07942853180481
 20
11.77946879391787
 30
0.0
 10
14.0708466758137
 20
11.78038304281476
 30
0.0
 10
14.06407505610548
 20
11.78364995969134
 30
0.0
 10
14.05976038892216
 20
11.7857315383454
 30
0.0
  0
LINE
  5
15B
330
1F
100
AcDbEntity
  8
0
  6
Continuous
 62
     7
370
    25
100
AcDbLine
 10
14.0597603889
 20
11.6326301361
 30
0.0
 11
13.306691667
 21
12.0673674557
 31
0.0
  0
SPLINE
  5
15C
330
1F
100
AcDbEntity
  8
0
  6
Continuous
 62
     7
370
    25
100
AcDbSpline
210
0.0
220
0.0
230
1.0
 70
     8
 71
     3
 72
    25
 73
    21
 74
     0
 42
0.00000001
 43
0.00000001
 40
0.0
 40
0.0
 40
0.0
 40
0.0
 40
0.0600333226356726
 40
0.1129709835186541
 40
0.1659086444016352
 40
0.2188463052846156
 40
0.271783966167596
 40
0.3247216270505767
 40
0.3776592879335572
 40
0.4305969488165366
 40
0.4835346096995163
 40
0.5364722705824966
 40
0.5894099314654766
 40
0.6423475923484562
 40
0.6952852532314369
 40
0.7482229141144174
 40
0.8011605749973969
 40
0.8540982358803768
 40
0.9070358967633565
 40
1.0
 40
1.0
 40
1.0
 40
1.0
 10
14.05976038892216
 20
11.73469773760254
 30
0.0
 10
14.06253919531554
 20
11.7329198039565
 30
0.0
 10
14.0677683660075
 20
11.72957408021833
 30
0.0
 10
14.07518781210353
 20
11.72281464880144
 30
0.0
 10
14.08186542315931
 20
11.71537104087331
 30
0.0
 10
14.08793308134769
 20
11.70702435458502
 30
0.0
 10
14.09322376969206
 20
11.69804100708451
 30
0.0
 10
14.09759147344584
 20
11.68865907048828
 30
0.0
 10
14.10091574963674
 20
11.67913991037836
 30
0.0
 10
14.10310490367233
 20
11.66974538281238
 30
0.0
 10
14.10409855764294
 20
11.66073478381722
 30
0.0
 10
14.10386930403551
 20
11.65235660446733
 30
0.0
 10
14.10242346879217
 20
11.64484187806449
 30
0.0
 10
14.09980091993453
 20
11.63839809750618
 30
0.0
 10
14.09607402841779
 20
11.63320213312629
 30
0.0
 10
14.09134544706603
 20
11.62940050168393
 30
0.0
 10
14.08574611870148
 20
11.62708609520427
 30
0.0
 10
14.07942853180481
 20
11.62636739168929
 30
0.0
 10
14.0708466758137
 20
11.62728164058618
 30
0.0
 10
14.06407505610548
 20
11.63054855746276
 30
0.0
 10
14.05976038892216
 20
11.63263013611682
 30
0.0
  0
LINE
  5
15D
330
1F
100
AcDbEntity
  8
0
  6
Continuous
 62
     7
370
    25
100
AcDbLine
 10
13.306691667
 20
12.1694350571
 30
0.0
 11
14.0597603889
 21
11.7346977376
 31
0.0
  0
SPLINE
  5
15E
330
1F
100
AcDbEntity
  8
0
  6
Continuous
 62
     7
370
    25
100
AcDbSpline
210
0.0
220
0.0
230
1.0
 70
     8
 71
     3
 72
    20
 73
    16
 74
     0
 42
0.00000001
 43
0.00000001
 40
0.0
 40
0.0
 40
0.0
 40
0.0
 40
0.1220208336415365
 40
0.2292653365593429
 40
0.33650983947715
 40
0.4437543423949564
 40
0.5509988453127633
 40
0.6040432035165527
 40
0.6570875617203396
 40
0.710131919924127
 40
0.7631762781279148
 40
0.8162206363317024
 40
0.8692649945354892
 40
0.9223093527392761
 40
1.0
 40
1.0
 40
1.0
 40
1.0
 10
13.30669166695849
 20
12.06736745566241
 30
0.0
 10
13.30102798087393
 20
12.07136680807532
 30
0.0
 10
13.29038646288399
 20
12.07888120417968
 30
0.0
 10
13.27693430276094
 20
12.09661272958873
 30
0.0
 10
13.26741950773161
 20
12.11558804926328
 30
0.0
 10
13.2623317260455
 20
12.1349899189485
 30
0.0
 10
13.26226870187485
 20
12.14956526066422
 30
0.0
 10
13.26467991114523
 20
12.15923438378024
 30
0.0
 10
13.26763542039597
 20
12.16533048629676
 30
0.0
 10
13.27166863076724
 20
12.17013017691625
 30
0.0
 10
13.27666775834177
 20
12.17350149167912
 30
0.0
 10
13.28249477210071
 20
12.17536159501431
 30
0.0
 10
13.28899009075155
 20
12.17561816524385
 30
0.0
 10
13.29705123434697
 20
12.17423217329585
 30
0.0
 10
13.30309819638676
 20
12.17122318185173
 30
0.0
 10
13.30669166695849
 20
12.16943505714813
 30
0.0
  0
LINE
  5
15F
330
1F
100
AcDbEntity
  8
0
  6
Continuous
 62
     7
370
    25
100
AcDbLine
 10
15.1009751242
 20
14.1273320719
 30
0.0
 11
14.8322745474
 21
13.9722145307
 31
0.0
  0
LINE
  5
160
330
1F
100
AcDbEntity
  8
0
  6
Continuous
 62
     7
370
    25
100
AcDbLine
 10
14.8110613439
 20
14.0089568767
 30
0.0
 11
15.0797619208
 21
14.164074418
 31
0.0
  0
ARC
  5
161
330
1F
100
AcDbEntity
  8
0
  6
Continuous
 62
     7
370
    25
100
AcDbCircle
 10
15.0549186412
 20
14.1252362464
 30
0.0
 40
0.0461041442271648
100
AcDbArc
 50
2.6054784857
 51
57.39452166
  0
LINE
  5
162
330
1F
100
AcDbEntity
  8
0
  6
Continuous
 62
     7
370
    25
100
AcDbLine
 10
15.1009751242
 20
14.1273320719
 30
0.0
 11
15.1009751242
 21
10.0936204612
 31
0.0
  0
LINE
  5
163
330
1F
100
AcDbEntity
  8
0
  6
Continuous
 62
     7
370
    25
100
AcDbLine
 10
14.8322745474
 20
9.93850292
 30
0.0
 11
15.1009751242
 21
10.0936204612
 31
0.0
  0
LINE
  5
164
330
1F
100
AcDbEntity
  8
0
  6
Continuous
 62
     7
370
    25
100
AcDbLine
 10
12.8240912888
 20
15.4662453563
 30
0.0
 11
12.5553907119
 21
15.3111278151
 31
0.0
  0
LINE
  5
165
330
1F
100
AcDbEntity
  8
0
  6
Continuous
 62
     7
370
    25
100
AcDbLine
 10
12.8240912888
 20
15.4662453563
 30
0.0
 11
15.0797619208
 21
14.164074418
 31
0.0
  0
LWPOLYLINE
  5
166
330
1F
100
AcDbEntity
  8
0
  6
Continuous
 62
     7
370
    25
100
AcDbPolyline
 90
       12
 70
   128
 43
0.0
 10
13.7226332465
 20
14.1096275094
 10
13.710737637
 20
14.1017863727
 10
13.7006437075
 20
14.0847370953
 10
13.6971655764
 20
14.0613863164
 10
13.7006437075
 20
14.0340197728
 10
13.710737637
 20
14.0053162926
 10
13.7264593007
 20
13.9780855723
 10
13.7462697527
 20
13.9549931446
 10
13.768229808
 20
13.9382994572
 10
13.7901898632
 20
13.9296386045
 10
13.8100003152
 20
13.9298583712
 10
13.8227299976
 20
13.9362360633
  0
LINE
  5
167
330
1F
100
AcDbEntity
  8
0
  6
Continuous
 62
     7
370
    25
100
AcDbLine
 10
13.7359054831
 20
14.0837503885
 30
0.0
 11
13.7367597764
 21
14.0959433047
 31
0.0
  0
ARC
  5
168
330
1F
100
AcDbEntity
  8
0
  6
Continuous
 62
     7
370
    25
100
AcDbCircle
 10
13.8818017833
 20
14.0865208286
 30
0.0
 40
0.1459226019083569
100
AcDbArc
 50
181.0878647974
 51
244.0483322046
  0
ARC
  5
169
330
1F
100
AcDbEntity
  8
0
  6
Continuous
 62
     7
370
    25
100
AcDbCircle
 10
12.8153036872
 20
15.4539789165
 30
0.0
 40
0.0150893170770449
100
AcDbArc
 50
54.3824225248
 51
114.3071190461
  0
ARC
  5
16A
330
1F
100
AcDbEntity
  8
0
  6
Continuous
 62
     7
370
    25
100
AcDbCircle
 10
15.0867045575
 20
10.0918035404
 30
0.0
 40
0.0143857663862055
100
AcDbArc
 50
304.0563508163
 51
7.2558295771
  0
LWPOLYLINE
  5
16B
330
1F
100
AcDbEntity
  8
0
  6
Continuous
 62
     7
370
    25
100
AcDbPolyline
 90
       12
 70
   128
 43
0.0
 10
13.7226332465
 20
11.4044277996
 10
13.710737637
 20
11.3965866629
 10
13.7006437075
 20
11.3795373855
 10
13.6971655764
 20
11.3561866066
 10
13.7006437075
 20
11.3288200631
 10
13.710737637
 20
11.3001165828
 10
13.7264593007
 20
11.2728858625
 10
13.7462697527
 20
11.2497934348
 10
13.768229808
 20
11.2330997474
 10
13.7901898632
 20
11.2244388947
 10
13.8100003152
 20
11.2246586614
 10
13.8227299976
 20
11.2310363535
  0
LINE
  5
16C
330
1F
100
AcDbEntity
  8
0
  6
Continuous
 62
     7
370
    25
100
AcDbLine
 10
13.7359054831
 20
11.3785506787
 30
0.0
 11
13.7367597764
 21
11.3907435949
 31
0.0
  0
ARC
  5
16D
330
1F
100
AcDbEntity
  8
0
  6
Continuous
 62
     7
370
    25
100
AcDbCircle
 10
13.8818017833
 20
11.3813211188
 30
0.0
 40
0.1459226019083504
100
AcDbArc
 50
181.0878647974
 51
244.0483322046
  0
LWPOLYLINE
  5
16E
330
1F
100
AcDbEntity
  8
0
  6
Continuous
 62
     7
370
    25
100
AcDbPolyline
 90
       32
 70
   128
 43
0.0
 10
14.6722836794
 20
14.3993065996
 10
14.7290523373
 20
14.3949506998
 10
14.7977918354
 20
14.3818730011
 10
14.8683638882
 20
14.3602998373
 10
14.9401663998
 20
14.3304152629
 10
15.0125867766
 20
14.2924742425
 10
15.0850071533
 20
14.2468004756
 10
15.156809665
 20
14.1937836347
 10
15.2273817178
 20
14.1338760408
 10
15.2961212159
 20
14.0675888042
 10
15.3624416981
 20
13.9954874645
 10
15.4257773415
 20
13.9181871646
 10
15.4855877887
 20
13.8363474037
 10
15.541362758
 20
13.7506664096
 10
15.5926263971
 20
13.6618751823
 10
15.6389413427
 20
13.5707312574
 10
15.679912452
 20
13.4780122427
 10
15.7151901739
 20
13.384509184
 10
15.7444735313
 20
13.2910198165
 10
15.767512689
 20
13.1983417586
 10
15.784111085
 20
13.1072657068
 10
15.7941271076
 20
13.0185686898
 10
15.7974753037
 20
12.9330074393
 10
15.7941271076
 20
12.8513119336
 10
15.784111085
 20
12.7741791702
 10
15.767512689
 20
12.7022672184
 10
15.7444735313
 20
12.6361896058
 10
15.7151901739
 20
12.5765100832
 10
15.679912452
 20
12.5237378152
 10
15.6389413427
 20
12.4783230363
 10
15.5926263971
 20
12.4406532093
 10
15.5675416732
 20
12.4247997041
  0
SPLINE
  5
16F
330
1F
100
AcDbEntity
  8
0
  6
Continuous
 62
     7
370
    25
100
AcDbSpline
210
0.0
220
0.0
230
1.0
 70
    11
 71
     3
 72
    26
 73
    22
 74
     0
 42
0.00000001
 43
0.00000001
 40
0.0
 40
0.0
 40
0.0
 40
0.0
 40
0.0482348833488321
 40
0.0994990305378812
 40
0.1523411430840859
 40
0.2070350353661385
 40
0.2630546283428979
 40
0.3194545974421543
 40
0.3751634711989084
 40
0.4292222739348215
 40
0.4813028957315978
 40
0.5321133529965723
 40
0.5830308239826001
 40
0.6352948420635316
 40
0.689426490406094
 40
0.7451153215671367
 40
0.8015082362440568
 40
0.8575530814745065
 40
0.9122146062197358
 40
0.9648968041165018
 40
1.0
 40
1.0
 40
1.0
 40
1.0
 10
15.57038267127983
 20
12.46642131199908
 30
0.0
 10
15.56588545987838
 20
12.46154294219316
 30
0.0
 10
15.55660860164835
 20
12.45147982951216
 30
0.0
 10
15.53658212285193
 20
12.43461718352261
 30
0.0
 10
15.51404478464475
 20
12.41795365994163
 30
0.0
 10
15.49115459014635
 20
12.40304641958914
 30
0.0
 10
15.47089234637262
 20
12.39169687132559
 30
0.0
 10
15.4559124397234
 20
12.38554794054
 30
0.0
 10
15.44812316944308
 20
12.38572042849143
 30
0.0
 10
15.44816675860401
 20
12.3923538241925
 30
0.0
 10
15.45543255181999
 20
12.40449616770759
 30
0.0
 10
15.46858945324866
 20
12.4205283865074
 30
0.0
 10
15.48623239320669
 20
12.43871040732967
 30
0.0
 10
15.50698435974449
 20
12.45723920522497
 30
0.0
 10
15.52913931380184
 20
12.47404318770669
 30
0.0
 10
15.55040752697776
 20
12.48688796715332
 30
0.0
 10
15.56807497190877
 20
12.49389927866508
 30
0.0
 10
15.57962293742865
 20
12.49417108753401
 30
0.0
 10
15.58321943905074
 20
12.48795783842852
 30
0.0
 10
15.57943736588953
 20
12.47788563063358
 30
0.0
 10
15.57296914997097
 20
12.46969610117031
 30
0.0
 10
15.57038267127983
 20
12.46642131199908
 30
0.0
  0
LWPOLYLINE
  5
170
330
1F
100
AcDbEntity
  8
0
  6
Continuous
 62
     7
370
    25
100
AcDbPolyline
 90
       10
 70
   128
 43
0.0
 10
15.4521341352
 20
12.4088273506
 10
15.4541331535
 20
12.4076156557
 10
15.4645209157
 20
12.4092058288
 10
15.4810915229
 20
12.4172244607
 10
15.5013222505
 20
12.4304507872
 10
15.5221331535
 20
12.4468712201
 10
15.5403559606
 20
12.4639858973
 10
15.5532164146
 20
12.4791892644
 10
15.558756628
 20
12.4901667466
 10
15.5581321718
 20
12.4940354267
  0
LWPOLYLINE
  5
171
330
1F
100
AcDbEntity
  8
0
  6
Continuous
 62
     7
370
    25
100
AcDbPolyline
 90
       12
 70
   128
 43
0.0
 10
15.7853195658
 20
13.1475724563
 10
15.7979846173
 20
13.057830744
 10
15.8040092591
 20
12.9709246548
 10
15.8033420912
 20
12.8875956406
 10
15.7959888056
 20
12.8085546354
 10
15.782012138
 20
12.734475989
 10
15.7615313324
 20
12.6659917145
 10
15.7347211238
 20
12.6036860954
 10
15.7018102473
 20
12.5480907013
 10
15.6630794871
 20
12.4996798525
 10
15.6188592803
 20
12.4588665734
 10
15.574612741
 20
12.4288817446
  0
LWPOLYLINE
  5
172
330
1F
100
AcDbEntity
  8
0
  6
Continuous
 62
     7
370
    25
100
AcDbPolyline
 90
       21
 70
   128
 43
0.0
 10
14.6650354729
 20
14.4034909002
 10
14.7092458789
 20
14.4018597862
 10
14.7770861485
 20
14.3922190795
 10
14.8469959542
 20
14.3740294651
 10
14.9183788503
 20
14.3474461302
 10
14.9906258231
 20
14.3126958746
 10
15.0631204869
 20
14.2700751752
 10
15.1352443427
 20
14.2199476567
 10
15.2063820553
 20
14.1627409895
 10
15.2759267027
 20
14.0989432407
 10
15.3432849546
 20
14.0290987101
 10
15.4078821341
 20
13.9538032868
 10
15.4691671209
 20
13.8736993647
 10
15.526617053
 20
13.7894703622
 10
15.5797417878
 20
13.7018348914
 10
15.628088084
 20
13.6115406274
 10
15.6712434679
 20
13.5193579288
 10
15.7088397529
 20
13.4260732661
 10
15.740556181
 20
13.3324825111
 10
15.7661221586
 20
13.239384147
 10
15.7853195658
 20
13.1475724563
  0
LWPOLYLINE
  5
173
330
1F
100
AcDbEntity
  8
0
  6
Continuous
 62
     7
370
    25
100
AcDbPolyline
 90
       25
 70
   128
 43
0.0
 10
17.1429645857
 20
13.9313242437
 10
17.1237671784
 20
14.0231359344
 10
17.0982012008
 20
14.1162342984
 10
17.0664847728
 20
14.2098250535
 10
17.0288884877
 20
14.3031097162
 10
16.9857331039
 20
14.3952924147
 10
16.9373868077
 20
14.4855866788
 10
16.8842620729
 20
14.5732221495
 10
16.8268121408
 20
14.657451152
 10
16.765527154
 20
14.7375550742
 10
16.7009299745
 20
14.8128504975
 10
16.6335717226
 20
14.882695028
 10
16.5640270752
 20
14.9464927768
 10
16.4928893626
 20
15.003699444
 10
16.4207655068
 20
15.0538269625
 10
16.348270843
 20
15.0964476619
 10
16.2760238702
 20
15.1311979176
 10
16.2046409741
 20
15.1577812524
 10
16.1347311683
 20
15.1759708669
 10
16.0668908988
 20
15.1856115736
 10
16.0016989546
 20
15.1866211214
 10
15.9397115306
 20
15.1789908973
 10
15.8814574816
 20
15.1627859995
 10
15.8274338105
 20
15.1381446826
 10
15.8223479676
 20
15.1352620065
  0
LWPOLYLINE
  5
174
330
1F
100
AcDbEntity
  8
0
  6
Continuous
 62
     7
370
    25
100
AcDbPolyline
 90
       12
 70
   128
 43
0.0
 10
16.9322577609
 20
13.212633532
 10
16.9765043002
 20
13.2426183608
 10
17.020724507
 20
13.2834316399
 10
17.0594552672
 20
13.3318424886
 10
17.0923661436
 20
13.3874378827
 10
17.1191763523
 20
13.4497435018
 10
17.1396571579
 20
13.5182277764
 10
17.1536338255
 20
13.5923064227
 10
17.1609871111
 20
13.671347428
 10
17.161654279
 20
13.7546764421
 10
17.1556296371
 20
13.8415825314
 10
17.1429645857
 20
13.9313242437
  0
ARC
  5
175
330
1F
100
AcDbEntity
  8
0
  6
Continuous
 62
     7
370
    25
100
AcDbCircle
 10
15.9891465772
 20
13.7414319417
 30
0.0
 40
1.173051302522467
100
AcDbArc
 50
0.1905661216
 51
10.2479604052
  0
LWPOLYLINE
  5
176
330
1F
100
AcDbEntity
  8
0
  6
Continuous
 62
     7
370
    25
100
AcDbPolyline
 90
       16
 70
   128
 43
0.0
 10
16.3986401864
 20
15.0679863039
 10
16.4260751019
 20
15.0515740638
 10
16.4974191219
 20
15.0035355738
 10
16.5678939783
 20
14.9483142557
 10
16.6368803355
 20
14.8863953964
 10
16.703771939
 20
14.8183231411
 10
16.7679809429
 20
14.7446957112
 10
16.8289430762
 20
14.6661601472
 10
16.8861226014
 20
14.5834066226
 10
16.9390170229
 20
14.4971623781
 10
16.9871615026
 20
14.4081853314
 10
17.030132945
 20
14.317257416
 10
17.0675537157
 20
14.2251777096
 10
17.0990949593
 20
14.1327554119
 10
17.1244794906
 20
14.0408027336
 10
17.1434842291
 20
13.950127758
  0
ARC
  5
177
330
1F
100
AcDbEntity
  8
0
  6
Continuous
 62
     7
370
    25
100
AcDbCircle
 10
18.1646192687
 20
15.1143800252
 30
0.0
 40
0.2208339901389192
100
AcDbArc
 50
10.9026448341
 51
47.4568413075
  0
ARC
  5
178
330
1F
100
AcDbEntity
  8
0
  6
Continuous
 62
     7
370
    25
100
AcDbCircle
 10
18.3061245362
 20
15.1307770387
 30
0.0
 40
0.0794999387248385
100
AcDbArc
 50
308.7086873355
 51
18.6109900046
  0
ARC
  5
179
330
1F
100
AcDbEntity
  8
0
  6
Continuous
 62
     7
370
    25
100
AcDbCircle
 10
17.8110658781
 20
14.9102779972
 30
0.0
 40
0.220833990138895
100
AcDbArc
 50
10.9026448341
 51
47.4568413075
  0
LWPOLYLINE
  5
17A
330
1F
100
AcDbEntity
  8
0
  6
Continuous
 62
     7
370
    25
100
AcDbPolyline
 90
        8
 70
   128
 43
0.0
 10
17.9330906576
 20
14.8723221113
 10
17.9493884522
 20
14.8641922111
 10
17.9742990193
 20
14.8583986195
 10
17.9962795902
 20
14.8617389713
 10
18.0136999664
 20
14.873965528
 10
18.0252681584
 20
14.8941715018
 10
18.0301262063
 20
14.920858308
 10
18.0279138109
 20
14.9520467084
  0
ARC
  5
17B
330
1F
100
AcDbEntity
  8
0
  6
Continuous
 62
     7
370
    25
100
AcDbCircle
 10
17.8205545263
 20
14.9157063031
 30
0.0
 40
0.2041299922001327
100
AcDbArc
 50
10.87889192
 51
47.9572929345
  0
LWPOLYLINE
  5
17C
330
1F
100
AcDbEntity
  8
0
  6
Continuous
 62
     7
370
    25
100
AcDbPolyline
 90
        8
 70
   128
 43
0.0
 10
17.9403207578
 20
14.8764959593
 10
17.9417679503
 20
14.8757790123
 10
17.9663096224
 20
14.8680022268
 10
17.9882979882
 20
14.8694248096
 10
18.0059516811
 20
14.8799315115
 10
18.017840504
 20
14.8986711421
 10
18.023001295
 20
14.9241255279
 10
18.0210159576
 20
14.9542325059
  0
LWPOLYLINE
  5
17D
330
1F
100
AcDbEntity
  8
0
  6
Continuous
 62
     7
370
    25
100
AcDbPolyline
 90
       12
 70
   128
 43
0.0
 10
18.4828282074
 20
15.3727040245
 10
18.4840076072
 20
15.3734200317
 10
18.4959081378
 20
15.3866173786
 10
18.5017567843
 20
15.4066063093
 10
18.5009631435
 20
15.4313690017
 10
18.4936073309
 20
15.4584057371
 10
18.4804318937
 20
15.4849872387
 10
18.4627668523
 20
15.5084301846
 10
18.4423954392
 20
15.5263680803
 10
18.4213740869
 20
15.5369901495
 10
18.4018248371
 20
15.5392241266
 10
18.3890858262
 20
15.5350881862
  0
LINE
  5
17E
330
1F
100
AcDbEntity
  8
0
  6
Continuous
 62
     7
370
    25
100
AcDbLine
 10
16.9466103651
 20
14.4838686062
 30
0.0
 11
17.9572571864
 21
15.0673025974
 31
0.0
  0
LINE
  5
17F
330
1F
100
AcDbEntity
  8
0
  6
Continuous
 62
     7
370
    25
100
AcDbLine
 10
18.316529658
 20
15.2747061805
 30
0.0
 11
18.4683126452
 21
15.3623286339
 31
0.0
  0
LWPOLYLINE
  5
180
330
1F
100
AcDbEntity
  8
0
  6
Continuous
 62
     7
370
    25
100
AcDbPolyline
 90
        9
 70
   128
 43
0.0
 10
18.5119940672
 20
15.2065159361
 10
18.5153587658
 20
15.2087596241
 10
18.5263913144
 20
15.2231088537
 10
18.5312389997
 20
15.2439791733
 10
18.5294124626
 20
15.2692637872
 10
18.5210960864
 20
15.2964102903
 10
18.5071293841
 20
15.3226783252
 10
18.4889222521
 20
15.3454162134
 10
18.4683126452
 20
15.3623286339
  0
LINE
  5
181
330
1F
100
AcDbEntity
  8
0
  6
Continuous
 62
     7
370
    25
100
AcDbLine
 10
18.4683126452
 20
15.3623286339
 30
0.0
 11
18.4679946161
 21
15.3641407745
 31
0.0
  0
LINE
  5
182
330
1F
100
AcDbEntity
  8
0
  6
Continuous
 62
     7
370
    25
100
AcDbLine
 10
14.0996478225
 20
12.9070609422
 30
0.0
 11
14.0597603889
 21
12.8574413539
 31
0.0
  0
LINE
  5
183
330
1F
100
AcDbEntity
  8
0
  6
Continuous
 62
     7
370
    25
100
AcDbLine
 10
14.0996478225
 20
12.7539595399
 30
0.0
 11
14.0597603889
 21
12.7043399517
 31
0.0
  0
LINE
  5
184
330
1F
100
AcDbEntity
  8
0
  6
Continuous
 62
     7
370
    25
100
AcDbLine
 10
13.362733408
 20
13.3618940665
 30
0.0
 11
13.306691667
 21
13.2921786735
 31
0.0
  0
LINE
  5
185
330
1F
100
AcDbEntity
  8
0
  6
Continuous
 62
     7
370
    25
100
AcDbLine
 10
14.0996478225
 20
12.6008581377
 30
0.0
 11
14.0597603889
 21
12.5512385495
 31
0.0
  0
LINE
  5
186
330
1F
100
AcDbEntity
  8
0
  6
Continuous
 62
     7
370
    25
100
AcDbLine
 10
13.362733408
 20
13.2087926643
 30
0.0
 11
13.306691667
 21
13.1390772713
 31
0.0
  0
LINE
  5
187
330
1F
100
AcDbEntity
  8
0
  6
Continuous
 62
     7
370
    25
100
AcDbLine
 10
14.0996478225
 20
12.4477567355
 30
0.0
 11
14.0597603889
 21
12.3981371473
 31
0.0
  0
LINE
  5
188
330
1F
100
AcDbEntity
  8
0
  6
Continuous
 62
     7
370
    25
100
AcDbLine
 10
13.362733408
 20
13.0556912621
 30
0.0
 11
13.306691667
 21
12.985975869
 31
0.0
  0
LINE
  5
189
330
1F
100
AcDbEntity
  8
0
  6
Continuous
 62
     7
370
    25
100
AcDbLine
 10
14.0996478225
 20
12.2946553333
 30
0.0
 11
14.0597603889
 21
12.245035745
 31
0.0
  0
LINE
  5
18A
330
1F
100
AcDbEntity
  8
0
  6
Continuous
 62
     7
370
    25
100
AcDbLine
 10
13.362733408
 20
12.9025898598
 30
0.0
 11
13.306691667
 21
12.8328744668
 31
0.0
  0
LINE
  5
18B
330
1F
100
AcDbEntity
  8
0
  6
Continuous
 62
     7
370
    25
100
AcDbLine
 10
14.0996478225
 20
12.141553931
 30
0.0
 11
14.0597603889
 21
12.0919343428
 31
0.0
  0
LINE
  5
18C
330
1F
100
AcDbEntity
  8
0
  6
Continuous
 62
     7
370
    25
100
AcDbLine
 10
13.362733408
 20
12.7494884576
 30
0.0
 11
13.306691667
 21
12.6797730646
 31
0.0
  0
LINE
  5
18D
330
1F
100
AcDbEntity
  8
0
  6
Continuous
 62
     7
370
    25
100
AcDbLine
 10
14.0996478225
 20
11.9884525288
 30
0.0
 11
14.0597603889
 21
11.9388329406
 31
0.0
  0
LINE
  5
18E
330
1F
100
AcDbEntity
  8
0
  6
Continuous
 62
     7
370
    25
100
AcDbLine
 10
13.362733408
 20
12.5963870554
 30
0.0
 11
13.306691667
 21
12.5266716623
 31
0.0
  0
LINE
  5
18F
330
1F
100
AcDbEntity
  8
0
  6
Continuous
 62
     7
370
    25
100
AcDbLine
 10
14.0996478225
 20
11.8353511266
 30
0.0
 11
14.0597603889
 21
11.7857315383
 31
0.0
  0
LINE
  5
190
330
1F
100
AcDbEntity
  8
0
  6
Continuous
 62
     7
370
    25
100
AcDbLine
 10
13.362733408
 20
12.4432856532
 30
0.0
 11
13.306691667
 21
12.3735702601
 31
0.0
  0
LINE
  5
191
330
1F
100
AcDbEntity
  8
0
  6
Continuous
 62
     7
370
    25
100
AcDbLine
 10
14.0996478225
 20
11.6822497243
 30
0.0
 11
14.0597603889
 21
11.6326301361
 31
0.0
  0
LINE
  5
192
330
1F
100
AcDbEntity
  8
0
  6
Continuous
 62
     7
370
    25
100
AcDbLine
 10
13.362733408
 20
12.2901842509
 30
0.0
 11
13.306691667
 21
12.2204688579
 31
0.0
  0
LINE
  5
193
330
1F
100
AcDbEntity
  8
0
  6
Continuous
 62
     7
370
    25
100
AcDbLine
 10
13.362733408
 20
12.1370828487
 30
0.0
 11
13.306691667
 21
12.0673674557
 31
0.0
  0
ARC
  5
194
330
1F
100
AcDbEntity
  8
0
  6
Continuous
 62
     7
370
    25
100
AcDbCircle
 10
14.933219697
 20
1.4347792731
 30
0.0
 40
0.0299999999999994
100
AcDbArc
 50
180.0
 51
270.0
  0
LINE
  5
195
330
1F
100
AcDbEntity
  8
0
  6
Continuous
 62
     7
370
    25
100
AcDbLine
 10
14.903219697
 20
1.4347792731
 30
0.0
 11
14.903219697
 21
6.3747792731
 31
0.0
  0
ARC
  5
196
330
1F
100
AcDbEntity
  8
0
  6
Continuous
 62
     7
370
    25
100
AcDbCircle
 10
18.123219697
 20
6.3747792731
 30
0.0
 40
0.0300000000000011
100
AcDbArc
 50
0.0
 51
90.0
  0
LINE
  5
197
330
1F
100
AcDbEntity
  8
0
  6
Continuous
 62
     7
370
    25
100
AcDbLine
 10
18.153219697
 20
6.3747792731
 30
0.0
 11
18.153219697
 21
1.4347792731
 31
0.0
  0
ARC
  5
198
330
1F
100
AcDbEntity
  8
0
  6
Continuous
 62
     7
370
    25
100
AcDbCircle
 10
18.123219697
 20
1.4347792731
 30
0.0
 40
0.0300000000000011
100
AcDbArc
 50
270.0
 51
360.0
  0
LINE
  5
199
330
1F
100
AcDbEntity
  8
0
  6
Continuous
 62
     7
370
    25
100
AcDbLine
 10
18.123219697
 20
1.4047792731
 30
0.0
 11
14.933219697
 21
1.4047792731
 31
0.0
  0
CIRCLE
  5
19A
330
1F
100
AcDbEntity
  8
0
  6
Continuous
 62
     7
370
    25
100
AcDbCircle
 10
16.528219697
 20
2.2482792731
 30
0.0
 40
0.2049999999999983
  0
CIRCLE
  5
19B
330
1F
100
AcDbEntity
  8
0
  6
Continuous
 62
     7
370
    25
100
AcDbCircle
 10
16.528219697
 20
5.5612792731
 30
0.0
 40
0.2049999999999983
  0
LINE
  5
19C
330
1F
100
AcDbEntity
  8
0
  6
Continuous
 62
     7
370
    25
100
AcDbLine
 10
15.995719697
 20
4.5883792731
 30
0.0
 11
17.060719697
 21
4.5883792731
 31
0.0
  0
SPLINE
  5
19D
330
1F
100
AcDbEntity
  8
0
  6
Continuous
 62
     7
370
    25
100
AcDbSpline
210
0.0
220
0.0
230
1.0
 70
     8
 71
     3
 72
    20
 73
    16
 74
     0
 42
0.00000001
 43
0.00000001
 40
0.0
 40
0.0
 40
0.0
 40
0.0
 40
0.122020833641537
 40
0.2292653365593436
 40
0.3365098394771504
 40
0.4437543423949591
 40
0.5509988453127619
 40
0.6040432035165512
 40
0.6570875617203392
 40
0.7101319199241276
 40
0.7631762781279168
 40
0.8162206363317053
 40
0.8692649945354932
 40
0.9223093527392815
 40
1.0
 40
1.0
 40
1.0
 40
1.0
 10
15.9957196969697
 20
4.463379273134925
 30
0.0
 10
15.98771003529589
 20
4.464273014170968
 30
0.0
 10
15.97266065623028
 20
4.465952267076478
 30
0.0
 10
15.95363642894104
 20
4.478157117739098
 30
0.0
 10
15.94018047676738
 20
4.494668901626507
 30
0.0
 10
15.93298526690448
 20
4.514832934576725
 30
0.0
 10
15.93289613726759
 20
4.532638485046228
 30
0.0
 10
15.93630610211948
 20
4.546184757857163
 30
0.0
 10
15.9404858233856
 20
4.555740044716516
 30
0.0
 10
15.94618964419255
 20
4.564469569687366
 30
0.0
 10
15.95325947820848
 20
4.572132689021644
 30
0.0
 10
15.96150012009452
 20
4.578530368966543
 30
0.0
 10
15.97068588782246
 20
4.583436722469546
 30
0.0
 10
15.98208606642335
 20
4.587438490840992
 30
0.0
 10
15.99063776215117
 20
4.588028596601632
 30
0.0
 10
15.9957196969697
 20
4.588379273134924
 30
0.0
  0
LINE
  5
19E
330
1F
100
AcDbEntity
  8
0
  6
Continuous
 62
     7
370
    25
100
AcDbLine
 10
17.060719697
 20
4.4633792731
 30
0.0
 11
15.995719697
 21
4.4633792731
 31
0.0
  0
SPLINE
  5
19F
330
1F
100
AcDbEntity
  8
0
  6
Continuous
 62
     7
370
    25
100
AcDbSpline
210
0.0
220
0.0
230
1.0
 70
     8
 71
     3
 72
    25
 73
    21
 74
     0
 42
0.00000001
 43
0.00000001
 40
0.0
 40
0.0
 40
0.0
 40
0.0
 40
0.0600333226356736
 40
0.1129709835186546
 40
0.1659086444016349
 40
0.2188463052846155
 40
0.2717839661675949
 40
0.3247216270505749
 40
0.3776592879335551
 40
0.4305969488165359
 40
0.4835346096995151
 40
0.536472270582492
 40
0.589409931465472
 40
0.6423475923484523
 40
0.6952852532314313
 40
0.7482229141144106
 40
0.8011605749973907
 40
0.8540982358803695
 40
0.907035896763349
 40
0.9999999999999999
 40
0.9999999999999999
 40
0.9999999999999999
 40
0.9999999999999999
 10
17.0607196969697
 20
4.588379273134925
 30
0.0
 10
17.06464952265842
 20
4.588166469490154
 30
0.0
 10
17.07204468677097
 20
4.587766014609588
 30
0.0
 10
17.08253736806526
 20
4.584733372126656
 30
0.0
 10
17.09198093618459
 20
4.580338362021456
 30
0.0
 10
17.10056190068645
 20
4.574406139523215
 30
0.0
 10
17.10804406389735
 20
4.567144900348725
 30
0.0
 10
17.11422092978237
 20
4.558742975069215
 30
0.0
 10
17.11892216625662
 20
4.549435300299368
 30
0.0
 10
17.12201809758387
 20
4.539477738199568
 30
0.0
 10
17.1234233365054
 20
4.529145156355469
 30
0.0
 10
17.12309912294456
 20
4.518722499561673
 30
0.0
 10
17.12105440313447
 20
4.508497181731889
 30
0.0
 10
17.11734555897202
 20
4.498751501329471
 30
0.0
 10
17.11207493844354
 20
4.489753233331314
 30
0.0
 10
17.1053877145651
 20
4.481754388377996
 30
0.0
 10
17.09746906845178
 20
4.47496130484843
 30
0.0
 10
17.08853465138104
 20
4.469614641537902
 30
0.0
 10
17.07639807424808
 20
4.464667000152601
 30
0.0
 10
17.06682155781747
 20
4.463880443053997
 30
0.0
 10
17.0607196969697
 20
4.463379273134925
 30
0.0
  0
LINE
  5
1A0
330
1F
100
AcDbEntity
  8
0
  6
Continuous
 62
     7
370
    25
100
AcDbLine
 10
17.060719697
 20
4.2758792731
 30
0.0
 11
15.995719697
 21
4.2758792731
 31
0.0
  0
SPLINE
  5
1A1
330
1F
100
AcDbEntity
  8
0
  6
Continuous
 62
     7
370
    25
100
AcDbSpline
210
0.0
220
0.0
230
1.0
 70
     8
 71
     3
 72
    25
 73
    21
 74
     0
 42
0.00000001
 43
0.00000001
 40
0.0
 40
0.0
 40
0.0
 40
0.0
 40
0.0600333226356733
 40
0.1129709835186543
 40
0.1659086444016345
 40
0.218846305284615
 40
0.2717839661675943
 40
0.3247216270505743
 40
0.3776592879335546
 40
0.4305969488165354
 40
0.4835346096995153
 40
0.5364722705824948
 40
0.5894099314654734
 40
0.6423475923484533
 40
0.6952852532314329
 40
0.7482229141144126
 40
0.8011605749973919
 40
0.8540982358803711
 40
0.9070358967633508
 40
1.0
 40
1.0
 40
1.0
 40
1.0
 10
17.0607196969697
 20
4.400879273134925
 30
0.0
 10
17.06464952265842
 20
4.400666469490154
 30
0.0
 10
17.07204468677096
 20
4.400266014609588
 30
0.0
 10
17.08253736806526
 20
4.397233372126656
 30
0.0
 10
17.09198093618459
 20
4.392838362021456
 30
0.0
 10
17.10056190068645
 20
4.386906139523216
 30
0.0
 10
17.10804406389735
 20
4.379644900348726
 30
0.0
 10
17.11422092978237
 20
4.371242975069214
 30
0.0
 10
17.11892216625662
 20
4.361935300299369
 30
0.0
 10
17.12201809758387
 20
4.351977738199568
 30
0.0
 10
17.1234233365054
 20
4.341645156355469
 30
0.0
 10
17.12309912294456
 20
4.331222499561672
 30
0.0
 10
17.12105440313447
 20
4.32099718173189
 30
0.0
 10
17.11734555897202
 20
4.311251501329471
 30
0.0
 10
17.11207493844354
 20
4.302253233331314
 30
0.0
 10
17.1053877145651
 20
4.294254388377996
 30
0.0
 10
17.09746906845178
 20
4.28746130484843
 30
0.0
 10
17.08853465138104
 20
4.282114641537901
 30
0.0
 10
17.07639807424808
 20
4.277167000152601
 30
0.0
 10
17.06682155781747
 20
4.276380443053997
 30
0.0
 10
17.0607196969697
 20
4.275879273134925
 30
0.0
  0
LINE
  5
1A2
330
1F
100
AcDbEntity
  8
0
  6
Continuous
 62
     7
370
    25
100
AcDbLine
 10
15.995719697
 20
4.4008792731
 30
0.0
 11
17.060719697
 21
4.4008792731
 31
0.0
  0
SPLINE
  5
1A3
330
1F
100
AcDbEntity
  8
0
  6
Continuous
 62
     7
370
    25
100
AcDbSpline
210
0.0
220
0.0
230
1.0
 70
     8
 71
     3
 72
    20
 73
    16
 74
     0
 42
0.00000001
 43
0.00000001
 40
0.0
 40
0.0
 40
0.0
 40
0.0
 40
0.1220208336415366
 40
0.2292653365593431
 40
0.3365098394771508
 40
0.4437543423949577
 40
0.5509988453127642
 40
0.6040432035165526
 40
0.6570875617203409
 40
0.7101319199241288
 40
0.7631762781279166
 40
0.816220636331705
 40
0.8692649945354936
 40
0.9223093527392817
 40
1.0
 40
1.0
 40
1.0
 40
1.0
 10
15.9957196969697
 20
4.275879273134924
 30
0.0
 10
15.98771003529589
 20
4.276773014170968
 30
0.0
 10
15.97266065623029
 20
4.278452267076478
 30
0.0
 10
15.95363642894104
 20
4.290657117739098
 30
0.0
 10
15.94018047676738
 20
4.307168901626508
 30
0.0
 10
15.93298526690448
 20
4.327332934576725
 30
0.0
 10
15.93289613726759
 20
4.345138485046228
 30
0.0
 10
15.93630610211948
 20
4.358684757857164
 30
0.0
 10
15.9404858233856
 20
4.368240044716516
 30
0.0
 10
15.94618964419255
 20
4.376969569687367
 30
0.0
 10
15.95325947820848
 20
4.384632689021644
 30
0.0
 10
15.96150012009452
 20
4.391030368966545
 30
0.0
 10
15.97068588782246
 20
4.395936722469547
 30
0.0
 10
15.98208606642335
 20
4.399938490840993
 30
0.0
 10
15.99063776215117
 20
4.400528596601632
 30
0.0
 10
15.9957196969697
 20
4.400879273134924
 30
0.0
  0
LINE
  5
1A4
330
1F
100
AcDbEntity
  8
0
  6
Continuous
 62
     7
370
    25
100
AcDbLine
 10
15.995719697
 20
4.2133792731
 30
0.0
 11
17.060719697
 21
4.2133792731
 31
0.0
  0
SPLINE
  5
1A5
330
1F
100
AcDbEntity
  8
0
  6
Continuous
 62
     7
370
    25
100
AcDbSpline
210
0.0
220
0.0
230
1.0
 70
     8
 71
     3
 72
    20
 73
    16
 74
     0
 42
0.00000001
 43
0.00000001
 40
0.0
 40
0.0
 40
0.0
 40
0.0
 40
0.1220208336415364
 40
0.2292653365593434
 40
0.3365098394771496
 40
0.4437543423949564
 40
0.5509988453127629
 40
0.6040432035165526
 40
0.6570875617203412
 40
0.7101319199241283
 40
0.7631762781279159
 40
0.8162206363317033
 40
0.8692649945354909
 40
0.9223093527392786
 40
1.0
 40
1.0
 40
1.0
 40
1.0
 10
15.9957196969697
 20
4.088379273134924
 30
0.0
 10
15.98771003529589
 20
4.089273014170968
 30
0.0
 10
15.97266065623028
 20
4.090952267076478
 30
0.0
 10
15.95363642894104
 20
4.103157117739098
 30
0.0
 10
15.94018047676738
 20
4.119668901626508
 30
0.0
 10
15.93298526690448
 20
4.139832934576725
 30
0.0
 10
15.93289613726759
 20
4.157638485046228
 30
0.0
 10
15.93630610211948
 20
4.171184757857165
 30
0.0
 10
15.9404858233856
 20
4.180740044716516
 30
0.0
 10
15.94618964419255
 20
4.189469569687367
 30
0.0
 10
15.95325947820848
 20
4.197132689021644
 30
0.0
 10
15.96150012009452
 20
4.203530368966544
 30
0.0
 10
15.97068588782246
 20
4.208436722469547
 30
0.0
 10
15.98208606642335
 20
4.212438490840993
 30
0.0
 10
15.99063776215117
 20
4.213028596601632
 30
0.0
 10
15.9957196969697
 20
4.213379273134924
 30
0.0
  0
LINE
  5
1A6
330
1F
100
AcDbEntity
  8
0
  6
Continuous
 62
     7
370
    25
100
AcDbLine
 10
17.060719697
 20
4.0883792731
 30
0.0
 11
15.995719697
 21
4.0883792731
 31
0.0
  0
SPLINE
  5
1A7
330
1F
100
AcDbEntity
  8
0
  6
Continuous
 62
     7
370
    25
100
AcDbSpline
210
0.0
220
0.0
230
1.0
 70
     8
 71
     3
 72
    25
 73
    21
 74
     0
 42
0.00000001
 43
0.00000001
 40
0.0
 40
0.0
 40
0.0
 40
0.0
 40
0.0600333226356737
 40
0.112970983518654
 40
0.1659086444016351
 40
0.2188463052846154
 40
0.2717839661675956
 40
0.3247216270505757
 40
0.3776592879335561
 40
0.4305969488165354
 40
0.4835346096995151
 40
0.5364722705824946
 40
0.5894099314654746
 40
0.642347592348454
 40
0.6952852532314339
 40
0.7482229141144147
 40
0.8011605749973941
 40
0.8540982358803737
 40
0.9070358967633537
 40
1.0
 40
1.0
 40
1.0
 40
1.0
 10
17.0607196969697
 20
4.213379273134925
 30
0.0
 10
17.06464952265842
 20
4.213166469490154
 30
0.0
 10
17.07204468677096
 20
4.212766014609588
 30
0.0
 10
17.08253736806526
 20
4.209733372126657
 30
0.0
 10
17.09198093618459
 20
4.205338362021456
 30
0.0
 10
17.10056190068645
 20
4.199406139523216
 30
0.0
 10
17.10804406389735
 20
4.192144900348726
 30
0.0
 10
17.11422092978237
 20
4.183742975069215
 30
0.0
 10
17.11892216625662
 20
4.174435300299369
 30
0.0
 10
17.12201809758387
 20
4.164477738199568
 30
0.0
 10
17.1234233365054
 20
4.154145156355469
 30
0.0
 10
17.12309912294456
 20
4.143722499561672
 30
0.0
 10
17.12105440313447
 20
4.13349718173189
 30
0.0
 10
17.11734555897201
 20
4.123751501329471
 30
0.0
 10
17.11207493844354
 20
4.114753233331314
 30
0.0
 10
17.10538771456509
 20
4.106754388377995
 30
0.0
 10
17.09746906845178
 20
4.09996130484843
 30
0.0
 10
17.08853465138104
 20
4.094614641537902
 30
0.0
 10
17.07639807424808
 20
4.089667000152601
 30
0.0
 10
17.06682155781747
 20
4.088880443053997
 30
0.0
 10
17.0607196969697
 20
4.088379273134926
 30
0.0
  0
LINE
  5
1A8
330
1F
100
AcDbEntity
  8
0
  6
Continuous
 62
     7
370
    25
100
AcDbLine
 10
17.060719697
 20
3.9008792731
 30
0.0
 11
15.995719697
 21
3.9008792731
 31
0.0
  0
SPLINE
  5
1A9
330
1F
100
AcDbEntity
  8
0
  6
Continuous
 62
     7
370
    25
100
AcDbSpline
210
0.0
220
0.0
230
1.0
 70
     8
 71
     3
 72
    25
 73
    21
 74
     0
 42
0.00000001
 43
0.00000001
 40
0.0
 40
0.0
 40
0.0
 40
0.0
 40
0.0600333226356738
 40
0.1129709835186544
 40
0.1659086444016353
 40
0.2188463052846158
 40
0.2717839661675971
 40
0.324721627050577
 40
0.3776592879335572
 40
0.4305969488165375
 40
0.4835346096995173
 40
0.536472270582497
 40
0.5894099314654777
 40
0.6423475923484577
 40
0.6952852532314377
 40
0.7482229141144177
 40
0.801160574997398
 40
0.8540982358803775
 40
0.907035896763357
 40
1.0
 40
1.0
 40
1.0
 40
1.0
 10
17.0607196969697
 20
4.025879273134925
 30
0.0
 10
17.06464952265842
 20
4.025666469490155
 30
0.0
 10
17.07204468677096
 20
4.025266014609588
 30
0.0
 10
17.08253736806526
 20
4.022233372126657
 30
0.0
 10
17.09198093618459
 20
4.017838362021456
 30
0.0
 10
17.10056190068645
 20
4.011906139523217
 30
0.0
 10
17.10804406389735
 20
4.004644900348726
 30
0.0
 10
17.11422092978237
 20
3.996242975069215
 30
0.0
 10
17.11892216625662
 20
3.986935300299369
 30
0.0
 10
17.12201809758387
 20
3.976977738199568
 30
0.0
 10
17.1234233365054
 20
3.966645156355469
 30
0.0
 10
17.12309912294456
 20
3.956222499561673
 30
0.0
 10
17.12105440313447
 20
3.945997181731889
 30
0.0
 10
17.11734555897201
 20
3.93625150132947
 30
0.0
 10
17.11207493844354
 20
3.927253233331313
 30
0.0
 10
17.10538771456509
 20
3.919254388377995
 30
0.0
 10
17.09746906845178
 20
3.91246130484843
 30
0.0
 10
17.08853465138104
 20
3.907114641537902
 30
0.0
 10
17.07639807424807
 20
3.902167000152602
 30
0.0
 10
17.06682155781747
 20
3.901380443053997
 30
0.0
 10
17.0607196969697
 20
3.900879273134926
 30
0.0
  0
LINE
  5
1AA
330
1F
100
AcDbEntity
  8
0
  6
Continuous
 62
     7
370
    25
100
AcDbLine
 10
15.995719697
 20
4.0258792731
 30
0.0
 11
17.060719697
 21
4.0258792731
 31
0.0
  0
SPLINE
  5
1AB
330
1F
100
AcDbEntity
  8
0
  6
Continuous
 62
     7
370
    25
100
AcDbSpline
210
0.0
220
0.0
230
1.0
 70
     8
 71
     3
 72
    20
 73
    16
 74
     0
 42
0.00000001
 43
0.00000001
 40
0.0
 40
0.0
 40
0.0
 40
0.0
 40
0.1220208336415363
 40
0.2292653365593431
 40
0.33650983947715
 40
0.4437543423949566
 40
0.550998845312763
 40
0.604043203516552
 40
0.6570875617203407
 40
0.7101319199241288
 40
0.7631762781279162
 40
0.8162206363317035
 40
0.8692649945354914
 40
0.9223093527392792
 40
1.0
 40
1.0
 40
1.0
 40
1.0
 10
15.9957196969697
 20
3.900879273134925
 30
0.0
 10
15.98771003529589
 20
3.901773014170968
 30
0.0
 10
15.97266065623028
 20
3.903452267076478
 30
0.0
 10
15.95363642894104
 20
3.915657117739098
 30
0.0
 10
15.94018047676737
 20
3.932168901626508
 30
0.0
 10
15.93298526690448
 20
3.952332934576725
 30
0.0
 10
15.93289613726759
 20
3.970138485046228
 30
0.0
 10
15.93630610211948
 20
3.983684757857164
 30
0.0
 10
15.9404858233856
 20
3.993240044716516
 30
0.0
 10
15.94618964419255
 20
4.001969569687367
 30
0.0
 10
15.95325947820848
 20
4.009632689021644
 30
0.0
 10
15.96150012009452
 20
4.016030368966545
 30
0.0
 10
15.97068588782246
 20
4.020936722469548
 30
0.0
 10
15.98208606642335
 20
4.024938490840993
 30
0.0
 10
15.99063776215117
 20
4.025528596601632
 30
0.0
 10
15.9957196969697
 20
4.025879273134925
 30
0.0
  0
LINE
  5
1AC
330
1F
100
AcDbEntity
  8
0
  6
Continuous
 62
     7
370
    25
100
AcDbLine
 10
15.995719697
 20
3.8383792731
 30
0.0
 11
17.060719697
 21
3.8383792731
 31
0.0
  0
SPLINE
  5
1AD
330
1F
100
AcDbEntity
  8
0
  6
Continuous
 62
     7
370
    25
100
AcDbSpline
210
0.0
220
0.0
230
1.0
 70
     8
 71
     3
 72
    20
 73
    16
 74
     0
 42
0.00000001
 43
0.00000001
 40
0.0
 40
0.0
 40
0.0
 40
0.0
 40
0.1220208336415361
 40
0.2292653365593433
 40
0.3365098394771498
 40
0.4437543423949571
 40
0.5509988453127634
 40
0.6040432035165515
 40
0.6570875617203401
 40
0.7101319199241287
 40
0.7631762781279158
 40
0.816220636331703
 40
0.86926499453549
 40
0.9223093527392775
 40
1.0
 40
1.0
 40
1.0
 40
1.0
 10
15.9957196969697
 20
3.713379273134925
 30
0.0
 10
15.98771003529589
 20
3.714273014170968
 30
0.0
 10
15.97266065623028
 20
3.715952267076478
 30
0.0
 10
15.95363642894104
 20
3.728157117739098
 30
0.0
 10
15.94018047676737
 20
3.744668901626508
 30
0.0
 10
15.93298526690448
 20
3.764832934576725
 30
0.0
 10
15.93289613726759
 20
3.782638485046228
 30
0.0
 10
15.93630610211948
 20
3.796184757857165
 30
0.0
 10
15.9404858233856
 20
3.805740044716516
 30
0.0
 10
15.94618964419255
 20
3.814469569687367
 30
0.0
 10
15.95325947820848
 20
3.822132689021644
 30
0.0
 10
15.96150012009452
 20
3.828530368966545
 30
0.0
 10
15.97068588782246
 20
3.833436722469548
 30
0.0
 10
15.98208606642335
 20
3.837438490840994
 30
0.0
 10
15.99063776215117
 20
3.838028596601633
 30
0.0
 10
15.9957196969697
 20
3.838379273134925
 30
0.0
  0
LINE
  5
1AE
330
1F
100
AcDbEntity
  8
0
  6
Continuous
 62
     7
370
    25
100
AcDbLine
 10
17.060719697
 20
3.7133792731
 30
0.0
 11
15.995719697
 21
3.7133792731
 31
0.0
  0
SPLINE
  5
1AF
330
1F
100
AcDbEntity
  8
0
  6
Continuous
 62
     7
370
    25
100
AcDbSpline
210
0.0
220
0.0
230
1.0
 70
     8
 71
     3
 72
    25
 73
    21
 74
     0
 42
0.00000001
 43
0.00000001
 40
0.0
 40
0.0
 40
0.0
 40
0.0
 40
0.0600333226356738
 40
0.1129709835186544
 40
0.1659086444016357
 40
0.2188463052846158
 40
0.2717839661675963
 40
0.3247216270505761
 40
0.3776592879335571
 40
0.4305969488165372
 40
0.4835346096995161
 40
0.5364722705824957
 40
0.589409931465475
 40
0.6423475923484543
 40
0.6952852532314343
 40
0.7482229141144143
 40
0.801160574997394
 40
0.8540982358803737
 40
0.9070358967633533
 40
1.0
 40
1.0
 40
1.0
 40
1.0
 10
17.0607196969697
 20
3.838379273134926
 30
0.0
 10
17.06464952265842
 20
3.838166469490155
 30
0.0
 10
17.07204468677096
 20
3.837766014609589
 30
0.0
 10
17.08253736806526
 20
3.834733372126657
 30
0.0
 10
17.09198093618459
 20
3.830338362021456
 30
0.0
 10
17.10056190068645
 20
3.824406139523217
 30
0.0
 10
17.10804406389735
 20
3.817144900348727
 30
0.0
 10
17.11422092978237
 20
3.808742975069216
 30
0.0
 10
17.11892216625662
 20
3.79943530029937
 30
0.0
 10
17.12201809758387
 20
3.789477738199568
 30
0.0
 10
17.1234233365054
 20
3.779145156355469
 30
0.0
 10
17.12309912294456
 20
3.768722499561673
 30
0.0
 10
17.12105440313447
 20
3.75849718173189
 30
0.0
 10
17.11734555897201
 20
3.748751501329471
 30
0.0
 10
17.11207493844354
 20
3.739753233331314
 30
0.0
 10
17.10538771456509
 20
3.731754388377996
 30
0.0
 10
17.09746906845178
 20
3.724961304848431
 30
0.0
 10
17.08853465138104
 20
3.719614641537902
 30
0.0
 10
17.07639807424807
 20
3.714667000152602
 30
0.0
 10
17.06682155781747
 20
3.713880443053998
 30
0.0
 10
17.0607196969697
 20
3.713379273134926
 30
0.0
  0
LINE
  5
1B0
330
1F
100
AcDbEntity
  8
0
  6
Continuous
 62
     7
370
    25
100
AcDbLine
 10
17.060719697
 20
3.3383792731
 30
0.0
 11
15.995719697
 21
3.3383792731
 31
0.0
  0
SPLINE
  5
1B1
330
1F
100
AcDbEntity
  8
0
  6
Continuous
 62
     7
370
    25
100
AcDbSpline
210
0.0
220
0.0
230
1.0
 70
     8
 71
     3
 72
    25
 73
    21
 74
     0
 42
0.00000001
 43
0.00000001
 40
0.0
 40
0.0
 40
0.0
 40
0.0
 40
0.0600333226356733
 40
0.1129709835186544
 40
0.1659086444016348
 40
0.2188463052846153
 40
0.2717839661675964
 40
0.3247216270505768
 40
0.3776592879335571
 40
0.4305969488165376
 40
0.4835346096995179
 40
0.5364722705824978
 40
0.5894099314654782
 40
0.6423475923484581
 40
0.6952852532314381
 40
0.748222914114418
 40
0.8011605749973983
 40
0.8540982358803785
 40
0.9070358967633584
 40
1.0
 40
1.0
 40
1.0
 40
1.0
 10
17.0607196969697
 20
3.463379273134926
 30
0.0
 10
17.06464952265842
 20
3.463166469490155
 30
0.0
 10
17.07204468677096
 20
3.462766014609589
 30
0.0
 10
17.08253736806526
 20
3.459733372126656
 30
0.0
 10
17.09198093618459
 20
3.455338362021456
 30
0.0
 10
17.10056190068645
 20
3.449406139523216
 30
0.0
 10
17.10804406389735
 20
3.442144900348726
 30
0.0
 10
17.11422092978237
 20
3.433742975069215
 30
0.0
 10
17.11892216625662
 20
3.424435300299369
 30
0.0
 10
17.12201809758387
 20
3.414477738199567
 30
0.0
 10
17.1234233365054
 20
3.404145156355469
 30
0.0
 10
17.12309912294456
 20
3.393722499561672
 30
0.0
 10
17.12105440313447
 20
3.383497181731889
 30
0.0
 10
17.11734555897201
 20
3.37375150132947
 30
0.0
 10
17.11207493844354
 20
3.364753233331313
 30
0.0
 10
17.10538771456509
 20
3.356754388377995
 30
0.0
 10
17.09746906845178
 20
3.34996130484843
 30
0.0
 10
17.08853465138104
 20
3.344614641537901
 30
0.0
 10
17.07639807424807
 20
3.339667000152602
 30
0.0
 10
17.06682155781747
 20
3.338880443053997
 30
0.0
 10
17.0607196969697
 20
3.338379273134926
 30
0.0
  0
LINE
  5
1B2
330
1F
100
AcDbEntity
  8
0
  6
Continuous
 62
     7
370
    25
100
AcDbLine
 10
15.995719697
 20
3.4633792731
 30
0.0
 11
17.060719697
 21
3.4633792731
 31
0.0
  0
SPLINE
  5
1B3
330
1F
100
AcDbEntity
  8
0
  6
Continuous
 62
     7
370
    25
100
AcDbSpline
210
0.0
220
0.0
230
1.0
 70
     8
 71
     3
 72
    20
 73
    16
 74
     0
 42
0.00000001
 43
0.00000001
 40
0.0
 40
0.0
 40
0.0
 40
0.0
 40
0.1220208336415367
 40
0.2292653365593433
 40
0.33650983947715
 40
0.4437543423949563
 40
0.5509988453127639
 40
0.604043203516553
 40
0.6570875617203406
 40
0.7101319199241273
 40
0.7631762781279132
 40
0.8162206363317002
 40
0.8692649945354877
 40
0.9223093527392752
 40
1.0
 40
1.0
 40
1.0
 40
1.0
 10
15.9957196969697
 20
3.338379273134925
 30
0.0
 10
15.98771003529589
 20
3.339273014170968
 30
0.0
 10
15.97266065623028
 20
3.340952267076478
 30
0.0
 10
15.95363642894104
 20
3.353157117739098
 30
0.0
 10
15.94018047676737
 20
3.369668901626508
 30
0.0
 10
15.93298526690448
 20
3.389832934576725
 30
0.0
 10
15.93289613726759
 20
3.407638485046229
 30
0.0
 10
15.93630610211948
 20
3.421184757857165
 30
0.0
 10
15.9404858233856
 20
3.430740044716516
 30
0.0
 10
15.94618964419254
 20
3.439469569687366
 30
0.0
 10
15.95325947820848
 20
3.447132689021644
 30
0.0
 10
15.96150012009452
 20
3.453530368966545
 30
0.0
 10
15.97068588782246
 20
3.458436722469547
 30
0.0
 10
15.98208606642335
 20
3.462438490840994
 30
0.0
 10
15.99063776215117
 20
3.463028596601632
 30
0.0
 10
15.9957196969697
 20
3.463379273134925
 30
0.0
  0
LINE
  5
1B4
330
1F
100
AcDbEntity
  8
0
  6
Continuous
 62
     7
370
    25
100
AcDbLine
 10
17.060719697
 20
3.5258792731
 30
0.0
 11
15.995719697
 21
3.5258792731
 31
0.0
  0
SPLINE
  5
1B5
330
1F
100
AcDbEntity
  8
0
  6
Continuous
 62
     7
370
    25
100
AcDbSpline
210
0.0
220
0.0
230
1.0
 70
     8
 71
     3
 72
    25
 73
    21
 74
     0
 42
0.00000001
 43
0.00000001
 40
0.0
 40
0.0
 40
0.0
 40
0.0
 40
0.0600333226356737
 40
0.1129709835186544
 40
0.1659086444016354
 40
0.2188463052846157
 40
0.2717839661675966
 40
0.3247216270505762
 40
0.3776592879335565
 40
0.4305969488165364
 40
0.4835346096995168
 40
0.5364722705824969
 40
0.5894099314654769
 40
0.6423475923484566
 40
0.6952852532314368
 40
0.7482229141144173
 40
0.8011605749973975
 40
0.8540982358803789
 40
0.907035896763359
 40
1.0
 40
1.0
 40
1.0
 40
1.0
 10
17.0607196969697
 20
3.650879273134926
 30
0.0
 10
17.06464952265842
 20
3.650666469490155
 30
0.0
 10
17.07204468677096
 20
3.650266014609588
 30
0.0
 10
17.08253736806526
 20
3.647233372126656
 30
0.0
 10
17.09198093618459
 20
3.642838362021456
 30
0.0
 10
17.10056190068645
 20
3.636906139523216
 30
0.0
 10
17.10804406389735
 20
3.629644900348726
 30
0.0
 10
17.11422092978237
 20
3.621242975069215
 30
0.0
 10
17.11892216625662
 20
3.611935300299369
 30
0.0
 10
17.12201809758387
 20
3.601977738199567
 30
0.0
 10
17.1234233365054
 20
3.591645156355469
 30
0.0
 10
17.12309912294456
 20
3.581222499561672
 30
0.0
 10
17.12105440313447
 20
3.570997181731889
 30
0.0
 10
17.11734555897201
 20
3.56125150132947
 30
0.0
 10
17.11207493844354
 20
3.552253233331313
 30
0.0
 10
17.10538771456509
 20
3.544254388377995
 30
0.0
 10
17.09746906845178
 20
3.53746130484843
 30
0.0
 10
17.08853465138104
 20
3.532114641537901
 30
0.0
 10
17.07639807424807
 20
3.527167000152601
 30
0.0
 10
17.06682155781747
 20
3.526380443053997
 30
0.0
 10
17.0607196969697
 20
3.525879273134925
 30
0.0
  0
LINE
  5
1B6
330
1F
100
AcDbEntity
  8
0
  6
Continuous
 62
     7
370
    25
100
AcDbLine
 10
15.995719697
 20
3.6508792731
 30
0.0
 11
17.060719697
 21
3.6508792731
 31
0.0
  0
SPLINE
  5
1B7
330
1F
100
AcDbEntity
  8
0
  6
Continuous
 62
     7
370
    25
100
AcDbSpline
210
0.0
220
0.0
230
1.0
 70
     8
 71
     3
 72
    20
 73
    16
 74
     0
 42
0.00000001
 43
0.00000001
 40
0.0
 40
0.0
 40
0.0
 40
0.0
 40
0.1220208336415368
 40
0.2292653365593424
 40
0.3365098394771486
 40
0.443754342394955
 40
0.550998845312762
 40
0.6040432035165509
 40
0.6570875617203397
 40
0.7101319199241282
 40
0.7631762781279168
 40
0.8162206363317048
 40
0.8692649945354933
 40
0.9223093527392819
 40
1.0
 40
1.0
 40
1.0
 40
1.0
 10
15.9957196969697
 20
3.525879273134925
 30
0.0
 10
15.98771003529589
 20
3.526773014170968
 30
0.0
 10
15.97266065623028
 20
3.528452267076478
 30
0.0
 10
15.95363642894104
 20
3.540657117739098
 30
0.0
 10
15.94018047676737
 20
3.557168901626508
 30
0.0
 10
15.93298526690448
 20
3.577332934576724
 30
0.0
 10
15.93289613726759
 20
3.595138485046228
 30
0.0
 10
15.93630610211948
 20
3.608684757857165
 30
0.0
 10
15.9404858233856
 20
3.618240044716516
 30
0.0
 10
15.94618964419254
 20
3.626969569687366
 30
0.0
 10
15.95325947820848
 20
3.634632689021644
 30
0.0
 10
15.96150012009452
 20
3.641030368966545
 30
0.0
 10
15.97068588782246
 20
3.645936722469548
 30
0.0
 10
15.98208606642335
 20
3.649938490840994
 30
0.0
 10
15.99063776215117
 20
3.650528596601632
 30
0.0
 10
15.9957196969697
 20
3.650879273134925
 30
0.0
  0
LINE
  5
1B8
330
1F
100
AcDbEntity
  8
0
  6
Continuous
 62
     7
370
    25
100
AcDbLine
 10
15.995719697
 20
3.2758792731
 30
0.0
 11
17.060719697
 21
3.2758792731
 31
0.0
  0
SPLINE
  5
1B9
330
1F
100
AcDbEntity
  8
0
  6
Continuous
 62
     7
370
    25
100
AcDbSpline
210
0.0
220
0.0
230
1.0
 70
     8
 71
     3
 72
    20
 73
    16
 74
     0
 42
0.00000001
 43
0.00000001
 40
0.0
 40
0.0
 40
0.0
 40
0.0
 40
0.122020833641536
 40
0.2292653365593428
 40
0.3365098394771495
 40
0.4437543423949562
 40
0.5509988453127632
 40
0.6040432035165515
 40
0.6570875617203406
 40
0.7101319199241288
 40
0.7631762781279174
 40
0.8162206363317059
 40
0.8692649945354943
 40
0.9223093527392826
 40
0.9999999999999999
 40
0.9999999999999999
 40
0.9999999999999999
 40
0.9999999999999999
 10
15.9957196969697
 20
3.150879273134924
 30
0.0
 10
15.98771003529589
 20
3.151773014170967
 30
0.0
 10
15.97266065623028
 20
3.153452267076477
 30
0.0
 10
15.95363642894104
 20
3.165657117739097
 30
0.0
 10
15.94018047676737
 20
3.182168901626506
 30
0.0
 10
15.93298526690448
 20
3.202332934576724
 30
0.0
 10
15.93289613726759
 20
3.220138485046228
 30
0.0
 10
15.93630610211948
 20
3.233684757857163
 30
0.0
 10
15.9404858233856
 20
3.243240044716516
 30
0.0
 10
15.94618964419254
 20
3.251969569687366
 30
0.0
 10
15.95325947820848
 20
3.259632689021644
 30
0.0
 10
15.96150012009452
 20
3.266030368966544
 30
0.0
 10
15.97068588782246
 20
3.270936722469547
 30
0.0
 10
15.98208606642335
 20
3.274938490840992
 30
0.0
 10
15.99063776215117
 20
3.275528596601632
 30
0.0
 10
15.9957196969697
 20
3.275879273134924
 30
0.0
  0
LINE
  5
1BA
330
1F
100
AcDbEntity
  8
0
  6
Continuous
 62
     7
370
    25
100
AcDbLine
 10
17.060719697
 20
3.1508792731
 30
0.0
 11
15.995719697
 21
3.1508792731
 31
0.0
  0
SPLINE
  5
1BB
330
1F
100
AcDbEntity
  8
0
  6
Continuous
 62
     7
370
    25
100
AcDbSpline
210
0.0
220
0.0
230
1.0
 70
     8
 71
     3
 72
    25
 73
    21
 74
     0
 42
0.00000001
 43
0.00000001
 40
0.0
 40
0.0
 40
0.0
 40
0.0
 40
0.0600333226356733
 40
0.1129709835186539
 40
0.1659086444016351
 40
0.2188463052846158
 40
0.2717839661675963
 40
0.3247216270505763
 40
0.3776592879335561
 40
0.4305969488165368
 40
0.4835346096995165
 40
0.5364722705824976
 40
0.5894099314654769
 40
0.6423475923484565
 40
0.6952852532314364
 40
0.7482229141144152
 40
0.8011605749973945
 40
0.854098235880374
 40
0.9070358967633537
 40
1.0
 40
1.0
 40
1.0
 40
1.0
 10
17.0607196969697
 20
3.275879273134925
 30
0.0
 10
17.06464952265842
 20
3.275666469490154
 30
0.0
 10
17.07204468677096
 20
3.275266014609588
 30
0.0
 10
17.08253736806526
 20
3.272233372126656
 30
0.0
 10
17.09198093618459
 20
3.267838362021455
 30
0.0
 10
17.10056190068645
 20
3.261906139523215
 30
0.0
 10
17.10804406389735
 20
3.254644900348726
 30
0.0
 10
17.11422092978237
 20
3.246242975069215
 30
0.0
 10
17.11892216625662
 20
3.236935300299368
 30
0.0
 10
17.12201809758387
 20
3.226977738199567
 30
0.0
 10
17.1234233365054
 20
3.216645156355468
 30
0.0
 10
17.12309912294456
 20
3.206222499561671
 30
0.0
 10
17.12105440313447
 20
3.195997181731889
 30
0.0
 10
17.11734555897201
 20
3.18625150132947
 30
0.0
 10
17.11207493844354
 20
3.177253233331313
 30
0.0
 10
17.10538771456509
 20
3.169254388377995
 30
0.0
 10
17.09746906845178
 20
3.16246130484843
 30
0.0
 10
17.08853465138104
 20
3.157114641537901
 30
0.0
 10
17.07639807424807
 20
3.152167000152601
 30
0.0
 10
17.06682155781747
 20
3.151380443053997
 30
0.0
 10
17.0607196969697
 20
3.150879273134925
 30
0.0
  0
LINE
  5
1BC
330
1F
100
AcDbEntity
  8
0
  6
Continuous
 62
     7
370
    25
100
AcDbLine
 10
17.060719697
 20
2.9633792731
 30
0.0
 11
15.995719697
 21
2.9633792731
 31
0.0
  0
SPLINE
  5
1BD
330
1F
100
AcDbEntity
  8
0
  6
Continuous
 62
     7
370
    25
100
AcDbSpline
210
0.0
220
0.0
230
1.0
 70
     8
 71
     3
 72
    25
 73
    21
 74
     0
 42
0.00000001
 43
0.00000001
 40
0.0
 40
0.0
 40
0.0
 40
0.0
 40
0.0600333226356726
 40
0.1129709835186541
 40
0.1659086444016352
 40
0.2188463052846156
 40
0.271783966167596
 40
0.3247216270505767
 40
0.3776592879335572
 40
0.4305969488165366
 40
0.4835346096995163
 40
0.5364722705824966
 40
0.5894099314654766
 40
0.6423475923484562
 40
0.6952852532314369
 40
0.7482229141144174
 40
0.8011605749973969
 40
0.8540982358803768
 40
0.9070358967633565
 40
1.0
 40
1.0
 40
1.0
 40
1.0
 10
17.0607196969697
 20
3.088379273134925
 30
0.0
 10
17.06464952265842
 20
3.088166469490154
 30
0.0
 10
17.07204468677096
 20
3.087766014609589
 30
0.0
 10
17.08253736806526
 20
3.084733372126656
 30
0.0
 10
17.09198093618459
 20
3.080338362021455
 30
0.0
 10
17.10056190068645
 20
3.074406139523216
 30
0.0
 10
17.10804406389735
 20
3.067144900348726
 30
0.0
 10
17.11422092978237
 20
3.058742975069214
 30
0.0
 10
17.11892216625662
 20
3.049435300299369
 30
0.0
 10
17.12201809758387
 20
3.039477738199567
 30
0.0
 10
17.1234233365054
 20
3.029145156355468
 30
0.0
 10
17.12309912294456
 20
3.018722499561673
 30
0.0
 10
17.12105440313447
 20
3.008497181731889
 30
0.0
 10
17.11734555897201
 20
2.99875150132947
 30
0.0
 10
17.11207493844354
 20
2.989753233331313
 30
0.0
 10
17.10538771456509
 20
2.981754388377994
 30
0.0
 10
17.09746906845178
 20
2.97496130484843
 30
0.0
 10
17.08853465138104
 20
2.969614641537901
 30
0.0
 10
17.07639807424807
 20
2.964667000152601
 30
0.0
 10
17.06682155781747
 20
2.963880443053996
 30
0.0
 10
17.0607196969697
 20
2.963379273134925
 30
0.0
  0
LINE
  5
1BE
330
1F
100
AcDbEntity
  8
0
  6
Continuous
 62
     7
370
    25
100
AcDbLine
 10
15.995719697
 20
3.0883792731
 30
0.0
 11
17.060719697
 21
3.0883792731
 31
0.0
  0
SPLINE
  5
1BF
330
1F
100
AcDbEntity
  8
0
  6
Continuous
 62
     7
370
    25
100
AcDbSpline
210
0.0
220
0.0
230
1.0
 70
     8
 71
     3
 72
    20
 73
    16
 74
     0
 42
0.00000001
 43
0.00000001
 40
0.0
 40
0.0
 40
0.0
 40
0.0
 40
0.1220208336415365
 40
0.2292653365593429
 40
0.33650983947715
 40
0.4437543423949564
 40
0.5509988453127633
 40
0.6040432035165527
 40
0.6570875617203396
 40
0.710131919924127
 40
0.7631762781279148
 40
0.8162206363317024
 40
0.8692649945354892
 40
0.9223093527392761
 40
1.0
 40
1.0
 40
1.0
 40
1.0
 10
15.9957196969697
 20
2.963379273134924
 30
0.0
 10
15.98771003529589
 20
2.964273014170967
 30
0.0
 10
15.97266065623028
 20
2.965952267076477
 30
0.0
 10
15.95363642894104
 20
2.978157117739097
 30
0.0
 10
15.94018047676737
 20
2.994668901626507
 30
0.0
 10
15.93298526690448
 20
3.014832934576723
 30
0.0
 10
15.93289613726759
 20
3.032638485046228
 30
0.0
 10
15.93630610211948
 20
3.046184757857164
 30
0.0
 10
15.9404858233856
 20
3.055740044716515
 30
0.0
 10
15.94618964419254
 20
3.064469569687366
 30
0.0
 10
15.95325947820848
 20
3.072132689021644
 30
0.0
 10
15.96150012009452
 20
3.078530368966544
 30
0.0
 10
15.97068588782246
 20
3.083436722469547
 30
0.0
 10
15.98208606642335
 20
3.087438490840993
 30
0.0
 10
15.99063776215117
 20
3.088028596601631
 30
0.0
 10
15.9957196969697
 20
3.088379273134924
 30
0.0
  0
ARC
  5
1C0
330
1F
100
AcDbEntity
  8
0
  6
Continuous
 62
     7
370
    25
100
AcDbCircle
 10
14.933219697
 20
6.3747792731
 30
0.0
 40
0.0299999999999994
100
AcDbArc
 50
90.0
 51
180.0
  0
LINE
  5
1C1
330
1F
100
AcDbEntity
  8
0
  6
Continuous
 62
     7
370
    25
100
AcDbLine
 10
14.933219697
 20
6.4047792731
 30
0.0
 11
18.123219697
 21
6.4047792731
 31
0.0
  0
CIRCLE
  5
1C2
330
1F
100
AcDbEntity
  8
0
  6
Continuous
 62
     7
370
    25
100
AcDbCircle
 10
16.528219697
 20
5.5612792731
 30
0.0
 40
0.1005000000000003
  0
CIRCLE
  5
1C3
330
1F
100
AcDbEntity
  8
0
  6
Continuous
 62
     7
370
    25
100
AcDbCircle
 10
16.528219697
 20
2.2482792731
 30
0.0
 40
0.1005000000000003
  0
LINE
  5
1C4
330
1F
100
AcDbEntity
  8
0
  6
Continuous
 62
     7
370
    25
100
AcDbLine
 10
15.995719697
 20
3.6508792731
 30
0.0
 11
15.995719697
 21
3.5258792731
 31
0.0
  0
LINE
  5
1C5
330
1F
100
AcDbEntity
  8
0
  6
Continuous
 62
     7
370
    25
100
AcDbLine
 10
17.060719697
 20
4.4008792731
 30
0.0
 11
17.060719697
 21
4.2758792731
 31
0.0
  0
LINE
  5
1C6
330
1F
100
AcDbEntity
  8
0
  6
Continuous
 62
     7
370
    25
100
AcDbLine
 10
17.060719697
 20
4.2133792731
 30
0.0
 11
17.060719697
 21
4.0883792731
 31
0.0
  0
LINE
  5
1C7
330
1F
100
AcDbEntity
  8
0
  6
Continuous
 62
     7
370
    25
100
AcDbLine
 10
15.995719697
 20
3.8383792731
 30
0.0
 11
15.995719697
 21
3.7133792731
 31
0.0
  0
LINE
  5
1C8
330
1F
100
AcDbEntity
  8
0
  6
Continuous
 62
     7
370
    25
100
AcDbLine
 10
17.060719697
 20
3.2758792731
 30
0.0
 11
17.060719697
 21
3.1508792731
 31
0.0
  0
LINE
  5
1C9
330
1F
100
AcDbEntity
  8
0
  6
Continuous
 62
     7
370
    25
100
AcDbLine
 10
15.995719697
 20
4.2133792731
 30
0.0
 11
15.995719697
 21
4.0883792731
 31
0.0
  0
LINE
  5
1CA
330
1F
100
AcDbEntity
  8
0
  6
Continuous
 62
     7
370
    25
100
AcDbLine
 10
15.995719697
 20
3.4633792731
 30
0.0
 11
15.995719697
 21
3.3383792731
 31
0.0
  0
LINE
  5
1CB
330
1F
100
AcDbEntity
  8
0
  6
Continuous
 62
     7
370
    25
100
AcDbLine
 10
17.060719697
 20
3.0883792731
 30
0.0
 11
17.060719697
 21
2.9633792731
 31
0.0
  0
LINE
  5
1CC
330
1F
100
AcDbEntity
  8
0
  6
Continuous
 62
     7
370
    25
100
AcDbLine
 10
17.060719697
 20
3.4633792731
 30
0.0
 11
17.060719697
 21
3.3383792731
 31
0.0
  0
LINE
  5
1CD
330
1F
100
AcDbEntity
  8
0
  6
Continuous
 62
     7
370
    25
100
AcDbLine
 10
17.060719697
 20
4.5883792731
 30
0.0
 11
17.060719697
 21
4.4633792731
 31
0.0
  0
LINE
  5
1CE
330
1F
100
AcDbEntity
  8
0
  6
Continuous
 62
     7
370
    25
100
AcDbLine
 10
17.060719697
 20
3.6508792731
 30
0.0
 11
17.060719697
 21
3.5258792731
 31
0.0
  0
LINE
  5
1CF
330
1F
100
AcDbEntity
  8
0
  6
Continuous
 62
     7
370
    25
100
AcDbLine
 10
17.060719697
 20
4.0258792731
 30
0.0
 11
17.060719697
 21
3.9008792731
 31
0.0
  0
LINE
  5
1D0
330
1F
100
AcDbEntity
  8
0
  6
Continuous
 62
     7
370
    25
100
AcDbLine
 10
15.995719697
 20
4.5883792731
 30
0.0
 11
15.995719697
 21
4.4633792731
 31
0.0
  0
LINE
  5
1D1
330
1F
100
AcDbEntity
  8
0
  6
Continuous
 62
     7
370
    25
100
AcDbLine
 10
17.060719697
 20
3.8383792731
 30
0.0
 11
17.060719697
 21
3.7133792731
 31
0.0
  0
LINE
  5
1D2
330
1F
100
AcDbEntity
  8
0
  6
Continuous
 62
     7
370
    25
100
AcDbLine
 10
15.995719697
 20
4.4008792731
 30
0.0
 11
15.995719697
 21
4.2758792731
 31
0.0
  0
LINE
  5
1D3
330
1F
100
AcDbEntity
  8
0
  6
Continuous
 62
     7
370
    25
100
AcDbLine
 10
15.995719697
 20
3.0883792731
 30
0.0
 11
15.995719697
 21
2.9633792731
 31
0.0
  0
LINE
  5
1D4
330
1F
100
AcDbEntity
  8
0
  6
Continuous
 62
     7
370
    25
100
AcDbLine
 10
15.995719697
 20
3.2758792731
 30
0.0
 11
15.995719697
 21
3.1508792731
 31
0.0
  0
LINE
  5
1D5
330
1F
100
AcDbEntity
  8
0
  6
Continuous
 62
     7
370
    25
100
AcDbLine
 10
15.995719697
 20
4.0258792731
 30
0.0
 11
15.995719697
 21
3.9008792731
 31
0.0
  0
DIMENSION
  5
1D6
330
1F
100
AcDbEntity
  8
0
  6
Continuous
 62
     7
370
    18
100
AcDbDimension
  2
_D_4
 10
13.9652282646
 20
6.4047792731
 30
0.0
 11
13.9652282646
 21
3.9047792731
 31
0.0
 70
   160
  1
<>
 71
     2
 42
-1.0
  3
SLDDIMSTYLE3
100
AcDbAlignedDimension
 13
14.933219697
 23
1.4047792731
 33
0.0
 14
14.933219697
 24
6.4047792731
 34
0.0
 50
90.0
100
AcDbRotatedDimension
  0
DIMENSION
  5
1EB
330
1F
100
AcDbEntity
  8
0
  6
Continuous
 62
     7
370
    18
100
AcDbDimension
  2
_D_5
 10
14.903219697
 20
7.1921808479
 30
0.0
 11
16.528219697
 21
7.1921808479
 31
0.0
 70
   160
  1
<>
 71
     2
 42
-1.0
  3
SLDDIMSTYLE1
100
AcDbAlignedDimension
 13
18.153219697
 23
6.3747792731
 33
0.0
 14
14.903219697
 24
6.3747792731
 34
0.0
 50
0.0
100
AcDbRotatedDimension
  0
DIMENSION
  5
1FF
330
1F
100
AcDbEntity
  8
0
  6
Continuous
 62
     7
370
    18
100
AcDbDimension
  2
_D_6
 10
19.4130622167
 20
5.5612792731
 30
0.0
 11
19.4130622167
 21
3.9047792731
 31
0.0
 70
   160
  1
<> O.C.
 71
     2
 42
-1.0
  3
SLDDIMSTYLE1
100
AcDbAlignedDimension
 13
16.528219697
 23
2.2482792731
 33
0.0
 14
16.528219697
 24
5.5612792731
 34
0.0
 50
90.0
100
AcDbRotatedDimension
  0
ENDSEC
  0
SECTION
  2
OBJECTS
  0
DICTIONARY
  5
C
330
0
100
AcDbDictionary
281
     1
  3
ACAD_GROUP
350
D
  3
ACAD_LAYOUT
350
1A
  3
ACAD_MLINESTYLE
350
17
  3
ACAD_PLOTSETTINGS
350
19
  3
ACAD_PLOTSTYLENAME
350
E
  3
ACAD_SCALELIST
350
47
  3
DWGPROPS
350
212
  0
DICTIONARY
  5
D
102
{ACAD_REACTORS
330
C
102
}
330
C
100
AcDbDictionary
281
     1
  0
DICTIONARY
  5
1A
102
{ACAD_REACTORS
330
C
102
}
330
C
100
AcDbDictionary
281
     1
  3
Layout1
350
1E
  3
Layout2
350
26
  3
Model
350
22
  0
DICTIONARY
  5
17
102
{ACAD_REACTORS
330
C
102
}
330
C
100
AcDbDictionary
281
     1
  3
Standard
350
18
  0
DICTIONARY
  5
19
102
{ACAD_REACTORS
330
C
102
}
330
C
100
AcDbDictionary
281
     1
  0
ACDBDICTIONARYWDFLT
  5
E
102
{ACAD_REACTORS
330
C
102
}
330
C
100
AcDbDictionary
281
     1
  3
Normal
350
F
100
AcDbDictionaryWithDefault
340
F
  0
DICTIONARY
  5
47
102
{ACAD_REACTORS
330
C
102
}
330
C
100
AcDbDictionary
281
     1
  3
A0
350
48
  3
A1
350
49
  3
A2
350
4A
  3
A3
350
4B
  3
A4
350
4C
  3
A5
350
4D
  3
A6
350
4E
  3
A7
350
4F
  3
A8
350
50
  3
A9
350
51
  3
B1
350
52
  3
B2
350
53
  3
B3
350
54
  3
B4
350
55
  3
B5
350
56
  3
B6
350
57
  3
B7
350
58
  0
XRECORD
  5
212
102
{ACAD_REACTORS
330
C
102
}
330
C
100
AcDbXrecord
280
     1
  1
DWGPROPS COOKIE
  2

  3

  4

  6

  7

  8
alekseyb
  9

300
=
301
=
302
=
303
=
304
=
305
=
306
=
307
=
308
=
309
=
 40
0.0
 41
2460538.263356922
 42
2460538.263357512
  1

 90
        0
  0
LAYOUT
  5
1E
102
{ACAD_REACTORS
330
1A
102
}
330
1A
100
AcDbPlotSettings
  1

  2
none_device
  4

  6

 40
0.0
 41
0.0
 42
0.0
 43
0.0
 44
0.0
 45
0.0
 46
0.0
 47
0.0
 48
0.0
 49
0.0
140
0.0
141
0.0
142
1.0
143
1.0
 70
   688
 72
     0
 73
     0
 74
     5
  7

 75
    16
147
1.0
148
0.0
149
0.0
100
AcDbLayout
  1
Layout1
 70
     1
 71
     1
 10
0.0
 20
0.0
 11
12.0
 21
9.0
 12
0.0
 22
0.0
 32
0.0
 14
1.0000000000E+20
 24
1.0000000000E+20
 34
1.0000000000E+20
 15
-1.0000000000E+20
 25
-1.0000000000E+20
 35
-1.0000000000E+20
146
0.0
 13
0.0
 23
0.0
 33
0.0
 16
1.0
 26
0.0
 36
0.0
 17
0.0
 27
1.0
 37
0.0
 76
     0
330
1B
  0
LAYOUT
  5
26
102
{ACAD_REACTORS
330
1A
102
}
330
1A
100
AcDbPlotSettings
  1

  2
none_device
  4

  6

 40
0.0
 41
0.0
 42
0.0
 43
0.0
 44
0.0
 45
0.0
 46
0.0
 47
0.0
 48
0.0
 49
0.0
140
0.0
141
0.0
142
1.0
143
1.0
 70
   688
 72
     0
 73
     0
 74
     5
  7

 75
    16
147
1.0
148
0.0
149
0.0
100
AcDbLayout
  1
Layout2
 70
     1
 71
     2
 10
0.0
 20
0.0
 11
0.0
 21
0.0
 12
0.0
 22
0.0
 32
0.0
 14
0.0
 24
0.0
 34
0.0
 15
0.0
 25
0.0
 35
0.0
146
0.0
 13
0.0
 23
0.0
 33
0.0
 16
1.0
 26
0.0
 36
0.0
 17
0.0
 27
1.0
 37
0.0
 76
     0
330
23
  0
LAYOUT
  5
22
102
{ACAD_REACTORS
330
1A
102
}
330
1A
100
AcDbPlotSettings
  1

  2
none_device
  4
Letter_(8.50_x_11.00_Inches)
  6

 40
6.35
 41
6.35
 42
6.35000508
 43
6.35000508
 44
215.9
 45
279.4
 46
0.0
 47
0.0
 48
0.0
 49
0.0
140
0.0
141
0.0
142
1.0
143
1.0
 70
  1712
 72
     0
 73
     0
 74
     0
  7

 75
     0
147
1.0
148
0.0
149
0.0
100
AcDbLayout
  1
Model
 70
     1
 71
     0
 10
0.0
 20
0.0
 11
22.0
 21
17.0
 12
0.0
 22
0.0
 32
0.0
 14
0.0
 24
0.0
 34
0.0
 15
22.0
 25
17.0
 35
0.0
146
0.0
 13
0.0
 23
0.0
 33
0.0
 16
1.0
 26
0.0
 36
0.0
 17
0.0
 27
1.0
 37
0.0
 76
     0
330
1F
331
29
  0
MLINESTYLE
  5
18
102
{ACAD_REACTORS
330
17
102
}
330
17
100
AcDbMlineStyle
  2
Standard
 70
     0
  3

 62
   256
 51
90.0
 52
90.0
 71
     2
 49
0.5
 62
   256
  6
BYLAYER
 49
-0.5
 62
   256
  6
BYLAYER
  0
ACDBPLACEHOLDER
  5
F
102
{ACAD_REACTORS
330
E
102
}
330
E
  0
SCALE
  5
48
102
{ACAD_REACTORS
330
47
102
}
330
47
100
AcDbScale
 70
     0
300
1:1
140
1.0
141
1.0
290
     1
  0
SCALE
  5
49
102
{ACAD_REACTORS
330
47
102
}
330
47
100
AcDbScale
 70
     0
300
1/128" = 1'-0"
140
0.0078125
141
12.0
290
     0
  0
SCALE
  5
4A
102
{ACAD_REACTORS
330
47
102
}
330
47
100
AcDbScale
 70
     0
300
1/64" = 1'-0"
140
0.015625
141
12.0
290
     0
  0
SCALE
  5
4B
102
{ACAD_REACTORS
330
47
102
}
330
47
100
AcDbScale
 70
     0
300
1/32" = 1'-0"
140
0.03125
141
12.0
290
     0
  0
SCALE
  5
4C
102
{ACAD_REACTORS
330
47
102
}
330
47
100
AcDbScale
 70
     0
300
1/16" = 1'-0"
140
0.0625
141
12.0
290
     0
  0
SCALE
  5
4D
102
{ACAD_REACTORS
330
47
102
}
330
47
100
AcDbScale
 70
     0
300
3/32" = 1'-0"
140
0.09375
141
12.0
290
     0
  0
SCALE
  5
4E
102
{ACAD_REACTORS
330
47
102
}
330
47
100
AcDbScale
 70
     0
300
1/8" = 1'-0"
140
0.125
141
12.0
290
     0
  0
SCALE
  5
4F
102
{ACAD_REACTORS
330
47
102
}
330
47
100
AcDbScale
 70
     0
300
3/16" = 1'-0"
140
0.1875
141
12.0
290
     0
  0
SCALE
  5
50
102
{ACAD_REACTORS
330
47
102
}
330
47
100
AcDbScale
 70
     0
300
1/4" = 1'-0"
140
0.25
141
12.0
290
     0
  0
SCALE
  5
51
102
{ACAD_REACTORS
330
47
102
}
330
47
100
AcDbScale
 70
     0
300
3/8" = 1'-0"
140
0.375
141
12.0
290
     0
  0
SCALE
  5
52
102
{ACAD_REACTORS
330
47
102
}
330
47
100
AcDbScale
 70
     0
300
1/2" = 1'-0"
140
0.5
141
12.0
290
     0
  0
SCALE
  5
53
102
{ACAD_REACTORS
330
47
102
}
330
47
100
AcDbScale
 70
     0
300
3/4" = 1'-0"
140
0.75
141
12.0
290
     0
  0
SCALE
  5
54
102
{ACAD_REACTORS
330
47
102
}
330
47
100
AcDbScale
 70
     0
300
1" = 1'-0"
140
1.0
141
12.0
290
     0
  0
SCALE
  5
55
102
{ACAD_REACTORS
330
47
102
}
330
47
100
AcDbScale
 70
     0
300
1-1/2" = 1'-0"
140
1.5
141
12.0
290
     0
  0
SCALE
  5
56
102
{ACAD_REACTORS
330
47
102
}
330
47
100
AcDbScale
 70
     0
300
3" = 1'-0"
140
3.0
141
12.0
290
     0
  0
SCALE
  5
57
102
{ACAD_REACTORS
330
47
102
}
330
47
100
AcDbScale
 70
     0
300
6" = 1'-0"
140
6.0
141
12.0
290
     0
  0
SCALE
  5
58
102
{ACAD_REACTORS
330
47
102
}
330
47
100
AcDbScale
 70
     0
300
1'-0" = 1'-0"
140
12.0
141
12.0
290
     0
  0
ENDSEC
  0
EOF
