  0
SECTION
  2
HEADER
  9
$ACADVER
  1
AC1015
  9
$ACADMAINTVER
 70
     6
  9
$DWGCODEPAGE
  3
ANSI_1252
  9
$INSBASE
 10
0.0
 20
0.0
 30
0.0
  9
$EXTMIN
 10
0.0
 20
0.0
 30
0.0
  9
$EXTMAX
 10
22.0
 20
17.0
 30
0.0
  9
$LIMMIN
 10
0.0
 20
0.0
  9
$LIMMAX
 10
22.0
 20
17.0
  9
$ORTHOMODE
 70
     0
  9
$REGENMODE
 70
     1
  9
$FILLMODE
 70
     1
  9
$QTEXTMODE
 70
     0
  9
$MIRRTEXT
 70
     1
  9
$LTSCALE
 40
2.0
  9
$ATTMODE
 70
     1
  9
$TEXTSIZE
 40
0.25
  9
$TRACEWID
 40
0.05
  9
$TEXTSTYLE
  7
Standard
  9
$CLAYER
  8
0
  9
$CELTYPE
  6
ByLayer
  9
$CECOLOR
 62
   256
  9
$CELTSCALE
 40
1.0
  9
$DISPSILH
 70
     0
  9
$DIMSCALE
 40
1.0
  9
$DIMASZ
 40
0.26
  9
$DIMEXO
 40
0.1
  9
$DIMDLI
 40
0.38
  9
$DIMRND
 40
0.0
  9
$DIMDLE
 40
0.0
  9
$DIMEXE
 40
0.25
  9
$DIMTP
 40
0.0
  9
$DIMTM
 40
0.0
  9
$DIMTXT
 40
0.25
  9
$DIMCEN
 40
0.09
  9
$DIMTSZ
 40
0.0
  9
$DIMTOL
 70
     0
  9
$DIMLIM
 70
     0
  9
$DIMTIH
 70
     1
  9
$DIMTOH
 70
     1
  9
$DIMSE1
 70
     0
  9
$DIMSE2
 70
     0
  9
$DIMTAD
 70
     0
  9
$DIMZIN
 70
     1
  9
$DIMBLK
  1

  9
$DIMASO
 70
     1
  9
$DIMSHO
 70
     1
  9
$DIMPOST
  1

  9
$DIMAPOST
  1

  9
$DIMALT
 70
     0
  9
$DIMALTD
 70
     2
  9
$DIMALTF
 40
25.4
  9
$DIMLFAC
 40
1.0
  9
$DIMTOFL
 70
     0
  9
$DIMTVP
 40
0.0
  9
$DIMTIX
 70
     0
  9
$DIMSOXD
 70
     0
  9
$DIMSAH
 70
     0
  9
$DIMBLK1
  1

  9
$DIMBLK2
  1

  9
$DIMSTYLE
  2
Standard
  9
$DIMCLRD
 70
     0
  9
$DIMCLRE
 70
     0
  9
$DIMCLRT
 70
     0
  9
$DIMTFAC
 40
1.0
  9
$DIMGAP
 40
0.12
  9
$DIMJUST
 70
     0
  9
$DIMSD1
 70
     0
  9
$DIMSD2
 70
     0
  9
$DIMTOLJ
 70
     1
  9
$DIMTZIN
 70
     1
  9
$DIMALTZ
 70
     0
  9
$DIMALTTZ
 70
     0
  9
$DIMUPT
 70
     0
  9
$DIMDEC
 70
     0
  9
$DIMTDEC
 70
     0
  9
$DIMALTU
 70
     2
  9
$DIMALTTD
 70
     2
  9
$DIMTXSTY
  7
Standard
  9
$DIMAUNIT
 70
     0
  9
$DIMADEC
 70
     0
  9
$DIMALTRND
 40
0.0
  9
$DIMAZIN
 70
     0
  9
$DIMDSEP
 70
    46
  9
$DIMATFIT
 70
     3
  9
$DIMFRAC
 70
     0
  9
$DIMLDRBLK
  1

  9
$DIMLUNIT
 70
     2
  9
$DIMLWD
 70
    -2
  9
$DIMLWE
 70
    -2
  9
$DIMTMOVE
 70
     0
  9
$LUNITS
 70
     2
  9
$LUPREC
 70
     6
  9
$SKETCHINC
 40
0.1
  9
$FILLETRAD
 40
0.0
  9
$AUNITS
 70
     0
  9
$AUPREC
 70
     2
  9
$MENU
  1
.
  9
$ELEVATION
 40
0.0
  9
$PELEVATION
 40
0.0
  9
$THICKNESS
 40
0.0
  9
$LIMCHECK
 70
     0
  9
$CHAMFERA
 40
0.0
  9
$CHAMFERB
 40
0.0
  9
$CHAMFERC
 40
0.0
  9
$CHAMFERD
 40
0.0
  9
$SKPOLY
 70
     0
  9
$TDCREATE
 40
2460537.9011725
  9
$TDUCREATE
 40
2460538.192839167
  9
$TDUPDATE
 40
2460537.901173171
  9
$TDUUPDATE
 40
2460538.192839838
  9
$TDINDWG
 40
0.0000000116
  9
$TDUSRTIMER
 40
0.0000000116
  9
$USRTIMER
 70
     1
  9
$ANGBASE
 50
0.0
  9
$ANGDIR
 70
     0
  9
$PDMODE
 70
     0
  9
$PDSIZE
 40
-1.0
  9
$PLINEWID
 40
0.0
  9
$SPLFRAME
 70
     0
  9
$SPLINETYPE
 70
     6
  9
$SPLINESEGS
 70
     8
  9
$HANDSEED
  5
295
  9
$SURFTAB1
 70
     6
  9
$SURFTAB2
 70
     6
  9
$SURFTYPE
 70
     6
  9
$SURFU
 70
     6
  9
$SURFV
 70
     6
  9
$UCSBASE
  2

  9
$UCSNAME
  2

  9
$UCSORG
 10
0.0
 20
0.0
 30
0.0
  9
$UCSXDIR
 10
1.0
 20
0.0
 30
0.0
  9
$UCSYDIR
 10
0.0
 20
1.0
 30
0.0
  9
$UCSORTHOREF
  2

  9
$UCSORTHOVIEW
 70
     0
  9
$UCSORGTOP
 10
0.0
 20
0.0
 30
0.0
  9
$UCSORGBOTTOM
 10
0.0
 20
0.0
 30
0.0
  9
$UCSORGLEFT
 10
0.0
 20
0.0
 30
0.0
  9
$UCSORGRIGHT
 10
0.0
 20
0.0
 30
0.0
  9
$UCSORGFRONT
 10
0.0
 20
0.0
 30
0.0
  9
$UCSORGBACK
 10
0.0
 20
0.0
 30
0.0
  9
$PUCSBASE
  2

  9
$PUCSNAME
  2

  9
$PUCSORG
 10
0.0
 20
0.0
 30
0.0
  9
$PUCSXDIR
 10
1.0
 20
0.0
 30
0.0
  9
$PUCSYDIR
 10
0.0
 20
1.0
 30
0.0
  9
$PUCSORTHOREF
  2

  9
$PUCSORTHOVIEW
 70
     0
  9
$PUCSORGTOP
 10
0.0
 20
0.0
 30
0.0
  9
$PUCSORGBOTTOM
 10
0.0
 20
0.0
 30
0.0
  9
$PUCSORGLEFT
 10
0.0
 20
0.0
 30
0.0
  9
$PUCSORGRIGHT
 10
0.0
 20
0.0
 30
0.0
  9
$PUCSORGFRONT
 10
0.0
 20
0.0
 30
0.0
  9
$PUCSORGBACK
 10
0.0
 20
0.0
 30
0.0
  9
$USERI1
 70
     0
  9
$USERI2
 70
     0
  9
$USERI3
 70
     0
  9
$USERI4
 70
     0
  9
$USERI5
 70
     0
  9
$USERR1
 40
0.0
  9
$USERR2
 40
0.0
  9
$USERR3
 40
0.0
  9
$USERR4
 40
0.0
  9
$USERR5
 40
0.0
  9
$WORLDVIEW
 70
     1
  9
$SHADEDGE
 70
     3
  9
$SHADEDIF
 70
    70
  9
$TILEMODE
 70
     1
  9
$MAXACTVP
 70
    64
  9
$PINSBASE
 10
0.0
 20
0.0
 30
0.0
  9
$PLIMCHECK
 70
     0
  9
$PEXTMIN
 10
1.0000000000E+20
 20
1.0000000000E+20
 30
1.0000000000E+20
  9
$PEXTMAX
 10
-1.0000000000E+20
 20
-1.0000000000E+20
 30
-1.0000000000E+20
  9
$PLIMMIN
 10
0.0
 20
0.0
  9
$PLIMMAX
 10
12.0
 20
9.0
  9
$UNITMODE
 70
     0
  9
$VISRETAIN
 70
     1
  9
$PLINEGEN
 70
     0
  9
$PSLTSCALE
 70
     1
  9
$TREEDEPTH
 70
  3020
  9
$CMLSTYLE
  2
Standard
  9
$CMLJUST
 70
     0
  9
$CMLSCALE
 40
1.0
  9
$PROXYGRAPHICS
 70
     1
  9
$MEASUREMENT
 70
     0
  9
$CELWEIGHT
370
    -1
  9
$ENDCAPS
280
     0
  9
$JOINSTYLE
280
     0
  9
$LWDISPLAY
290
     1
  9
$INSUNITS
 70
     1
  9
$HYPERLINKBASE
  1

  9
$STYLESHEET
  1

  9
$XEDIT
290
     1
  9
$CEPSNTYPE
380
     0
  9
$PSTYLEMODE
290
     1
  9
$FINGERPRINTGUID
  2
{878d5027-98d6-46a8-bda5-aa4b447d8474}
  9
$VERSIONGUID
  2
{FAEB1C32-E019-11D5-929B-00C0DF256EC4}
  9
$EXTNAMES
290
     1
  9
$PSVPSCALE
 40
0.0
  9
$OLESTARTUP
290
     0
  0
ENDSEC
  0
SECTION
  2
CLASSES
  0
CLASS
  1
ACDBDICTIONARYWDFLT
  2
AcDbDictionaryWithDefault
  3
ObjectDBX Classes
 90
        0
280
     0
281
     0
  0
CLASS
  1
VISUALSTYLE
  2
AcDbVisualStyle
  3
ObjectDBX Classes
 90
     4095
280
     0
281
     0
  0
CLASS
  1
MATERIAL
  2
AcDbMaterial
  3
ObjectDBX Classes
 90
     1153
280
     0
281
     0
  0
CLASS
  1
SCALE
  2
AcDbScale
  3
ObjectDBX Classes
 90
     1153
280
     0
281
     0
  0
CLASS
  1
TABLESTYLE
  2
AcDbTableStyle
  3
ObjectDBX Classes
 90
     4095
280
     0
281
     0
  0
CLASS
  1
MLEADERSTYLE
  2
AcDbMLeaderStyle
  3
ACDB_MLEADERSTYLE_CLASS
 90
     4095
280
     0
281
     0
  0
CLASS
  1
SUN
  2
AcDbSun
  3
SCENEOE
 90
     1153
280
     0
281
     0
  0
CLASS
  1
ACDBPLACEHOLDER
  2
AcDbPlaceHolder
  3
ObjectDBX Classes
 90
        0
280
     0
281
     0
  0
CLASS
  1
LAYOUT
  2
AcDbLayout
  3
ObjectDBX Classes
 90
        0
280
     0
281
     0
  0
ENDSEC
  0
SECTION
  2
TABLES
  0
TABLE
  2
VPORT
  5
8
330
0
100
AcDbSymbolTable
 70
     1
  0
VPORT
  5
29
330
8
100
AcDbSymbolTableRecord
100
AcDbViewportTableRecord
  2
*Active
 70
     0
 10
0.0
 20
0.0
 11
1.0
 21
1.0
 12
11.0
 22
8.5
 13
0.0
 23
0.0
 14
0.5
 24
0.5
 15
0.5
 25
0.5
 16
0.0
 26
0.0
 36
1.0
 17
0.0
 27
0.0
 37
0.0
 40
17.0
 41
1.2941176471
 42
50.0
 43
0.0
 44
0.0
 50
0.0
 51
0.0
 71
     0
 72
  2000
 73
     1
 74
     3
 75
     0
 76
     0
 77
     0
 78
     0
281
     0
 65
     1
110
0.0
120
0.0
130
0.0
111
1.0
121
0.0
131
0.0
112
0.0
122
1.0
132
0.0
 79
     0
146
0.0
  0
ENDTAB
  0
TABLE
  2
LTYPE
  5
5
330
0
100
AcDbSymbolTable
 70
     6
  0
LTYPE
  5
14
330
5
100
AcDbSymbolTableRecord
100
AcDbLinetypeTableRecord
  2
ByBlock
 70
     0
  3

 72
    65
 73
     0
 40
0.0
  0
LTYPE
  5
15
330
5
100
AcDbSymbolTableRecord
100
AcDbLinetypeTableRecord
  2
ByLayer
 70
     0
  3

 72
    65
 73
     0
 40
0.0
  0
LTYPE
  5
16
330
5
100
AcDbSymbolTableRecord
100
AcDbLinetypeTableRecord
  2
Continuous
 70
     0
  3
Solid line
 72
    65
 73
     0
 40
0.0
  0
LTYPE
  5
5E
330
5
100
AcDbSymbolTableRecord
100
AcDbLinetypeTableRecord
  2
HIDDEN
 70
     0
  3
Hidden __ __ __ __ __ __ __ __ __ __ __ __ __ __
 72
    65
 73
     2
 40
0.075
 49
0.05
 74
     0
 49
-0.025
 74
     0
  0
LTYPE
  5
5F
330
5
100
AcDbSymbolTableRecord
100
AcDbLinetypeTableRecord
  2
PHANTOM
 70
     0
  3
Phantom ______  __  __  ______  __  __  ______
 72
    65
 73
     6
 40
0.5
 49
0.25
 74
     0
 49
-0.05
 74
     0
 49
0.05
 74
     0
 49
-0.05
 74
     0
 49
0.05
 74
     0
 49
-0.05
 74
     0
  0
LTYPE
  5
60
330
5
100
AcDbSymbolTableRecord
100
AcDbLinetypeTableRecord
  2
CENTER
 70
     0
  3
Center ____ _ ____ _ ____ _ ____ _ ____ _ ____
 72
    65
 73
     4
 40
0.4
 49
0.25
 74
     0
 49
-0.05
 74
     0
 49
0.05
 74
     0
 49
-0.05
 74
     0
  0
LTYPE
  5
61
330
5
100
AcDbSymbolTableRecord
100
AcDbLinetypeTableRecord
  2
CENTERX2
 70
     0
  3
Center (2x) ________  __  ________  __  _____
 72
    65
 73
     4
 40
0.8
 49
0.5
 74
     0
 49
-0.1
 74
     0
 49
0.1
 74
     0
 49
-0.1
 74
     0
  0
LTYPE
  5
62
330
5
100
AcDbSymbolTableRecord
100
AcDbLinetypeTableRecord
  2
DOT2
 70
     0
  3
Dot (.5x) ........................................
 72
    65
 73
     2
 40
0.025
 49
0.0
 74
     0
 49
-0.025
 74
     0
  0
ENDTAB
  0
TABLE
  2
LAYER
  5
2
330
0
100
AcDbSymbolTable
 70
    12
  0
LAYER
  5
10
330
2
100
AcDbSymbolTableRecord
100
AcDbLayerTableRecord
  2
0
 70
     0
 62
     7
  6
Continuous
370
    -3
390
F
  0
LAYER
  5
63
330
2
100
AcDbSymbolTableRecord
100
AcDbLayerTableRecord
  2
SLD-0
 70
     0
 62
     7
  6
Continuous
370
    -3
390
F
  0
LAYER
  5
64
330
2
100
AcDbSymbolTableRecord
100
AcDbLayerTableRecord
  2
DIM
 70
     0
 62
     7
  6
Continuous
370
    -3
390
F
  0
LAYER
  5
65
330
2
100
AcDbSymbolTableRecord
100
AcDbLayerTableRecord
  2
CEN
 70
     0
 62
     1
  6
CENTER
370
    -3
390
F
  0
LAYER
  5
66
330
2
100
AcDbSymbolTableRecord
100
AcDbLayerTableRecord
  2
HAT
 70
     0
 62
     4
  6
Continuous
370
    -3
390
F
  0
LAYER
  5
67
330
2
100
AcDbSymbolTableRecord
100
AcDbLayerTableRecord
  2
OBJ
 70
     0
 62
     5
  6
Continuous
370
    -3
390
F
  0
LAYER
  5
68
330
2
100
AcDbSymbolTableRecord
100
AcDbLayerTableRecord
  2
SLD-DEFPOINTS
 70
     0
 62
     7
  6
Continuous
370
    -3
390
F
  0
LAYER
  5
69
330
2
100
AcDbSymbolTableRecord
100
AcDbLayerTableRecord
  2
HID
 70
     0
 62
     4
  6
HIDDEN
370
    -3
390
F
  0
LAYER
  5
6A
330
2
100
AcDbSymbolTableRecord
100
AcDbLayerTableRecord
  2
NOTE
 70
     0
 62
     7
  6
Continuous
370
    -3
390
F
  0
LAYER
  5
6B
330
2
100
AcDbSymbolTableRecord
100
AcDbLayerTableRecord
  2
VP
 70
     0
 62
    -5
  6
Continuous
290
     0
370
    -3
390
F
  0
LAYER
  5
6C
330
2
100
AcDbSymbolTableRecord
100
AcDbLayerTableRecord
  2
TITLE
 70
     0
 62
     7
  6
Continuous
370
    -3
390
F
  0
LAYER
  5
6D
330
2
100
AcDbSymbolTableRecord
100
AcDbLayerTableRecord
  2
THICK_TITLE
 70
     0
 62
     7
  6
Continuous
370
   100
390
F
  0
ENDTAB
  0
TABLE
  2
STYLE
  5
3
330
0
100
AcDbSymbolTable
 70
     2
  0
STYLE
  5
11
330
3
100
AcDbSymbolTableRecord
100
AcDbTextStyleTableRecord
  2
Standard
 70
     0
 40
0.0
 41
1.0
 50
0.0
 71
     0
 42
0.25
  3
txt
  4

  0
STYLE
  5
74
330
3
100
AcDbSymbolTableRecord
100
AcDbTextStyleTableRecord
  2
SLDTEXTSTYLE0
 70
     0
 40
0.0
 41
0.75
 50
0.0
 71
     0
 42
0.25
  3
TXT
  4

  0
ENDTAB
  0
TABLE
  2
VIEW
  5
6
330
0
100
AcDbSymbolTable
 70
     0
  0
ENDTAB
  0
TABLE
  2
UCS
  5
7
330
0
100
AcDbSymbolTable
 70
     0
  0
ENDTAB
  0
TABLE
  2
APPID
  5
9
330
0
100
AcDbSymbolTable
 70
     1
  0
APPID
  5
12
330
9
100
AcDbSymbolTableRecord
100
AcDbRegAppTableRecord
  2
ACAD
 70
     0
  0
ENDTAB
  0
TABLE
  2
DIMSTYLE
  5
A
330
0
100
AcDbSymbolTable
 70
     6
100
AcDbDimStyleTable
  0
DIMSTYLE
105
27
330
A
100
AcDbSymbolTableRecord
100
AcDbDimStyleTableRecord
  2
Standard
 70
     0
178
     0
340
11
  0
DIMSTYLE
105
10A
102
{ACAD_REACTORS
330
109
330
134
102
}
330
A
100
AcDbSymbolTableRecord
100
AcDbDimStyleTableRecord
  2
SLDDIMSTYLE0
 70
     0
 41
0.26
 44
0.0
 45
0.000000001
 78
    12
 79
     3
140
0.25
147
0.0625
148
0.000000001
170
     1
173
     1
178
     0
271
     6
272
     0
276
     2
277
     5
284
    12
340
74
  0
DIMSTYLE
105
120
102
{ACAD_REACTORS
330
11F
102
}
330
A
100
AcDbSymbolTableRecord
100
AcDbDimStyleTableRecord
  2
SLDDIMSTYLE1
 70
     0
 41
0.26
 44
0.0
 45
0.000000001
 78
    12
 79
     3
140
0.25
147
0.0625
148
0.000000001
170
     1
172
     1
173
     1
178
     0
271
     6
272
     0
276
     2
277
     5
284
    12
289
     0
340
74
  0
DIMSTYLE
105
1D6
102
{ACAD_REACTORS
330
1D5
330
21E
102
}
330
A
100
AcDbSymbolTableRecord
100
AcDbDimStyleTableRecord
  2
SLDDIMSTYLE2
 70
     0
 41
0.26
 44
0.0
 45
0.000000001
 78
    12
 79
     3
140
0.25
144
2.0
147
0.0625
148
0.000000001
170
     1
172
     1
173
     1
178
     0
271
     6
272
     0
276
     2
277
     5
284
    12
289
     0
340
74
  0
DIMSTYLE
105
1EA
102
{ACAD_REACTORS
330
1E9
330
231
102
}
330
A
100
AcDbSymbolTableRecord
100
AcDbDimStyleTableRecord
  2
SLDDIMSTYLE3
 70
     0
 41
0.26
 44
0.0
 45
0.000000001
 78
    12
 79
     3
140
0.25
141
0.0
144
2.0
147
0.0625
148
0.000000001
170
     1
173
     1
178
     0
271
     0
272
     0
276
     2
277
     5
284
    12
340
74
  0
DIMSTYLE
105
25D
102
{ACAD_REACTORS
330
25C
330
289
102
}
330
A
100
AcDbSymbolTableRecord
100
AcDbDimStyleTableRecord
  2
SLDDIMSTYLE4
 70
     0
 41
0.26
 44
0.0
 78
    12
 79
     3
140
0.25
144
4.0
147
0.0625
148
0.000000001
170
     1
173
     1
178
     0
179
     2
272
     2
276
     2
277
     5
284
    12
340
74
  0
ENDTAB
  0
TABLE
  2
BLOCK_RECORD
  5
1
330
0
100
AcDbSymbolTable
 70
    14
  0
BLOCK_RECORD
  5
1F
330
1
100
AcDbSymbolTableRecord
100
AcDbBlockTableRecord
  2
*Model_Space
340
22
  0
BLOCK_RECORD
  5
1B
330
1
100
AcDbSymbolTableRecord
100
AcDbBlockTableRecord
  2
*Paper_Space
340
1E
  0
BLOCK_RECORD
  5
23
330
1
100
AcDbSymbolTableRecord
100
AcDbBlockTableRecord
  2
*Paper_Space0
340
26
  0
BLOCK_RECORD
  5
6E
330
1
100
AcDbSymbolTableRecord
100
AcDbBlockTableRecord
  2
Block1
340
0
102
{BLKREFS
331
1D4
102
}
  0
BLOCK_RECORD
  5
71
330
1
100
AcDbSymbolTableRecord
100
AcDbBlockTableRecord
  2
SW_NOTE_0
340
0
102
{BLKREFS
331
76
102
}
  0
BLOCK_RECORD
  5
77
330
1
100
AcDbSymbolTableRecord
100
AcDbBlockTableRecord
  2
Block2
340
0
102
{BLKREFS
331
21D
102
}
  0
BLOCK_RECORD
  5
7A
330
1
100
AcDbSymbolTableRecord
100
AcDbBlockTableRecord
  2
SW_NOTE_0_1
340
0
102
{BLKREFS
331
7E
102
}
  0
BLOCK_RECORD
  5
10B
330
1
100
AcDbSymbolTableRecord
100
AcDbBlockTableRecord
  2
_D
340
0
  0
BLOCK_RECORD
  5
121
330
1
100
AcDbSymbolTableRecord
100
AcDbBlockTableRecord
  2
_D_1
340
0
  0
BLOCK_RECORD
  5
135
330
1
100
AcDbSymbolTableRecord
100
AcDbBlockTableRecord
  2
_D_2
340
0
  0
BLOCK_RECORD
  5
1D7
330
1
100
AcDbSymbolTableRecord
100
AcDbBlockTableRecord
  2
_D_3
340
0
  0
BLOCK_RECORD
  5
1EB
330
1
100
AcDbSymbolTableRecord
100
AcDbBlockTableRecord
  2
_D_4
340
0
  0
BLOCK_RECORD
  5
21F
330
1
100
AcDbSymbolTableRecord
100
AcDbBlockTableRecord
  2
_D_5
340
0
  0
BLOCK_RECORD
  5
232
330
1
100
AcDbSymbolTableRecord
100
AcDbBlockTableRecord
  2
_D_6
340
0
  0
BLOCK_RECORD
  5
25E
330
1
100
AcDbSymbolTableRecord
100
AcDbBlockTableRecord
  2
_D_7
340
0
  0
BLOCK_RECORD
  5
28A
330
1
100
AcDbSymbolTableRecord
100
AcDbBlockTableRecord
  2
_D_8
340
0
  0
ENDTAB
  0
ENDSEC
  0
SECTION
  2
BLOCKS
  0
BLOCK
  5
20
330
1F
100
AcDbEntity
  8
0
100
AcDbBlockBegin
  2
*Model_Space
 70
     0
 10
0.0
 20
0.0
 30
0.0
  3
*Model_Space
  1

  0
ENDBLK
  5
21
330
1F
100
AcDbEntity
  8
0
100
AcDbBlockEnd
  0
BLOCK
  5
1C
330
1B
100
AcDbEntity
 67
     1
  8
0
100
AcDbBlockBegin
  2
*Paper_Space
 70
     0
 10
0.0
 20
0.0
 30
0.0
  3
*Paper_Space
  1

  0
ENDBLK
  5
1D
330
1B
100
AcDbEntity
 67
     1
  8
0
100
AcDbBlockEnd
  0
BLOCK
  5
24
330
23
100
AcDbEntity
  8
0
100
AcDbBlockBegin
  2
*Paper_Space0
 70
     0
 10
0.0
 20
0.0
 30
0.0
  3
*Paper_Space0
  1

  0
ENDBLK
  5
25
330
23
100
AcDbEntity
  8
0
100
AcDbBlockEnd
  0
BLOCK
  5
6F
330
6E
100
AcDbEntity
  8
0
100
AcDbBlockBegin
  2
Block1
 70
     0
 10
0.0
 20
0.0
 30
0.0
  3
Block1
  1

  0
INSERT
  5
76
330
6E
100
AcDbEntity
  8
0
  6
Continuous
 62
     7
370
     0
100
AcDbBlockReference
  2
SW_NOTE_0
 10
-0.5556018056
 20
-0.0347641935
 30
0.0
  0
ENDBLK
  5
70
330
6E
100
AcDbEntity
  8
0
100
AcDbBlockEnd
  0
BLOCK
  5
72
330
71
100
AcDbEntity
  8
0
100
AcDbBlockBegin
  2
SW_NOTE_0
 70
     0
 10
0.0
 20
0.0
 30
0.0
  3
SW_NOTE_0
  1

  0
MTEXT
  5
75
330
71
100
AcDbEntity
  8
0
  6
Continuous
 62
     0
370
     0
100
AcDbMText
 10
1.69921875
 20
0.5371115582
 30
0.0
 40
0.4166666667
 41
0.0
 71
     2
 72
     1
  1
FACEPLATE A
  7
SLDTEXTSTYLE0
 73
     1
 44
1.0
  0
ENDBLK
  5
73
330
71
100
AcDbEntity
  8
0
100
AcDbBlockEnd
  0
BLOCK
  5
78
330
77
100
AcDbEntity
  8
0
100
AcDbBlockBegin
  2
Block2
 70
     0
 10
0.0
 20
0.0
 30
0.0
  3
Block2
  1

  0
INSERT
  5
7E
330
77
100
AcDbEntity
  8
0
  6
Continuous
 62
     7
370
     0
100
AcDbBlockReference
  2
SW_NOTE_0_1
 10
-0.6061215252
 20
0.5683615613
 30
0.0
  0
ENDBLK
  5
79
330
77
100
AcDbEntity
  8
0
100
AcDbBlockEnd
  0
BLOCK
  5
7B
330
7A
100
AcDbEntity
  8
0
100
AcDbBlockBegin
  2
SW_NOTE_0_1
 70
     0
 10
0.0
 20
0.0
 30
0.0
  3
SW_NOTE_0_1
  1

  0
MTEXT
  5
7D
330
7A
100
AcDbEntity
  8
0
  6
Continuous
 62
     0
370
     0
100
AcDbMText
 10
1.6666666667
 20
0.5371115582
 30
0.0
 40
0.4166666667
 41
0.0
 71
     2
 72
     1
  1
FACEPLATE B
  7
SLDTEXTSTYLE0
 73
     1
 44
1.0
  0
ENDBLK
  5
7C
330
7A
100
AcDbEntity
  8
0
100
AcDbBlockEnd
  0
BLOCK
  5
10C
330
10B
100
AcDbEntity
  8
0
100
AcDbBlockBegin
  2
_D
 70
     0
 10
0.0
 20
0.0
 30
0.0
  3
_D
  1

  0
SOLID
  5
10E
330
10B
100
AcDbEntity
  8
0
  6
Continuous
 62
     7
370
    18
100
AcDbTrace
 10
4.3766227885
 20
13.4731579271
 30
0.0
 11
4.6366227885
 21
13.4331579271
 31
0.0
 12
4.6366227885
 22
13.5131579271
 32
0.0
 13
4.6366227885
 23
13.5131579271
 33
0.0
  0
SOLID
  5
10F
330
10B
100
AcDbEntity
  8
0
  6
Continuous
 62
     7
370
    18
100
AcDbTrace
 10
9.1066227885
 20
13.4731579271
 30
0.0
 11
8.8466227885
 21
13.5131579271
 31
0.0
 12
8.8466227885
 22
13.4331579271
 32
0.0
 13
8.8466227885
 23
13.4331579271
 33
0.0
  0
LINE
  5
110
330
10B
100
AcDbEntity
  8
0
  6
Continuous
 62
     7
370
     0
100
AcDbLine
 10
6.1520394994
 20
13.4712481658
 30
0.0
 11
6.0758676252
 21
13.4712481658
 31
0.0
  0
LINE
  5
111
330
10B
100
AcDbEntity
  8
0
  6
Continuous
 62
     7
370
     0
100
AcDbLine
 10
6.0758676252
 20
13.4712481658
 30
0.0
 11
6.0758676252
 21
13.0743731539
 31
0.0
  0
LINE
  5
112
330
10B
100
AcDbEntity
  8
0
  6
Continuous
 62
     7
370
     0
100
AcDbLine
 10
6.0758676252
 20
13.0743731539
 30
0.0
 11
6.1520394994
 21
13.0743731539
 31
0.0
  0
LINE
  5
113
330
10B
100
AcDbEntity
  8
0
  6
Continuous
 62
     7
370
     0
100
AcDbLine
 10
7.3312061509
 20
13.4712481658
 30
0.0
 11
7.4073780251
 21
13.4712481658
 31
0.0
  0
LINE
  5
114
330
10B
100
AcDbEntity
  8
0
  6
Continuous
 62
     7
370
     0
100
AcDbLine
 10
7.4073780251
 20
13.4712481658
 30
0.0
 11
7.4073780251
 21
13.0743731539
 31
0.0
  0
LINE
  5
115
330
10B
100
AcDbEntity
  8
0
  6
Continuous
 62
     7
370
     0
100
AcDbLine
 10
7.4073780251
 20
13.0743731539
 30
0.0
 11
7.3312061509
 21
13.0743731539
 31
0.0
  0
LINE
  5
116
330
10B
100
AcDbEntity
  8
0
  6
Continuous
 62
     7
370
     0
100
AcDbLine
 10
4.3766227885
 20
10.6207563523
 30
0.0
 11
4.3766227885
 21
11.2207563523
 31
0.0
  0
LINE
  5
117
330
10B
100
AcDbEntity
  8
0
  6
Continuous
 62
     7
370
     0
100
AcDbLine
 10
4.3766227885
 20
11.3407563523
 30
0.0
 11
4.3766227885
 21
13.7231579271
 31
0.0
  0
LINE
  5
118
330
10B
100
AcDbEntity
  8
0
  6
Continuous
 62
     7
370
     0
100
AcDbLine
 10
9.1066227885
 20
12.7557563523
 30
0.0
 11
9.1066227885
 21
13.7231579271
 31
0.0
  0
LINE
  5
119
330
10B
100
AcDbEntity
  8
0
  6
Continuous
 62
     7
370
     0
100
AcDbLine
 10
4.3766227885
 20
13.4731579271
 30
0.0
 11
5.8566011557
 21
13.4731579271
 31
0.0
  0
LINE
  5
11A
330
10B
100
AcDbEntity
  8
0
  6
Continuous
 62
     7
370
     0
100
AcDbLine
 10
9.1066227885
 20
13.4731579271
 30
0.0
 11
7.6266444213
 21
13.4731579271
 31
0.0
  0
MTEXT
  5
11B
330
10B
100
AcDbEntity
  8
0
  6
Continuous
 62
     7
370
    18
100
AcDbMText
 10
6.0010846396
 20
13.8481158208
 30
0.0
 40
0.25
 41
0.0
 71
     1
 72
     1
  1

  7
SLDTEXTSTYLE0
 73
     1
 44
1.0
  0
MTEXT
  5
11C
330
10B
100
AcDbEntity
  8
0
  6
Continuous
 62
     7
370
    18
100
AcDbMText
 10
6.2938797625
 20
13.8442963579
 30
0.0
 40
0.25
 41
0.0
 71
     1
 72
     1
  1
4 3/4"
  7
SLDTEXTSTYLE0
 73
     1
 44
1.0
  0
MTEXT
  5
11D
330
10B
100
AcDbEntity
  8
0
  6
Continuous
 62
     7
370
    18
100
AcDbMText
 10
6.1520394994
 20
13.3966401163
 30
0.0
 40
0.25
 41
0.0
 71
     1
 72
     1
  1
120mm
  7
SLDTEXTSTYLE0
 73
     1
 44
1.0
  0
MTEXT
  5
11E
330
10B
100
AcDbEntity
  8
0
  6
Continuous
 62
     7
370
    18
100
AcDbMText
 10
7.5772998444
 20
13.8481158208
 30
0.0
 40
0.25
 41
0.0
 71
     1
 72
     1
  1

  7
SLDTEXTSTYLE0
 73
     1
 44
1.0
  0
ENDBLK
  5
10D
330
10B
100
AcDbEntity
  8
0
100
AcDbBlockEnd
  0
BLOCK
  5
122
330
121
100
AcDbEntity
  8
0
100
AcDbBlockBegin
  2
_D_1
 70
     0
 10
0.0
 20
0.0
 30
0.0
  3
_D_1
  1

  0
SOLID
  5
124
330
121
100
AcDbEntity
  8
0
  6
Continuous
 62
     7
370
    18
100
AcDbTrace
 10
9.1066227885
 20
13.4731579271
 30
0.0
 11
8.8466227885
 21
13.5131579271
 31
0.0
 12
8.8466227885
 22
13.4331579271
 32
0.0
 13
8.8466227885
 23
13.4331579271
 33
0.0
  0
SOLID
  5
125
330
121
100
AcDbEntity
  8
0
  6
Continuous
 62
     7
370
    18
100
AcDbTrace
 10
10.4936227885
 20
13.4731579271
 30
0.0
 11
10.7536227885
 21
13.4331579271
 31
0.0
 12
10.7536227885
 22
13.5131579271
 32
0.0
 13
10.7536227885
 23
13.5131579271
 33
0.0
  0
LINE
  5
126
330
121
100
AcDbEntity
  8
0
  6
Continuous
 62
     7
370
     0
100
AcDbLine
 10
9.3029005924
 20
13.4712481658
 30
0.0
 11
9.2267287182
 21
13.4712481658
 31
0.0
  0
LINE
  5
127
330
121
100
AcDbEntity
  8
0
  6
Continuous
 62
     7
370
     0
100
AcDbLine
 10
9.2267287182
 20
13.4712481658
 30
0.0
 11
9.2267287182
 21
13.0743731539
 31
0.0
  0
LINE
  5
128
330
121
100
AcDbEntity
  8
0
  6
Continuous
 62
     7
370
     0
100
AcDbLine
 10
9.2267287182
 20
13.0743731539
 30
0.0
 11
9.3029005924
 21
13.0743731539
 31
0.0
  0
LINE
  5
129
330
121
100
AcDbEntity
  8
0
  6
Continuous
 62
     7
370
     0
100
AcDbLine
 10
10.2973450579
 20
13.4712481658
 30
0.0
 11
10.3735169321
 21
13.4712481658
 31
0.0
  0
LINE
  5
12A
330
121
100
AcDbEntity
  8
0
  6
Continuous
 62
     7
370
     0
100
AcDbLine
 10
10.3735169321
 20
13.4712481658
 30
0.0
 11
10.3735169321
 21
13.0743731539
 31
0.0
  0
LINE
  5
12B
330
121
100
AcDbEntity
  8
0
  6
Continuous
 62
     7
370
     0
100
AcDbLine
 10
10.3735169321
 20
13.0743731539
 30
0.0
 11
10.2973450579
 21
13.0743731539
 31
0.0
  0
LINE
  5
12C
330
121
100
AcDbEntity
  8
0
  6
Continuous
 62
     7
370
     0
100
AcDbLine
 10
9.1066227885
 20
12.6757563523
 30
0.0
 11
9.1066227885
 21
13.7231579271
 31
0.0
  0
LINE
  5
12D
330
121
100
AcDbEntity
  8
0
  6
Continuous
 62
     7
370
     0
100
AcDbLine
 10
10.4936227885
 20
10.2707563523
 30
0.0
 11
10.4936227885
 21
13.7231579271
 31
0.0
  0
LINE
  5
12E
330
121
100
AcDbEntity
  8
0
  6
Continuous
 62
     7
370
     0
100
AcDbLine
 10
9.1066227885
 20
13.4731579271
 30
0.0
 11
8.6066227885
 21
13.4731579271
 31
0.0
  0
LINE
  5
12F
330
121
100
AcDbEntity
  8
0
  6
Continuous
 62
     7
370
     0
100
AcDbLine
 10
10.4936227885
 20
13.4731579271
 30
0.0
 11
10.9936227885
 21
13.4731579271
 31
0.0
  0
MTEXT
  5
130
330
121
100
AcDbEntity
  8
0
  6
Continuous
 62
     7
370
    18
100
AcDbMText
 10
9.1519457326
 20
13.8481158208
 30
0.0
 40
0.25
 41
0.0
 71
     1
 72
     1
  1

  7
SLDTEXTSTYLE0
 73
     1
 44
1.0
  0
MTEXT
  5
131
330
121
100
AcDbEntity
  8
0
  6
Continuous
 62
     7
370
    18
100
AcDbMText
 10
9.3523797625
 20
13.8442963579
 30
0.0
 40
0.25
 41
0.0
 71
     1
 72
     1
  1
1 3/8"
  7
SLDTEXTSTYLE0
 73
     1
 44
1.0
  0
MTEXT
  5
132
330
121
100
AcDbEntity
  8
0
  6
Continuous
 62
     7
370
    18
100
AcDbMText
 10
9.3029005924
 20
13.3966401163
 30
0.0
 40
0.25
 41
0.0
 71
     1
 72
     1
  1
35mm
  7
SLDTEXTSTYLE0
 73
     1
 44
1.0
  0
MTEXT
  5
133
330
121
100
AcDbEntity
  8
0
  6
Continuous
 62
     7
370
    18
100
AcDbMText
 10
10.5434387513
 20
13.8481158208
 30
0.0
 40
0.25
 41
0.0
 71
     1
 72
     1
  1

  7
SLDTEXTSTYLE0
 73
     1
 44
1.0
  0
ENDBLK
  5
123
330
121
100
AcDbEntity
  8
0
100
AcDbBlockEnd
  0
BLOCK
  5
136
330
135
100
AcDbEntity
  8
0
100
AcDbBlockBegin
  2
_D_2
 70
     0
 10
0.0
 20
0.0
 30
0.0
  3
_D_2
  1

  0
SOLID
  5
138
330
135
100
AcDbEntity
  8
SLD-0
100
AcDbTrace
 10
1.8392212137
 20
11.2807563523
 30
0.0
 11
1.7992212137
 21
11.0207563523
 31
0.0
 12
1.8792212137
 22
11.0207563523
 32
0.0
 13
1.8792212137
 23
11.0207563523
 33
0.0
  0
SOLID
  5
139
330
135
100
AcDbEntity
  8
SLD-0
100
AcDbTrace
 10
1.8392212137
 20
9.0607563523
 30
0.0
 11
1.8792212137
 21
9.3207563523
 31
0.0
 12
1.7992212137
 22
9.3207563523
 32
0.0
 13
1.7992212137
 23
9.3207563523
 33
0.0
  0
LINE
  5
13A
330
135
100
AcDbEntity
  8
SLD-0
100
AcDbLine
 10
1.3419989993
 20
10.1707563156
 30
0.0
 11
1.2658271251
 21
10.1707563156
 31
0.0
  0
LINE
  5
13B
330
135
100
AcDbEntity
  8
SLD-0
100
AcDbLine
 10
1.2658271251
 20
10.1707563156
 30
0.0
 11
1.2658271251
 21
9.7738813037
 31
0.0
  0
LINE
  5
13C
330
135
100
AcDbEntity
  8
SLD-0
100
AcDbLine
 10
1.2658271251
 20
9.7738813037
 30
0.0
 11
1.3419989993
 21
9.7738813037
 31
0.0
  0
LINE
  5
13D
330
135
100
AcDbEntity
  8
SLD-0
100
AcDbLine
 10
2.3364434647
 20
10.1707563156
 30
0.0
 11
2.412615339
 21
10.1707563156
 31
0.0
  0
LINE
  5
13E
330
135
100
AcDbEntity
  8
SLD-0
100
AcDbLine
 10
2.412615339
 20
10.1707563156
 30
0.0
 11
2.412615339
 21
9.7738813037
 31
0.0
  0
LINE
  5
13F
330
135
100
AcDbEntity
  8
SLD-0
100
AcDbLine
 10
2.412615339
 20
9.7738813037
 30
0.0
 11
2.3364434647
 21
9.7738813037
 31
0.0
  0
LINE
  5
140
330
135
100
AcDbEntity
  8
SLD-0
100
AcDbLine
 10
5.3066227885
 20
11.2807563523
 30
0.0
 11
1.5892212137
 21
11.2807563523
 31
0.0
  0
LINE
  5
141
330
135
100
AcDbEntity
  8
SLD-0
100
AcDbLine
 10
5.3066227885
 20
9.0607563523
 30
0.0
 11
1.5892212137
 21
9.0607563523
 31
0.0
  0
LINE
  5
142
330
135
100
AcDbEntity
  8
SLD-0
100
AcDbLine
 10
1.8392212137
 20
11.2807563523
 30
0.0
 11
1.8392212137
 21
10.6184126076
 31
0.0
  0
LINE
  5
143
330
135
100
AcDbEntity
  8
SLD-0
100
AcDbLine
 10
1.8392212137
 20
9.0607563523
 30
0.0
 11
1.8392212137
 21
9.723100097
 31
0.0
  0
MTEXT
  5
144
330
135
100
AcDbEntity
  8
SLD-0
100
AcDbMText
 10
1.2029625305
 20
10.543804526
 30
0.0
 40
0.25
 41
0.0
 71
     1
 72
     1
  1
%%c
  7
SLDTEXTSTYLE0
 73
     1
 44
1.0
  0
MTEXT
  5
145
330
135
100
AcDbEntity
  8
SLD-0
100
AcDbMText
 10
1.5799937716
 20
10.543804526
 30
0.0
 40
0.25
 41
0.0
 71
     1
 72
     1
  1
2 1/4"
  7
SLDTEXTSTYLE0
 73
     1
 44
1.0
  0
MTEXT
  5
146
330
135
100
AcDbEntity
  8
SLD-0
100
AcDbMText
 10
1.3419989993
 20
10.0961482661
 30
0.0
 40
0.25
 41
0.0
 71
     1
 72
     1
  1
56mm
  7
SLDTEXTSTYLE0
 73
     1
 44
1.0
  0
ENDBLK
  5
137
330
135
100
AcDbEntity
  8
0
100
AcDbBlockEnd
  0
BLOCK
  5
1D8
330
1D7
100
AcDbEntity
  8
0
100
AcDbBlockBegin
  2
_D_3
 70
     0
 10
0.0
 20
0.0
 30
0.0
  3
_D_3
  1

  0
SOLID
  5
1DA
330
1D7
100
AcDbEntity
  8
0
  6
Continuous
 62
     7
370
    18
100
AcDbTrace
 10
4.12777869
 20
5.4944005864
 30
0.0
 11
3.86777869
 21
5.5344005864
 31
0.0
 12
3.86777869
 22
5.4544005864
 32
0.0
 13
3.86777869
 23
5.4544005864
 33
0.0
  0
SOLID
  5
1DB
330
1D7
100
AcDbEntity
  8
0
  6
Continuous
 62
     7
370
    18
100
AcDbTrace
 10
5.87777869
 20
5.4944005864
 30
0.0
 11
6.13777869
 21
5.4544005864
 31
0.0
 12
6.13777869
 22
5.5344005864
 32
0.0
 13
6.13777869
 23
5.5344005864
 33
0.0
  0
LINE
  5
1DC
330
1D7
100
AcDbEntity
  8
0
  6
Continuous
 62
     7
370
     0
100
AcDbLine
 10
4.5055564757
 20
5.7296435938
 30
0.0
 11
4.4293846014
 21
5.7296435938
 31
0.0
  0
LINE
  5
1DD
330
1D7
100
AcDbEntity
  8
0
  6
Continuous
 62
     7
370
     0
100
AcDbLine
 10
4.4293846014
 20
5.7296435938
 30
0.0
 11
4.4293846014
 21
5.3327685819
 31
0.0
  0
LINE
  5
1DE
330
1D7
100
AcDbEntity
  8
0
  6
Continuous
 62
     7
370
     0
100
AcDbLine
 10
4.4293846014
 20
5.3327685819
 30
0.0
 11
4.5055564757
 21
5.3327685819
 31
0.0
  0
LINE
  5
1DF
330
1D7
100
AcDbEntity
  8
0
  6
Continuous
 62
     7
370
     0
100
AcDbLine
 10
5.5000009411
 20
5.7296435938
 30
0.0
 11
5.5761728153
 21
5.7296435938
 31
0.0
  0
LINE
  5
1E0
330
1D7
100
AcDbEntity
  8
0
  6
Continuous
 62
     7
370
     0
100
AcDbLine
 10
5.5761728153
 20
5.7296435938
 30
0.0
 11
5.5761728153
 21
5.3327685819
 31
0.0
  0
LINE
  5
1E1
330
1D7
100
AcDbEntity
  8
0
  6
Continuous
 62
     7
370
     0
100
AcDbLine
 10
5.5761728153
 20
5.3327685819
 30
0.0
 11
5.5000009411
 21
5.3327685819
 31
0.0
  0
LINE
  5
1E2
330
1D7
100
AcDbEntity
  8
0
  6
Continuous
 62
     7
370
     0
100
AcDbLine
 10
4.12777869
 20
3.5494990116
 30
0.0
 11
4.12777869
 21
5.7444005864
 31
0.0
  0
LINE
  5
1E3
330
1D7
100
AcDbEntity
  8
0
  6
Continuous
 62
     7
370
     0
100
AcDbLine
 10
5.87777869
 20
3.5494990116
 30
0.0
 11
5.87777869
 21
5.7444005864
 31
0.0
  0
LINE
  5
1E4
330
1D7
100
AcDbEntity
  8
0
  6
Continuous
 62
     7
370
     0
100
AcDbLine
 10
4.12777869
 20
5.4944005864
 30
0.0
 11
3.62777869
 21
5.4944005864
 31
0.0
  0
LINE
  5
1E5
330
1D7
100
AcDbEntity
  8
0
  6
Continuous
 62
     7
370
     0
100
AcDbLine
 10
5.87777869
 20
5.4944005864
 30
0.0
 11
6.37777869
 21
5.4944005864
 31
0.0
  0
MTEXT
  5
1E6
330
1D7
100
AcDbEntity
  8
0
  6
Continuous
 62
     7
370
    18
100
AcDbMText
 10
4.5550356457
 20
6.1026917859
 30
0.0
 40
0.25
 41
0.0
 71
     1
 72
     1
  1
3 1/2"
  7
SLDTEXTSTYLE0
 73
     1
 44
1.0
  0
MTEXT
  5
1E7
330
1D7
100
AcDbEntity
  8
0
  6
Continuous
 62
     7
370
    18
100
AcDbMText
 10
4.5055564757
 20
5.6550355443
 30
0.0
 40
0.25
 41
0.0
 71
     1
 72
     1
  1
89mm
  7
SLDTEXTSTYLE0
 73
     1
 44
1.0
  0
MTEXT
  5
1E8
330
1D7
100
AcDbEntity
  8
0
  6
Continuous
 62
     7
370
    18
100
AcDbMText
 10
4.630209254
 20
5.207379344
 30
0.0
 40
0.25
 41
0.0
 71
     1
 72
     1
  1
O.C.
  7
SLDTEXTSTYLE0
 73
     1
 44
1.0
  0
ENDBLK
  5
1D9
330
1D7
100
AcDbEntity
  8
0
100
AcDbBlockEnd
  0
BLOCK
  5
1EC
330
1EB
100
AcDbEntity
  8
0
100
AcDbBlockBegin
  2
_D_4
 70
     0
 10
0.0
 20
0.0
 30
0.0
  3
_D_4
  1

  0
SOLID
  5
1EE
330
1EB
100
AcDbEntity
  8
0
  6
Continuous
 62
     7
370
    18
100
AcDbTrace
 10
4.1135919127
 20
2.5603122342
 30
0.0
 11
3.9014598783
 21
2.4047487424
 31
0.0
 12
3.9580284208
 22
2.3481801999
 32
0.0
 13
3.9580284208
 23
2.3481801999
 33
0.0
  0
LINE
  5
1EF
330
1EB
100
AcDbEntity
  8
0
  6
Continuous
 62
     7
370
     0
100
AcDbLine
 10
1.8290070118
 20
2.10723766
 30
0.0
 11
1.7528351376
 21
2.10723766
 31
0.0
  0
LINE
  5
1F0
330
1EB
100
AcDbEntity
  8
0
  6
Continuous
 62
     7
370
     0
100
AcDbLine
 10
1.7528351376
 20
2.10723766
 30
0.0
 11
1.7528351376
 21
1.7103626481
 31
0.0
  0
LINE
  5
1F1
330
1EB
100
AcDbEntity
  8
0
  6
Continuous
 62
     7
370
     0
100
AcDbLine
 10
1.7528351376
 20
1.7103626481
 30
0.0
 11
1.8290070118
 21
1.7103626481
 31
0.0
  0
LINE
  5
1F2
330
1EB
100
AcDbEntity
  8
0
  6
Continuous
 62
     7
370
     0
100
AcDbLine
 10
3.0081736633
 20
2.10723766
 30
0.0
 11
3.0843455376
 21
2.10723766
 31
0.0
  0
LINE
  5
1F3
330
1EB
100
AcDbEntity
  8
0
  6
Continuous
 62
     7
370
     0
100
AcDbLine
 10
3.0843455376
 20
2.10723766
 30
0.0
 11
3.0843455376
 21
1.7103626481
 31
0.0
  0
LINE
  5
1F4
330
1EB
100
AcDbEntity
  8
0
  6
Continuous
 62
     7
370
     0
100
AcDbLine
 10
3.0843455376
 20
1.7103626481
 30
0.0
 11
3.0081736633
 21
1.7103626481
 31
0.0
  0
LINE
  5
1F5
330
1EB
100
AcDbEntity
  8
0
  6
Continuous
 62
     7
370
     0
100
AcDbLine
 10
4.1135919127
 20
2.5603122342
 30
0.0
 11
3.6605173751
 21
2.1072376967
 31
0.0
  0
LINE
  5
1F6
330
1EB
100
AcDbEntity
  8
0
  6
Continuous
 62
     7
370
     0
100
AcDbLine
 10
3.6605173751
 20
2.1072376967
 30
0.0
 11
3.1605173751
 21
2.1072376967
 31
0.0
  0
MTEXT
  5
1F7
330
1EB
100
AcDbEntity
  8
0
  6
Continuous
 62
     7
370
    18
100
AcDbMText
 10
2.0861510963
 20
2.4802858704
 30
0.0
 40
0.25
 41
0.0
 71
     1
 72
     1
  1
%%c
  7
SLDTEXTSTYLE0
 73
     1
 44
1.0
  0
MTEXT
  5
1F8
330
1EB
100
AcDbEntity
  8
0
  6
Continuous
 62
     7
370
    18
100
AcDbMText
 10
2.4631823375
 20
2.4802858704
 30
0.0
 40
0.25
 41
0.0
 71
     1
 72
     1
  1
5"
  7
SLDTEXTSTYLE0
 73
     1
 44
1.0
  0
MTEXT
  5
1F9
330
1EB
100
AcDbEntity
  8
0
  6
Continuous
 62
     7
370
    18
100
AcDbMText
 10
1.8290070118
 20
2.0326296105
 30
0.0
 40
0.25
 41
0.0
 71
     1
 72
     1
  1
128mm
  7
SLDTEXTSTYLE0
 73
     1
 44
1.0
  0
ENDBLK
  5
1ED
330
1EB
100
AcDbEntity
  8
0
100
AcDbBlockEnd
  0
BLOCK
  5
220
330
21F
100
AcDbEntity
  8
0
100
AcDbBlockBegin
  2
_D_5
 70
     0
 10
0.0
 20
0.0
 30
0.0
  3
_D_5
  1

  0
SOLID
  5
222
330
21F
100
AcDbEntity
  8
0
  6
Continuous
 62
     7
370
    18
100
AcDbTrace
 10
13.9667104756
 20
5.4944005864
 30
0.0
 11
13.7067104756
 21
5.5344005864
 31
0.0
 12
13.7067104756
 22
5.4544005864
 32
0.0
 13
13.7067104756
 23
5.4544005864
 33
0.0
  0
SOLID
  5
223
330
21F
100
AcDbEntity
  8
0
  6
Continuous
 62
     7
370
    18
100
AcDbTrace
 10
15.7167104756
 20
5.4944005864
 30
0.0
 11
15.9767104756
 21
5.4544005864
 31
0.0
 12
15.9767104756
 22
5.5344005864
 32
0.0
 13
15.9767104756
 23
5.5344005864
 33
0.0
  0
LINE
  5
224
330
21F
100
AcDbEntity
  8
0
  6
Continuous
 62
     7
370
     0
100
AcDbLine
 10
14.3444882612
 20
5.7296435938
 30
0.0
 11
14.268316387
 21
5.7296435938
 31
0.0
  0
LINE
  5
225
330
21F
100
AcDbEntity
  8
0
  6
Continuous
 62
     7
370
     0
100
AcDbLine
 10
14.268316387
 20
5.7296435938
 30
0.0
 11
14.268316387
 21
5.3327685819
 31
0.0
  0
LINE
  5
226
330
21F
100
AcDbEntity
  8
0
  6
Continuous
 62
     7
370
     0
100
AcDbLine
 10
14.268316387
 20
5.3327685819
 30
0.0
 11
14.3444882612
 21
5.3327685819
 31
0.0
  0
LINE
  5
227
330
21F
100
AcDbEntity
  8
0
  6
Continuous
 62
     7
370
     0
100
AcDbLine
 10
15.3389327267
 20
5.7296435938
 30
0.0
 11
15.4151046009
 21
5.7296435938
 31
0.0
  0
LINE
  5
228
330
21F
100
AcDbEntity
  8
0
  6
Continuous
 62
     7
370
     0
100
AcDbLine
 10
15.4151046009
 20
5.7296435938
 30
0.0
 11
15.4151046009
 21
5.3327685819
 31
0.0
  0
LINE
  5
229
330
21F
100
AcDbEntity
  8
0
  6
Continuous
 62
     7
370
     0
100
AcDbLine
 10
15.4151046009
 20
5.3327685819
 30
0.0
 11
15.3389327267
 21
5.3327685819
 31
0.0
  0
LINE
  5
22A
330
21F
100
AcDbEntity
  8
0
  6
Continuous
 62
     7
370
     0
100
AcDbLine
 10
13.9667104756
 20
3.5494990116
 30
0.0
 11
13.9667104756
 21
5.7444005864
 31
0.0
  0
LINE
  5
22B
330
21F
100
AcDbEntity
  8
0
  6
Continuous
 62
     7
370
     0
100
AcDbLine
 10
15.7167104756
 20
3.5494990116
 30
0.0
 11
15.7167104756
 21
5.7444005864
 31
0.0
  0
LINE
  5
22C
330
21F
100
AcDbEntity
  8
0
  6
Continuous
 62
     7
370
     0
100
AcDbLine
 10
13.9667104756
 20
5.4944005864
 30
0.0
 11
13.4667104756
 21
5.4944005864
 31
0.0
  0
LINE
  5
22D
330
21F
100
AcDbEntity
  8
0
  6
Continuous
 62
     7
370
     0
100
AcDbLine
 10
15.7167104756
 20
5.4944005864
 30
0.0
 11
16.2167104756
 21
5.4944005864
 31
0.0
  0
MTEXT
  5
22E
330
21F
100
AcDbEntity
  8
0
  6
Continuous
 62
     7
370
    18
100
AcDbMText
 10
14.3939674313
 20
6.1026917859
 30
0.0
 40
0.25
 41
0.0
 71
     1
 72
     1
  1
3 1/2"
  7
SLDTEXTSTYLE0
 73
     1
 44
1.0
  0
MTEXT
  5
22F
330
21F
100
AcDbEntity
  8
0
  6
Continuous
 62
     7
370
    18
100
AcDbMText
 10
14.3444882612
 20
5.6550355443
 30
0.0
 40
0.25
 41
0.0
 71
     1
 72
     1
  1
89mm
  7
SLDTEXTSTYLE0
 73
     1
 44
1.0
  0
MTEXT
  5
230
330
21F
100
AcDbEntity
  8
0
  6
Continuous
 62
     7
370
    18
100
AcDbMText
 10
14.4691410396
 20
5.207379344
 30
0.0
 40
0.25
 41
0.0
 71
     1
 72
     1
  1
O.C.
  7
SLDTEXTSTYLE0
 73
     1
 44
1.0
  0
ENDBLK
  5
221
330
21F
100
AcDbEntity
  8
0
100
AcDbBlockEnd
  0
BLOCK
  5
233
330
232
100
AcDbEntity
  8
0
100
AcDbBlockBegin
  2
_D_6
 70
     0
 10
0.0
 20
0.0
 30
0.0
  3
_D_6
  1

  0
SOLID
  5
235
330
232
100
AcDbEntity
  8
0
  6
Continuous
 62
     7
370
    18
100
AcDbTrace
 10
13.9525236983
 20
2.5603122342
 30
0.0
 11
13.7403916639
 21
2.4047487424
 31
0.0
 12
13.7969602064
 22
2.3481801999
 32
0.0
 13
13.7969602064
 23
2.3481801999
 33
0.0
  0
LINE
  5
236
330
232
100
AcDbEntity
  8
0
  6
Continuous
 62
     7
370
     0
100
AcDbLine
 10
11.6512628577
 20
2.0905617202
 30
0.0
 11
11.5750909834
 21
2.0905617202
 31
0.0
  0
LINE
  5
237
330
232
100
AcDbEntity
  8
0
  6
Continuous
 62
     7
370
     0
100
AcDbLine
 10
11.5750909834
 20
2.0905617202
 30
0.0
 11
11.5750909834
 21
1.6936867083
 31
0.0
  0
LINE
  5
238
330
232
100
AcDbEntity
  8
0
  6
Continuous
 62
     7
370
     0
100
AcDbLine
 10
11.5750909834
 20
1.6936867083
 30
0.0
 11
11.6512628577
 21
1.6936867083
 31
0.0
  0
LINE
  5
239
330
232
100
AcDbEntity
  8
0
  6
Continuous
 62
     7
370
     0
100
AcDbLine
 10
12.8304295092
 20
2.0905617202
 30
0.0
 11
12.9066013834
 21
2.0905617202
 31
0.0
  0
LINE
  5
23A
330
232
100
AcDbEntity
  8
0
  6
Continuous
 62
     7
370
     0
100
AcDbLine
 10
12.9066013834
 20
2.0905617202
 30
0.0
 11
12.9066013834
 21
1.6936867083
 31
0.0
  0
LINE
  5
23B
330
232
100
AcDbEntity
  8
0
  6
Continuous
 62
     7
370
     0
100
AcDbLine
 10
12.9066013834
 20
1.6936867083
 30
0.0
 11
12.8304295092
 21
1.6936867083
 31
0.0
  0
LINE
  5
23C
330
232
100
AcDbEntity
  8
0
  6
Continuous
 62
     7
370
     0
100
AcDbLine
 10
13.9525236983
 20
2.5603122342
 30
0.0
 11
13.4827732209
 21
2.0905617569
 31
0.0
  0
LINE
  5
23D
330
232
100
AcDbEntity
  8
0
  6
Continuous
 62
     7
370
     0
100
AcDbLine
 10
13.4827732209
 20
2.0905617569
 30
0.0
 11
12.9827732209
 21
2.0905617569
 31
0.0
  0
MTEXT
  5
23E
330
232
100
AcDbEntity
  8
0
  6
Continuous
 62
     7
370
    18
100
AcDbMText
 10
11.9084069421
 20
2.4636099306
 30
0.0
 40
0.25
 41
0.0
 71
     1
 72
     1
  1
%%c
  7
SLDTEXTSTYLE0
 73
     1
 44
1.0
  0
MTEXT
  5
23F
330
232
100
AcDbEntity
  8
0
  6
Continuous
 62
     7
370
    18
100
AcDbMText
 10
12.2854381833
 20
2.4636099306
 30
0.0
 40
0.25
 41
0.0
 71
     1
 72
     1
  1
5"
  7
SLDTEXTSTYLE0
 73
     1
 44
1.0
  0
MTEXT
  5
240
330
232
100
AcDbEntity
  8
0
  6
Continuous
 62
     7
370
    18
100
AcDbMText
 10
11.6512628577
 20
2.0159536707
 30
0.0
 40
0.25
 41
0.0
 71
     1
 72
     1
  1
128mm
  7
SLDTEXTSTYLE0
 73
     1
 44
1.0
  0
ENDBLK
  5
234
330
232
100
AcDbEntity
  8
0
100
AcDbBlockEnd
  0
BLOCK
  5
25F
330
25E
100
AcDbEntity
  8
0
100
AcDbBlockBegin
  2
_D_7
 70
     0
 10
0.0
 20
0.0
 30
0.0
  3
_D_7
  1

  0
ARC
  5
261
330
25E
100
AcDbEntity
  8
0
  6
Continuous
 62
     7
370
    18
100
AcDbCircle
 10
8.6366568196
 20
3.2953923821
 30
0.0
 40
1.49370958696766
100
AcDbArc
 50
270.0
 51
293.010171041
  0
ARC
  5
262
330
25E
100
AcDbEntity
  8
0
  6
Continuous
 62
     7
370
    18
100
AcDbCircle
 10
8.6366568196
 20
3.2953923821
 30
0.0
 40
1.49370958696766
100
AcDbArc
 50
315.8779760478
 51
338.0
  0
SOLID
  5
263
330
25E
100
AcDbEntity
  8
0
  6
Continuous
 62
     7
370
    18
100
AcDbTrace
 10
8.6366568196
 20
1.8016827952
 30
0.0
 11
8.8991346385
 21
1.7842072522
 31
0.0
 12
8.8922497003
 22
1.8639104368
 32
0.0
 13
8.8922497003
 23
1.8639104368
 33
0.0
  0
SOLID
  5
264
330
25E
100
AcDbEntity
  8
0
  6
Continuous
 62
     7
370
    18
100
AcDbTrace
 10
10.0216002321
 20
2.7358389222
 30
0.0
 11
9.8681569892
 21
2.5221682148
 31
0.0
 12
9.9394773518
 22
2.4859272728
 32
0.0
 13
9.9394773518
 23
2.4859272728
 33
0.0
  0
LINE
  5
265
330
25E
100
AcDbEntity
  8
0
  6
Continuous
 62
     7
370
     0
100
AcDbLine
 10
8.6366568196
 20
2.0919990116
 30
0.0
 11
8.6366568196
 21
1.5516827952
 31
0.0
  0
LINE
  5
266
330
25E
100
AcDbEntity
  8
0
  6
Continuous
 62
     7
370
     0
100
AcDbLine
 10
9.1214125543
 20
3.0995383522
 30
0.0
 11
10.2533961957
 21
2.6421872739
 31
0.0
  0
MTEXT
  5
267
330
25E
100
AcDbEntity
  8
0
  6
Continuous
 62
     7
370
    18
100
AcDbMText
 10
9.2205397246
 20
2.1808804685
 30
0.0
 40
0.25
 41
0.0
 71
     1
 72
     1
  1
68°
  7
SLDTEXTSTYLE0
 73
     1
 44
1.0
  0
ENDBLK
  5
260
330
25E
100
AcDbEntity
  8
0
100
AcDbBlockEnd
  0
BLOCK
  5
28B
330
28A
100
AcDbEntity
  8
0
100
AcDbBlockBegin
  2
_D_8
 70
     0
 10
0.0
 20
0.0
 30
0.0
  3
_D_8
  1

  0
ARC
  5
28D
330
28A
100
AcDbEntity
  8
0
  6
Continuous
 62
     7
370
    18
100
AcDbCircle
 10
18.4855385395
 20
3.2619990116
 30
0.0
 40
1.386026452250807
100
AcDbArc
 50
270.0
 51
301.7582058415
  0
ARC
  5
28E
330
28A
100
AcDbEntity
  8
0
  6
Continuous
 62
     7
370
    18
100
AcDbCircle
 10
18.4855385395
 20
3.2619990116
 30
0.0
 40
1.386026452250809
100
AcDbArc
 50
325.6715129154
 51
0.0
  0
SOLID
  5
28F
330
28A
100
AcDbEntity
  8
0
  6
Continuous
 62
     7
370
    18
100
AcDbTrace
 10
18.4855385395
 20
1.8759725593
 30
0.0
 11
18.7481251523
 21
1.8602159485
 31
0.0
 12
18.7407185099
 22
1.9398723459
 32
0.0
 13
18.7407185099
 23
1.9398723459
 33
0.0
  0
SOLID
  5
290
330
28A
100
AcDbEntity
  8
0
  6
Continuous
 62
     7
370
    18
100
AcDbTrace
 10
19.8715649918
 20
3.2619990116
 30
0.0
 11
19.8076652052
 21
3.0068190412
 31
0.0
 12
19.8873216026
 22
2.9994123988
 32
0.0
 13
19.8873216026
 23
2.9994123988
 33
0.0
  0
LINE
  5
291
330
28A
100
AcDbEntity
  8
0
  6
Continuous
 62
     7
370
     0
100
AcDbLine
 10
18.4855385395
 20
2.1069990116
 30
0.0
 11
18.4855385395
 21
1.6259725593
 31
0.0
  0
LINE
  5
292
330
28A
100
AcDbEntity
  8
0
  6
Continuous
 62
     7
370
     0
100
AcDbLine
 10
19.0495361472
 20
3.2619990116
 30
0.0
 11
20.1215649918
 21
3.2619990116
 31
0.0
  0
MTEXT
  5
293
330
28A
100
AcDbEntity
  8
0
  6
Continuous
 62
     7
370
    18
100
AcDbMText
 10
19.2142183469
 20
2.4057597648
 30
0.0
 40
0.25
 41
0.0
 71
     1
 72
     1
  1
90°
  7
SLDTEXTSTYLE0
 73
     1
 44
1.0
  0
ENDBLK
  5
28C
330
28A
100
AcDbEntity
  8
0
100
AcDbBlockEnd
  0
ENDSEC
  0
SECTION
  2
ENTITIES
  0
ARC
  5
7F
330
1F
100
AcDbEntity
  8
0
  6
Continuous
 62
     7
370
    25
100
AcDbCircle
 10
9.4636227885
 20
12.6557563523
 30
0.0
 40
0.0299999999999994
100
AcDbArc
 50
0.0
 51
90.0
  0
ARC
  5
80
330
1F
100
AcDbEntity
  8
0
  6
Continuous
 62
     7
370
    25
100
AcDbCircle
 10
9.4636227885
 20
7.6857563523
 30
0.0
 40
0.0300000000000011
100
AcDbArc
 50
270.0
 51
0.0
  0
LINE
  5
81
330
1F
100
AcDbEntity
  8
0
  6
Continuous
 62
     7
370
    25
100
AcDbLine
 10
9.1366227885
 20
7.6557563523
 30
0.0
 11
9.4636227885
 21
7.6557563523
 31
0.0
  0
LINE
  5
82
330
1F
100
AcDbEntity
  8
0
  6
Continuous
 62
     7
370
    25
100
AcDbLine
 10
9.4636227885
 20
12.6857563523
 30
0.0
 11
9.1366227885
 21
12.6857563523
 31
0.0
  0
ARC
  5
83
330
1F
100
AcDbEntity
  8
0
  6
Continuous
 62
     7
370
    25
100
AcDbCircle
 10
9.1366227885
 20
12.6557563523
 30
0.0
 40
0.0299999999999994
100
AcDbArc
 50
90.0
 51
180.0
  0
ARC
  5
84
330
1F
100
AcDbEntity
  8
0
  6
Continuous
 62
     7
370
    25
100
AcDbCircle
 10
9.1366227885
 20
7.6857563523
 30
0.0
 40
0.0300000000000011
100
AcDbArc
 50
180.0
 51
270.0
  0
LINE
  5
85
330
1F
100
AcDbEntity
  8
0
  6
Continuous
 62
     7
370
    25
100
AcDbLine
 10
9.1066227885
 20
11.3298790544
 30
0.0
 11
9.1036227885
 21
11.3298528738
 31
0.0
  0
LINE
  5
86
330
1F
100
AcDbEntity
  8
0
  6
Continuous
 62
     7
370
    25
100
AcDbLine
 10
9.1036227885
 20
9.0116598307
 30
0.0
 11
9.1066227885
 21
9.0116336501
 31
0.0
  0
ARC
  5
87
330
1F
100
AcDbEntity
  8
0
  6
Continuous
 62
     7
370
    25
100
AcDbCircle
 10
9.4811227885
 20
10.1707563523
 30
0.0
 40
1.0125
100
AcDbArc
 50
338.2615392085
 51
89.2926267275
  0
LINE
  5
88
330
1F
100
AcDbEntity
  8
0
  6
Continuous
 62
     7
370
    25
100
AcDbLine
 10
3.3766227885
 20
10.0457563523
 30
0.0
 11
4.3766227885
 21
10.0457563523
 31
0.0
  0
LINE
  5
89
330
1F
100
AcDbEntity
  8
0
  6
Continuous
 62
     7
370
    25
100
AcDbLine
 10
4.3766227885
 20
10.2957563523
 30
0.0
 11
3.3766227885
 21
10.2957563523
 31
0.0
  0
LINE
  5
8A
330
1F
100
AcDbEntity
  8
0
  6
Continuous
 62
     7
370
    25
100
AcDbLine
 10
2.8766227885
 20
10.1507563523
 30
0.0
 11
3.3766227885
 21
10.1507563523
 31
0.0
  0
LINE
  5
8B
330
1F
100
AcDbEntity
  8
0
  6
Continuous
 62
     7
370
    25
100
AcDbLine
 10
3.3766227885
 20
10.2607563523
 30
0.0
 11
2.8766227885
 21
10.2607563523
 31
0.0
  0
LINE
  5
8C
330
1F
100
AcDbEntity
  8
0
  6
Continuous
 62
     7
370
    25
100
AcDbLine
 10
2.6266227885
 20
10.1682563523
 30
0.0
 11
2.8766227885
 21
10.1682563523
 31
0.0
  0
LINE
  5
8D
330
1F
100
AcDbEntity
  8
0
  6
Continuous
 62
     7
370
    25
100
AcDbLine
 10
2.8766227885
 20
10.2432563523
 30
0.0
 11
2.6266227885
 21
10.2432563523
 31
0.0
  0
LINE
  5
8E
330
1F
100
AcDbEntity
  8
0
  6
Continuous
 62
     7
370
    25
100
AcDbLine
 10
2.8766227885
 20
10.0457563523
 30
0.0
 11
3.3766227885
 21
10.0457563523
 31
0.0
  0
LINE
  5
8F
330
1F
100
AcDbEntity
  8
0
  6
Continuous
 62
     7
370
    25
100
AcDbLine
 10
2.6266227885
 20
10.0632563523
 30
0.0
 11
2.8766227885
 21
10.0632563523
 31
0.0
  0
LINE
  5
90
330
1F
100
AcDbEntity
  8
0
  6
Continuous
 62
     7
370
    25
100
AcDbLine
 10
2.8766227885
 20
10.1382563523
 30
0.0
 11
2.6266227885
 21
10.1382563523
 31
0.0
  0
LINE
  5
91
330
1F
100
AcDbEntity
  8
0
  6
Continuous
 62
     7
370
    25
100
AcDbLine
 10
4.9866227885
 20
10.6357563523
 30
0.0
 11
4.9616227885
 21
10.5857563523
 31
0.0
  0
LINE
  5
92
330
1F
100
AcDbEntity
  8
0
  6
Continuous
 62
     7
370
    25
100
AcDbLine
 10
4.9616227885
 20
9.7557563523
 30
0.0
 11
4.9866227885
 21
9.7057563523
 31
0.0
  0
LINE
  5
93
330
1F
100
AcDbEntity
  8
0
  6
Continuous
 62
     7
370
    25
100
AcDbLine
 10
4.8366227885
 20
9.7057563523
 30
0.0
 11
4.8616227885
 21
9.7557563523
 31
0.0
  0
LINE
  5
94
330
1F
100
AcDbEntity
  8
0
  6
Continuous
 62
     7
370
    25
100
AcDbLine
 10
4.8616227885
 20
10.5857563523
 30
0.0
 11
4.8366227885
 21
10.6357563523
 31
0.0
  0
LINE
  5
95
330
1F
100
AcDbEntity
  8
0
  6
Continuous
 62
     7
370
    25
100
AcDbLine
 10
4.9866227885
 20
9.7057563523
 30
0.0
 11
5.0116227885
 21
9.7557563523
 31
0.0
  0
LINE
  5
96
330
1F
100
AcDbEntity
  8
0
  6
Continuous
 62
     7
370
    25
100
AcDbLine
 10
5.0116227885
 20
10.5857563523
 30
0.0
 11
4.9866227885
 21
10.6357563523
 31
0.0
  0
LINE
  5
97
330
1F
100
AcDbEntity
  8
0
  6
Continuous
 62
     7
370
    25
100
AcDbLine
 10
4.8366227885
 20
10.6357563523
 30
0.0
 11
4.8166227885
 21
10.6357563523
 31
0.0
  0
LINE
  5
98
330
1F
100
AcDbEntity
  8
0
  6
Continuous
 62
     7
370
    25
100
AcDbLine
 10
4.8166227885
 20
9.7057563523
 30
0.0
 11
4.8366227885
 21
9.7057563523
 31
0.0
  0
LINE
  5
99
330
1F
100
AcDbEntity
  8
0
  6
Continuous
 62
     7
370
    25
100
AcDbLine
 10
4.8866227885
 20
10.6357563523
 30
0.0
 11
4.8616227885
 21
10.5857563523
 31
0.0
  0
LINE
  5
9A
330
1F
100
AcDbEntity
  8
0
  6
Continuous
 62
     7
370
    25
100
AcDbLine
 10
4.8616227885
 20
9.7557563523
 30
0.0
 11
4.8866227885
 21
9.7057563523
 31
0.0
  0
LINE
  5
9B
330
1F
100
AcDbEntity
  8
0
  6
Continuous
 62
     7
370
    25
100
AcDbLine
 10
4.9366227885
 20
10.6357563523
 30
0.0
 11
4.9116227885
 21
10.5857563523
 31
0.0
  0
LINE
  5
9C
330
1F
100
AcDbEntity
  8
0
  6
Continuous
 62
     7
370
    25
100
AcDbLine
 10
4.9116227885
 20
9.7557563523
 30
0.0
 11
4.9366227885
 21
9.7057563523
 31
0.0
  0
LINE
  5
9D
330
1F
100
AcDbEntity
  8
0
  6
Continuous
 62
     7
370
    25
100
AcDbLine
 10
4.9366227885
 20
9.7057563523
 30
0.0
 11
4.9616227885
 21
9.7557563523
 31
0.0
  0
LINE
  5
9E
330
1F
100
AcDbEntity
  8
0
  6
Continuous
 62
     7
370
    25
100
AcDbLine
 10
4.9616227885
 20
10.5857563523
 30
0.0
 11
4.9366227885
 21
10.6357563523
 31
0.0
  0
LINE
  5
9F
330
1F
100
AcDbEntity
  8
0
  6
Continuous
 62
     7
370
    25
100
AcDbLine
 10
4.8866227885
 20
9.7057563523
 30
0.0
 11
4.9116227885
 21
9.7557563523
 31
0.0
  0
LINE
  5
A0
330
1F
100
AcDbEntity
  8
0
  6
Continuous
 62
     7
370
    25
100
AcDbLine
 10
4.9116227885
 20
10.5857563523
 30
0.0
 11
4.8866227885
 21
10.6357563523
 31
0.0
  0
LINE
  5
A1
330
1F
100
AcDbEntity
  8
0
  6
Continuous
 62
     7
370
    25
100
AcDbLine
 10
5.1366227885
 20
9.7057563523
 30
0.0
 11
5.1616227885
 21
9.7557563523
 31
0.0
  0
LINE
  5
A2
330
1F
100
AcDbEntity
  8
0
  6
Continuous
 62
     7
370
    25
100
AcDbLine
 10
5.1616227885
 20
10.5857563523
 30
0.0
 11
5.1366227885
 21
10.6357563523
 31
0.0
  0
LINE
  5
A3
330
1F
100
AcDbEntity
  8
0
  6
Continuous
 62
     7
370
    25
100
AcDbLine
 10
5.0366227885
 20
9.7057563523
 30
0.0
 11
5.0616227885
 21
9.7557563523
 31
0.0
  0
LINE
  5
A4
330
1F
100
AcDbEntity
  8
0
  6
Continuous
 62
     7
370
    25
100
AcDbLine
 10
5.0616227885
 20
10.5857563523
 30
0.0
 11
5.0366227885
 21
10.6357563523
 31
0.0
  0
LINE
  5
A5
330
1F
100
AcDbEntity
  8
0
  6
Continuous
 62
     7
370
    25
100
AcDbLine
 10
5.0366227885
 20
10.6357563523
 30
0.0
 11
5.0116227885
 21
10.5857563523
 31
0.0
  0
LINE
  5
A6
330
1F
100
AcDbEntity
  8
0
  6
Continuous
 62
     7
370
    25
100
AcDbLine
 10
5.0116227885
 20
9.7557563523
 30
0.0
 11
5.0366227885
 21
9.7057563523
 31
0.0
  0
LINE
  5
A7
330
1F
100
AcDbEntity
  8
0
  6
Continuous
 62
     7
370
    25
100
AcDbLine
 10
5.1366227885
 20
10.6357563523
 30
0.0
 11
5.1116227885
 21
10.5857563523
 31
0.0
  0
LINE
  5
A8
330
1F
100
AcDbEntity
  8
0
  6
Continuous
 62
     7
370
    25
100
AcDbLine
 10
5.1116227885
 20
9.7557563523
 30
0.0
 11
5.1366227885
 21
9.7057563523
 31
0.0
  0
LINE
  5
A9
330
1F
100
AcDbEntity
  8
0
  6
Continuous
 62
     7
370
    25
100
AcDbLine
 10
5.0866227885
 20
10.6357563523
 30
0.0
 11
5.0616227885
 21
10.5857563523
 31
0.0
  0
LINE
  5
AA
330
1F
100
AcDbEntity
  8
0
  6
Continuous
 62
     7
370
    25
100
AcDbLine
 10
5.0616227885
 20
9.7557563523
 30
0.0
 11
5.0866227885
 21
9.7057563523
 31
0.0
  0
LINE
  5
AB
330
1F
100
AcDbEntity
  8
0
  6
Continuous
 62
     7
370
    25
100
AcDbLine
 10
5.1866227885
 20
10.6357563523
 30
0.0
 11
5.1616227885
 21
10.5857563523
 31
0.0
  0
LINE
  5
AC
330
1F
100
AcDbEntity
  8
0
  6
Continuous
 62
     7
370
    25
100
AcDbLine
 10
5.1616227885
 20
9.7557563523
 30
0.0
 11
5.1866227885
 21
9.7057563523
 31
0.0
  0
LINE
  5
AD
330
1F
100
AcDbEntity
  8
0
  6
Continuous
 62
     7
370
    25
100
AcDbLine
 10
5.0866227885
 20
9.7057563523
 30
0.0
 11
5.1116227885
 21
9.7557563523
 31
0.0
  0
LINE
  5
AE
330
1F
100
AcDbEntity
  8
0
  6
Continuous
 62
     7
370
    25
100
AcDbLine
 10
5.1116227885
 20
10.5857563523
 30
0.0
 11
5.0866227885
 21
10.6357563523
 31
0.0
  0
LINE
  5
AF
330
1F
100
AcDbEntity
  8
0
  6
Continuous
 62
     7
370
    25
100
AcDbLine
 10
7.7236227885
 20
11.2807563523
 30
0.0
 11
5.4066227885
 21
11.2807563523
 31
0.0
  0
LINE
  5
B0
330
1F
100
AcDbEntity
  8
0
  6
Continuous
 62
     7
370
    25
100
AcDbLine
 10
5.4066227885
 20
9.0607563523
 30
0.0
 11
7.7236227885
 21
9.0607563523
 31
0.0
  0
LINE
  5
B1
330
1F
100
AcDbEntity
  8
0
  6
Continuous
 62
     7
370
    25
100
AcDbLine
 10
5.4066227885
 20
11.2807563523
 30
0.0
 11
5.3766227885
 21
11.2507563523
 31
0.0
  0
LINE
  5
B2
330
1F
100
AcDbEntity
  8
0
  6
Continuous
 62
     7
370
    25
100
AcDbLine
 10
5.3766227885
 20
9.0907563523
 30
0.0
 11
5.4066227885
 21
9.0607563523
 31
0.0
  0
LINE
  5
B3
330
1F
100
AcDbEntity
  8
0
  6
Continuous
 62
     7
370
    25
100
AcDbLine
 10
8.887094148
 20
9.0607563523
 30
0.0
 11
9.1036227885
 21
9.0607563523
 31
0.0
  0
LINE
  5
B4
330
1F
100
AcDbEntity
  8
0
  6
Continuous
 62
     7
370
    25
100
AcDbLine
 10
9.1036227885
 20
11.2807563523
 30
0.0
 11
8.887094148
 21
11.2807563523
 31
0.0
  0
ARC
  5
B5
330
1F
100
AcDbEntity
  8
0
  6
Continuous
 62
     7
370
    25
100
AcDbCircle
 10
8.8423727885
 20
9.0207563523
 30
0.0
 40
0.0600000000000006
100
AcDbArc
 50
41.8103148958
 51
138.1896851042
  0
ARC
  5
B6
330
1F
100
AcDbEntity
  8
0
  6
Continuous
 62
     7
370
    25
100
AcDbCircle
 10
8.8423727885
 20
11.3207563523
 30
0.0
 40
0.0599999999999993
100
AcDbArc
 50
221.8103148958
 51
318.1896851042
  0
LINE
  5
B7
330
1F
100
AcDbEntity
  8
0
  6
Continuous
 62
     7
370
    25
100
AcDbLine
 10
7.7236227885
 20
9.0607563523
 30
0.0
 11
8.7976514289
 21
9.0607563523
 31
0.0
  0
LINE
  5
B8
330
1F
100
AcDbEntity
  8
0
  6
Continuous
 62
     7
370
    25
100
AcDbLine
 10
7.8888982779
 20
11.2807563523
 30
0.0
 11
7.7236227885
 21
11.2807563523
 31
0.0
  0
LINE
  5
B9
330
1F
100
AcDbEntity
  8
0
  6
Continuous
 62
     7
370
    25
100
AcDbLine
 10
8.7976514289
 20
11.2807563523
 30
0.0
 11
8.0585011425
 21
11.2807563523
 31
0.0
  0
LINE
  5
BA
330
1F
100
AcDbEntity
  8
0
  6
Continuous
 62
     7
370
    25
100
AcDbLine
 10
9.4936227885
 20
12.6557563523
 30
0.0
 11
9.4936227885
 21
7.6857563523
 31
0.0
  0
LINE
  5
BB
330
1F
100
AcDbEntity
  8
0
  6
Continuous
 62
     7
370
    25
100
AcDbLine
 10
9.1066227885
 20
7.6857563523
 30
0.0
 11
9.1066227885
 21
12.6557563523
 31
0.0
  0
LINE
  5
BC
330
1F
100
AcDbEntity
  8
0
  6
Continuous
 62
     7
370
    25
100
AcDbLine
 10
9.1036227885
 20
11.3298528738
 30
0.0
 11
9.1036227885
 21
9.0116598307
 31
0.0
  0
LINE
  5
BD
330
1F
100
AcDbEntity
  8
0
  6
Continuous
 62
     7
370
    25
100
AcDbLine
 10
9.4936227885
 20
9.7957563523
 30
0.0
 11
10.4216180038
 21
9.7957563523
 31
0.0
  0
LINE
  5
BE
330
1F
100
AcDbEntity
  8
0
  6
Continuous
 62
     7
370
    25
100
AcDbLine
 10
5.0016227885
 20
10.6707563523
 30
0.0
 11
5.0016227885
 21
10.6807563523
 31
0.0
  0
LINE
  5
BF
330
1F
100
AcDbEntity
  8
0
  6
Continuous
 62
     7
370
    25
100
AcDbLine
 10
5.3766227885
 20
10.6807563523
 30
0.0
 11
5.0016227885
 21
10.6807563523
 31
0.0
  0
LINE
  5
C0
330
1F
100
AcDbEntity
  8
0
  6
Continuous
 62
     7
370
    25
100
AcDbLine
 10
5.3766227885
 20
10.6707563523
 30
0.0
 11
5.0016227885
 21
10.6707563523
 31
0.0
  0
LINE
  5
C1
330
1F
100
AcDbEntity
  8
0
  6
Continuous
 62
     7
370
    25
100
AcDbLine
 10
3.3766227885
 20
10.2332563523
 30
0.0
 11
3.3766227885
 21
10.0457563523
 31
0.0
  0
LINE
  5
C2
330
1F
100
AcDbEntity
  8
0
  6
Continuous
 62
     7
370
    25
100
AcDbLine
 10
3.3766227885
 20
10.2957563523
 30
0.0
 11
3.3766227885
 21
10.2332563523
 31
0.0
  0
LINE
  5
C3
330
1F
100
AcDbEntity
  8
0
  6
Continuous
 62
     7
370
    25
100
AcDbLine
 10
2.8766227885
 20
10.2607563523
 30
0.0
 11
2.8766227885
 21
10.1507563523
 31
0.0
  0
LINE
  5
C4
330
1F
100
AcDbEntity
  8
0
  6
Continuous
 62
     7
370
    25
100
AcDbLine
 10
2.6266227885
 20
10.2432563523
 30
0.0
 11
2.6266227885
 21
10.1682563523
 31
0.0
  0
LINE
  5
C5
330
1F
100
AcDbEntity
  8
0
  6
Continuous
 62
     7
370
    25
100
AcDbLine
 10
2.8766227885
 20
10.1507563523
 30
0.0
 11
2.8766227885
 21
10.0457563523
 31
0.0
  0
LINE
  5
C6
330
1F
100
AcDbEntity
  8
0
  6
Continuous
 62
     7
370
    25
100
AcDbLine
 10
2.6266227885
 20
10.1382563523
 30
0.0
 11
2.6266227885
 21
10.0632563523
 31
0.0
  0
LINE
  5
C7
330
1F
100
AcDbEntity
  8
0
  6
Continuous
 62
     7
370
    25
100
AcDbLine
 10
5.3766227885
 20
10.1457563523
 30
0.0
 11
5.1866227885
 21
10.1457563523
 31
0.0
  0
LINE
  5
C8
330
1F
100
AcDbEntity
  8
0
  6
Continuous
 62
     7
370
    25
100
AcDbLine
 10
5.1866227885
 20
10.1457563523
 30
0.0
 11
5.1866227885
 21
10.1957563523
 31
0.0
  0
LINE
  5
C9
330
1F
100
AcDbEntity
  8
0
  6
Continuous
 62
     7
370
    25
100
AcDbLine
 10
5.1866227885
 20
10.1957563523
 30
0.0
 11
5.3766227885
 21
10.1957563523
 31
0.0
  0
LINE
  5
CA
330
1F
100
AcDbEntity
  8
0
  6
Continuous
 62
     7
370
    25
100
AcDbLine
 10
5.1866227885
 20
9.6957563523
 30
0.0
 11
5.3766227885
 21
9.6957563523
 31
0.0
  0
LINE
  5
CB
330
1F
100
AcDbEntity
  8
0
  6
Continuous
 62
     7
370
    25
100
AcDbLine
 10
5.1866227885
 20
10.1457563523
 30
0.0
 11
5.1866227885
 21
9.6957563523
 31
0.0
  0
LINE
  5
CC
330
1F
100
AcDbEntity
  8
0
  6
Continuous
 62
     7
370
    25
100
AcDbLine
 10
5.3766227885
 20
10.6457563523
 30
0.0
 11
5.1866227885
 21
10.6457563523
 31
0.0
  0
LINE
  5
CD
330
1F
100
AcDbEntity
  8
0
  6
Continuous
 62
     7
370
    25
100
AcDbLine
 10
5.1866227885
 20
10.6457563523
 30
0.0
 11
5.1866227885
 21
10.1957563523
 31
0.0
  0
LWPOLYLINE
  5
CE
330
1F
100
AcDbEntity
  8
0
  6
Continuous
 62
     7
370
    25
100
AcDbPolyline
 90
       19
 70
   128
 43
0.0
 10
4.3766227885
 20
10.1707563523
 10
4.3771935838
 20
10.177293033
 10
4.3789016255
 20
10.1837799656
 10
4.3817339145
 20
10.1901677807
 10
4.3856688954
 20
10.196407863
 10
4.3906766204
 20
10.2024527219
 10
4.3967189779
 20
10.2082563523
 10
4.4037499818
 20
10.213774585
 10
4.411716122
 20
10.218965423
 10
4.4205567713
 20
10.2237893609
 10
4.430204647
 20
10.2282096855
 10
4.440586323
 20
10.2321927556
 10
4.4516227885
 20
10.2357082576
 10
4.4632300492
 20
10.2387294363
 10
4.475319767
 20
10.2412332988
 10
4.4877999317
 20
10.2432007892
 10
4.5005755618
 20
10.2446169338
 10
4.5135494271
 20
10.2454709546
 10
4.5266227885
 20
10.2457563523
  0
LINE
  5
CF
330
1F
100
AcDbEntity
  8
0
  6
Continuous
 62
     7
370
    25
100
AcDbLine
 10
4.5266227885
 20
10.0957563523
 30
0.0
 11
4.5266227885
 21
10.2457563523
 31
0.0
  0
LWPOLYLINE
  5
D0
330
1F
100
AcDbEntity
  8
0
  6
Continuous
 62
     7
370
    25
100
AcDbPolyline
 90
       19
 70
   128
 43
0.0
 10
4.3766227885
 20
10.1707563523
 10
4.3771935838
 20
10.1642196716
 10
4.3789016255
 20
10.157732739
 10
4.3817339145
 20
10.1513449239
 10
4.3856688954
 20
10.1451048415
 10
4.3906766204
 20
10.1390599826
 10
4.3967189779
 20
10.1332563523
 10
4.4037499818
 20
10.1277381196
 10
4.411716122
 20
10.1225472816
 10
4.4205567713
 20
10.1177233437
 10
4.430204647
 20
10.113303019
 10
4.440586323
 20
10.109319949
 10
4.4516227885
 20
10.105804447
 10
4.4632300492
 20
10.1027832682
 10
4.475319767
 20
10.1002794057
 10
4.4877999317
 20
10.0983119153
 10
4.5005755618
 20
10.0968957708
 10
4.5135494271
 20
10.0960417499
 10
4.5266227885
 20
10.0957563523
  0
LINE
  5
D1
330
1F
100
AcDbEntity
  8
0
  6
Continuous
 62
     7
370
    25
100
AcDbLine
 10
4.8166227885
 20
10.0957563523
 30
0.0
 11
4.5266227885
 21
10.0957563523
 31
0.0
  0
LINE
  5
D2
330
1F
100
AcDbEntity
  8
0
  6
Continuous
 62
     7
370
    25
100
AcDbLine
 10
4.5266227885
 20
10.2457563523
 30
0.0
 11
4.8166227885
 21
10.2457563523
 31
0.0
  0
LINE
  5
D3
330
1F
100
AcDbEntity
  8
0
  6
Continuous
 62
     7
370
    25
100
AcDbLine
 10
4.8166227885
 20
10.2457563523
 30
0.0
 11
4.8166227885
 21
10.0957563523
 31
0.0
  0
LINE
  5
D4
330
1F
100
AcDbEntity
  8
0
  6
Continuous
 62
     7
370
    25
100
AcDbLine
 10
4.3766227885
 20
10.1707563523
 30
0.0
 11
4.3766227885
 21
10.5207563523
 31
0.0
  0
LWPOLYLINE
  5
D5
330
1F
100
AcDbEntity
  8
0
  6
Continuous
 62
     7
370
    25
100
AcDbPolyline
 90
       19
 70
   128
 43
0.0
 10
4.3766227885
 20
10.5207563523
 10
4.3771935838
 20
10.527293033
 10
4.3789016255
 20
10.5337799656
 10
4.3817339145
 20
10.5401677807
 10
4.3856688954
 20
10.546407863
 10
4.3906766204
 20
10.5524527219
 10
4.3967189779
 20
10.5582563523
 10
4.4037499818
 20
10.563774585
 10
4.411716122
 20
10.568965423
 10
4.4205567713
 20
10.5737893609
 10
4.430204647
 20
10.5782096855
 10
4.440586323
 20
10.5821927556
 10
4.4516227885
 20
10.5857082576
 10
4.4632300492
 20
10.5887294363
 10
4.475319767
 20
10.5912332988
 10
4.4877999317
 20
10.5932007892
 10
4.5005755618
 20
10.5946169338
 10
4.5135494271
 20
10.5954709546
 10
4.5266227885
 20
10.5957563523
  0
LINE
  5
D6
330
1F
100
AcDbEntity
  8
0
  6
Continuous
 62
     7
370
    25
100
AcDbLine
 10
4.5266227885
 20
10.5957563523
 30
0.0
 11
4.5266227885
 21
10.2457563523
 31
0.0
  0
LINE
  5
D7
330
1F
100
AcDbEntity
  8
0
  6
Continuous
 62
     7
370
    25
100
AcDbLine
 10
4.3766227885
 20
9.8207563523
 30
0.0
 11
4.3766227885
 21
10.1707563523
 31
0.0
  0
LINE
  5
D8
330
1F
100
AcDbEntity
  8
0
  6
Continuous
 62
     7
370
    25
100
AcDbLine
 10
4.5266227885
 20
10.0957563523
 30
0.0
 11
4.5266227885
 21
9.7457563523
 31
0.0
  0
LWPOLYLINE
  5
D9
330
1F
100
AcDbEntity
  8
0
  6
Continuous
 62
     7
370
    25
100
AcDbPolyline
 90
       19
 70
   128
 43
0.0
 10
4.5266227885
 20
9.7457563523
 10
4.5135494271
 20
9.7460417499
 10
4.5005755618
 20
9.7468957708
 10
4.4877999317
 20
9.7483119153
 10
4.475319767
 20
9.7502794057
 10
4.4632300492
 20
9.7527832682
 10
4.4516227885
 20
9.755804447
 10
4.440586323
 20
9.759319949
 10
4.430204647
 20
9.763303019
 10
4.4205567713
 20
9.7677233437
 10
4.411716122
 20
9.7725472816
 10
4.4037499818
 20
9.7777381196
 10
4.3967189779
 20
9.7832563523
 10
4.3906766204
 20
9.7890599826
 10
4.3856688954
 20
9.7951048415
 10
4.3817339145
 20
9.8013449239
 10
4.3789016255
 20
9.807732739
 10
4.3771935838
 20
9.8142196716
 10
4.3766227885
 20
9.8207563523
  0
LINE
  5
DA
330
1F
100
AcDbEntity
  8
0
  6
Continuous
 62
     7
370
    25
100
AcDbLine
 10
4.8166227885
 20
10.5957563523
 30
0.0
 11
4.5266227885
 21
10.5957563523
 31
0.0
  0
LINE
  5
DB
330
1F
100
AcDbEntity
  8
0
  6
Continuous
 62
     7
370
    25
100
AcDbLine
 10
4.8166227885
 20
10.5957563523
 30
0.0
 11
4.8166227885
 21
10.2457563523
 31
0.0
  0
LINE
  5
DC
330
1F
100
AcDbEntity
  8
0
  6
Continuous
 62
     7
370
    25
100
AcDbLine
 10
4.5266227885
 20
9.7457563523
 30
0.0
 11
4.8166227885
 21
9.7457563523
 31
0.0
  0
LINE
  5
DD
330
1F
100
AcDbEntity
  8
0
  6
Continuous
 62
     7
370
    25
100
AcDbLine
 10
4.8166227885
 20
10.0957563523
 30
0.0
 11
4.8166227885
 21
9.7457563523
 31
0.0
  0
LINE
  5
DE
330
1F
100
AcDbEntity
  8
0
  6
Continuous
 62
     7
370
    25
100
AcDbLine
 10
4.9866227885
 20
10.6357563523
 30
0.0
 11
4.9866227885
 21
9.7057563523
 31
0.0
  0
LINE
  5
DF
330
1F
100
AcDbEntity
  8
0
  6
Continuous
 62
     7
370
    25
100
AcDbLine
 10
4.9616227885
 20
10.5857563523
 30
0.0
 11
4.9616227885
 21
9.7557563523
 31
0.0
  0
LINE
  5
E0
330
1F
100
AcDbEntity
  8
0
  6
Continuous
 62
     7
370
    25
100
AcDbLine
 10
4.8616227885
 20
10.5857563523
 30
0.0
 11
4.8616227885
 21
9.7557563523
 31
0.0
  0
LINE
  5
E1
330
1F
100
AcDbEntity
  8
0
  6
Continuous
 62
     7
370
    25
100
AcDbLine
 10
4.8366227885
 20
10.6357563523
 30
0.0
 11
4.8366227885
 21
9.7057563523
 31
0.0
  0
LINE
  5
E2
330
1F
100
AcDbEntity
  8
0
  6
Continuous
 62
     7
370
    25
100
AcDbLine
 10
5.0116227885
 20
10.5857563523
 30
0.0
 11
5.0116227885
 21
9.7557563523
 31
0.0
  0
LINE
  5
E3
330
1F
100
AcDbEntity
  8
0
  6
Continuous
 62
     7
370
    25
100
AcDbLine
 10
4.8866227885
 20
10.6357563523
 30
0.0
 11
4.8866227885
 21
9.7057563523
 31
0.0
  0
LINE
  5
E4
330
1F
100
AcDbEntity
  8
0
  6
Continuous
 62
     7
370
    25
100
AcDbLine
 10
4.9366227885
 20
10.6357563523
 30
0.0
 11
4.9366227885
 21
9.7057563523
 31
0.0
  0
LINE
  5
E5
330
1F
100
AcDbEntity
  8
0
  6
Continuous
 62
     7
370
    25
100
AcDbLine
 10
4.9116227885
 20
10.5857563523
 30
0.0
 11
4.9116227885
 21
9.7557563523
 31
0.0
  0
LINE
  5
E6
330
1F
100
AcDbEntity
  8
0
  6
Continuous
 62
     7
370
    25
100
AcDbLine
 10
5.1616227885
 20
10.5857563523
 30
0.0
 11
5.1616227885
 21
9.7557563523
 31
0.0
  0
LINE
  5
E7
330
1F
100
AcDbEntity
  8
0
  6
Continuous
 62
     7
370
    25
100
AcDbLine
 10
5.1366227885
 20
10.6357563523
 30
0.0
 11
5.1366227885
 21
9.7057563523
 31
0.0
  0
LINE
  5
E8
330
1F
100
AcDbEntity
  8
0
  6
Continuous
 62
     7
370
    25
100
AcDbLine
 10
5.0616227885
 20
10.5857563523
 30
0.0
 11
5.0616227885
 21
9.7557563523
 31
0.0
  0
LINE
  5
E9
330
1F
100
AcDbEntity
  8
0
  6
Continuous
 62
     7
370
    25
100
AcDbLine
 10
5.0366227885
 20
10.6357563523
 30
0.0
 11
5.0366227885
 21
9.7057563523
 31
0.0
  0
LINE
  5
EA
330
1F
100
AcDbEntity
  8
0
  6
Continuous
 62
     7
370
    25
100
AcDbLine
 10
5.1116227885
 20
10.5857563523
 30
0.0
 11
5.1116227885
 21
9.7557563523
 31
0.0
  0
LINE
  5
EB
330
1F
100
AcDbEntity
  8
0
  6
Continuous
 62
     7
370
    25
100
AcDbLine
 10
5.0866227885
 20
10.6357563523
 30
0.0
 11
5.0866227885
 21
9.7057563523
 31
0.0
  0
ARC
  5
EC
330
1F
100
AcDbEntity
  8
0
  6
Continuous
 62
     7
370
    25
100
AcDbCircle
 10
4.5266227885
 20
9.8207563523
 30
0.0
 40
0.1499999999999986
100
AcDbArc
 50
180.0
 51
270.0
  0
LINE
  5
ED
330
1F
100
AcDbEntity
  8
0
  6
Continuous
 62
     7
370
    25
100
AcDbLine
 10
4.5266227885
 20
9.6707563523
 30
0.0
 11
4.5266227885
 21
9.7457563523
 31
0.0
  0
LINE
  5
EE
330
1F
100
AcDbEntity
  8
0
  6
Continuous
 62
     7
370
    25
100
AcDbLine
 10
4.8166227885
 20
9.6707563523
 30
0.0
 11
4.5266227885
 21
9.6707563523
 31
0.0
  0
LINE
  5
EF
330
1F
100
AcDbEntity
  8
0
  6
Continuous
 62
     7
370
    25
100
AcDbLine
 10
4.8166227885
 20
9.7457563523
 30
0.0
 11
4.8166227885
 21
9.6707563523
 31
0.0
  0
LINE
  5
F0
330
1F
100
AcDbEntity
  8
0
  6
Continuous
 62
     7
370
    25
100
AcDbLine
 10
4.5266227885
 20
10.5957563523
 30
0.0
 11
4.5266227885
 21
10.6707563523
 31
0.0
  0
LINE
  5
F1
330
1F
100
AcDbEntity
  8
0
  6
Continuous
 62
     7
370
    25
100
AcDbLine
 10
4.5266227885
 20
10.6707563523
 30
0.0
 11
4.8166227885
 21
10.6707563523
 31
0.0
  0
LINE
  5
F2
330
1F
100
AcDbEntity
  8
0
  6
Continuous
 62
     7
370
    25
100
AcDbLine
 10
4.8166227885
 20
10.6707563523
 30
0.0
 11
4.8166227885
 21
10.5957563523
 31
0.0
  0
ARC
  5
F3
330
1F
100
AcDbEntity
  8
0
  6
Continuous
 62
     7
370
    25
100
AcDbCircle
 10
4.5266227885
 20
10.5207563523
 30
0.0
 40
0.1500000000000012
100
AcDbArc
 50
90.0
 51
180.0
  0
LINE
  5
F4
330
1F
100
AcDbEntity
  8
0
  6
Continuous
 62
     7
370
    25
100
AcDbLine
 10
5.1866227885
 20
10.6457563523
 30
0.0
 11
5.1866227885
 21
10.6707563523
 31
0.0
  0
LINE
  5
F5
330
1F
100
AcDbEntity
  8
0
  6
Continuous
 62
     7
370
    25
100
AcDbLine
 10
5.3766227885
 20
9.6707563523
 30
0.0
 11
5.1866227885
 21
9.6707563523
 31
0.0
  0
LINE
  5
F6
330
1F
100
AcDbEntity
  8
0
  6
Continuous
 62
     7
370
    25
100
AcDbLine
 10
5.1866227885
 20
9.6707563523
 30
0.0
 11
5.1866227885
 21
9.6957563523
 31
0.0
  0
LINE
  5
F7
330
1F
100
AcDbEntity
  8
0
  6
Continuous
 62
     7
370
    25
100
AcDbLine
 10
7.7236227885
 20
11.2807563523
 30
0.0
 11
7.7236227885
 21
9.0607563523
 31
0.0
  0
LINE
  5
F8
330
1F
100
AcDbEntity
  8
0
  6
Continuous
 62
     7
370
    25
100
AcDbLine
 10
5.4066227885
 20
10.1707563523
 30
0.0
 11
5.4066227885
 21
9.0607563523
 31
0.0
  0
LINE
  5
F9
330
1F
100
AcDbEntity
  8
0
  6
Continuous
 62
     7
370
    25
100
AcDbLine
 10
5.4066227885
 20
11.2807563523
 30
0.0
 11
5.4066227885
 21
10.1707563523
 31
0.0
  0
LINE
  5
FA
330
1F
100
AcDbEntity
  8
0
  6
Continuous
 62
     7
370
    25
100
AcDbLine
 10
5.3766227885
 20
10.1707563523
 30
0.0
 11
5.3766227885
 21
11.2507563523
 31
0.0
  0
LINE
  5
FB
330
1F
100
AcDbEntity
  8
0
  6
Continuous
 62
     7
370
    25
100
AcDbLine
 10
5.3766227885
 20
9.0907563523
 30
0.0
 11
5.3766227885
 21
10.1707563523
 31
0.0
  0
LINE
  5
FC
330
1F
100
AcDbEntity
  8
0
  6
Continuous
 62
     7
370
    25
100
AcDbLine
 10
8.887094148
 20
10.1707563523
 30
0.0
 11
8.887094148
 21
11.2807563523
 31
0.0
  0
LINE
  5
FD
330
1F
100
AcDbEntity
  8
0
  6
Continuous
 62
     7
370
    25
100
AcDbLine
 10
8.887094148
 20
9.0607563523
 30
0.0
 11
8.887094148
 21
10.1707563523
 31
0.0
  0
LINE
  5
FE
330
1F
100
AcDbEntity
  8
0
  6
Continuous
 62
     7
370
    25
100
AcDbLine
 10
8.7976514289
 20
10.1707563523
 30
0.0
 11
8.7976514289
 21
11.2807563523
 31
0.0
  0
LINE
  5
FF
330
1F
100
AcDbEntity
  8
0
  6
Continuous
 62
     7
370
    25
100
AcDbLine
 10
8.7976514289
 20
9.0607563523
 30
0.0
 11
8.7976514289
 21
10.1707563523
 31
0.0
  0
LINE
  5
100
330
1F
100
AcDbEntity
  8
0
  6
Continuous
 62
     7
370
    25
100
AcDbLine
 10
7.7236227885
 20
10.1707563523
 30
0.0
 11
7.7236227885
 21
11.2807563523
 31
0.0
  0
LINE
  5
101
330
1F
100
AcDbEntity
  8
0
  6
Continuous
 62
     7
370
    25
100
AcDbLine
 10
7.7236227885
 20
9.0607563523
 30
0.0
 11
7.7236227885
 21
10.1707563523
 31
0.0
  0
SPLINE
  5
102
330
1F
100
AcDbEntity
  8
0
  6
Continuous
 62
     7
370
    25
100
AcDbSpline
210
0.0
220
0.0
230
1.0
 70
     8
 71
     3
 72
    27
 73
    23
 74
     0
 42
0.00000001
 43
0.00000001
 40
0.0
 40
0.0
 40
0.0
 40
0.0
 40
0.0059455175349582
 40
0.056067825188064
 40
0.1076445621294385
 40
0.1578226559594564
 40
0.2093879747033857
 40
0.2608549715628589
 40
0.3137161742940637
 40
0.3670144043204521
 40
0.4217723857668022
 40
0.4766230708723663
 40
0.5330215391256501
 40
0.5885968983323981
 40
0.6457983357985546
 40
0.7010647218287454
 40
0.758008877139885
 40
0.8119450192838911
 40
0.8675603875583249
 40
0.9195613469234829
 40
0.9731680482807827
 40
1.0
 40
1.0
 40
1.0
 40
1.0
 10
8.058501142536098
 20
11.28074774282006
 30
0.0
 10
8.058540847047357
 20
11.28075055237272
 30
0.0
 10
8.058915271238938
 20
11.28077704720798
 30
0.0
 10
8.057453646683218
 20
11.28067294845884
 30
0.0
 10
8.054069450126327
 20
11.28043826752531
 30
0.0
 10
8.048313743664572
 20
11.28006101772103
 30
0.0
 10
8.040711924629464
 20
11.27960537845497
 30
0.0
 10
8.031231387727217
 20
11.27910500387817
 30
0.0
 10
8.020161602201544
 20
11.2786162799281
 30
0.0
 10
8.007638599748606
 20
11.27818801488572
 30
0.0
 10
7.994052961094613
 20
11.27787352411013
 30
0.0
 10
7.97965488457233
 20
11.2777109706239
 30
0.0
 10
7.965014155629351
 20
11.27772659206656
 30
0.0
 10
7.950413028339753
 20
11.27792332484651
 30
0.0
 10
7.936559896403709
 20
11.27827789785455
 30
0.0
 10
7.923671364482531
 20
11.27875345619247
 30
0.0
 10
7.912459508447735
 20
11.2792820249508
 30
0.0
 10
7.903026337383575
 20
11.27980823438098
 30
0.0
 10
7.895859800569425
 20
11.28025856615664
 30
0.0
 10
7.891069830768433
 20
11.2805829019915
 30
0.0
 10
7.888717136712773
 20
11.28074962309307
 30
0.0
 10
7.888852968439299
 20
11.28073999905655
 30
0.0
 10
7.888898277879333
 20
11.28073678876307
 30
0.0
  0
SPLINE
  5
103
330
1F
100
AcDbEntity
  8
0
  6
Continuous
 62
     7
370
    25
100
AcDbSpline
210
0.0
220
0.0
230
1.0
 70
    11
 71
     3
 72
    45
 73
    41
 74
     0
 42
0.00000001
 43
0.00000001
 40
0.0
 40
0.0
 40
0.0
 40
0.0
 40
0.023717539994847
 40
0.0474321274804076
 40
0.0737704074114314
 40
0.1001058302052733
 40
0.1256831926192602
 40
0.1512613530838357
 40
0.1766109339556011
 40
0.2019638704002146
 40
0.2277790104241775
 40
0.2535981923459847
 40
0.2802998405742485
 40
0.3070046344696912
 40
0.3345901097638301
 40
0.3621768307668791
 40
0.390300803086859
 40
0.4184235803193775
 40
0.4465839298029469
 40
0.4747404512680688
 40
0.5024000164995946
 40
0.5300542399531968
 40
0.5567908251397592
 40
0.5835234845596524
 40
0.6093175702390968
 40
0.6351113171116105
 40
0.6604538350684873
 40
0.6857990961317777
 40
0.7114024556147792
 40
0.7370098334383365
 40
0.7634096901586948
 40
0.7898131155645032
 40
0.8171426391285832
 40
0.8444740854076965
 40
0.8724773226205992
 40
0.9004801841984598
 40
0.9286871977639627
 40
0.9568911912208145
 40
0.9784464809507006
 40
1.0
 40
1.0
 40
1.0
 40
1.0
 10
7.910052289143963
 20
9.569315399742639
 30
0.0
 10
7.907380342038582
 20
9.571989541434816
 30
0.0
 10
7.902036780448682
 20
9.577337491925107
 30
0.0
 10
7.895709766378078
 20
9.586927860902417
 30
0.0
 10
7.891060900726986
 20
9.59765204558539
 30
0.0
 10
7.888576895561556
 20
9.609270075380268
 30
0.0
 10
7.888494649861149
 20
9.621047047210752
 30
0.0
 10
7.890637837794773
 20
9.632603735024613
 30
0.0
 10
7.895001082166335
 20
9.643711375260127
 30
0.0
 10
7.901365369069548
 20
9.654147436253972
 30
0.0
 10
7.909662179705187
 20
9.66361155845505
 30
0.0
 10
7.919718516253423
 20
9.67196491684676
 30
0.0
 10
7.931315972620421
 20
9.678829257043533
 30
0.0
 10
7.944266497412987
 20
9.68408263339973
 30
0.0
 10
7.958162842019637
 20
9.687374071587376
 30
0.0
 10
7.972714107079056
 20
9.688628306398414
 30
0.0
 10
7.987388451747642
 20
9.68764373040407
 30
0.0
 10
8.001782289286117
 20
9.684483454052835
 30
0.0
 10
8.015362530923396
 20
9.679147181724272
 30
0.0
 10
8.027690724083659
 20
9.671906577066107
 30
0.0
 10
8.0383404517204
 20
9.662932262941002
 30
0.0
 10
8.046978023407405
 20
9.65270103054073
 30
0.0
 10
8.053350688426223
 20
9.641469405508383
 30
0.0
 10
8.057372029553349
 20
9.62979150851026
 30
0.0
 10
8.058953315577043
 20
9.617907676563183
 30
0.0
 10
8.05824686976622
 20
9.60625165872519
 30
0.0
 10
8.055242351681663
 20
9.595028241694646
 30
0.0
 10
8.050167126077762
 20
9.584471435808634
 30
0.0
 10
8.043060608058484
 20
9.574823441132475
 30
0.0
 10
8.034108934211746
 20
9.566193117457763
 30
0.0
 10
8.023474309110146
 20
9.558890821520976
 30
0.0
 10
8.011329045838336
 20
9.552996124832463
 30
0.0
 10
7.998022437788584
 20
9.548821425326373
 30
0.0
 10
7.983807009306329
 20
9.546434098593435
 30
0.0
 10
7.969186553636129
 20
9.54604919916363
 30
0.0
 10
7.954536665762705
 20
9.547664309848939
 30
0.0
 10
7.940392655802593
 20
9.551334632735761
 30
0.0
 10
7.928221271813659
 20
9.55652450983484
 30
0.0
 10
7.918033648761347
 20
9.562586110606333
 30
0.0
 10
7.91271266949725
 20
9.567072364787691
 30
0.0
 10
7.910052289143963
 20
9.569315399742639
 30
0.0
  0
SPLINE
  5
104
330
1F
100
AcDbEntity
  8
0
  6
Continuous
 62
     7
370
    25
100
AcDbSpline
210
0.0
220
0.0
230
1.0
 70
     8
 71
     3
 72
    15
 73
    11
 74
     0
 42
0.00000001
 43
0.00000001
 40
0.0
 40
0.0
 40
0.0
 40
0.0
 40
0.1283895262065834
 40
0.2567798449803076
 40
0.3851607667335334
 40
0.5135428244277702
 40
0.6420992432614752
 40
0.7706553737516941
 40
0.8993284282929286
 40
1.0
 40
1.0
 40
1.0
 40
1.0
 10
7.973622788489048
 20
9.595484740939703
 30
0.0
 10
7.977440952642773
 20
9.595642918746849
 30
0.0
 10
7.985077304520307
 20
9.595959275337597
 30
0.0
 10
7.996212295853482
 20
9.598433261159105
 30
0.0
 10
8.00669354110828
 20
9.60234961266926
 30
0.0
 10
8.016256521130801
 20
9.607702052324447
 30
0.0
 10
8.024606322974778
 20
9.614365982409053
 30
0.0
 10
8.03148756625285
 20
9.622154882737478
 30
0.0
 10
8.036519499507664
 20
9.63019780745422
 30
0.0
 10
8.038379896885566
 20
9.635826155177083
 30
0.0
 10
8.039196524382346
 20
9.638296736767082
 30
0.0
  0
SPLINE
  5
105
330
1F
100
AcDbEntity
  8
0
  6
Continuous
 62
     7
370
    25
100
AcDbSpline
210
0.0
220
0.0
230
1.0
 70
     8
 71
     3
 72
    15
 73
    11
 74
     0
 42
0.00000001
 43
0.00000001
 40
0.0
 40
0.0
 40
0.0
 40
0.0
 40
0.075421508111021
 40
0.202317181806643
 40
0.3292139590971585
 40
0.456348527375224
 40
0.5834827809565538
 40
0.710727057395151
 40
0.8379700722240301
 40
1.0
 40
1.0
 40
1.0
 40
1.0
 10
7.907866778012075
 20
9.6391492697879
 30
0.0
 10
7.908388716411034
 20
9.637253165674325
 30
0.0
 10
7.909788809151138
 20
9.632166891874208
 30
0.0
 10
7.914141215780191
 20
9.624526334107674
 30
0.0
 10
7.920516410425363
 20
9.616443365977638
 30
0.0
 10
7.928512518036909
 20
9.609469605435754
 30
0.0
 10
7.937747583539247
 20
9.603701241865496
 30
0.0
 10
7.948033259734316
 20
9.59939496863749
 30
0.0
 10
7.960034561401574
 20
9.596175813348987
 30
0.0
 10
7.968744247717239
 20
9.595732854612168
 30
0.0
 10
7.973622788489048
 20
9.595484740939703
 30
0.0
  0
LWPOLYLINE
  5
106
330
1F
100
AcDbEntity
  8
0
  6
Continuous
 62
     7
370
    25
100
AcDbPolyline
 90
       51
 70
   128
 43
0.0
 10
7.9736227885
 20
9.5653666248
 10
7.9821454484
 20
9.5658309879
 10
7.9905337008
 20
9.5672167539
 10
7.9986552581
 20
9.5695020684
 10
8.0063820383
 20
9.5726508907
 10
8.0135921856
 20
9.576613562
 10
8.0201719917
 20
9.5813275885
 10
8.026017689
 20
9.5867186272
 10
8.0310370874
 20
9.5927016584
 10
8.0351510281
 20
9.5991823258
 10
8.0382946316
 20
9.6060584257
 10
8.0404183215
 20
9.6132215177
 10
8.041488606
 20
9.6205586357
 10
8.041488606
 20
9.6279540689
 10
8.0404183215
 20
9.6352911868
 10
8.0382946316
 20
9.6424542789
 10
8.0351510281
 20
9.6493303787
 10
8.0310370874
 20
9.6558110462
 10
8.026017689
 20
9.6617940773
 10
8.0201719917
 20
9.6671851161
 10
8.0135921856
 20
9.6718991426
 10
8.0063820383
 20
9.6758618138
 10
7.9986552581
 20
9.6790106361
 10
7.9905337008
 20
9.6812959507
 10
7.9821454484
 20
9.6826817166
 10
7.9736227885
 20
9.6831460797
 10
7.9651001286
 20
9.6826817166
 10
7.9567118762
 20
9.6812959507
 10
7.9485903189
 20
9.6790106361
 10
7.9408635387
 20
9.6758618138
 10
7.9336533913
 20
9.6718991426
 10
7.9270735853
 20
9.6671851161
 10
7.921227888
 20
9.6617940773
 10
7.9162084896
 20
9.6558110462
 10
7.9120945489
 20
9.6493303787
 10
7.9089509454
 20
9.6424542789
 10
7.9068272554
 20
9.6352911868
 10
7.905756971
 20
9.6279540689
 10
7.905756971
 20
9.6205586357
 10
7.9068272554
 20
9.6132215177
 10
7.9089509454
 20
9.6060584257
 10
7.9120945489
 20
9.5991823258
 10
7.9162084896
 20
9.5927016584
 10
7.921227888
 20
9.5867186272
 10
7.9270735853
 20
9.5813275885
 10
7.9336533913
 20
9.576613562
 10
7.9408635387
 20
9.5726508907
 10
7.9485903189
 20
9.5695020684
 10
7.9567118762
 20
9.5672167539
 10
7.9651001286
 20
9.5658309879
 10
7.9736227885
 20
9.5653666248
  0
LINE
  5
107
330
1F
100
AcDbEntity
  8
0
  6
Continuous
 62
     7
370
    25
100
AcDbLine
 10
9.4636227885
 20
7.6557563523
 30
0.0
 11
9.4636227885
 21
12.6857563523
 31
0.0
  0
LINE
  5
108
330
1F
100
AcDbEntity
  8
0
  6
Continuous
 62
     7
370
    25
100
AcDbLine
 10
9.1366227885
 20
12.6857563523
 30
0.0
 11
9.1366227885
 21
7.6557563523
 31
0.0
  0
DIMENSION
  5
109
330
1F
100
AcDbEntity
  8
0
  6
Continuous
 62
     7
370
    18
100
AcDbDimension
  2
_D
 10
9.1066227885
 20
13.4731579271
 30
0.0
 11
6.7416227885
 21
13.4731579271
 31
0.0
 70
   160
  1
<>
 71
     2
 42
-1.0
  3
SLDDIMSTYLE0
100
AcDbAlignedDimension
 13
4.3766227885
 23
10.5207563523
 33
0.0
 14
9.1066227885
 24
12.6557563523
 34
0.0
 50
0.0
100
AcDbRotatedDimension
  0
DIMENSION
  5
11F
330
1F
100
AcDbEntity
  8
0
  6
Continuous
 62
     7
370
    18
100
AcDbDimension
  2
_D_1
 10
10.4936227885
 20
13.4731579271
 30
0.0
 11
9.8001227885
 21
13.4731579271
 31
0.0
 70
   160
  1
<>
 71
     2
 42
-1.0
  3
SLDDIMSTYLE1
100
AcDbAlignedDimension
 13
9.1066227885
 23
12.5757563523
 33
0.0
 14
10.4936227885
 24
10.1707563523
 34
0.0
100
AcDbRotatedDimension
  0
DIMENSION
  5
134
330
1F
100
AcDbEntity
  8
SLD-0
100
AcDbDimension
  2
_D_2
 10
1.8392212137
 20
9.0607563523
 30
0.0
 11
1.8392212137
 21
10.1707563523
 31
0.0
 70
   160
  1
%%c<>
 71
     2
 42
-1.0
  3
SLDDIMSTYLE0
100
AcDbAlignedDimension
 13
5.4066227885
 23
11.2807563523
 33
0.0
 14
5.4066227885
 24
9.0607563523
 34
0.0
 50
90.0
100
AcDbRotatedDimension
  0
SPLINE
  5
147
330
1F
100
AcDbEntity
  8
0
  6
Continuous
 62
     7
370
    25
100
AcDbSpline
210
0.0
220
0.0
230
1.0
 70
     8
 71
     3
 72
   104
 73
   100
 74
     0
 42
0.00000001
 43
0.00000001
 40
0.0
 40
0.0
 40
0.0
 40
0.0
 40
0.0080854357721218
 40
0.0183131180452379
 40
0.028543556565541
 40
0.0387779491527038
 40
0.0490173766725674
 40
0.0592627764829255
 40
0.0695149229666114
 40
0.0797744157000738
 40
0.090041675280248
 40
0.1003169463471136
 40
0.1106003069354037
 40
0.1208916829936383
 40
0.1311908667370472
 40
0.1414975374520316
 40
0.1518112834300112
 40
0.1621316238552636
 40
0.1724580296766256
 40
0.1827899427275722
 40
0.1931267925978751
 40
0.2034680109815268
 40
0.2138130434162532
 40
0.2241613584817106
 40
0.2345124546346715
 40
0.2448658649320553
 40
0.2552211599319793
 40
0.2655779490752881
 40
0.275935880842051
 40
0.2862946419561548
 40
0.2966539558808191
 40
0.3070135808143624
 40
0.3173732869021855
 40
0.3277328613942385
 40
0.3380921606780795
 40
0.3484510650231267
 40
0.3588094761184266
 40
0.3691673147403408
 40
0.3795245185749645
 40
0.3898810402086935
 40
0.4002368452923267
 40
0.4105919108778119
 40
0.4209462239224314
 40
0.4312997799522015
 40
0.4416525818744362
 40
0.4520046389282947
 40
0.462355965761764
 40
0.4727065816234706
 40
0.4830565096581003
 40
0.4934057762947237
 40
0.5037544107179623
 40
0.5141024444127588
 40
0.5244499107741901
 40
0.5347968447745592
 40
0.5451432826808259
 40
0.555489261815965
 40
0.5658348203586756
 40
0.5761799971763465
 40
0.5865248316867737
 40
0.5968693637445706
 40
0.6072136335487102
 40
0.6175576815679533
 40
0.6279015484812278
 40
0.6382452751304483
 40
0.648588902483261
 40
0.6589324716036014
 40
0.6692760236280119
 40
0.6796195963815778
 40
0.6899632207212094
 40
0.7003069378947058
 40
0.710650789154513
 40
0.7209948157355914
 40
0.7313390588289662
 40
0.7416835595484582
 40
0.7520283588884901
 40
0.7623734976706341
 40
0.7727190164763761
 40
0.7830649555633598
 40
0.7934113547619716
 40
0.8037582533488032
 40
0.8141056898932216
 40
0.8244537020725814
 40
0.834802326451354
 40
0.8451515982186485
 40
0.8555015508781034
 40
0.8658522158833376
 40
0.8762036222114932
 40
0.8865557958665526
 40
0.89690875930335
 40
0.9072625307623953
 40
0.9176171235049285
 40
0.9279725449368661
 40
0.9383287956099389
 40
0.948685868087988
 40
0.9590437456665792
 40
0.9694024009347294
 40
0.9797617941689838
 40
0.990121871552226
 40
0.9999999999999999
 40
0.9999999999999999
 40
0.9999999999999999
 40
0.9999999999999999
 10
14.32619719918994
 20
14.9291621216241
 30
0.0
 10
14.31850850685749
 20
14.92398325861657
 30
0.0
 10
14.30109399337099
 20
14.91225338625469
 30
0.0
 10
14.2748558715736
 20
14.892522880194
 30
0.0
 10
14.24733925070626
 20
14.8702468481655
 30
0.0
 10
14.2206361481833
 20
14.84673855621457
 30
0.0
 10
14.19473192785811
 20
14.82205781342584
 30
0.0
 10
14.16964897066204
 20
14.79620450744163
 30
0.0
 10
14.14539954014475
 20
14.76919544246241
 30
0.0
 10
14.12199839478971
 20
14.74104382580706
 30
0.0
 10
14.09945935883555
 20
14.71176484648423
 30
0.0
 10
14.07779617834736
 20
14.68137423959826
 30
0.0
 10
14.05702221621321
 20
14.64988871199775
 30
0.0
 10
14.03715045219286
 20
14.61732584726306
 30
0.0
 10
14.01819339994511
 20
14.58370412924103
 30
0.0
 10
14.00016304975898
 20
14.54904291440463
 30
0.0
 10
13.98307081157624
 20
14.51336240140965
 30
0.0
 10
13.96692746783758
 20
14.47668358840648
 30
0.0
 10
13.95174313523206
 20
14.43902822446168
 30
0.0
 10
13.93752723622345
 20
14.40041875713886
 30
0.0
 10
13.92428847988433
 20
14.36087827909567
 30
0.0
 10
13.91203485126087
 20
14.32043047580148
 30
0.0
 10
13.90077360811584
 20
14.27909957604787
 30
0.0
 10
13.8905112837392
 20
14.23691030638547
 30
0.0
 10
13.88125369447149
 20
14.19388785015064
 30
0.0
 10
13.87300595064585
 20
14.15005781133803
 30
0.0
 10
13.8657724697833
 20
14.10544618325267
 30
0.0
 10
13.85955699104493
 20
14.06007932163817
 30
0.0
 10
13.85436259013078
 20
14.01398392182048
 30
0.0
 10
13.85019169399959
 20
13.96718699931747
 30
0.0
 10
13.84704609495468
 20
13.91971587333131
 30
0.0
 10
13.84492696518597
 20
13.87159818421924
 30
0.0
 10
13.84383486552954
 20
13.82286190335442
 30
0.0
 10
13.84376975016846
 20
13.77353525881023
 30
0.0
 10
13.84473097946272
 20
13.72364669154939
 30
0.0
 10
13.84671733497925
 20
13.67322482287993
 30
0.0
 10
13.84972702802676
 20
13.62229851206093
 30
0.0
 10
13.85375770577093
 20
13.57089684682676
 30
0.0
 10
13.85880645656516
 20
13.51904913362277
 30
0.0
 10
13.86486981463348
 20
13.46678488743792
 30
0.0
 10
13.87194376423744
 20
13.41413382115461
 30
0.0
 10
13.88002374345093
 20
13.3611258343663
 30
0.0
 10
13.88910464765696
 20
13.30779100163848
 30
0.0
 10
13.89918083286847
 20
13.25415956020672
 30
0.0
 10
13.91024611896436
 20
13.20026189712084
 30
0.0
 10
13.92229379291971
 20
13.14612853585471
 30
0.0
 10
13.93531661209876
 20
13.09179012240911
 30
0.0
 10
13.94930680766875
 20
13.03727741094041
 30
0.0
 10
13.96425608818362
 20
12.98262124895143
 30
0.0
 10
13.98015564337821
 20
12.92785256208247
 30
0.0
 10
13.99699614820622
 20
12.87300233854161
 30
0.0
 10
14.01476776714895
 20
12.81810161321303
 30
0.0
 10
14.03346015881581
 20
12.76318145148175
 30
0.0
 10
14.05306248085318
 20
12.70827293281177
 30
0.0
 10
14.07356339517382
 20
12.65340713411359
 30
0.0
 10
14.09495107351545
 20
12.59861511293534
 30
0.0
 10
14.11721320333428
 20
12.54392789051017
 30
0.0
 10
14.14033699403649
 20
12.48937643469112
 30
0.0
 10
14.1643091835488
 20
12.43499164280303
 30
0.0
 10
14.189116045227
 20
12.38080432443955
 30
0.0
 10
14.21474339510025
 20
12.32684518423186
 30
0.0
 10
14.24117659944732
 20
12.27314480461478
 30
0.0
 10
14.26840058269974
 20
12.21973362861413
 30
0.0
 10
14.29639983566633
 20
12.16664194267877
 30
0.0
 10
14.32515842407202
 20
12.11389985957944
 30
0.0
 10
14.35465999740366
 20
12.06153730139576
 30
0.0
 10
14.38488779477739
 20
12.00958398824448
 30
0.0
 10
14.41582464696812
 20
11.95806943286861
 30
0.0
 10
14.44745299545082
 20
11.90702290604481
 30
0.0
 10
14.47975490611245
 20
11.85647341454055
 30
0.0
 10
14.51271208763065
 20
11.80644967392061
 30
0.0
 10
14.54630589163915
 20
11.75698010968742
 30
0.0
 10
14.58051732346435
 20
11.70809284143261
 30
0.0
 10
14.61532705308609
 20
11.65981566722529
 30
0.0
 10
14.65071542630713
 20
11.61217604825644
 30
0.0
 10
14.68666247611612
 20
11.56520109375666
 30
0.0
 10
14.7231479342273
 20
11.5189175462048
 30
0.0
 10
14.76015124277866
 20
11.47335176684442
 30
0.0
 10
14.79765156616873
 20
11.42852972152498
 30
0.0
 10
14.83562780301035
 20
11.38447696688405
 30
0.0
 10
14.87405859817746
 20
11.34121863688666
 30
0.0
 10
14.9129223549189
 20
11.29877942973663
 30
0.0
 10
14.95219724701026
 20
11.257183595175
 30
0.0
 10
14.99186123091217
 20
11.21645492217579
 30
0.0
 10
15.03189205790009
 20
11.17661672706062
 30
0.0
 10
15.0722672861268
 20
11.13769184200438
 30
0.0
 10
15.11296429257685
 20
11.09970260407676
 30
0.0
 10
15.15396028486047
 20
11.0626708443069
 30
0.0
 10
15.19523231281991
 20
11.0266178786965
 30
0.0
 10
15.23675727980489
 20
10.9915644939844
 30
0.0
 10
15.27851195388763
 20
10.95753095498829
 30
0.0
 10
15.32047297772283
 20
10.92453693332789
 30
0.0
 10
15.36261688158108
 20
10.89260173140016
 30
0.0
 10
15.40492008233132
 20
10.86174340597946
 30
0.0
 10
15.44735893232944
 20
10.83198200039729
 30
0.0
 10
15.48990957915449
 20
10.80332744267939
 30
0.0
 10
15.53254852813459
 20
10.77582467828347
 30
0.0
 10
15.57458756885424
 20
10.74979568863856
 30
0.0
 10
15.60241984391391
 20
10.73351521729035
 30
0.0
 10
15.61600458508754
 20
10.7255688317011
 30
0.0
  0
SPLINE
  5
148
330
1F
100
AcDbEntity
  8
0
  6
Continuous
 62
     7
370
    25
100
AcDbSpline
210
0.0
220
0.0
230
1.0
 70
     8
 71
     3
 72
    39
 73
    35
 74
     0
 42
0.00000001
 43
0.00000001
 40
0.0
 40
0.0
 40
0.0
 40
0.0
 40
0.0168891528969797
 40
0.0489471252907524
 40
0.0810071766336135
 40
0.1130678903602395
 40
0.1451286135397433
 40
0.177188627507578
 40
0.2092471802591089
 40
0.2413034102487253
 40
0.2733563397981309
 40
0.3054048700175304
 40
0.3374477778845762
 40
0.3694837162425668
 40
0.4015112175782614
 40
0.433528702513479
 40
0.4655344939772079
 40
0.4975268379948521
 40
0.5295039319170797
 40
0.5614639606904869
 40
0.5934051414284093
 40
0.6253257760642555
 40
0.6572243112654882
 40
0.6890994040779258
 40
0.7209499910011447
 40
0.7527753574339591
 40
0.7845752037590986
 40
0.8163497038544723
 40
0.8480995516181947
 40
0.8798259912527089
 40
0.9115308276135737
 40
0.9432164138903225
 40
0.9748856151997332
 40
1.0
 40
1.0
 40
1.0
 40
1.0
 10
15.61600458508754
 20
10.7255688317011
 30
0.0
 10
15.62351240872857
 20
10.72126776957728
 30
0.0
 10
15.64527113083024
 20
10.7088026904853
 30
0.0
 10
15.68128618893609
 20
10.6890774555378
 30
0.0
 10
15.72402416187233
 20
10.66679712415225
 30
0.0
 10
15.7667190544178
 20
10.6457438570809
 30
0.0
 10
15.80934570166544
 20
10.62591061017052
 30
0.0
 10
15.85187981880862
 20
10.60731504695321
 30
0.0
 10
15.89429697727997
 20
10.58996727523997
 30
0.0
 10
15.9365727673006
 20
10.57387853722977
 30
0.0
 10
15.97868272317893
 20
10.55905887508921
 30
0.0
 10
16.02060233914504
 20
10.5455177341908
 30
0.0
 10
16.06230707118152
 20
10.53326377236648
 30
0.0
 10
16.10377234567688
 20
10.52230487878074
 30
0.0
 10
16.14497357041602
 20
10.51264813374022
 30
0.0
 10
16.18588615029025
 20
10.50429978188081
 30
0.0
 10
16.22648550829571
 20
10.49726520010126
 30
0.0
 10
16.2667471128128
 20
10.49154886637612
 30
0.0
 10
16.30664651187514
 20
10.48715432933746
 30
0.0
 10
16.34615937488982
 20
10.48408418060452
 30
0.0
 10
16.38526154191409
 20
10.48234003155997
 30
0.0
 10
16.42392907991248
 20
10.48192249689846
 30
0.0
 10
16.46213834542377
 20
10.48283118614128
 30
0.0
 10
16.49986605003826
 20
10.48506470851742
 30
0.0
 10
16.53708933310626
 20
10.48862068017907
 30
0.0
 10
16.57378581295878
 20
10.49349578213304
 30
0.0
 10
16.60993370862397
 20
10.49968569283271
 30
0.0
 10
16.64551167209301
 20
10.50718555196202
 30
0.0
 10
16.68049965507203
 20
10.51598850348526
 30
0.0
 10
16.71487585795174
 20
10.52609144817075
 30
0.0
 10
16.74862820842086
 20
10.53747395347616
 30
0.0
 10
16.78171158323716
 20
10.55017725558879
 30
0.0
 10
16.81196983791844
 20
10.56305761417432
 30
0.0
 10
16.8308754671114
 20
10.57229460164515
 30
0.0
 10
16.83923709551447
 20
10.57637995929216
 30
0.0
  0
LINE
  5
149
330
1F
100
AcDbEntity
  8
0
  6
Continuous
 62
     7
370
    25
100
AcDbLine
 10
14.6048294772
 20
15.0922498303
 30
0.0
 11
14.3736055598
 21
14.958767104
 31
0.0
  0
LINE
  5
14A
330
1F
100
AcDbEntity
  8
0
  6
Continuous
 62
     7
370
    25
100
AcDbLine
 10
16.8884011724
 20
10.6025413262
 30
0.0
 11
17.1196250898
 21
10.7360240525
 31
0.0
  0
SPLINE
  5
14B
330
1F
100
AcDbEntity
  8
0
  6
Continuous
 62
     7
370
    25
100
AcDbSpline
210
0.0
220
0.0
230
1.0
 70
     8
 71
     3
 72
   137
 73
   133
 74
     0
 42
0.00000001
 43
0.00000001
 40
0.0
 40
0.0
 40
0.0
 40
0.0
 40
0.0010079044656511
 40
0.0087240996015534
 40
0.016441643608025
 40
0.0241614911057672
 40
0.0318845267892978
 40
0.0396115418457066
 40
0.0473432151434886
 40
0.0550800999048338
 40
0.0628226161788827
 40
0.0705710490411256
 40
0.0783255520902297
 40
0.0860861555267985
 40
0.0938527778977414
 40
0.1016252404830219
 40
0.1094032832856818
 40
0.1171865816489813
 40
0.124974762647738
 40
0.1327674205631304
 40
0.1405641309296838
 40
0.1483644628213576
 40
0.156167989205979
 40
0.1639742953343951
 40
0.1717829852379258
 40
0.1795936864843058
 40
0.1874060533906596
 40
0.195219768916356
 40
0.2030345454636556
 40
0.2108501248053477
 40
0.2186662773402996
 40
0.2264828008543725
 40
0.2342995189381206
 40
0.2421162533947028
 40
0.2499328607934016
 40
0.2577492372742139
 40
0.2655652965431558
 40
0.2733809680357313
 40
0.2811961951837922
 40
0.2890109338022975
 40
0.2968251506043763
 40
0.3046388218475878
 40
0.3124519321097209
 40
0.320264473189624
 40
0.3280764431264612
 40
0.335887845329537
 40
0.3436986878101497
 40
0.351508982506739
 40
0.3593187446946204
 40
0.3671279924718948
 40
0.3749367463136042
 40
0.3827450286866594
 40
0.3905528637187088
 40
0.3983602769146052
 40
0.4061672949148161
 40
0.4139739452905623
 40
0.4217802563710989
 40
0.4295862570989391
 40
0.4373919769093252
 40
0.4451974456306245
 40
0.4530026934026911
 40
0.4608077506105526
 40
0.4686126478310444
 40
0.4764174157902615
 40
0.4842220853298947
 40
0.492026687380696
 40
0.4998312529414449
 40
0.5076358130618865
 40
0.5154403938019056
 40
0.5232450209371114
 40
0.5310497255925803
 40
0.5388545388931065
 40
0.5466594919458899
 40
0.5544646158194678
 40
0.5622699415171769
 40
0.5700754999434052
 40
0.5778813218609753
 40
0.5856874378376024
 40
0.593493878179354
 40
0.601300672848694
 40
0.6091078513644076
 40
0.6169154426804538
 40
0.6247234750403633
 40
0.6325319758034337
 40
0.6403409712384789
 40
0.6481504862804819
 40
0.6559605442448392
 40
0.6637711664934631
 40
0.6715823720462906
 40
0.679394177131231
 40
0.6872065946649474
 40
0.6950196336563299
 40
0.702833298524061
 40
0.7106475883193418
 40
0.7184624958447019
 40
0.7262780066600343
 40
0.7340940979676436
 40
0.7419107373691597
 40
0.7497278814893371
 40
0.7575454744644637
 40
0.7653634462975272
 40
0.7731817110878899
 40
0.7810001651508767
 40
0.7888186664055915
 40
0.7966370349659178
 40
0.8044550935901467
 40
0.8122726387494176
 40
0.8200894389516422
 40
0.8279052334013385
 40
0.8357197311449787
 40
0.843532610881316
 40
0.8513435216411105
 40
0.8591520845604997
 40
0.8669578959830437
 40
0.8747605321222943
 40
0.8825595554943129
 40
0.890354523282476
 40
0.8981449977206614
 40
0.9059305584725276
 40
0.9137108168444658
 40
0.9214854315023843
 40
0.9292541251771703
 40
0.937016701655747
 40
0.944773062183872
 40
0.9525232202760916
 40
0.960267313861091
 40
0.9680056137069231
 40
0.9757385271831815
 40
0.9834665966290024
 40
0.9911904918970723
 40
0.9989109970132161
 40
1.0
 40
1.0
 40
1.0
 40
1.0
 10
17.16412887437473
 20
10.76365400706226
 30
0.0
 10
17.16541931765518
 20
10.76447625925857
 30
0.0
 10
17.17658898312698
 20
10.77159341202721
 30
0.0
 10
17.19692834042629
 20
10.78617628592014
 30
0.0
 10
17.22507528958546
 20
10.80747083125727
 30
0.0
 10
17.25236974543887
 20
10.83009009663956
 30
0.0
 10
17.27888991717072
 20
10.85386861794893
 30
0.0
 10
17.30459623889224
 20
10.87883541257407
 30
0.0
 10
17.32948090742354
 20
10.90496658101475
 30
0.0
 10
17.35352779919004
 20
10.93225154034101
 30
0.0
 10
17.37672324961656
 20
10.96067517702281
 30
0.0
 10
17.39905321365544
 20
10.99022255940493
 30
0.0
 10
17.42050409430405
 20
11.02087761775791
 30
0.0
 10
17.44106259777272
 20
11.05262346283241
 30
0.0
 10
17.46071585484814
 20
11.0854422863984
 30
0.0
 10
17.47945147086508
 20
11.11931539473838
 30
0.0
 10
17.49725759040755
 20
11.15422322525099
 30
0.0
 10
17.51412295012178
 20
11.19014538331532
 30
0.0
 10
17.53003692432613
 20
11.22706068581126
 30
0.0
 10
17.54498956077657
 20
11.26494721110959
 30
0.0
 10
17.5589716068923
 20
11.30378235188907
 30
0.0
 10
17.57197452677381
 20
11.34354286846595
 30
0.0
 10
17.58399050995616
 20
11.38420494053245
 30
0.0
 10
17.59501247308502
 20
11.42574421578964
 30
0.0
 10
17.60503405585202
 20
11.46813585445203
 30
0.0
 10
17.61404961253637
 20
11.51135456906719
 30
0.0
 10
17.62205420042131
 20
11.55537465947919
 30
0.0
 10
17.6290435662131
 20
11.60017004306693
 30
0.0
 10
17.63501413141477
 20
11.64571428060533
 30
0.0
 10
17.63996297741987
 20
11.69198059823707
 30
0.0
 10
17.64388783090944
 20
11.73894190611768
 30
0.0
 10
17.64678704996891
 20
11.78657081431703
 30
0.0
 10
17.64865960913789
 20
11.83483959346509
 30
0.0
 10
17.64950509433531
 20
11.88372020954758
 30
0.0
 10
17.64932369532512
 20
11.93318437445278
 30
0.0
 10
17.64811619183199
 20
11.98320361206642
 30
0.0
 10
17.64588393981768
 20
12.03374924309188
 30
0.0
 10
17.64262886395497
 20
12.08479235253806
 30
0.0
 10
17.63835345171336
 20
12.13630379925196
 30
0.0
 10
17.63306074819619
 20
12.18825422577045
 30
0.0
 10
17.6267543515934
 20
12.24061406859765
 30
0.0
 10
17.61943840911979
 20
12.29335356897939
 30
0.0
 10
17.61111761331684
 20
12.34644278421775
 30
0.0
 10
17.60179719860719
 20
12.39985159954537
 30
0.0
 10
17.59148293800195
 20
12.45354974056168
 30
0.0
 10
17.58018113987292
 20
12.50750678621908
 30
0.0
 10
17.5678986447131
 20
12.56169218233773
 30
0.0
 10
17.55464282181967
 20
12.61607525561957
 30
0.0
 10
17.54042156584351
 20
12.67062522812823
 30
0.0
 10
17.52524329315832
 20
12.72531123219769
 30
0.0
 10
17.50911693801076
 20
12.7801023257314
 30
0.0
 10
17.49205194841958
 20
12.83496750785288
 30
0.0
 10
17.47405828179868
 20
12.88987573486888
 30
0.0
 10
17.45514640028382
 20
12.94479593650728
 30
0.0
 10
17.4353272657478
 20
12.9996970323926
 30
0.0
 10
17.41461233449266
 20
13.05454794872402
 30
0.0
 10
17.39301355161112
 20
13.10931763512163
 30
0.0
 10
17.37054334501208
 20
13.16397508160888
 30
0.0
 10
17.34721461910772
 20
13.21848933570022
 30
0.0
 10
17.32304074816168
 20
13.27282951956493
 30
0.0
 10
17.29803556929961
 20
13.32696484723923
 30
0.0
 10
17.27221337518479
 20
13.38086464186048
 30
0.0
 10
17.24558890636292
 20
13.43449835289819
 30
0.0
 10
17.21817734328119
 20
13.48783557335794
 30
0.0
 10
17.18999429798768
 20
13.54084605693529
 30
0.0
 10
17.16105580551812
 20
13.59349973509782
 30
0.0
 10
17.13137831497763
 20
13.64576673407352
 30
0.0
 10
17.10097868685144
 20
13.69761738059577
 30
0.0
 10
17.06987418474481
 20
13.74902221849335
 30
0.0
 10
17.03808245916031
 20
13.7999520375776
 30
0.0
 10
17.00562153015795
 20
13.85037790088959
 30
0.0
 10
16.97250977575637
 20
13.90027116105301
 30
0.0
 10
16.93876592846135
 20
13.9496034645799
 30
0.0
 10
16.90440906447403
 20
13.99834676766402
 30
0.0
 10
16.86945859267876
 20
14.04647335173267
 30
0.0
 10
16.83393424342562
 20
14.09395583873826
 30
0.0
 10
16.7978560571235
 20
14.1407672061723
 30
0.0
 10
16.76124437266063
 20
14.18688080178439
 30
0.0
 10
16.72411981567121
 20
14.23227035798929
 30
0.0
 10
16.68650328666852
 20
14.2769100059454
 30
0.0
 10
16.64841594906654
 20
14.32077428928815
 30
0.0
 10
16.6098792171146
 20
14.36383817750271
 30
0.0
 10
16.57091474377169
 20
14.40607707892102
 30
0.0
 10
16.53154440855006
 20
14.44746685332901
 30
0.0
 10
16.49179030536047
 20
14.48798382417147
 30
0.0
 10
16.4516747303949
 20
14.52760479034341
 30
0.0
 10
16.41122017008602
 20
14.56630703755947
 30
0.0
 10
16.37044928918678
 20
14.60406834929513
 30
0.0
 10
16.32938491901727
 20
14.64086701729775
 30
0.0
 10
16.28805004593066
 20
14.67668185166959
 30
0.0
 10
16.24646780005415
 20
14.71149219053051
 30
0.0
 10
16.20466144436541
 20
14.74527790927535
 30
0.0
 10
16.1626543641688
 20
14.77801942944905
 30
0.0
 10
16.12047005703948
 20
14.80969772727265
 30
0.0
 10
16.07813212330603
 20
14.84029434186575
 30
0.0
 10
16.03566425714357
 20
14.86979138322479
 30
0.0
 10
15.99309023834845
 20
14.89817154003341
 30
0.0
 10
15.9504339248626
 20
14.92541808740013
 30
0.0
 10
15.9077192461081
 20
14.95151489463986
 30
0.0
 10
15.86497019718094
 20
14.97644643324007
 30
0.0
 10
15.82221083393481
 20
15.0001977851777
 30
0.0
 10
15.77946526896102
 20
15.02275465177988
 30
0.0
 10
15.73675770238549
 20
15.04410334637765
 30
0.0
 10
15.69411244841074
 20
15.06423079651016
 30
0.0
 10
15.65155388474136
 20
15.08312458727301
 30
0.0
 10
15.6091064178962
 20
15.10077298962585
 30
0.0
 10
15.56679445398055
 20
15.11716498262235
 30
0.0
 10
15.52464244579799
 20
15.13229024831039
 30
0.0
 10
15.48267488981105
 20
15.14613919217293
 30
0.0
 10
15.4409163214701
 20
15.15870296602534
 30
0.0
 10
15.3993913081536
 20
15.16997349337515
 30
0.0
 10
15.35812443885611
 20
15.1799434970962
 30
0.0
 10
15.31714030969027
 20
15.18860652906531
 30
0.0
 10
15.27646350424583
 20
15.19595700116069
 30
0.0
 10
15.2361185678915
 20
15.20199021673439
 30
0.0
 10
15.19612997524144
 20
15.20670240135277
 30
0.0
 10
15.15652209023827
 20
15.21009073130204
 30
0.0
 10
15.11731911870601
 20
15.21215335799941
 30
0.0
 10
15.07854505356848
 20
15.21288942649828
 30
0.0
 10
15.04022361406639
 20
15.21229908520119
 30
0.0
 10
15.00237817897321
 20
15.2103834876183
 30
0.0
 10
14.96503172201214
 20
15.20714477367499
 30
0.0
 10
14.92820673038
 20
15.20258606935262
 30
0.0
 10
14.89192519200683
 20
15.19671135497779
 30
0.0
 10
14.8562083490458
 20
15.18952575880964
 30
0.0
 10
14.82107736298785
 20
15.18103420432716
 30
0.0
 10
14.78655063903407
 20
15.17124614218523
 30
0.0
 10
14.75265367722394
 20
15.16015756062926
 30
0.0
 10
14.71938230490563
 20
15.14781768735451
 30
0.0
 10
14.68683982184769
 20
15.13407991230443
 30
0.0
 10
14.6639166401754
 20
15.12369435073298
 30
0.0
 10
14.6520543583851
 20
15.11751772809589
 30
0.0
 10
14.65058798135828
 20
15.11675419392106
 30
0.0
  0
ARC
  5
14C
330
1F
100
AcDbEntity
  8
0
  6
Continuous
 62
     7
370
    25
100
AcDbCircle
 10
15.6186289974
 20
12.7735106441
 30
0.0
 40
1.012499999999998
100
AcDbArc
 50
120.8636979963
 51
180.0
  0
ARC
  5
14D
330
1F
100
AcDbEntity
  8
0
  6
Continuous
 62
     7
370
    25
100
AcDbCircle
 10
15.6186289974
 20
12.7735106441
 30
0.0
 40
1.012499999999999
100
AcDbArc
 50
180.0
 51
206.9739044095
  0
LINE
  5
14E
330
1F
100
AcDbEntity
  8
0
  6
Continuous
 62
     7
370
    25
100
AcDbLine
 10
19.8726674224
 20
15.3736484112
 30
0.0
 11
19.3833975352
 21
15.0911989175
 31
0.0
  0
LINE
  5
14F
330
1F
100
AcDbEntity
  8
0
  6
Continuous
 62
     7
370
    25
100
AcDbLine
 10
19.4803776274
 20
14.8585170178
 30
0.0
 11
19.9976572639
 21
15.1571361956
 31
0.0
  0
LINE
  5
150
330
1F
100
AcDbEntity
  8
0
  6
Continuous
 62
     7
370
    25
100
AcDbLine
 10
20.3040840391
 20
15.5209598915
 30
0.0
 11
19.97644116
 21
15.3318156834
 31
0.0
  0
LINE
  5
151
330
1F
100
AcDbEntity
  8
0
  6
Continuous
 62
     7
370
    25
100
AcDbLine
 10
20.0224137378
 20
15.231341469
 30
0.0
 11
20.3590795694
 21
15.4256945166
 31
0.0
  0
LINE
  5
152
330
1F
100
AcDbEntity
  8
0
  6
Continuous
 62
     7
370
    25
100
AcDbLine
 10
20.2183518981
 20
15.570452003
 30
0.0
 11
19.8860165827
 21
15.3785989091
 31
0.0
  0
LINE
  5
153
330
1F
100
AcDbEntity
  8
0
  6
Continuous
 62
     7
370
    25
100
AcDbLine
 10
20.0217060819
 20
15.1946882742
 30
0.0
 11
20.3162134989
 21
15.3647037871
 31
0.0
  0
LINE
  5
154
330
1F
100
AcDbEntity
  8
0
  6
Continuous
 62
     7
370
    25
100
AcDbLine
 10
20.4896100233
 20
15.6078550504
 30
0.0
 11
20.3329518089
 21
15.5174181882
 31
0.0
  0
LINE
  5
155
330
1F
100
AcDbEntity
  8
0
  6
Continuous
 62
     7
370
    25
100
AcDbLine
 10
20.3704487614
 20
15.4524645235
 30
0.0
 11
20.5271069758
 21
15.5429013857
 31
0.0
  0
LINE
  5
156
330
1F
100
AcDbEntity
  8
0
  6
Continuous
 62
     7
370
    25
100
AcDbLine
 10
20.4038778823
 20
15.6573471619
 30
0.0
 11
20.2472196679
 21
15.5669102997
 31
0.0
  0
LINE
  5
157
330
1F
100
AcDbEntity
  8
0
  6
Continuous
 62
     7
370
    25
100
AcDbLine
 10
20.3206947003
 20
15.5227263385
 30
0.0
 11
20.4413748348
 21
15.5923934972
 31
0.0
  0
LINE
  5
158
330
1F
100
AcDbEntity
  8
0
  6
Continuous
 62
     7
370
    25
100
AcDbLine
 10
20.3275826909
 20
15.391473794
 30
0.0
 11
20.4842409053
 21
15.4819106562
 31
0.0
  0
LINE
  5
159
330
1F
100
AcDbEntity
  8
0
  6
Continuous
 62
     7
370
    25
100
AcDbLine
 10
19.5476065403
 20
14.6852414828
 30
0.0
 11
19.4047196386
 21
15.0535176195
 31
0.0
  0
ARC
  5
15A
330
1F
100
AcDbEntity
  8
0
  6
Continuous
 62
     7
370
    25
100
AcDbCircle
 10
19.2648764465
 20
14.9992600708
 30
0.0
 40
0.1499999999999984
100
AcDbArc
 50
21.2056798701
 51
60.0026882663
  0
LINE
  5
15B
330
1F
100
AcDbEntity
  8
0
  6
Continuous
 62
     7
370
    25
100
AcDbLine
 10
19.3398703514
 20
15.1291674001
 30
0.0
 11
19.0540965481
 21
15.2941411052
 31
0.0
  0
ARC
  5
15C
330
1F
100
AcDbEntity
  8
0
  6
Continuous
 62
     7
370
    25
100
AcDbCircle
 10
19.4077633481
 20
14.630983934
 30
0.0
 40
0.1500000000000021
100
AcDbArc
 50
324.8993285036
 51
0.0
  0
ARC
  5
15D
330
1F
100
AcDbEntity
  8
0
  6
Continuous
 62
     7
370
    25
100
AcDbCircle
 10
19.4077633481
 20
14.630983934
 30
0.0
 40
0.1500000000000021
100
AcDbArc
 50
0.0
 51
21.2056798701
  0
LINE
  5
15E
330
1F
100
AcDbEntity
  8
0
  6
Continuous
 62
     7
370
    25
100
AcDbLine
 10
18.9041087382
 20
15.2941411052
 30
0.0
 11
18.7183605129
 21
15.1869109372
 31
0.0
  0
LINE
  5
15F
330
1F
100
AcDbEntity
  8
0
  6
Continuous
 62
     7
370
    25
100
AcDbLine
 10
19.3875978932
 20
14.3414292763
 30
0.0
 11
19.5304847949
 21
14.544731708
 31
0.0
  0
ARC
  5
160
330
1F
100
AcDbEntity
  8
0
  6
Continuous
 62
     7
370
    25
100
AcDbCircle
 10
18.9791026431
 20
15.1642337759
 30
0.0
 40
0.1500000000000016
100
AcDbArc
 50
60.0026882663
 51
119.9973117336
  0
LINE
  5
161
330
1F
100
AcDbEntity
  8
0
  6
Continuous
 62
     7
370
    25
100
AcDbLine
 10
19.2586993714
 20
14.2509151638
 30
0.0
 11
19.3398703514
 21
14.2977741731
 31
0.0
  0
ARC
  5
162
330
1F
100
AcDbEntity
  8
0
  6
Continuous
 62
     7
370
    25
100
AcDbCircle
 10
19.2648764465
 20
14.4276815024
 30
0.0
 40
0.1500000000000016
100
AcDbArc
 50
299.9973117337
 51
324.8993285036
  0
LINE
  5
163
330
1F
100
AcDbEntity
  8
0
  6
Continuous
 62
     7
370
    25
100
AcDbLine
 10
17.5559202318
 20
12.6102021887
 30
0.0
 11
19.054690474
 21
13.4754238327
 31
0.0
  0
LINE
  5
164
330
1F
100
AcDbEntity
  8
0
  6
Continuous
 62
     7
370
    25
100
AcDbLine
 10
17.9447806807
 20
15.3980523072
 30
0.0
 11
16.4460012266
 21
14.5328253452
 31
0.0
  0
LINE
  5
165
330
1F
100
AcDbEntity
  8
0
  6
Continuous
 62
     7
370
    25
100
AcDbLine
 10
19.2846241045
 20
13.9836315679
 30
0.0
 11
19.2846241045
 21
14.0081238112
 31
0.0
  0
LINE
  5
166
330
1F
100
AcDbEntity
  8
0
  6
Continuous
 62
     7
370
    25
100
AcDbLine
 10
18.5210728995
 20
15.3307766046
 30
0.0
 11
18.4998631438
 21
15.3430247166
 31
0.0
  0
LWPOLYLINE
  5
167
330
1F
100
AcDbEntity
  8
0
  6
Continuous
 62
     7
370
    25
100
AcDbPolyline
 90
      241
 70
   128
 43
0.0
 10
15.6097901626
 20
10.7393041759
 10
15.6557872583
 20
10.713445941
 10
15.7017528299
 20
10.6889960745
 10
15.7476553748
 20
10.6659713332
 10
15.7934634339
 20
10.6443874969
 10
15.8391456124
 20
10.6242593583
 10
15.8846706022
 20
10.6056007122
 10
15.9300072026
 20
10.5884243462
 10
15.9751243423
 20
10.5727420321
 10
16.0199911002
 20
10.5585645179
 10
16.0645767268
 20
10.5459015201
 10
16.1088506655
 20
10.5347617173
 10
16.152782573
 20
10.5251527442
 10
16.1963423407
 20
10.5170811862
 10
16.2395001147
 20
10.5105525752
 10
16.2822263171
 20
10.5055713856
 10
16.3244916653
 20
10.5021410312
 10
16.3662671927
 20
10.5002638631
 10
16.4075242686
 20
10.4999411678
 10
16.4482346174
 20
10.5011731663
 10
16.4883703383
 20
10.5039590145
 10
16.5279039241
 20
10.5082968029
 10
16.5668082807
 20
10.5141835587
 10
16.6050567449
 20
10.5216152474
 10
16.642623103
 20
10.5305867757
 10
16.6794816091
 20
10.5410919949
 10
16.715607002
 20
10.5531237053
 10
16.7509745234
 20
10.566673661
 10
16.7855599339
 20
10.5817325755
 10
16.8193395307
 20
10.5982901282
 10
16.8522901626
 20
10.6163349713
 10
16.8843892472
 20
10.6358547379
 10
16.9156147852
 20
10.65683605
 10
16.9459453762
 20
10.6792645281
 10
16.9753602332
 20
10.7031248008
 10
17.0038391967
 20
10.7284005156
 10
17.0313627486
 20
10.7550743496
 10
17.0579120257
 20
10.783128022
 10
17.0834688324
 20
10.8125423062
 10
17.1080156533
 20
10.8432970432
 10
17.1315356653
 20
10.875371155
 10
17.154012749
 20
10.9087426599
 10
17.1754314996
 20
10.9433886865
 10
17.1957772379
 20
10.9792854903
 10
17.2150360199
 20
11.0164084693
 10
17.2331946465
 20
11.0547321814
 10
17.2502406728
 20
11.0942303613
 10
17.2661624162
 20
11.134875939
 10
17.2809489649
 20
11.1766410581
 10
17.2945901847
 20
11.2194970948
 10
17.3070767268
 20
11.2634146777
 10
17.3184000335
 20
11.3083637079
 10
17.3285523443
 20
11.3543133796
 10
17.3375267014
 20
11.4012322012
 10
17.3453169541
 20
11.4490880169
 10
17.3519177635
 20
11.4978480286
 10
17.3573246056
 20
11.5474788187
 10
17.3615337749
 20
11.5979463728
 10
17.3645423867
 20
11.6492161029
 10
17.3663483789
 20
11.7012528712
 10
17.3669505139
 20
11.7540210145
 10
17.3663483789
 20
11.807484368
 10
17.3645423867
 20
11.8616062906
 10
17.3615337749
 20
11.9163496898
 10
17.3573246056
 20
11.9716770474
 10
17.3519177635
 20
12.0275504445
 10
17.3453169541
 20
12.0839315886
 10
17.3375267014
 20
12.1407818386
 10
17.3285523443
 20
12.1980622323
 10
17.3184000335
 20
12.2557335126
 10
17.3070767268
 20
12.3137561544
 10
17.2945901847
 20
12.3720903919
 10
17.2809489649
 20
12.4306962458
 10
17.2661624162
 20
12.4895335506
 10
17.2502406728
 20
12.548561982
 10
17.2331946465
 20
12.6077410849
 10
17.2150360199
 20
12.667030301
 10
17.1957772379
 20
12.7263889964
 10
17.1754314996
 20
12.7857764896
 10
17.154012749
 20
12.8451520793
 10
17.1315356653
 20
12.9044750726
 10
17.1080156533
 20
12.9637048123
 10
17.0834688324
 20
13.0228007054
 10
17.0579120257
 20
13.0817222505
 10
17.0313627486
 20
13.1404290658
 10
17.0038391967
 20
13.1988809165
 10
16.9753602332
 20
13.2570377425
 10
16.9459453762
 20
13.3148596863
 10
16.9156147852
 20
13.3723071194
 10
16.8843892472
 20
13.4293406703
 10
16.8522901626
 20
13.485921251
 10
16.8193395307
 20
13.542010084
 10
16.7855599339
 20
13.5975687289
 10
16.7509745234
 20
13.6525591085
 10
16.715607002
 20
13.7069435351
 10
16.6794816091
 20
13.7606847365
 10
16.642623103
 20
13.813745881
 10
16.6050567449
 20
13.8660906031
 10
16.5668082807
 20
13.9176830286
 10
16.5279039241
 20
13.9684877984
 10
16.4883703383
 20
14.0184700935
 10
16.4482346174
 20
14.0675956585
 10
16.4075242686
 20
14.1158308253
 10
16.3662671927
 20
14.1631425359
 10
16.3244916653
 20
14.2094983651
 10
16.2822263171
 20
14.2548665431
 10
16.2395001147
 20
14.2992159766
 10
16.1963423407
 20
14.342516271
 10
16.152782573
 20
14.3847377502
 10
16.1088506655
 20
14.4258514778
 10
16.0645767268
 20
14.4658292765
 10
16.0199911002
 20
14.5046437475
 10
15.9751243423
 20
14.5422682893
 10
15.9300072026
 20
14.5786771159
 10
15.8846706022
 20
14.6138452746
 10
15.8391456124
 20
14.6477486628
 10
15.7934634339
 20
14.6803640449
 10
15.7476553748
 20
14.7116690678
 10
15.7017528299
 20
14.7416422768
 10
15.6557872583
 20
14.7702631296
 10
15.6097901626
 20
14.797512011
 10
15.563793067
 20
14.8233702459
 10
15.5178274954
 20
14.8478201123
 10
15.4719249504
 20
14.8708448537
 10
15.4261168914
 20
14.8924286899
 10
15.3804347129
 20
14.9125568285
 10
15.3349097231
 20
14.9312154747
 10
15.2895731227
 20
14.9483918407
 10
15.244455983
 20
14.9640741547
 10
15.1995892251
 20
14.9782516689
 10
15.1550035984
 20
14.9909146667
 10
15.1107296598
 20
15.0020544696
 10
15.0667977523
 20
15.0116634427
 10
15.0232379846
 20
15.0197350007
 10
14.9800802105
 20
15.0262636117
 10
14.9373540082
 20
15.0312448013
 10
14.89508866
 20
15.0346751556
 10
14.8533131326
 20
15.0365523238
 10
14.8120560567
 20
15.0368750191
 10
14.7713457079
 20
15.0356430205
 10
14.731209987
 20
15.0328571724
 10
14.6916764011
 20
15.028519384
 10
14.6527720446
 20
15.0226326282
 10
14.6145235804
 20
15.0152009395
 10
14.5769572223
 20
15.0062294112
 10
14.5400987162
 20
14.9957241919
 10
14.5039733233
 20
14.9836924815
 10
14.4686058019
 20
14.9701425258
 10
14.4340203913
 20
14.9550836113
 10
14.4002407946
 20
14.9385260586
 10
14.3672901626
 20
14.9204812155
 10
14.3351910781
 20
14.900961449
 10
14.3039655401
 20
14.8799801369
 10
14.273634949
 20
14.8575516588
 10
14.244220092
 20
14.833691386
 10
14.2157411286
 20
14.8084156713
 10
14.1882175766
 20
14.7817418373
 10
14.1616682996
 20
14.7536881648
 10
14.1361114929
 20
14.7242738806
 10
14.111564672
 20
14.6935191437
 10
14.0880446599
 20
14.6614450318
 10
14.0655675763
 20
14.628073527
 10
14.0441488256
 20
14.5934275004
 10
14.0238030874
 20
14.5575306966
 10
14.0045443054
 20
14.5204077176
 10
13.9863856788
 20
14.4820840055
 10
13.9693396525
 20
14.4425858256
 10
13.9534179091
 20
14.4019402478
 10
13.9386313604
 20
14.3601751288
 10
13.9249901405
 20
14.3173190921
 10
13.9125035984
 20
14.2734015092
 10
13.9011802918
 20
14.228452479
 10
13.891027981
 20
14.1825028073
 10
13.8820536239
 20
14.1355839857
 10
13.8742633712
 20
14.08772817
 10
13.8676625618
 20
14.0389681583
 10
13.8622557197
 20
13.9893373681
 10
13.8580465503
 20
13.938869814
 10
13.8550379386
 20
13.887600084
 10
13.8532319464
 20
13.8355633156
 10
13.8526298114
 20
13.7827951724
 10
13.8532319464
 20
13.7293318189
 10
13.8550379386
 20
13.6752098963
 10
13.8580465503
 20
13.620466497
 10
13.8622557197
 20
13.5651391395
 10
13.8676625618
 20
13.5092657423
 10
13.8742633712
 20
13.4528845983
 10
13.8820536239
 20
13.3960343483
 10
13.891027981
 20
13.3387539546
 10
13.9011802918
 20
13.2810826743
 10
13.9125035984
 20
13.2230600325
 10
13.9249901405
 20
13.1647257949
 10
13.9386313604
 20
13.106119941
 10
13.9534179091
 20
13.0472826363
 10
13.9693396525
 20
12.9882542049
 10
13.9863856788
 20
12.9290751019
 10
14.0045443054
 20
12.8697858858
 10
14.0238030874
 20
12.8104271904
 10
14.0441488256
 20
12.7510396973
 10
14.0655675763
 20
12.6916641075
 10
14.0880446599
 20
12.6323411143
 10
14.111564672
 20
12.5731113746
 10
14.1361114929
 20
12.5140154815
 10
14.1616682996
 20
12.4550939363
 10
14.1882175766
 20
12.3963871211
 10
14.2157411286
 20
12.3379352704
 10
14.244220092
 20
12.2797784443
 10
14.273634949
 20
12.2219565006
 10
14.3039655401
 20
12.1645090675
 10
14.3351910781
 20
12.1074755166
 10
14.3672901626
 20
12.0508949359
 10
14.4002407946
 20
11.9948061028
 10
14.4340203913
 20
11.939247458
 10
14.4686058019
 20
11.8842570784
 10
14.5039733233
 20
11.8298726517
 10
14.5400987162
 20
11.7761314504
 10
14.5769572223
 20
11.7230703059
 10
14.6145235804
 20
11.6707255837
 10
14.6527720446
 20
11.6191331583
 10
14.6916764011
 20
11.5683283885
 10
14.731209987
 20
11.5183460934
 10
14.7713457079
 20
11.4692205283
 10
14.8120560567
 20
11.4209853615
 10
14.8533131326
 20
11.373673651
 10
14.89508866
 20
11.3273178217
 10
14.9373540082
 20
11.2819496438
 10
14.9800802105
 20
11.2376002102
 10
15.0232379846
 20
11.1942999159
 10
15.0667977523
 20
11.1520784367
 10
15.1107296598
 20
11.1109647091
 10
15.1550035984
 20
11.0709869104
 10
15.1995892251
 20
11.0321724394
 10
15.244455983
 20
10.9945478976
 10
15.2895731227
 20
10.9581390709
 10
15.3349097231
 20
10.9229709123
 10
15.3804347129
 20
10.889067524
 10
15.4261168914
 20
10.856452142
 10
15.4719249504
 20
10.825147119
 10
15.5178274954
 20
10.7951739101
 10
15.563793067
 20
10.7665530573
 10
15.6097901626
 20
10.7393041759
  0
ARC
  5
168
330
1F
100
AcDbEntity
  8
0
  6
Continuous
 62
     7
370
    25
100
AcDbCircle
 10
14.7931503718
 20
14.2320134063
 30
0.0
 40
0.8391592021457757
100
AcDbArc
 50
116.6028066259
 51
123.7252671695
  0
ARC
  5
169
330
1F
100
AcDbEntity
  8
0
  6
Continuous
 62
     7
370
    25
100
AcDbCircle
 10
16.4688534843
 20
11.3292960134
 30
0.0
 40
0.8391614955197487
100
AcDbArc
 50
296.2659721807
 51
303.406587106
  0
ARC
  5
16A
330
1F
100
AcDbEntity
  8
0
  6
Continuous
 62
     7
370
    25
100
AcDbCircle
 10
16.7000087084
 20
11.4628790249
 30
0.0
 40
0.8392830621619617
100
AcDbArc
 50
299.9980175043
 51
303.4913843431
  0
LWPOLYLINE
  5
16B
330
1F
100
AcDbEntity
  8
0
  6
Continuous
 62
     7
370
    25
100
AcDbPolyline
 90
        3
 70
   128
 43
0.0
 10
14.6494835062
 20
15.1162591451
 10
14.6380757099
 20
15.1104535138
 10
14.6048294772
 20
15.0922498303
  0
ARC
  5
16C
330
1F
100
AcDbEntity
  8
0
  6
Continuous
 62
     7
370
    25
100
AcDbCircle
 10
15.8973660598
 20
12.2747237225
 30
0.0
 40
0.3497663576982112
100
AcDbArc
 50
255.6762988198
 51
310.8736733728
  0
LWPOLYLINE
  5
16D
330
1F
100
AcDbEntity
  8
0
  6
Continuous
 62
     7
370
    25
100
AcDbPolyline
 90
       70
 70
   128
 43
0.0
 10
16.2747619666
 20
12.0783252377
 10
16.2847863154
 20
12.1033350897
 10
16.2937415467
 20
12.129398342
 10
16.3016134765
 20
12.1564737135
 10
16.3083896364
 20
12.1845183198
 10
16.3140592938
 20
12.2134877414
 10
16.3186134686
 20
12.2433360941
 10
16.3220449475
 20
12.2740161014
 10
16.3243482954
 20
12.3054791696
 10
16.3255198641
 20
12.3376754649
 10
16.325557798
 20
12.3705539919
 10
16.3244620369
 20
12.4040626748
 10
16.3222343165
 20
12.4381484396
 10
16.3188781651
 20
12.4727572983
 10
16.3143988986
 20
12.5078344344
 10
16.3088036116
 20
12.5433242897
 10
16.3021011664
 20
12.5791706523
 10
16.2943021789
 20
12.6153167455
 10
16.2854190018
 20
12.6517053182
 10
16.2754657052
 20
12.6882787348
 10
16.2644580538
 20
12.7249790673
 10
16.2524134825
 20
12.7617481864
 10
16.2393510686
 20
12.798527854
 10
16.2252915015
 20
12.8352598154
 10
16.21025705
 20
12.8718858912
 10
16.1942715268
 20
12.9083480699
 10
16.1773602513
 20
12.9445885995
 10
16.159550009
 20
12.9805500791
 10
16.1408690093
 20
13.0161755498
 10
16.1213468409
 20
13.051408585
 10
16.1010144245
 20
13.0861933793
 10
16.0799039645
 20
13.1204748377
 10
16.0580488975
 20
13.1541986623
 10
16.0354838393
 20
13.1873114382
 10
16.0122445306
 20
13.2197607187
 10
15.9883677796
 20
13.2514951076
 10
15.9638914046
 20
13.2824643415
 10
15.9388541732
 20
13.3126193683
 10
15.9132957418
 20
13.3419124262
 10
15.8872565918
 20
13.370297118
 10
15.8607779664
 20
13.3977284858
 10
15.8339018047
 20
13.4241630813
 10
15.8066706755
 20
13.449559035
 10
15.7791277099
 20
13.4738761228
 10
15.7513165328
 20
13.4970758291
 10
15.7232811939
 20
13.5191214081
 10
15.6950660981
 20
13.5399779422
 10
15.6667159348
 20
13.5596123969
 10
15.6382756076
 20
13.5779936736
 10
15.6097901626
 20
13.5950926584
 10
15.5813047177
 20
13.6108822683
 10
15.5528643904
 20
13.6253374945
 10
15.5245142272
 20
13.6384354415
 10
15.4962991314
 20
13.6501553637
 10
15.4682637925
 20
13.6604786979
 10
15.4404526154
 20
13.6693890933
 10
15.4129096497
 20
13.6768724367
 10
15.3856785206
 20
13.6829168754
 10
15.3588023589
 20
13.6875128357
 10
15.3323237335
 20
13.6906530381
 10
15.3062845835
 20
13.6923325089
 10
15.280726152
 20
13.692548588
 10
15.2556889207
 20
13.6913009331
 10
15.2312125457
 20
13.6885915204
 10
15.2073357947
 20
13.6844246412
 10
15.184096486
 20
13.6788068956
 10
15.1615314278
 20
13.6717471812
 10
15.1396763607
 20
13.66325668
 10
15.1185659008
 20
13.6533488398
 10
15.0992190407
 20
13.6426306283
  0
LWPOLYLINE
  5
16E
330
1F
100
AcDbEntity
  8
0
  6
Continuous
 62
     7
370
    25
100
AcDbPolyline
 90
       72
 70
   128
 43
0.0
 10
14.3723532956
 20
13.3153743248
 10
14.3851646007
 20
13.3086335461
 10
14.39787564
 20
13.3032555835
 10
14.4103869323
 20
13.299282527
 10
14.4226005598
 20
13.2967454712
 10
14.4344209344
 20
13.2956642718
 10
14.4457555456
 20
13.2960473909
 10
14.4565156846
 20
13.2978918299
 10
14.4666171388
 20
13.3011831536
 10
14.4759808507
 20
13.3058956029
 10
14.4845335364
 20
13.3119922966
 10
14.4922082596
 20
13.3194255197
 10
14.4989449553
 20
13.3281370972
 10
14.5046908995
 20
13.3380588492
 10
14.5094011226
 20
13.3491131246
 10
14.5130387606
 20
13.3612134085
 10
14.5155753441
 20
13.374265
 10
14.5169910209
 20
13.3881657526
 10
14.5172747114
 20
13.402806874
 10
14.5164241953
 20
13.4180737777
 10
14.5144461291
 20
13.4338469795
 10
14.5113559938
 20
13.4500030325
 10
14.5071779739
 20
13.4664154939
 10
14.5019447681
 20
13.4829559138
 10
14.4956973333
 20
13.499494841
 10
14.4884845642
 20
13.5159028361
 10
14.4803629105
 20
13.5320514842
 10
14.4713959351
 20
13.5478144002
 10
14.4616538167
 20
13.5630682179
 10
14.4512128007
 20
13.5776935556
 10
14.4401546021
 20
13.5915759501
 10
14.4285657664
 20
13.6046067529
 10
14.4165369919
 20
13.6166839803
 10
14.4041624201
 20
13.6277131115
 10
14.3915388987
 20
13.6376078288
 10
14.3787652239
 20
13.6462906925
 10
14.3659413672
 20
13.6536937474
 10
14.3531676925
 20
13.6597590547
 10
14.3405441711
 20
13.6644391449
 10
14.3281695992
 20
13.6676973902
 10
14.3161408247
 20
13.6695082902
 10
14.304551989
 20
13.6698576724
 10
14.2934937904
 20
13.6687428021
 10
14.2830527744
 20
13.666172405
 10
14.2733106561
 20
13.6621665977
 10
14.2643436806
 20
13.6567567311
 10
14.2562220269
 20
13.6499851449
 10
14.2490092578
 20
13.6419048358
 10
14.242761823
 20
13.6325790431
 10
14.2375286173
 20
13.622080754
 10
14.2333505974
 20
13.6104921317
 10
14.2302604621
 20
13.597903873
 10
14.2282823958
 20
13.5844144979
 10
14.2274318798
 20
13.5701295792
 10
14.2277155702
 20
13.5551609157
 10
14.229131247
 20
13.5396256575
 10
14.2316678305
 20
13.523645389
 10
14.2353054685
 20
13.5073451776
 10
14.2400156916
 20
13.4908525945
 10
14.2457616359
 20
13.4742967164
 10
14.2524983315
 20
13.4578071157
 10
14.2601730547
 20
13.4415128457
 10
14.2687257405
 20
13.4255414313
 10
14.2780894523
 20
13.4100178704
 10
14.2881909065
 20
13.3950636559
 10
14.2989510455
 20
13.3807958248
 10
14.3102856567
 20
13.3673260423
 10
14.3221060313
 20
13.3547597276
 10
14.3343196588
 20
13.3431952293
 10
14.3468309512
 20
13.3327230551
 10
14.3595419905
 20
13.3234251641
 10
14.3723532956
 20
13.3153743248
  0
LWPOLYLINE
  5
16F
330
1F
100
AcDbEntity
  8
0
  6
Continuous
 62
     7
370
    25
100
AcDbPolyline
 90
       72
 70
   128
 43
0.0
 10
16.8472270297
 20
11.8866601291
 10
16.8600383348
 20
11.8799193504
 10
16.8727493741
 20
11.8745413878
 10
16.8852606664
 20
11.8705683313
 10
16.897474294
 20
11.8680312755
 10
16.9092946686
 20
11.8669500761
 10
16.9206292797
 20
11.8673331952
 10
16.9313894188
 20
11.8691776342
 10
16.941490873
 20
11.8724689579
 10
16.9508545848
 20
11.8771814072
 10
16.9594072705
 20
11.8832781009
 10
16.9670819938
 20
11.890711324
 10
16.9738186894
 20
11.8994229015
 10
16.9795646337
 20
11.9093446535
 10
16.9842748568
 20
11.9203989289
 10
16.9879124948
 20
11.9324992128
 10
16.9904490783
 20
11.9455508043
 10
16.9918647551
 20
11.9594515569
 10
16.9921484455
 20
11.9740926784
 10
16.9912979294
 20
11.9893595821
 10
16.9893198632
 20
12.0051327838
 10
16.9862297279
 20
12.0212888368
 10
16.982051708
 20
12.0377012982
 10
16.9768185022
 20
12.0542417181
 10
16.9705710675
 20
12.0707806454
 10
16.9633582984
 20
12.0871886404
 10
16.9552366446
 20
12.1033372885
 10
16.9462696692
 20
12.1191002045
 10
16.9365275509
 20
12.1343540222
 10
16.9260865348
 20
12.1489793599
 10
16.9150283363
 20
12.1628617544
 10
16.9034395006
 20
12.1758925572
 10
16.8914107261
 20
12.1879697846
 10
16.8790361542
 20
12.1989989158
 10
16.8664126328
 20
12.2088936331
 10
16.8536389581
 20
12.2175764968
 10
16.8408151013
 20
12.2249795517
 10
16.8280414266
 20
12.231044859
 10
16.8154179052
 20
12.2357249492
 10
16.8030433334
 20
12.2389831945
 10
16.7910145589
 20
12.2407940946
 10
16.7794257232
 20
12.2411434767
 10
16.7683675246
 20
12.2400286065
 10
16.7579265086
 20
12.2374582093
 10
16.7481843902
 20
12.233452402
 10
16.7392174148
 20
12.2280425354
 10
16.7310957611
 20
12.2212709492
 10
16.723882992
 20
12.2131906401
 10
16.7176355572
 20
12.2038648475
 10
16.7124023514
 20
12.1933665583
 10
16.7082243315
 20
12.1817779361
 10
16.7051341962
 20
12.1691896773
 10
16.70315613
 20
12.1557003022
 10
16.7023056139
 20
12.1414153835
 10
16.7025893044
 20
12.12644672
 10
16.7040049812
 20
12.1109114618
 10
16.7065415647
 20
12.0949311933
 10
16.7101792027
 20
12.0786309819
 10
16.7148894258
 20
12.0621383988
 10
16.72063537
 20
12.0455825207
 10
16.7273720657
 20
12.02909292
 10
16.7350467889
 20
12.01279865
 10
16.7435994746
 20
11.9968272356
 10
16.7529631864
 20
11.9813036747
 10
16.7630646407
 20
11.9663494602
 10
16.7738247797
 20
11.9520816291
 10
16.7851593909
 20
11.9386118466
 10
16.7969797654
 20
11.9260455319
 10
16.809193393
 20
11.9144810336
 10
16.8217046853
 20
11.9040088594
 10
16.8344157246
 20
11.8947109684
 10
16.8472270297
 20
11.8866601291
  0
LWPOLYLINE
  5
170
330
1F
100
AcDbEntity
  8
0
  6
Continuous
 62
     7
370
    25
100
AcDbPolyline
 90
       51
 70
   128
 43
0.0
 10
14.7162756288
 20
12.3142561959
 10
14.7223243428
 20
12.3028373485
 10
14.7349268788
 20
12.2814948819
 10
14.7490536074
 20
12.260472902
 10
14.7646801632
 20
12.2398076671
 10
14.7817795937
 20
12.2195348201
 10
14.8003224062
 20
12.1996893274
 10
14.8202766183
 20
12.180305418
 10
14.8416078136
 20
12.1614165249
 10
14.8642792002
 20
12.1430552274
 10
14.888251675
 20
12.1252531947
 10
14.9134838908
 20
12.1080411312
 10
14.9399323275
 20
12.0914487243
 10
14.9675513674
 20
12.0755045919
 10
14.9962933736
 20
12.0602362344
 10
15.0261087725
 20
12.0456699863
 10
15.056946139
 20
12.0318309711
 10
15.0887522855
 20
12.0187430582
 10
15.1214723532
 20
12.0064288213
 10
15.1550499074
 20
11.9949094998
 10
15.1894270339
 20
11.984204962
 10
15.2245444399
 20
11.9743336709
 10
15.2603415554
 20
11.9653126523
 10
15.2967566383
 20
11.9571574655
 10
15.3337268805
 20
11.9498821763
 10
15.3711885166
 20
11.9434993331
 10
15.4090769332
 20
11.9380199449
 10
15.4473267813
 20
11.9334534624
 10
15.4858720882
 20
11.9298077619
 10
15.5246463717
 20
11.9270891312
 10
15.5635827547
 20
11.9253022596
 10
15.6026140804
 20
11.9244502289
 10
15.6416730282
 20
11.9245345087
 10
15.6806922302
 20
11.9255549536
 10
15.7196043867
 20
11.9275098037
 10
15.7583423828
 20
11.9303956872
 10
15.7968394039
 20
11.9342076265
 10
15.835029051
 20
11.938939047
 10
15.8728454554
 20
11.944581788
 10
15.9102233921
 20
11.951126117
 10
15.9470983924
 20
11.9585607464
 10
15.9834068548
 20
11.9668728531
 10
16.0190861553
 20
11.9760481007
 10
16.0540747549
 20
11.9860706637
 10
16.0883123059
 20
11.9969232554
 10
16.1217397561
 20
12.0085871576
 10
16.1542994503
 20
12.0210422525
 10
16.1859352304
 20
12.0342670578
 10
16.2165925313
 20
12.0482387636
 10
16.2462184762
 20
12.0629332719
 10
16.2747619666
 20
12.0783252377
  0
ARC
  5
171
330
1F
100
AcDbEntity
  8
0
  6
Continuous
 62
     7
370
    25
100
AcDbCircle
 10
15.8976191244
 20
12.2952756005
 30
0.0
 40
0.36912348623366
100
AcDbArc
 50
256.6980877896
 51
297.3342618549
  0
ARC
  5
172
330
1F
100
AcDbEntity
  8
0
  6
Continuous
 62
     7
370
    25
100
AcDbCircle
 10
16.9603370263
 20
12.0569098452
 30
0.0
 40
0.0470680951149082
100
AcDbArc
 50
232.0901020831
 51
304.397747493
  0
LWPOLYLINE
  5
173
330
1F
100
AcDbEntity
  8
0
  6
Continuous
 62
     7
370
    25
100
AcDbPolyline
 90
       21
 70
   128
 43
0.0
 10
16.8859317834
 20
12.1930208094
 10
16.8822865145
 20
12.1914318035
 10
16.8761166098
 20
12.1874064955
 10
16.8708188313
 20
12.182044575
 10
16.866476728
 20
12.1754306027
 10
16.8631587775
 20
12.1676688849
 10
16.8609173059
 20
12.1588818285
 10
16.8597876625
 20
12.1492080106
 10
16.8597876625
 20
12.1387999932
 10
16.8609173059
 20
12.1278219169
 10
16.8631587775
 20
12.1164469124
 10
16.866476728
 20
12.1048543705
 10
16.8708188313
 20
12.0932271124
 10
16.8761166098
 20
12.081748507
 10
16.8822865145
 20
12.0705995787
 10
16.8892312423
 20
12.0599561527
 10
16.8968412705
 20
12.0499860822
 10
16.9049965846
 20
12.0408466013
 10
16.9135685704
 20
12.032681845
 10
16.9224220425
 20
12.0256205764
 10
16.9314173764
 20
12.0197741558
  0
ARC
  5
174
330
1F
100
AcDbEntity
  8
0
  6
Continuous
 62
     7
370
    25
100
AcDbCircle
 10
15.9926456958
 20
12.3108397625
 30
0.0
 40
0.3352497218531078
100
AcDbArc
 50
275.0549863228
 51
290.7136345626
  0
ARC
  5
175
330
1F
100
AcDbEntity
  8
0
  6
Continuous
 62
     7
370
    25
100
AcDbCircle
 10
14.4854632922
 20
13.4856240409
 30
0.0
 40
0.0470680951149202
100
AcDbArc
 50
232.0901020831
 51
304.397747493
  0
LWPOLYLINE
  5
176
330
1F
100
AcDbEntity
  8
0
  6
Continuous
 62
     7
370
    25
100
AcDbPolyline
 90
       21
 70
   128
 43
0.0
 10
14.4110580493
 20
13.6217350051
 10
14.4074127804
 20
13.6201459992
 10
14.4012428757
 20
13.6161206912
 10
14.3959450971
 20
13.6107587707
 10
14.3916029938
 20
13.6041447984
 10
14.3882850433
 20
13.5963830806
 10
14.3860435717
 20
13.5875960242
 10
14.3849139283
 20
13.5779222063
 10
14.3849139283
 20
13.5675141889
 10
14.3860435717
 20
13.5565361125
 10
14.3882850433
 20
13.5451611081
 10
14.3916029938
 20
13.5335685662
 10
14.3959450971
 20
13.5219413081
 10
14.4012428757
 20
13.5104627027
 10
14.4074127804
 20
13.4993137743
 10
14.4143575081
 20
13.4886703484
 10
14.4219675364
 20
13.4787002779
 10
14.4301228505
 20
13.469560797
 10
14.4386948363
 20
13.4613960407
 10
14.4475483084
 20
13.4543347721
 10
14.4565436423
 20
13.4484883515
  0
LINE
  5
177
330
1F
100
AcDbEntity
  8
0
  6
Continuous
 62
     7
370
    25
100
AcDbLine
 10
19.1396672143
 20
14.8062290906
 30
0.0
 11
19.1396672143
 21
14.8143944987
 31
0.0
  0
LINE
  5
178
330
1F
100
AcDbEntity
  8
0
  6
Continuous
 62
     7
370
    25
100
AcDbLine
 10
19.1396672143
 20
14.8062290906
 30
0.0
 11
19.060963932
 21
14.7607946528
 31
0.0
  0
LINE
  5
179
330
1F
100
AcDbEntity
  8
0
  6
Continuous
 62
     7
370
    25
100
AcDbLine
 10
19.1396672143
 20
14.8143944987
 30
0.0
 11
19.057416633
 21
14.7669122488
 31
0.0
  0
LINE
  5
17A
330
1F
100
AcDbEntity
  8
0
  6
Continuous
 62
     7
370
    25
100
AcDbLine
 10
18.9587174786
 20
14.9188545576
 30
0.0
 11
19.1396672143
 21
14.8143944987
 31
0.0
  0
LWPOLYLINE
  5
17B
330
1F
100
AcDbEntity
  8
0
  6
Continuous
 62
     7
370
    25
100
AcDbPolyline
 90
       13
 70
   128
 43
0.0
 10
19.9976572639
 20
15.1571361956
 10
19.9994536975
 20
15.1582346566
 10
20.0060606868
 20
15.1635130157
 10
20.0117088976
 20
15.1701691174
 10
20.0163219476
 20
15.1781129493
 10
20.0198374532
 20
15.1872370848
 10
20.0222078732
 20
15.1974181356
 10
20.0234011517
 20
15.2085184203
 10
20.0234011517
 20
15.2203878268
 10
20.0222078732
 20
15.2328658416
 10
20.0198374532
 20
15.2457837209
 10
20.0163219476
 20
15.2589667728
 10
20.0117088976
 20
15.2722367189
  0
LWPOLYLINE
  5
17C
330
1F
100
AcDbEntity
  8
0
  6
Continuous
 62
     7
370
    25
100
AcDbPolyline
 90
       17
 70
   128
 43
0.0
 10
20.0117088976
 20
15.2722367189
 10
20.0060606868
 20
15.285414106
 10
19.9994536975
 20
15.2983207326
 10
19.9919772779
 20
15.3107820587
 10
19.9837325337
 20
15.3226295662
 10
19.9748309611
 20
15.3337030379
 10
19.9653929385
 20
15.3438527242
 10
19.9555460989
 20
15.3529413678
 10
19.945423604
 20
15.3608460605
 10
19.9351623432
 20
15.3674599049
 10
19.9249010823
 20
15.3726934601
 10
19.9147785874
 20
15.3764759512
 10
19.9049317478
 20
15.3787562266
 10
19.8954937252
 20
15.3795034494
 10
19.8865921526
 20
15.3787075146
 10
19.8783474085
 20
15.3763791861
 10
19.8726674224
 20
15.3736484112
  0
LWPOLYLINE
  5
17D
330
1F
100
AcDbEntity
  8
0
  6
Continuous
 62
     7
370
    25
100
AcDbPolyline
 90
       15
 70
   128
 43
0.0
 10
20.3704726772
 20
15.450875981
 10
20.3698818375
 20
15.4590155608
 10
20.3681272706
 20
15.4675899927
 10
20.3652622882
 20
15.4763387468
 10
20.3613739414
 20
15.4849959968
 10
20.3565803755
 20
15.4932986964
 10
20.3510272407
 20
15.5009945723
 10
20.3448832662
 20
15.5078497892
 10
20.3383351335
 20
15.5136560548
 10
20.3315818043
 20
15.5182369487
 10
20.324828475
 20
15.5214532827
 10
20.3182803423
 20
15.5232073302
 10
20.3121363678
 20
15.5234457953
 10
20.306583233
 20
15.5221614324
 10
20.3040840391
 20
15.5209598915
  0
ARC
  5
17E
330
1F
100
AcDbEntity
  8
0
  6
Continuous
 62
     7
370
    25
100
AcDbCircle
 10
20.3429739017
 20
15.4481494512
 30
0.0
 40
0.0276336139490798
100
AcDbArc
 50
305.6497565294
 51
5.662423864
  0
LWPOLYLINE
  5
17F
330
1F
100
AcDbEntity
  8
0
  6
Continuous
 62
     7
370
    25
100
AcDbPolyline
 90
       14
 70
   128
 43
0.0
 10
20.2840216456
 20
15.5093781182
 10
20.2823951296
 20
15.5170821042
 10
20.2795301472
 20
15.5258308584
 10
20.2756418004
 20
15.5344881083
 10
20.2708482345
 20
15.5427908079
 10
20.2652950997
 20
15.5504866838
 10
20.2591511252
 20
15.5573419007
 10
20.2526029925
 20
15.5631481663
 10
20.2458496633
 20
15.5677290602
 10
20.239096334
 20
15.5709453943
 10
20.2325482013
 20
15.5726994418
 10
20.2264042268
 20
15.5729379069
 10
20.220851092
 20
15.5716535439
 10
20.2183518981
 20
15.570452003
  0
LWPOLYLINE
  5
180
330
1F
100
AcDbEntity
  8
0
  6
Continuous
 62
     7
370
    25
100
AcDbPolyline
 90
        3
 70
   128
 43
0.0
 10
20.3276066067
 20
15.3898852515
 10
20.327015767
 20
15.3980248313
 10
20.3253591924
 20
15.4062281573
  0
ARC
  5
181
330
1F
100
AcDbEntity
  8
0
  6
Continuous
 62
     7
370
    25
100
AcDbCircle
 10
20.3001078312
 20
15.3871587217
 30
0.0
 40
0.0276336139490658
100
AcDbArc
 50
305.6497565293
 51
5.662423864
  0
LWPOLYLINE
  5
182
330
1F
100
AcDbEntity
  8
0
  6
Continuous
 62
     7
370
    25
100
AcDbPolyline
 90
       13
 70
   128
 43
0.0
 10
20.5348750038
 20
15.5600705659
 10
20.5342955546
 20
15.5667713891
 10
20.5325825316
 20
15.5738483721
 10
20.5298108022
 20
15.5809922166
 10
20.5261015041
 20
15.5878907025
 10
20.5216167517
 20
15.5942423327
 10
20.51655255
 20
15.5997695106
 10
20.511130229
 20
15.604230672
 10
20.5055867701
 20
15.6074308427
 10
20.5001644491
 20
15.6092301599
 10
20.4951002474
 20
15.6095499848
 10
20.490615495
 20
15.6083763395
 10
20.4896100233
 20
15.6078550504
  0
ARC
  5
183
330
1F
100
AcDbEntity
  8
0
  6
Continuous
 62
     7
370
    25
100
AcDbCircle
 10
20.5163180034
 20
15.5581246253
 30
0.0
 40
0.0186587499723361
100
AcDbArc
 50
305.3258580115
 51
5.9863223819
  0
LWPOLYLINE
  5
184
330
1F
100
AcDbEntity
  8
0
  6
Continuous
 62
     7
370
    25
100
AcDbPolyline
 90
       13
 70
   128
 43
0.0
 10
20.4491428628
 20
15.6095626775
 10
20.4485634136
 20
15.6162635007
 10
20.4468503906
 20
15.6233404836
 10
20.4440786612
 20
15.6304843281
 10
20.4403693631
 20
15.637382814
 10
20.4358846107
 20
15.6437344442
 10
20.430820409
 20
15.6492616222
 10
20.425398088
 20
15.6537227836
 10
20.4198546291
 20
15.6569229543
 10
20.4144323081
 20
15.6587222714
 10
20.4093681064
 20
15.6590420963
 10
20.404883354
 20
15.6578684511
 10
20.4038778823
 20
15.6573471619
  0
ARC
  5
185
330
1F
100
AcDbEntity
  8
0
  6
Continuous
 62
     7
370
    25
100
AcDbCircle
 10
20.4305858624
 20
15.6076167369
 30
0.0
 40
0.0186587499723381
100
AcDbArc
 50
305.3258580115
 51
5.9863223819
  0
ARC
  5
186
330
1F
100
AcDbEntity
  8
0
  6
Continuous
 62
     7
370
    25
100
AcDbCircle
 10
20.4409646925
 20
15.4977876267
 30
0.0
 40
0.05106059468787
100
AcDbArc
 50
1.4501607849
 51
25.5077192504
  0
ARC
  5
187
330
1F
100
AcDbEntity
  8
0
  6
Continuous
 62
     7
370
    25
100
AcDbCircle
 10
20.4734519329
 20
15.4971338958
 30
0.0
 40
0.0186587499723688
100
AcDbArc
 50
305.3258580116
 51
5.9863223818
  0
ARC
  5
188
330
1F
100
AcDbEntity
  8
0
  6
Continuous
 62
     7
370
    25
100
AcDbCircle
 10
18.377991561
 20
14.3660578917
 30
0.0
 40
0.7929990011050412
100
AcDbArc
 50
22.2472615421
 51
30.0264212835
  0
ARC
  5
189
330
1F
100
AcDbEntity
  8
0
  6
Continuous
 62
     7
370
    25
100
AcDbCircle
 10
18.724556298
 20
15.0903037044
 30
0.0
 40
0.092400207600807
100
AcDbArc
 50
57.6184527741
 51
90.9037276251
  0
LINE
  5
18A
330
1F
100
AcDbEntity
  8
0
  6
Continuous
 62
     7
370
    25
100
AcDbLine
 10
19.0598154799
 20
15.0033620163
 30
0.0
 11
18.7740416766
 21
15.1683357214
 31
0.0
  0
ARC
  5
18B
330
1F
100
AcDbEntity
  8
0
  6
Continuous
 62
     7
370
    25
100
AcDbCircle
 10
18.9362201686
 20
14.8099543591
 30
0.0
 40
0.2295263010144272
100
AcDbArc
 50
20.1693655555
 51
57.4197776411
  0
LINE
  5
18C
330
1F
100
AcDbEntity
  8
0
  6
Continuous
 62
     7
370
    25
100
AcDbLine
 10
19.2945582469
 20
14.5208180564
 30
0.0
 11
19.1516713453
 21
14.8890941931
 31
0.0
  0
ARC
  5
18D
330
1F
100
AcDbEntity
  8
0
  6
Continuous
 62
     7
370
    25
100
AcDbCircle
 10
19.1720693255
 20
14.4595774955
 30
0.0
 40
0.1369450333984304
100
AcDbArc
 50
333.4364081968
 51
26.5635918033
  0
LINE
  5
18E
330
1F
100
AcDbEntity
  8
0
  6
Continuous
 62
     7
370
    25
100
AcDbLine
 10
19.2419383308
 20
14.3234682323
 30
0.0
 11
19.2945582469
 21
14.3983369346
 31
0.0
  0
LWPOLYLINE
  5
18F
330
1F
100
AcDbEntity
  8
0
  6
Continuous
 62
     7
370
    25
100
AcDbPolyline
 90
       34
 70
   128
 43
0.0
 10
19.2457332315
 20
14.4877635769
 10
19.2451665026
 20
14.5103739304
 10
19.2434682696
 20
14.5335606726
 10
19.2406443867
 20
14.5572438739
 10
19.2367045882
 20
14.5813418935
 10
19.2316624557
 20
14.6057716605
 10
19.2255353702
 20
14.6304489604
 10
19.2183444532
 20
14.6552887255
 10
19.2101144933
 20
14.6802053279
 10
19.2008738608
 20
14.7051128749
 10
19.19065441
 20
14.7299255051
 10
19.1794913696
 20
14.7545576843
 10
19.1674232209
 20
14.7789245001
 10
19.1544915652
 20
14.8029419551
 10
19.1407409807
 20
14.8265272562
 10
19.1262188685
 20
14.8495991
 10
19.1109752893
 20
14.8720779529
 10
19.0950627909
 20
14.8938863259
 10
19.078536227
 20
14.9149490408
 10
19.061452568
 20
14.9351934902
 10
19.0438707049
 20
14.9545498872
 10
19.025851246
 20
14.9729515063
 10
19.0074563081
 20
14.9903349134
 10
18.9887493023
 20
15.0066401842
 10
18.9697947156
 20
15.021811111
 10
18.9506578884
 20
15.0357953966
 10
18.9314047893
 20
15.0485448343
 10
18.9121017877
 20
15.060015474
 10
18.892815425
 20
15.0701677741
 10
18.8736121854
 20
15.0789667375
 10
18.8545582663
 20
15.0863820324
 10
18.8357193506
 20
15.0923880966
 10
18.81716038
 20
15.0969642262
 10
18.8100149609
 20
15.0983572495
  0
ARC
  5
190
330
1F
100
AcDbEntity
  8
0
  6
Continuous
 62
     7
370
    25
100
AcDbCircle
 10
18.9120237661
 20
14.482480518
 30
0.0
 40
0.3337512816821326
100
AcDbArc
 50
341.1358007215
 51
0.9069916361
  0
ARC
  5
191
330
1F
100
AcDbEntity
  8
0
  6
Continuous
 62
     7
370
    25
100
AcDbCircle
 10
18.5172815528
 20
14.4329042941
 30
0.0
 40
0.6798787715981939
100
AcDbArc
 50
3.2494678252
 51
31.0212873913
  0
ARC
  5
192
330
1F
100
AcDbEntity
  8
0
  6
Continuous
 62
     7
370
    25
100
AcDbCircle
 10
18.5438150414
 20
14.4984693461
 30
0.0
 40
0.621434841991745
100
AcDbArc
 50
36.8790509387
 51
57.4672764716
  0
ARC
  5
193
330
1F
100
AcDbEntity
  8
0
  6
Continuous
 62
     7
370
    25
100
AcDbCircle
 10
18.5589375575
 20
14.4560592521
 30
0.0
 40
0.6730653206003491
100
AcDbArc
 50
2.0043102783
 51
31.0974672311
  0
ARC
  5
194
330
1F
100
AcDbEntity
  8
0
  6
Continuous
 62
     7
370
    25
100
AcDbCircle
 10
18.6186511956
 20
14.5446277433
 30
0.0
 40
0.5766943398476939
100
AcDbArc
 50
28.9630695241
 51
69.1452291025
  0
ARC
  5
195
330
1F
100
AcDbEntity
  8
0
  6
Continuous
 62
     7
370
    25
100
AcDbCircle
 10
18.8730558524
 20
14.476531599
 30
0.0
 40
0.3585483688461253
100
AcDbArc
 50
346.7005613976
 51
0.4902537576
  0
LINE
  5
196
330
1F
100
AcDbEntity
  8
0
  6
Continuous
 62
     7
370
    25
100
AcDbLine
 10
19.3567323118
 20
15.0074733693
 30
0.0
 11
19.1516713453
 21
14.8890941931
 31
0.0
  0
LINE
  5
197
330
1F
100
AcDbEntity
  8
0
  6
Continuous
 62
     7
370
    25
100
AcDbLine
 10
19.4996192135
 20
14.6391972326
 30
0.0
 11
19.3567323118
 21
15.0074733693
 31
0.0
  0
LINE
  5
198
330
1F
100
AcDbEntity
  8
0
  6
Continuous
 62
     7
370
    25
100
AcDbLine
 10
19.2945582469
 20
14.5208180564
 30
0.0
 11
19.4996192135
 21
14.6391972326
 31
0.0
  0
LINE
  5
199
330
1F
100
AcDbEntity
  8
0
  6
Continuous
 62
     7
370
    25
100
AcDbLine
 10
19.0598154799
 20
15.0033620163
 30
0.0
 11
19.2648764465
 21
15.1217411925
 31
0.0
  0
ARC
  5
19A
330
1F
100
AcDbEntity
  8
0
  6
Continuous
 62
     7
370
    25
100
AcDbCircle
 10
19.1412811351
 20
14.9283335353
 30
0.0
 40
0.229526301014517
100
AcDbArc
 50
20.1693655555
 51
57.4197776411
  0
LINE
  5
19B
330
1F
100
AcDbEntity
  8
0
  6
Continuous
 62
     7
370
    25
100
AcDbLine
 10
18.9791026431
 20
15.2867148976
 30
0.0
 11
18.7740416766
 21
15.1683357214
 31
0.0
  0
LINE
  5
19C
330
1F
100
AcDbEntity
  8
0
  6
Continuous
 62
     7
370
    25
100
AcDbLine
 10
19.2648764465
 20
15.1217411925
 30
0.0
 11
18.9791026431
 21
15.2867148976
 31
0.0
  0
ARC
  5
19D
330
1F
100
AcDbEntity
  8
0
  6
Continuous
 62
     7
370
    25
100
AcDbCircle
 10
19.377130292
 20
14.5779566717
 30
0.0
 40
0.1369450333985749
100
AcDbArc
 50
333.4364081968
 51
26.5635918032
  0
LINE
  5
19E
330
1F
100
AcDbEntity
  8
0
  6
Continuous
 62
     7
370
    25
100
AcDbLine
 10
19.4996192135
 20
14.5167161108
 30
0.0
 11
19.2945582469
 21
14.3983369346
 31
0.0
  0
LINE
  5
19F
330
1F
100
AcDbEntity
  8
0
  6
Continuous
 62
     7
370
    25
100
AcDbLine
 10
19.3567323118
 20
14.3134136792
 30
0.0
 11
19.4996192135
 21
14.5167161108
 31
0.0
  0
ARC
  5
1A0
330
1F
100
AcDbEntity
  8
0
  6
Continuous
 62
     7
370
    25
100
AcDbCircle
 10
16.2907867938
 20
13.4692116575
 30
0.0
 40
0.9003157902391993
100
AcDbArc
 50
60.7269114724
 51
63.0622479813
  0
LWPOLYLINE
  5
1A1
330
1F
100
AcDbEntity
  8
0
  6
Continuous
 62
     7
370
    25
100
AcDbPolyline
 90
       56
 70
   128
 43
0.0
 10
17.6462576925
 20
13.0378227703
 10
17.6456886858
 20
13.0726570297
 10
17.6439824908
 20
13.1080977438
 10
17.6411415813
 20
13.144093527
 10
17.6371700764
 20
13.1805921889
 10
17.6320737343
 20
13.2175408099
 10
17.6258599442
 20
13.2548858181
 10
17.6185377156
 20
13.2925730667
 10
17.610117665
 20
13.3305479128
 10
17.6006120007
 20
13.3687552965
 10
17.5900345049
 20
13.4071398209
 10
17.578400514
 20
13.4456458319
 10
17.5657268963
 20
13.4842174996
 10
17.5520320271
 20
13.5227988988
 10
17.5373357629
 20
13.56133409
 10
17.5216594117
 20
13.5997672009
 10
17.5050257027
 20
13.6380425073
 10
17.4874587533
 20
13.6761045135
 10
17.4689840339
 20
13.7138980334
 10
17.449628331
 20
13.7513682698
 10
17.4294197085
 20
13.7884608947
 10
17.4083874671
 20
13.8251221271
 10
17.3865621014
 20
13.8612988118
 10
17.3639752562
 20
13.8969384961
 10
17.3406596802
 20
13.9319895058
 10
17.3166491787
 20
13.9664010203
 10
17.2919785648
 20
14.0001231463
 10
17.2666836084
 20
14.0331069899
 10
17.2408009848
 20
14.0653047275
 10
17.2143682214
 20
14.0966696757
 10
17.187423643
 20
14.1271563582
 10
17.1600063169
 20
14.1567205723
 10
17.1321559954
 20
14.1853194526
 10
17.1039130589
 20
14.2129115336
 10
17.075318457
 20
14.2394568092
 10
17.046413649
 20
14.2649167916
 10
17.0172405442
 20
14.289254566
 10
16.9878414408
 20
14.312434845
 10
16.9582589647
 20
14.3344240195
 10
16.9285360077
 20
14.3551902073
 10
16.8987156652
 20
14.3747032993
 10
16.8688411738
 20
14.3929350035
 10
16.8389558487
 20
14.4098588856
 10
16.8091030208
 20
14.4254504077
 10
16.7793259738
 20
14.4396869634
 10
16.7496678815
 20
14.4525479111
 10
16.7201717455
 20
14.4640146038
 10
16.6908803322
 20
14.4740704158
 10
16.6618361115
 20
14.4827007671
 10
16.6330811945
 20
14.4898931445
 10
16.6046572733
 20
14.4956371199
 10
16.5766055599
 20
14.4999243649
 10
16.5489667264
 20
14.5027486635
 10
16.5217808466
 20
14.5041059207
 10
16.4950873374
 20
14.5039941686
 10
16.4767866212
 20
14.5030469867
  0
ARC
  5
1A2
330
1F
100
AcDbEntity
  8
0
  6
Continuous
 62
     7
370
    25
100
AcDbCircle
 10
16.9626518176
 20
13.010029351
 30
0.0
 40
0.6841706412117415
100
AcDbArc
 50
328.4076216763
 51
2.3281968681
  0
LWPOLYLINE
  5
1A3
330
1F
100
AcDbEntity
  8
0
  6
Continuous
 62
     7
370
    25
100
AcDbPolyline
 90
       85
 70
   128
 43
0.0
 10
19.054690474
 20
13.4754238327
 10
19.0573710738
 20
13.4769863299
 10
19.0779952439
 20
13.4900577838
 10
19.0977809929
 20
13.5045018336
 10
19.1166996331
 20
13.5202975368
 10
19.1347237345
 20
13.5374219912
 10
19.1518271637
 20
13.5558503679
 10
19.1679851225
 20
13.5755559476
 10
19.1831741833
 20
13.5965101591
 10
19.1973723235
 20
13.6186826206
 10
19.2105589571
 20
13.6420411844
 10
19.2227149647
 20
13.6665519827
 10
19.2338227214
 20
13.6921794772
 10
19.2438661219
 20
13.7188865104
 10
19.2528306042
 20
13.7466343598
 10
19.2607031707
 20
13.7753827936
 10
19.267472407
 20
13.8050901294
 10
19.2731284983
 20
13.8357132942
 10
19.2776632437
 20
13.8672078875
 10
19.2810700684
 20
13.8995282452
 10
19.2833440329
 20
13.9326275057
 10
19.2844818399
 20
13.9664576783
 10
19.2844818399
 20
14.0009697126
 10
19.2833440329
 20
14.0361135693
 10
19.2810700684
 20
14.0718382932
 10
19.2776632437
 20
14.108092087
 10
19.2731284983
 20
14.144822386
 10
19.267472407
 20
14.1819759348
 10
19.2607031707
 20
14.2194988643
 10
19.2528306042
 20
14.25733677
 10
19.2438661219
 20
14.2954347904
 10
19.2338227214
 20
14.333737687
 10
19.2227149647
 20
14.3721899243
 10
19.2105589571
 20
14.4107357503
 10
19.1973723235
 20
14.4493192771
 10
19.1831741833
 20
14.4878845624
 10
19.1679851225
 20
14.5263756902
 10
19.1518271637
 20
14.564736852
 10
19.1347237345
 20
14.6029124278
 10
19.1166996331
 20
14.6408470667
 10
19.0977809929
 20
14.678485767
 10
19.0779952439
 20
14.7157739563
 10
19.0573710738
 20
14.7526575702
 10
19.0359383854
 20
14.7890831311
 10
19.0137282543
 20
14.8249978253
 10
18.9907728829
 20
14.86034958
 10
18.9671055544
 20
14.8950871384
 10
18.942760584
 20
14.9291601346
 10
18.9177732698
 20
14.9625191658
 10
18.8921798409
 20
14.9951158647
 10
18.8660174053
 20
15.0269029692
 10
18.8393238961
 20
15.057834391
 10
18.8121380163
 20
15.0878652825
 10
18.7844991828
 20
15.1169521018
 10
18.7564474693
 20
15.1450526758
 10
18.7280235482
 20
15.1721262613
 10
18.6992686312
 20
15.1981336043
 10
18.6702244105
 20
15.2230369965
 10
18.6409329972
 20
15.2468003305
 10
18.6114368612
 20
15.2693891516
 10
18.5817787689
 20
15.2907707082
 10
18.5520017219
 20
15.3109139992
 10
18.522148894
 20
15.3297898186
 10
18.4922635689
 20
15.3473707984
 10
18.4623890775
 20
15.3636314478
 10
18.432568735
 20
15.3785481904
 10
18.402845778
 20
15.3920993983
 10
18.3732633019
 20
15.4042654237
 10
18.3438641985
 20
15.4150286269
 10
18.3146910937
 20
15.4243734023
 10
18.2857862857
 20
15.4322862009
 10
18.2571916838
 20
15.4387555499
 10
18.2289487473
 20
15.4437720693
 10
18.2010984258
 20
15.4473284857
 10
18.1736810997
 20
15.4494196427
 10
18.1467365213
 20
15.4500425081
 10
18.1203037579
 20
15.449196179
 10
18.0944211343
 20
15.4468818824
 10
18.0691261779
 20
15.4431029739
 10
18.044455564
 20
15.4378649325
 10
18.0204450625
 20
15.4311753528
 10
17.9971294865
 20
15.4230439341
 10
17.9745426413
 20
15.4134824663
 10
17.9527172756
 20
15.4025048124
 10
17.9447806807
 20
15.3980523072
  0
LWPOLYLINE
  5
1A4
330
1F
100
AcDbEntity
  8
0
  6
Continuous
 62
     7
370
    25
100
AcDbPolyline
 90
       43
 70
   128
 43
0.0
 10
18.5210728995
 20
15.3307766046
 10
18.5283080435
 20
15.3265589085
 10
18.5577314272
 20
15.3085905885
 10
18.5871001629
 20
15.2893451523
 10
18.6163706176
 20
15.2688511929
 10
18.6454993041
 20
15.2471391582
 10
18.6744429462
 20
15.2242413057
 10
18.7031585421
 20
15.2001916546
 10
18.7316034293
 20
15.1750259356
 10
18.759735347
 20
15.1487815372
 10
18.7875124999
 20
15.1214974509
 10
18.8148936195
 20
15.0932142125
 10
18.8418380255
 20
15.0639738423
 10
18.8683056868
 20
15.0338197828
 10
18.8942572804
 20
15.0027968338
 10
18.91965425
 20
14.970951086
 10
18.9444588634
 20
14.9383298528
 10
18.9686342684
 20
14.9049815992
 10
18.9921445477
 20
14.870955871
 10
19.014954772
 20
14.8363032199
 10
19.0370310523
 20
14.8010751294
 10
19.0583405897
 20
14.7653239379
 10
19.0788517249
 20
14.7291027608
 10
19.0985339843
 20
14.692465412
 10
19.1173581262
 20
14.6554663234
 10
19.1352961834
 20
14.6181604645
 10
19.1523215055
 20
14.5806032607
 10
19.1684087979
 20
14.5428505106
 10
19.1835341598
 20
14.5049583034
 10
19.1976751195
 20
14.4669829355
 10
19.2108106677
 20
14.428980827
 10
19.2229212889
 20
14.3910084374
 10
19.2339889905
 20
14.3531221823
 10
19.2439973292
 20
14.3153783493
 10
19.2529314356
 20
14.2778330143
 10
19.2607780362
 20
14.2405419584
 10
19.2675254735
 20
14.2035605849
 10
19.2731637228
 20
14.1669438369
 10
19.2776844072
 20
14.1307461159
 10
19.2810808105
 20
14.0950212008
 10
19.2833478866
 20
14.059822168
 10
19.2844822674
 20
14.0252013128
 10
19.2846241045
 20
14.0081238112
  0
LWPOLYLINE
  5
1A5
330
1F
100
AcDbEntity
  8
0
  6
Continuous
 62
     7
370
    25
100
AcDbPolyline
 90
       70
 70
   128
 43
0.0
 10
16.476408543
 20
14.5030196885
 10
16.4819373459
 20
14.5033873815
 10
16.5083701093
 20
14.5042337106
 10
16.5353146876
 20
14.5036108451
 10
16.5627320138
 20
14.5015196882
 10
16.5905823353
 20
14.4979632718
 10
16.6188252718
 20
14.4929467524
 10
16.6474198737
 20
14.4864774034
 10
16.6763246817
 20
14.4785646048
 10
16.7054977865
 20
14.4692198293
 10
16.7348968899
 20
14.4584566261
 10
16.7644793659
 20
14.4462906008
 10
16.794202323
 20
14.4327393928
 10
16.8240226655
 20
14.4178226502
 10
16.8538971569
 20
14.4015620008
 10
16.883782482
 20
14.3839810211
 10
16.9136353099
 20
14.3651052016
 10
16.9434123569
 20
14.3449619107
 10
16.9730704491
 20
14.323580354
 10
17.0025665852
 20
14.3009915329
 10
17.0318579985
 20
14.277228199
 10
17.0609022192
 20
14.2523248068
 10
17.0896571362
 20
14.2263174638
 10
17.1180810573
 20
14.1992438783
 10
17.1461327708
 20
14.1711433043
 10
17.1737716043
 20
14.142056485
 10
17.2009574841
 20
14.1120255935
 10
17.2276509933
 20
14.0810941717
 10
17.2538134289
 20
14.0493070672
 10
17.2794068578
 20
14.0167103683
 10
17.304394172
 20
13.983351337
 10
17.3287391424
 20
13.9492783409
 10
17.3524064709
 20
13.9145407824
 10
17.3753618423
 20
13.8791890277
 10
17.3975719734
 20
13.8432743335
 10
17.4190046617
 20
13.8068487727
 10
17.4396288319
 20
13.7699651588
 10
17.4594145809
 20
13.7326769695
 10
17.4783332211
 20
13.6950382691
 10
17.4963573225
 20
13.6571036303
 10
17.5134607517
 20
13.6189280545
 10
17.5296187105
 20
13.5805668927
 10
17.5448077713
 20
13.5420757649
 10
17.5590059115
 20
13.5035104796
 10
17.5721925451
 20
13.4649269527
 10
17.5843485527
 20
13.4263811268
 10
17.5954563094
 20
13.3879288894
 10
17.6054997099
 20
13.3496259928
 10
17.6144641922
 20
13.3115279724
 10
17.6223367587
 20
13.2736900668
 10
17.629105995
 20
13.2361671372
 10
17.6347620862
 20
13.1990135884
 10
17.6392968317
 20
13.1622832894
 10
17.6427036564
 20
13.1260294957
 10
17.6449776208
 20
13.0903047718
 10
17.6461154279
 20
13.055160915
 10
17.6461154279
 20
13.0206488808
 10
17.6449776208
 20
12.9868187081
 10
17.6427036564
 20
12.9537194476
 10
17.6392968317
 20
12.92139909
 10
17.6347620862
 20
12.8899044967
 10
17.629105995
 20
12.8592813318
 10
17.6223367587
 20
12.8295739961
 10
17.6144641922
 20
12.8008255623
 10
17.6054997099
 20
12.7730777129
 10
17.5954563094
 20
12.7463706796
 10
17.5843485527
 20
12.7207431852
 10
17.5721925451
 20
12.6962323869
 10
17.5590059115
 20
12.6728738231
 10
17.5454526405
 20
12.6516503085
  0
SPLINE
  5
1A6
330
1F
100
AcDbEntity
  8
0
  6
Continuous
 62
     7
370
    25
100
AcDbSpline
210
0.0
220
0.0
230
1.0
 70
     8
 71
     3
 72
    15
 73
    11
 74
     0
 42
0.00000001
 43
0.00000001
 40
0.0
 40
0.0
 40
0.0
 40
0.0
 40
0.1203359528243011
 40
0.2406835150172153
 40
0.379973901130791
 40
0.5192745392382759
 40
0.6618222396803662
 40
0.8043684939643785
 40
0.948052882119217
 40
1.0
 40
1.0
 40
1.0
 40
1.0
 10
16.76802332383993
 20
14.29395252933397
 30
0.0
 10
16.76769421007211
 20
14.29145337268385
 30
0.0
 10
16.76703595078535
 20
14.28645481827835
 30
0.0
 10
16.76363560102208
 20
14.27881111254928
 30
0.0
 10
16.75816549633683
 20
14.27125727915882
 30
0.0
 10
16.75028286906361
 20
14.26404455855012
 30
0.0
 10
16.74041831088725
 20
14.25776153055547
 30
0.0
 10
16.72875396475812
 20
14.25267673850647
 30
0.0
 10
16.71862321651281
 20
14.24945606154563
 30
0.0
 10
16.71222094191095
 20
14.24845241158288
 30
0.0
 10
16.71052091045801
 20
14.24818590684658
 30
0.0
  0
SPLINE
  5
1A7
330
1F
100
AcDbEntity
  8
0
  6
Continuous
 62
     7
370
    25
100
AcDbSpline
210
0.0
220
0.0
230
1.0
 70
     8
 71
     3
 72
    20
 73
    16
 74
     0
 42
0.00000001
 43
0.00000001
 40
0.0
 40
0.0
 40
0.0
 40
0.0
 40
0.0456357711247384
 40
0.1267501128535047
 40
0.2074663323158128
 40
0.2881694526169828
 40
0.3669736680985067
 40
0.4457628104425128
 40
0.5217267468957895
 40
0.5976824657748969
 40
0.6712574689863856
 40
0.7448348726617363
 40
0.8177737961402924
 40
0.8907224235332918
 40
1.0
 40
1.0
 40
1.0
 40
1.0
 10
16.63836712445218
 20
14.33178649167771
 30
0.0
 10
16.64061249492789
 20
14.33275405151495
 30
0.0
 10
16.64684885193861
 20
14.33544138023846
 30
0.0
 10
16.65849114391386
 20
14.33864752895896
 30
0.0
 10
16.67272696349829
 20
14.34128106482601
 30
0.0
 10
16.68733034179417
 20
14.34248150282642
 30
0.0
 10
16.70180527187745
 20
14.34219259080688
 30
0.0
 10
16.71558704259504
 20
14.34046825277875
 30
0.0
 10
16.72834239045983
 20
14.33730018772682
 30
0.0
 10
16.7396503896317
 20
14.33291445247101
 30
0.0
 10
16.74929496777173
 20
14.32737098601416
 30
0.0
 10
16.75712367358132
 20
14.32094328170923
 30
0.0
 10
16.76290603287201
 20
14.31373947861215
 30
0.0
 10
16.76748180628399
 20
14.30474180008733
 30
0.0
 10
16.76782032226629
 20
14.29799716079107
 30
0.0
 10
16.76802332383993
 20
14.29395252933397
 30
0.0
  0
SPLINE
  5
1A8
330
1F
100
AcDbEntity
  8
0
  6
Continuous
 62
     7
370
    25
100
AcDbSpline
210
0.0
220
0.0
230
1.0
 70
     8
 71
     3
 72
    13
 73
     9
 74
     0
 42
0.00000001
 43
0.00000001
 40
0.0
 40
0.0
 40
0.0
 40
0.0
 40
0.1775266056812294
 40
0.3766687722321951
 40
0.5758122008692848
 40
0.7749495423889053
 40
0.9740886157796557
 40
1.0
 40
1.0
 40
1.0
 40
1.0
 10
16.73894867513006
 20
14.2574454367327
 30
0.0
 10
16.73682347641664
 20
14.25900288602189
 30
0.0
 10
16.73231431573581
 20
14.26230741893582
 30
0.0
 10
16.72367989733345
 20
14.26627037509034
 30
0.0
 10
16.71378204660272
 20
14.26949303125624
 30
0.0
 10
16.70299774143849
 20
14.27147154941493
 30
0.0
 10
16.69501005229986
 20
14.27239159344788
 30
0.0
 10
16.69070232674113
 20
14.27230339442012
 30
0.0
 10
16.69020635293484
 20
14.27229323954676
 30
0.0
  0
LWPOLYLINE
  5
1A9
330
1F
100
AcDbEntity
  8
0
  6
Continuous
 62
     7
370
    25
100
AcDbPolyline
 90
       21
 70
   128
 43
0.0
 10
16.7356102099
 20
14.2554038674
 10
16.736215383
 20
14.2558057818
 10
16.7423668611
 20
14.2606543786
 10
16.7471641565
 20
14.2659882358
 10
16.7504948245
 20
14.2716823325
 10
16.7522807972
 20
14.2776032037
 10
16.7524802129
 20
14.2836120693
 10
16.7510883974
 20
14.2895680865
 10
16.7481379738
 20
14.2953316514
 10
16.7436980974
 20
14.3007676709
 10
16.7378728352
 20
14.3057487294
 10
16.7307987264
 20
14.3101580749
 10
16.7226415821
 20
14.3138923562
 10
16.7135925989
 20
14.3168640449
 10
16.7038638772
 20
14.3190034871
 10
16.6936834501
 20
14.3202605362
 10
16.6832899381
 20
14.3206057279
 10
16.6729269564
 20
14.3200309713
 10
16.6628374044
 20
14.3185497382
 10
16.6532577727
 20
14.3161967474
 10
16.6524096939
 20
14.3159381474
  0
LWPOLYLINE
  5
1AA
330
1F
100
AcDbEntity
  8
0
  6
Continuous
 62
     7
370
    25
100
AcDbPolyline
 90
      119
 70
   128
 43
0.0
 10
14.4173724582
 20
14.9823327558
 10
14.4410391911
 20
14.9937282302
 10
14.4760421318
 20
15.0089689425
 10
14.5118366252
 20
15.0226824791
 10
14.5483981396
 20
15.0348594416
 10
14.5857016176
 20
15.0454914844
 10
14.6237214931
 20
15.0545713209
 10
14.6624317094
 20
15.0620927281
 10
14.7018057362
 20
15.0680505514
 10
14.7418165887
 20
15.0724407075
 10
14.7824368454
 20
15.0752601876
 10
14.8236386673
 20
15.0765070594
 10
14.8653938165
 20
15.0761804683
 10
14.9076736763
 20
15.0742806382
 10
14.9504492701
 20
15.0708088712
 10
14.9936912818
 20
15.0657675465
 10
15.0373700752
 20
15.0591601193
 10
15.0814557153
 20
15.0509911179
 10
15.1259179879
 20
15.041266141
 10
15.1707264208
 20
15.0299918537
 10
15.2158503045
 20
15.0171759827
 10
15.2612587134
 20
15.0028273114
 10
15.3069205268
 20
14.9869556736
 10
15.3528044504
 20
14.969571947
 10
15.3988790376
 20
14.9506880456
 10
15.4451127113
 20
14.9303169114
 10
15.4914737851
 20
14.9084725057
 10
15.5379304855
 20
14.8851697996
 10
15.5844509735
 20
14.8604247637
 10
15.6310033661
 20
14.834254357
 10
15.6775557587
 20
14.8066765153
 10
15.7240762466
 20
14.7777101391
 10
15.770532947
 20
14.7473750806
 10
15.8168940209
 20
14.7156921298
 10
15.8631276945
 20
14.6826830006
 10
15.9092022817
 20
14.648370316
 10
15.9550862053
 20
14.612777592
 10
16.0007480187
 20
14.5759292222
 10
16.0461564276
 20
14.5378504605
 10
16.0912803113
 20
14.4985674044
 10
16.1360887442
 20
14.4581069763
 10
16.1805510168
 20
14.4164969059
 10
16.2246366569
 20
14.3737657107
 10
16.2683154504
 20
14.3299426764
 10
16.311557462
 20
14.2850578372
 10
16.3543330558
 20
14.2391419549
 10
16.3966129156
 20
14.1922264979
 10
16.4383680649
 20
14.1443436198
 10
16.4795698867
 20
14.0955261371
 10
16.5201901434
 20
14.0458075069
 10
16.5602009959
 20
13.9952218038
 10
16.5995750228
 20
13.9438036967
 10
16.638285239
 20
13.8915884251
 10
16.6763051146
 20
13.8386117747
 10
16.7136085925
 20
13.784910053
 10
16.7501701069
 20
13.7305200646
 10
16.7859646004
 20
13.6754790855
 10
16.8209675411
 20
13.6198248381
 10
16.8551549397
 20
13.5635954651
 10
16.8885033661
 20
13.5068295033
 10
16.9209899647
 20
13.4495658573
 10
16.952592471
 20
13.3918437726
 10
16.9832892261
 20
13.3337028091
 10
17.0130591921
 20
13.2751828137
 10
17.041881966
 20
13.2163238931
 10
17.0697377942
 20
13.1571663863
 10
17.0966075856
 20
13.0977508369
 10
17.1224729252
 20
13.0381179653
 10
17.147316086
 20
12.9783086408
 10
17.1711200419
 20
12.918363854
 10
17.1938684786
 20
12.8583246878
 10
17.2155458057
 20
12.7982322901
 10
17.2361371666
 20
12.7381278453
 10
17.255628449
 20
12.678052546
 10
17.2740062944
 20
12.6180475647
 10
17.2912581077
 20
12.5581540259
 10
17.3073720654
 20
12.4984129776
 10
17.3223371237
 20
12.4388653633
 10
17.3361430263
 20
12.3795519941
 10
17.3487803113
 20
12.3205135203
 10
17.3602403179
 20
12.2617904039
 10
17.3705151918
 20
12.2034228909
 10
17.3795978912
 20
12.1454509833
 10
17.3874821913
 20
12.0879144124
 10
17.3941626885
 20
12.0308526107
 10
17.3996348044
 20
11.9743046856
 10
17.4038947886
 20
11.9183093921
 10
17.4069397216
 20
11.8629051068
 10
17.4087675166
 20
11.8081298008
 10
17.4093769208
 20
11.7540210145
 10
17.4087675166
 20
11.7006158313
 10
17.4069397216
 20
11.6479508524
 10
17.4038947886
 20
11.5960621719
 10
17.3996348044
 20
11.5449853516
 10
17.3941626885
 20
11.494755397
 10
17.3874821913
 20
11.4454067332
 10
17.3795978912
 20
11.3969731813
 10
17.3705151918
 20
11.3494879353
 10
17.3602403179
 20
11.3029835392
 10
17.3487803113
 20
11.2574918648
 10
17.3361430263
 20
11.2130440897
 10
17.3223371237
 20
11.1696706763
 10
17.3073720654
 20
11.1274013506
 10
17.2912581077
 20
11.0862650818
 10
17.2740062944
 20
11.0462900627
 10
17.255628449
 20
11.0075036901
 10
17.2361371666
 20
10.9699325463
 10
17.2155458057
 20
10.9336023807
 10
17.1938684786
 20
10.8985380922
 10
17.1711200419
 20
10.8647637121
 10
17.147316086
 20
10.8323023876
 10
17.1224729252
 20
10.8011763661
 10
17.0966075856
 20
10.7714069799
 10
17.0697377942
 20
10.7430146313
 10
17.041881966
 20
10.7160187792
 10
17.0130591921
 20
10.690437925
 10
16.9832892261
 20
10.6662896007
 10
16.952592471
 20
10.6435903562
 10
16.9308762648
 20
10.6287769445
  0
LWPOLYLINE
  5
1AB
330
1F
100
AcDbEntity
  8
0
  6
Continuous
 62
     7
370
    25
100
AcDbPolyline
 90
      119
 70
   128
 43
0.0
 10
17.1631348264
 20
10.7629431298
 10
17.1838163885
 20
10.7770730825
 10
17.2145131436
 20
10.799772327
 10
17.2442831095
 20
10.8239206513
 10
17.2731058834
 20
10.8495015054
 10
17.3009617116
 20
10.8764973576
 10
17.3278315031
 20
10.9048897061
 10
17.3536968427
 20
10.9346590924
 10
17.3785400035
 20
10.9657851138
 10
17.4023439593
 20
10.9982464383
 10
17.4250923961
 20
11.0320208185
 10
17.4467697232
 20
11.067085107
 10
17.4673610841
 20
11.1034152726
 10
17.4868523664
 20
11.1409864164
 10
17.5052302119
 20
11.1797727889
 10
17.5224820252
 20
11.2197478081
 10
17.5385959828
 20
11.2608840769
 10
17.5535610411
 20
11.3031534026
 10
17.5673669437
 20
11.346526816
 10
17.5800042288
 20
11.390974591
 10
17.5914642353
 20
11.4364662655
 10
17.6017391092
 20
11.4829706616
 10
17.6108218087
 20
11.5304559076
 10
17.6187061087
 20
11.5788894595
 10
17.6253866059
 20
11.6282381233
 10
17.6308587218
 20
11.6784680779
 10
17.635118706
 20
11.7295448982
 10
17.6381636391
 20
11.7814335787
 10
17.639991434
 20
11.8340985576
 10
17.6406008382
 20
11.8875037408
 10
17.639991434
 20
11.9416125271
 10
17.6381636391
 20
11.9963878331
 10
17.635118706
 20
12.0517921184
 10
17.6308587218
 20
12.1077874119
 10
17.6253866059
 20
12.164335337
 10
17.6187061087
 20
12.2213971387
 10
17.6108218087
 20
12.2789337096
 10
17.6017391092
 20
12.3369056171
 10
17.5914642353
 20
12.3952731302
 10
17.5800042288
 20
12.4539962465
 10
17.5673669437
 20
12.5130347204
 10
17.5535610411
 20
12.5723480896
 10
17.5385959828
 20
12.6318957038
 10
17.5224820252
 20
12.6916367521
 10
17.5052302119
 20
12.7515302909
 10
17.4868523664
 20
12.8115352722
 10
17.4673610841
 20
12.8716105716
 10
17.4467697232
 20
12.9317150164
 10
17.4250923961
 20
12.991807414
 10
17.4023439593
 20
13.0518465802
 10
17.3785400035
 20
13.1117913671
 10
17.3536968427
 20
13.1716006915
 10
17.3278315031
 20
13.2312335632
 10
17.3009617116
 20
13.2906491126
 10
17.2731058834
 20
13.3498066194
 10
17.2442831095
 20
13.40866554
 10
17.2145131436
 20
13.4671855354
 10
17.1838163885
 20
13.5253264989
 10
17.1522138822
 20
13.5830485836
 10
17.1197272835
 20
13.6403122296
 10
17.0863788572
 20
13.6970781914
 10
17.0521914585
 20
13.7533075644
 10
17.0171885178
 20
13.8089618118
 10
16.9813940244
 20
13.8640027908
 10
16.94483251
 20
13.9183927793
 10
16.907529032
 20
13.972094501
 10
16.8695091565
 20
14.0250711514
 10
16.8307989402
 20
14.077286423
 10
16.7914249134
 20
14.1287045301
 10
16.7514140609
 20
14.1792902332
 10
16.7107938042
 20
14.2290088634
 10
16.6695919823
 20
14.2778263461
 10
16.6278368331
 20
14.3257092242
 10
16.5855569733
 20
14.3726246811
 10
16.5427813795
 20
14.4185405635
 10
16.4995393678
 20
14.4634254027
 10
16.4558605744
 20
14.507248437
 10
16.4117749343
 20
14.5499796322
 10
16.3673126617
 20
14.5915897026
 10
16.3225042288
 20
14.6320501307
 10
16.2773803451
 20
14.6713331868
 10
16.2319719362
 20
14.7094119485
 10
16.1863101228
 20
14.7462603183
 10
16.1404261992
 20
14.7818530423
 10
16.094351612
 20
14.8161657269
 10
16.0481179383
 20
14.849174856
 10
16.0017568645
 20
14.8808578068
 10
15.9553001641
 20
14.9111928654
 10
15.9087796761
 20
14.9401592416
 10
15.8622272835
 20
14.9677370833
 10
15.8156748909
 20
14.99390749
 10
15.769154403
 20
15.0186525259
 10
15.7226977026
 20
15.041955232
 10
15.6763366287
 20
15.0637996376
 10
15.6301029551
 20
15.0841707719
 10
15.5840283679
 20
15.1030546733
 10
15.5381444443
 20
15.1204383999
 10
15.4924826309
 20
15.1363100376
 10
15.447074222
 20
15.150658709
 10
15.4019503383
 20
15.16347458
 10
15.3571419054
 20
15.1747488673
 10
15.3126796328
 20
15.1844738442
 10
15.2685939927
 20
15.1926428455
 10
15.2249151992
 20
15.1992502728
 10
15.1816731876
 20
15.2042915974
 10
15.1388975938
 20
15.2077633645
 10
15.096617734
 20
15.2096631946
 10
15.0548625847
 20
15.2099897857
 10
15.0136607629
 20
15.2087429139
 10
14.9730405062
 20
15.2059234338
 10
14.9330296537
 20
15.2015332777
 10
14.8936556268
 20
15.1955754544
 10
14.8549454106
 20
15.1880540471
 10
14.816925535
 20
15.1789742107
 10
14.7796220571
 20
15.1683421679
 10
14.7430605427
 20
15.1561652054
 10
14.7072660492
 20
15.1424516687
 10
14.6722631085
 20
15.1272109565
 10
14.6494835062
 20
15.1162591451
  0
ARC
  5
1AC
330
1F
100
AcDbEntity
  8
0
  6
Continuous
 62
     7
370
    25
100
AcDbCircle
 10
19.3334583849
 20
15.0797577865
 30
0.0
 40
0.0759388744272778
100
AcDbArc
 50
287.8473696381
 51
339.7850374824
  0
LWPOLYLINE
  5
1AD
330
1F
100
AcDbEntity
  8
0
  6
Continuous
 62
     7
370
    25
100
AcDbPolyline
 90
       10
 70
   128
 43
0.0
 10
19.4996192135
 20
14.6391972326
 10
19.5102029352
 20
14.6455525807
 10
19.5196643074
 20
14.6517483116
 10
19.5278996693
 20
14.6577165437
 10
19.5348187924
 20
14.6633918877
 10
19.5403458696
 20
14.6687121634
 10
19.5444203449
 20
14.6736190807
 10
19.5469975775
 20
14.6780588785
 10
19.5480493308
 20
14.6819829133
 10
19.5476065403
 20
14.6852414828
  0
ARC
  5
1AE
330
1F
100
AcDbEntity
  8
0
  6
Continuous
 62
     7
370
    25
100
AcDbCircle
 10
19.3087205919
 20
15.061356871
 30
0.0
 40
0.0746228877434792
100
AcDbArc
 50
65.3276226242
 51
125.9828358049
  0
LINE
  5
1AF
330
1F
100
AcDbEntity
  8
0
  6
Continuous
 62
     7
370
    25
100
AcDbLine
 10
19.2576110206
 20
14.2561921758
 30
0.0
 11
19.3567323118
 21
14.3134136792
 31
0.0
  0
ARC
  5
1B0
330
1F
100
AcDbEntity
  8
0
  6
Continuous
 62
     7
370
    25
100
AcDbCircle
 10
19.0229467886
 20
15.2263305761
 30
0.0
 40
0.0746228877435677
100
AcDbArc
 50
65.3276226242
 51
125.9828358049
  0
ARC
  5
1B1
330
1F
100
AcDbEntity
  8
0
  6
Continuous
 62
     7
370
    25
100
AcDbCircle
 10
19.4520149233
 20
14.600173657
 30
0.0
 40
0.096079812962321
100
AcDbArc
 50
299.7004901687
 51
324.7573405728
  0
ARC
  5
1B2
330
1F
100
AcDbEntity
  8
0
  6
Continuous
 62
     7
370
    25
100
AcDbCircle
 10
18.9352584977
 20
15.2263305761
 30
0.0
 40
0.0746228877434344
100
AcDbArc
 50
54.0171641951
 51
114.6723773758
  0
ARC
  5
1B3
330
1F
100
AcDbEntity
  8
0
  6
Continuous
 62
     7
370
    25
100
AcDbCircle
 10
19.3091280216
 20
14.3968712254
 30
0.0
 40
0.0960798129622535
100
AcDbArc
 50
299.7004901687
 51
324.7573405728
  0
ARC
  5
1B4
330
1F
100
AcDbEntity
  8
0
  6
Continuous
 62
     7
370
    25
100
AcDbCircle
 10
19.3133110336
 20
14.3433192235
 30
0.0
 40
0.0527233248177393
100
AcDbArc
 50
300.2483378418
 51
325.443642964
  0
ARC
  5
1B5
330
1F
100
AcDbEntity
  8
0
  6
Continuous
 62
     7
370
    25
100
AcDbCircle
 10
5.00277869
 20
3.4494990116
 30
0.0
 40
0.4450000000000009
100
AcDbArc
 50
224.6075756536
 51
315.3924243464
  0
LINE
  5
1B6
330
1F
100
AcDbEntity
  8
0
  6
Continuous
 62
     7
370
    25
100
AcDbLine
 10
4.75277869
 20
3.1369990116
 30
0.0
 11
4.75277869
 21
3.0813618089
 31
0.0
  0
LINE
  5
1B7
330
1F
100
AcDbEntity
  8
0
  6
Continuous
 62
     7
370
    25
100
AcDbLine
 10
4.72152869
 20
3.1369990116
 30
0.0
 11
4.72152869
 21
3.104646235
 31
0.0
  0
LINE
  5
1B8
330
1F
100
AcDbEntity
  8
0
  6
Continuous
 62
     7
370
    25
100
AcDbLine
 10
5.12777869
 20
3.1369990116
 30
0.0
 11
5.12777869
 21
3.0224158815
 31
0.0
  0
LINE
  5
1B9
330
1F
100
AcDbEntity
  8
0
  6
Continuous
 62
     7
370
    25
100
AcDbLine
 10
5.09652869
 20
3.1369990116
 30
0.0
 11
5.09652869
 21
3.0144864399
 31
0.0
  0
LINE
  5
1BA
330
1F
100
AcDbEntity
  8
0
  6
Continuous
 62
     7
370
    25
100
AcDbLine
 10
5.00277869
 20
3.1369990116
 30
0.0
 11
5.00277869
 21
3.0044990116
 31
0.0
  0
LINE
  5
1BB
330
1F
100
AcDbEntity
  8
0
  6
Continuous
 62
     7
370
    25
100
AcDbLine
 10
4.97152869
 20
3.1369990116
 30
0.0
 11
4.97152869
 21
3.0055976289
 31
0.0
  0
LINE
  5
1BC
330
1F
100
AcDbEntity
  8
0
  6
Continuous
 62
     7
370
    25
100
AcDbLine
 10
5.31527869
 20
3.1369990116
 30
0.0
 11
5.31527869
 21
3.1326887371
 31
0.0
  0
LINE
  5
1BD
330
1F
100
AcDbEntity
  8
0
  6
Continuous
 62
     7
370
    25
100
AcDbLine
 10
5.28402869
 20
3.1369990116
 30
0.0
 11
5.28402869
 21
3.104646235
 31
0.0
  0
LINE
  5
1BE
330
1F
100
AcDbEntity
  8
0
  6
Continuous
 62
     7
370
    25
100
AcDbLine
 10
4.94027869
 20
3.1369990116
 30
0.0
 11
4.94027869
 21
3.0089099173
 31
0.0
  0
LINE
  5
1BF
330
1F
100
AcDbEntity
  8
0
  6
Continuous
 62
     7
370
    25
100
AcDbLine
 10
4.90902869
 20
3.1369990116
 30
0.0
 11
4.90902869
 21
3.0144864399
 31
0.0
  0
LINE
  5
1C0
330
1F
100
AcDbEntity
  8
0
  6
Continuous
 62
     7
370
    25
100
AcDbLine
 10
4.81527869
 20
3.1369990116
 30
0.0
 11
4.81527869
 21
3.0459290053
 31
0.0
  0
LINE
  5
1C1
330
1F
100
AcDbEntity
  8
0
  6
Continuous
 62
     7
370
    25
100
AcDbLine
 10
4.78402869
 20
3.1369990116
 30
0.0
 11
4.78402869
 21
3.0619768348
 31
0.0
  0
LINE
  5
1C2
330
1F
100
AcDbEntity
  8
0
  6
Continuous
 62
     7
370
    25
100
AcDbLine
 10
5.25277869
 20
3.1369990116
 30
0.0
 11
5.25277869
 21
3.0813618089
 31
0.0
  0
LINE
  5
1C3
330
1F
100
AcDbEntity
  8
0
  6
Continuous
 62
     7
370
    25
100
AcDbLine
 10
5.22152869
 20
3.1369990116
 30
0.0
 11
5.22152869
 21
3.0619768348
 31
0.0
  0
LINE
  5
1C4
330
1F
100
AcDbEntity
  8
0
  6
Continuous
 62
     7
370
    25
100
AcDbLine
 10
5.06527869
 20
3.1369990116
 30
0.0
 11
5.06527869
 21
3.0089099173
 31
0.0
  0
LINE
  5
1C5
330
1F
100
AcDbEntity
  8
0
  6
Continuous
 62
     7
370
    25
100
AcDbLine
 10
5.03402869
 20
3.1369990116
 30
0.0
 11
5.03402869
 21
3.0055976289
 31
0.0
  0
LINE
  5
1C6
330
1F
100
AcDbEntity
  8
0
  6
Continuous
 62
     7
370
    25
100
AcDbLine
 10
4.69027869
 20
3.1369990116
 30
0.0
 11
4.69027869
 21
3.1326887371
 31
0.0
  0
LINE
  5
1C7
330
1F
100
AcDbEntity
  8
0
  6
Continuous
 62
     7
370
    25
100
AcDbLine
 10
4.87777869
 20
3.1369990116
 30
0.0
 11
4.87777869
 21
3.0224158815
 31
0.0
  0
LINE
  5
1C8
330
1F
100
AcDbEntity
  8
0
  6
Continuous
 62
     7
370
    25
100
AcDbLine
 10
4.84652869
 20
3.1369990116
 30
0.0
 11
4.84652869
 21
3.0328325532
 31
0.0
  0
LINE
  5
1C9
330
1F
100
AcDbEntity
  8
0
  6
Continuous
 62
     7
370
    25
100
AcDbLine
 10
5.19027869
 20
3.1369990116
 30
0.0
 11
5.19027869
 21
3.0459290053
 31
0.0
  0
LINE
  5
1CA
330
1F
100
AcDbEntity
  8
0
  6
Continuous
 62
     7
370
    25
100
AcDbLine
 10
5.15902869
 20
3.1369990116
 30
0.0
 11
5.15902869
 21
3.0328325532
 31
0.0
  0
LINE
  5
1CB
330
1F
100
AcDbEntity
  8
0
  6
Continuous
 62
     7
370
    25
100
AcDbLine
 10
4.604650256
 20
3.1369990116
 30
0.0
 11
5.4009071241
 21
3.1369990116
 31
0.0
  0
ARC
  5
1CC
330
1F
100
AcDbEntity
  8
0
  6
Continuous
 62
     7
370
    25
100
AcDbCircle
 10
5.00277869
 20
3.4494990116
 30
0.0
 40
0.5061249845640893
100
AcDbArc
 50
218.1291692158
 51
321.8708307842
  0
CIRCLE
  5
1CD
330
1F
100
AcDbEntity
  8
0
  6
Continuous
 62
     7
370
    25
100
AcDbCircle
 10
5.00277869
 20
3.4494990116
 30
0.0
 40
0.5062114182829149
  0
ARC
  5
1CE
330
1F
100
AcDbEntity
  8
0
  6
Continuous
 62
     7
370
    25
100
AcDbCircle
 10
5.00277869
 20
3.4494990116
 30
0.0
 40
0.4611127844681823
100
AcDbArc
 50
222.664826585
 51
317.335173415
  0
CIRCLE
  5
1CF
330
1F
100
AcDbEntity
  8
0
  6
Continuous
 62
     7
370
    25
100
AcDbCircle
 10
5.00277869
 20
3.4494990116
 30
0.0
 40
1.2575
  0
CIRCLE
  5
1D0
330
1F
100
AcDbEntity
  8
0
  6
Continuous
 62
     7
370
    25
100
AcDbCircle
 10
4.12777869
 20
3.4494990116
 30
0.0
 40
0.1025
  0
CIRCLE
  5
1D1
330
1F
100
AcDbEntity
  8
0
  6
Continuous
 62
     7
370
    25
100
AcDbCircle
 10
5.87777869
 20
3.4494990116
 30
0.0
 40
0.1025000000000005
  0
CIRCLE
  5
1D2
330
1F
100
AcDbEntity
  8
0
  6
Continuous
 62
     7
370
    25
100
AcDbCircle
 10
4.12777869
 20
3.4494990116
 30
0.0
 40
0.0507500000000003
  0
CIRCLE
  5
1D3
330
1F
100
AcDbEntity
  8
0
  6
Continuous
 62
     7
370
    25
100
AcDbCircle
 10
5.87777869
 20
3.4494990116
 30
0.0
 40
0.0507499999999999
  0
INSERT
  5
1D4
330
1F
100
AcDbEntity
  8
0
  6
Continuous
 62
     7
100
AcDbBlockReference
  2
Block1
 10
5.7580907282
 20
1.3098721616
 30
0.0
 41
0.5
 42
0.5
 43
0.5
  0
DIMENSION
  5
1D5
330
1F
100
AcDbEntity
  8
0
  6
Continuous
 62
     7
370
    18
100
AcDbDimension
  2
_D_3
 10
5.87777869
 20
5.4944005864
 30
0.0
 11
5.00277869
 21
5.4944005864
 31
0.0
 70
   160
  1
<>\PO.C.
 71
     2
 42
-1.0
  3
SLDDIMSTYLE2
100
AcDbAlignedDimension
 13
4.12777869
 23
3.4494990116
 33
0.0
 14
5.87777869
 24
3.4494990116
 34
0.0
 50
0.0
100
AcDbRotatedDimension
  0
DIMENSION
  5
1E9
330
1F
100
AcDbEntity
  8
0
  6
Continuous
 62
     7
370
    18
100
AcDbDimension
  2
_D_4
 10
5.8919654674
 20
4.3386857889
 30
0.0
 11
2.4185903193
 21
2.1072376967
 31
0.0
 70
   163
  1
<>
 71
     1
 42
-1.0
  3
SLDDIMSTYLE3
100
AcDbDiametricDimension
 15
4.1135919127
 25
2.5603122342
 35
0.0
 40
0.0
  0
LINE
  5
1FA
330
1F
100
AcDbEntity
  8
0
  6
Continuous
 62
     7
370
    25
100
AcDbLine
 10
14.3715044038
 20
3.2619990116
 30
0.0
 11
15.3119165475
 21
3.2619990116
 31
0.0
  0
ARC
  5
1FB
330
1F
100
AcDbEntity
  8
0
  6
Continuous
 62
     7
370
    25
100
AcDbCircle
 10
14.8417104756
 20
3.4494990116
 30
0.0
 40
0.5062114182829153
100
AcDbArc
 50
338.2597980049
 51
201.7402019951
  0
CIRCLE
  5
1FC
330
1F
100
AcDbEntity
  8
0
  6
Continuous
 62
     7
370
    25
100
AcDbCircle
 10
13.9667104756
 20
3.4494990116
 30
0.0
 40
0.1024999999999996
  0
CIRCLE
  5
1FD
330
1F
100
AcDbEntity
  8
0
  6
Continuous
 62
     7
370
    25
100
AcDbCircle
 10
15.7167104756
 20
3.4494990116
 30
0.0
 40
0.1025000000000005
  0
CIRCLE
  5
1FE
330
1F
100
AcDbEntity
  8
0
  6
Continuous
 62
     7
370
    25
100
AcDbCircle
 10
14.8417104756
 20
3.4494990116
 30
0.0
 40
1.2425
  0
ARC
  5
1FF
330
1F
100
AcDbEntity
  8
0
  6
Continuous
 62
     7
370
    25
100
AcDbCircle
 10
14.8417104756
 20
3.4494990116
 30
0.0
 40
0.4612076538827173
100
AcDbArc
 50
203.9877545989
 51
336.0122454011
  0
CIRCLE
  5
200
330
1F
100
AcDbEntity
  8
0
  6
Continuous
 62
     7
370
    25
100
AcDbCircle
 10
13.9667104756
 20
3.4494990116
 30
0.0
 40
0.0507499999999999
  0
CIRCLE
  5
201
330
1F
100
AcDbEntity
  8
0
  6
Continuous
 62
     7
370
    25
100
AcDbCircle
 10
15.7167104756
 20
3.4494990116
 30
0.0
 40
0.0507499999999999
  0
CIRCLE
  5
202
330
1F
100
AcDbEntity
  8
0
  6
Continuous
 62
     7
370
    25
100
AcDbCircle
 10
14.8417104756
 20
3.4494990116
 30
0.0
 40
1.2575
  0
ARC
  5
203
330
1F
100
AcDbEntity
  8
0
  6
Continuous
 62
     7
370
    25
100
AcDbCircle
 10
14.8417104756
 20
3.4494990116
 30
0.0
 40
0.4450000000000004
100
AcDbArc
 50
204.9197415276
 51
335.0802584724
  0
LINE
  5
204
330
1F
100
AcDbEntity
  8
0
  6
Continuous
 62
     7
370
    25
100
AcDbLine
 10
14.9667104756
 20
3.2619990116
 30
0.0
 11
14.9667104756
 21
3.0224158815
 31
0.0
  0
LINE
  5
205
330
1F
100
AcDbEntity
  8
0
  6
Continuous
 62
     7
370
    25
100
AcDbLine
 10
14.9354604756
 20
3.2619990116
 30
0.0
 11
14.9354604756
 21
3.0144864399
 31
0.0
  0
LINE
  5
206
330
1F
100
AcDbEntity
  8
0
  6
Continuous
 62
     7
370
    25
100
AcDbLine
 10
14.5917104756
 20
3.2619990116
 30
0.0
 11
14.5917104756
 21
3.0813618089
 31
0.0
  0
LINE
  5
207
330
1F
100
AcDbEntity
  8
0
  6
Continuous
 62
     7
370
    25
100
AcDbLine
 10
14.5604604756
 20
3.2619990116
 30
0.0
 11
14.5604604756
 21
3.104646235
 31
0.0
  0
LINE
  5
208
330
1F
100
AcDbEntity
  8
0
  6
Continuous
 62
     7
370
    25
100
AcDbLine
 10
14.8417104756
 20
3.2619990116
 30
0.0
 11
14.8417104756
 21
3.0044990116
 31
0.0
  0
LINE
  5
209
330
1F
100
AcDbEntity
  8
0
  6
Continuous
 62
     7
370
    25
100
AcDbLine
 10
14.8104604756
 20
3.2619990116
 30
0.0
 11
14.8104604756
 21
3.0055976289
 31
0.0
  0
LINE
  5
20A
330
1F
100
AcDbEntity
  8
0
  6
Continuous
 62
     7
370
    25
100
AcDbLine
 10
15.2167104756
 20
3.2619990116
 30
0.0
 11
15.2167104756
 21
3.2099160406
 31
0.0
  0
LINE
  5
20B
330
1F
100
AcDbEntity
  8
0
  6
Continuous
 62
     7
370
    25
100
AcDbLine
 10
15.1854604756
 20
3.2619990116
 30
0.0
 11
15.1854604756
 21
3.1669022361
 31
0.0
  0
LINE
  5
20C
330
1F
100
AcDbEntity
  8
0
  6
Continuous
 62
     7
370
    25
100
AcDbLine
 10
14.4667104756
 20
3.2619990116
 30
0.0
 11
14.4667104756
 21
3.2099160406
 31
0.0
  0
LINE
  5
20D
330
1F
100
AcDbEntity
  8
0
  6
Continuous
 62
     7
370
    25
100
AcDbLine
 10
15.1542104756
 20
3.2619990116
 30
0.0
 11
15.1542104756
 21
3.1326887371
 31
0.0
  0
LINE
  5
20E
330
1F
100
AcDbEntity
  8
0
  6
Continuous
 62
     7
370
    25
100
AcDbLine
 10
15.1229604756
 20
3.2619990116
 30
0.0
 11
15.1229604756
 21
3.104646235
 31
0.0
  0
LINE
  5
20F
330
1F
100
AcDbEntity
  8
0
  6
Continuous
 62
     7
370
    25
100
AcDbLine
 10
14.7792104756
 20
3.2619990116
 30
0.0
 11
14.7792104756
 21
3.0089099173
 31
0.0
  0
LINE
  5
210
330
1F
100
AcDbEntity
  8
0
  6
Continuous
 62
     7
370
    25
100
AcDbLine
 10
14.7479604756
 20
3.2619990116
 30
0.0
 11
14.7479604756
 21
3.0144864399
 31
0.0
  0
LINE
  5
211
330
1F
100
AcDbEntity
  8
0
  6
Continuous
 62
     7
370
    25
100
AcDbLine
 10
14.6542104756
 20
3.2619990116
 30
0.0
 11
14.6542104756
 21
3.0459290053
 31
0.0
  0
LINE
  5
212
330
1F
100
AcDbEntity
  8
0
  6
Continuous
 62
     7
370
    25
100
AcDbLine
 10
14.6229604756
 20
3.2619990116
 30
0.0
 11
14.6229604756
 21
3.0619768348
 31
0.0
  0
LINE
  5
213
330
1F
100
AcDbEntity
  8
0
  6
Continuous
 62
     7
370
    25
100
AcDbLine
 10
14.9042104756
 20
3.2619990116
 30
0.0
 11
14.9042104756
 21
3.0089099173
 31
0.0
  0
LINE
  5
214
330
1F
100
AcDbEntity
  8
0
  6
Continuous
 62
     7
370
    25
100
AcDbLine
 10
14.8729604756
 20
3.2619990116
 30
0.0
 11
14.8729604756
 21
3.0055976289
 31
0.0
  0
LINE
  5
215
330
1F
100
AcDbEntity
  8
0
  6
Continuous
 62
     7
370
    25
100
AcDbLine
 10
15.0917104756
 20
3.2619990116
 30
0.0
 11
15.0917104756
 21
3.0813618089
 31
0.0
  0
LINE
  5
216
330
1F
100
AcDbEntity
  8
0
  6
Continuous
 62
     7
370
    25
100
AcDbLine
 10
15.0604604756
 20
3.2619990116
 30
0.0
 11
15.0604604756
 21
3.0619768348
 31
0.0
  0
LINE
  5
217
330
1F
100
AcDbEntity
  8
0
  6
Continuous
 62
     7
370
    25
100
AcDbLine
 10
14.7167104756
 20
3.2619990116
 30
0.0
 11
14.7167104756
 21
3.0224158815
 31
0.0
  0
LINE
  5
218
330
1F
100
AcDbEntity
  8
0
  6
Continuous
 62
     7
370
    25
100
AcDbLine
 10
14.6854604756
 20
3.2619990116
 30
0.0
 11
14.6854604756
 21
3.0328325532
 31
0.0
  0
LINE
  5
219
330
1F
100
AcDbEntity
  8
0
  6
Continuous
 62
     7
370
    25
100
AcDbLine
 10
14.5292104756
 20
3.2619990116
 30
0.0
 11
14.5292104756
 21
3.1326887371
 31
0.0
  0
LINE
  5
21A
330
1F
100
AcDbEntity
  8
0
  6
Continuous
 62
     7
370
    25
100
AcDbLine
 10
14.4979604756
 20
3.2619990116
 30
0.0
 11
14.4979604756
 21
3.1669022361
 31
0.0
  0
LINE
  5
21B
330
1F
100
AcDbEntity
  8
0
  6
Continuous
 62
     7
370
    25
100
AcDbLine
 10
15.0292104756
 20
3.2619990116
 30
0.0
 11
15.0292104756
 21
3.0459290053
 31
0.0
  0
LINE
  5
21C
330
1F
100
AcDbEntity
  8
0
  6
Continuous
 62
     7
370
    25
100
AcDbLine
 10
14.9979604756
 20
3.2619990116
 30
0.0
 11
14.9979604756
 21
3.0328325532
 31
0.0
  0
INSERT
  5
21D
330
1F
100
AcDbEntity
  8
0
  6
Continuous
 62
     7
100
AcDbBlockReference
  2
Block2
 10
15.9267441518
 20
0.961324719
 30
0.0
 41
0.5
 42
0.5
 43
0.5
  0
DIMENSION
  5
21E
330
1F
100
AcDbEntity
  8
0
  6
Continuous
 62
     7
370
    18
100
AcDbDimension
  2
_D_5
 10
15.7167104756
 20
5.4944005864
 30
0.0
 11
14.8417104756
 21
5.4944005864
 31
0.0
 70
   160
  1
<>\PO.C.
 71
     2
 42
-1.0
  3
SLDDIMSTYLE2
100
AcDbAlignedDimension
 13
13.9667104756
 23
3.4494990116
 33
0.0
 14
15.7167104756
 24
3.4494990116
 34
0.0
 50
0.0
100
AcDbRotatedDimension
  0
DIMENSION
  5
231
330
1F
100
AcDbEntity
  8
0
  6
Continuous
 62
     7
370
    18
100
AcDbDimension
  2
_D_6
 10
15.730897253
 20
4.3386857889
 30
0.0
 11
12.2408461651
 21
2.0905617569
 31
0.0
 70
   163
  1
<>
 71
     1
 42
-1.0
  3
SLDDIMSTYLE3
100
AcDbDiametricDimension
 15
13.9525236983
 25
2.5603122342
 35
0.0
 40
0.0
  0
LINE
  5
241
330
1F
100
AcDbEntity
  8
0
  6
Continuous
 62
     7
370
    25
100
AcDbLine
 10
7.9190959967
 20
2.8944990116
 30
0.0
 11
8.2886711399
 21
2.8944990116
 31
0.0
  0
LINE
  5
242
330
1F
100
AcDbEntity
  8
0
  6
Continuous
 62
     7
370
    25
100
AcDbLine
 10
7.7516568196
 20
2.8944990116
 30
0.0
 11
7.8342945643
 21
2.8944990116
 31
0.0
  0
LINE
  5
243
330
1F
100
AcDbEntity
  8
0
  6
Continuous
 62
     7
370
    25
100
AcDbLine
 10
8.2886711399
 20
4.0044990116
 30
0.0
 11
7.7516568196
 21
4.0044990116
 31
0.0
  0
ARC
  5
244
330
1F
100
AcDbEntity
  8
0
  6
Continuous
 62
     7
370
    25
100
AcDbCircle
 10
8.3110318196
 20
2.8744990116
 30
0.0
 40
0.0299999999999997
100
AcDbArc
 50
41.8103148958
 51
138.1896851042
  0
ARC
  5
245
330
1F
100
AcDbEntity
  8
0
  6
Continuous
 62
     7
370
    25
100
AcDbCircle
 10
8.3110318196
 20
4.0244990116
 30
0.0
 40
0.0299999999999997
100
AcDbArc
 50
221.8103148958
 51
318.1896851042
  0
LINE
  5
246
330
1F
100
AcDbEntity
  8
0
  6
Continuous
 62
     7
370
    25
100
AcDbLine
 10
8.3333924994
 20
2.8944990116
 30
0.0
 11
8.4416568196
 21
2.8944990116
 31
0.0
  0
LINE
  5
247
330
1F
100
AcDbEntity
  8
0
  6
Continuous
 62
     7
370
    25
100
AcDbLine
 10
8.4416568196
 20
4.0044990116
 30
0.0
 11
8.3333924994
 21
4.0044990116
 31
0.0
  0
LINE
  5
248
330
1F
100
AcDbEntity
  8
0
  6
Continuous
 62
     7
370
    25
100
AcDbLine
 10
8.4491568196
 20
2.1919990116
 30
0.0
 11
8.6366568196
 21
2.1919990116
 31
0.0
  0
LINE
  5
249
330
1F
100
AcDbEntity
  8
0
  6
Continuous
 62
     7
370
    25
100
AcDbLine
 10
8.6366568196
 20
4.7069990116
 30
0.0
 11
8.4491568196
 21
4.7069990116
 31
0.0
  0
LINE
  5
24A
330
1F
100
AcDbEntity
  8
0
  6
Continuous
 62
     7
370
    25
100
AcDbLine
 10
8.4491568196
 20
4.0380577634
 30
0.0
 11
8.4416568196
 21
4.0379923118
 31
0.0
  0
LINE
  5
24B
330
1F
100
AcDbEntity
  8
0
  6
Continuous
 62
     7
370
    25
100
AcDbLine
 10
8.4416568196
 20
2.8610057113
 30
0.0
 11
8.4491568196
 21
2.8609402598
 31
0.0
  0
ARC
  5
24C
330
1F
100
AcDbEntity
  8
0
  6
Continuous
 62
     7
370
    25
100
AcDbCircle
 10
8.6304068196
 20
3.4494990116
 30
0.0
 40
0.5062500000000003
100
AcDbArc
 50
321.8819356939
 51
89.2926267275
  0
ARC
  5
24D
330
1F
100
AcDbEntity
  8
0
  6
Continuous
 62
     7
370
    25
100
AcDbCircle
 10
8.6304068196
 20
3.4494990116
 30
0.0
 40
0.5062500000000004
100
AcDbArc
 50
270.7073732726
 51
271.2733443614
  0
LINE
  5
24E
330
1F
100
AcDbEntity
  8
0
  6
Continuous
 62
     7
370
    25
100
AcDbLine
 10
8.2886711399
 20
2.8944990116
 30
0.0
 11
8.2886711399
 21
4.0044990116
 31
0.0
  0
LINE
  5
24F
330
1F
100
AcDbEntity
  8
0
  6
Continuous
 62
     7
370
    25
100
AcDbLine
 10
7.7516568196
 20
2.8944990116
 30
0.0
 11
7.7516568196
 21
4.0044990116
 31
0.0
  0
SPLINE
  5
250
330
1F
100
AcDbEntity
  8
0
  6
Continuous
 62
     7
370
    25
100
AcDbSpline
210
0.0
220
0.0
230
1.0
 70
     8
 71
     3
 72
    21
 73
    17
 74
     0
 42
0.00000001
 43
0.00000001
 40
0.0
 40
0.0
 40
0.0
 40
0.0
 40
0.0625763532083485
 40
0.126503552258149
 40
0.1987179559887419
 40
0.2729336853926603
 40
0.346804029490218
 40
0.4227821782272106
 40
0.4971988772879128
 40
0.5738190519484888
 40
0.6473702073296498
 40
0.7231773256259925
 40
0.7945918410702052
 40
0.8682338625790889
 40
0.9370455568131503
 40
1.0
 40
1.0
 40
1.0
 40
1.0
 10
7.847162472811505
 20
2.89528358447728
 30
0.0
 10
7.848716961489128
 20
2.895357265627504
 30
0.0
 10
7.851859495842474
 20
2.895506218494839
 30
0.0
 10
7.857505405263871
 20
2.895715752520483
 30
0.0
 10
7.863905329103565
 20
2.89589100513792
 30
0.0
 10
7.870967938038408
 20
2.896001774497313
 30
0.0
 10
7.878302828665411
 20
2.89602732358391
 30
0.0
 10
7.885602642748293
 20
2.895961774214636
 30
0.0
 10
7.892735332810709
 20
2.895810423367382
 30
0.0
 10
7.899336779644173
 20
2.895593146886413
 30
0.0
 10
7.905317561033824
 20
2.895332800370296
 30
0.0
 10
7.910335442032064
 20
2.895067564370147
 30
0.0
 10
7.91437822987956
 20
2.89482320155948
 30
0.0
 10
7.917189634870954
 20
2.894637116171617
 30
0.0
 10
7.918884577062217
 20
2.894518493576795
 30
0.0
 10
7.919027643319391
 20
2.894508223218112
 30
0.0
 10
7.919095996666735
 20
2.894503316307088
 30
0.0
  0
SPLINE
  5
251
330
1F
100
AcDbEntity
  8
0
  6
Continuous
 62
     7
370
    25
100
AcDbSpline
210
0.0
220
0.0
230
1.0
 70
     8
 71
     3
 72
    13
 73
     9
 74
     0
 42
0.00000001
 43
0.00000001
 40
0.0
 40
0.0
 40
0.0
 40
0.0
 40
0.093173583376735
 40
0.2982980077226349
 40
0.495972410754291
 40
0.6991839199547946
 40
0.8484928612262589
 40
1.0
 40
1.0
 40
1.0
 40
1.0
 10
7.834294564338354
 20
2.89450879333558
 30
0.0
 10
7.834265290391351
 20
2.894506717501012
 30
0.0
 10
7.834171568976413
 20
2.894500071654692
 30
0.0
 10
7.835226604636774
 20
2.894574888083628
 30
0.0
 10
7.83737120245949
 20
2.894721123703201
 30
0.0
 10
7.840309894409552
 20
2.894907777100049
 30
0.0
 10
7.843620061302221
 20
2.895101749304433
 30
0.0
 10
7.845975930512101
 20
2.895222678192526
 30
0.0
 10
7.847162472811505
 20
2.89528358447728
 30
0.0
  0
SPLINE
  5
252
330
1F
100
AcDbEntity
  8
0
  6
Continuous
 62
     7
370
    25
100
AcDbSpline
210
0.0
220
0.0
230
1.0
 70
    11
 71
     3
 72
    45
 73
    41
 74
     0
 42
0.00000001
 43
0.00000001
 40
0.0
 40
0.0
 40
0.0
 40
0.0
 40
0.0241082832578815
 40
0.0482188899796301
 40
0.0738454176449398
 40
0.0994759773969298
 40
0.1258909503469014
 40
0.1523094731858018
 40
0.1796529962458203
 40
0.2069984091338372
 40
0.2350092503307519
 40
0.2630196752528078
 40
0.2912259374907565
 40
0.3194291371889554
 40
0.347294502746743
 40
0.3751547349970683
 40
0.4021959954177149
 40
0.4292325688917424
 40
0.4552801931632628
 40
0.4813263356663398
 40
0.5067319793450731
 40
0.5321396062819268
 40
0.5575936281237304
 40
0.5830514827549627
 40
0.6091771677778225
 40
0.6353067113275649
 40
0.6623680059530193
 40
0.689431808486326
 40
0.7172757288805605
 40
0.7451200155648605
 40
0.7733210565283022
 40
0.8015198844911088
 40
0.8295519839817215
 40
0.8575794303070449
 40
0.8849223608802673
 40
0.9122601029120542
 40
0.9386104409843268
 40
0.9649581106329308
 40
0.9824790027327752
 40
0.9999999999999999
 40
0.9999999999999999
 40
0.9999999999999999
 40
0.9999999999999999
 10
7.834671244154855
 20
3.732483405977121
 30
0.0
 10
7.835108195907019
 20
3.734255712614787
 30
0.0
 10
7.835982141523082
 20
3.737800496698233
 30
0.0
 10
7.838551813436792
 20
3.742875098431952
 30
0.0
 10
7.842061982303498
 20
3.747611149155234
 30
0.0
 10
7.846572616663023
 20
3.751908311235627
 30
0.0
 10
7.851915008180518
 20
3.755538217607508
 30
0.0
 10
7.858009782776542
 20
3.758460137545262
 30
0.0
 10
7.864679623419024
 20
3.760519271628655
 30
0.0
 10
7.871797999068829
 20
3.761682188165229
 30
0.0
 10
7.879111612891293
 20
3.761842115242456
 30
0.0
 10
7.886433283487201
 20
3.761002516452979
 30
0.0
 10
7.893490136540912
 20
3.759131939491467
 30
0.0
 10
7.900062110688221
 20
3.756308363852725
 30
0.0
 10
7.905915342738503
 20
3.752571588839032
 30
0.0
 10
7.910858525542778
 20
3.748096653988703
 30
0.0
 10
7.914737288855823
 20
3.742973248160451
 30
0.0
 10
7.91746671280516
 20
3.73745067103834
 30
0.0
 10
7.91898135384937
 20
3.731633498049536
 30
0.0
 10
7.919328094067178
 20
3.725761772700792
 30
0.0
 10
7.918494167328127
 20
3.719934892945816
 30
0.0
 10
7.916591063804487
 20
3.714313498308087
 30
0.0
 10
7.913628739632794
 20
3.709018219298419
 30
0.0
 10
7.909708122346245
 20
3.704138615313079
 30
0.0
 10
7.904886964944621
 20
3.699843190991642
 30
0.0
 10
7.89924881017476
 20
3.696196528583591
 30
0.0
 10
7.892939263800076
 20
3.693390391067841
 30
0.0
 10
7.886068168150716
 20
3.691481238833239
 30
0.0
 10
7.878869186499242
 20
3.690622073788404
 30
0.0
 10
7.871511378909869
 20
3.690829771630701
 30
0.0
 10
7.864268352585683
 20
3.692167322873868
 30
0.0
 10
7.857354994179927
 20
3.694566087032176
 30
0.0
 10
7.851022844905203
 20
3.69799016636038
 30
0.0
 10
7.845480895930113
 20
3.702261587113981
 30
0.0
 10
7.840911272921763
 20
3.707272521008083
 30
0.0
 10
7.837441733182476
 20
3.712758520881626
 30
0.0
 10
7.835156930313891
 20
3.718589929507924
 30
0.0
 10
7.834184906377995
 20
3.723894270618782
 30
0.0
 10
7.83408688572202
 20
3.728555763893179
 30
0.0
 10
7.83447645762085
 20
3.731174189329676
 30
0.0
 10
7.834671244154855
 20
3.732483405977121
 30
0.0
  0
LINE
  5
253
330
1F
100
AcDbEntity
  8
0
  6
Continuous
 62
     7
370
    25
100
AcDbLine
 10
8.3333924994
 20
2.8944990116
 30
0.0
 11
8.3333924994
 21
4.0044990116
 31
0.0
  0
SPLINE
  5
254
330
1F
100
AcDbEntity
  8
0
  6
Continuous
 62
     7
370
    25
100
AcDbSpline
210
0.0
220
0.0
230
1.0
 70
     8
 71
     3
 72
    24
 73
    20
 74
     0
 42
0.00000001
 43
0.00000001
 40
0.0
 40
0.0
 40
0.0
 40
0.0
 40
0.0102108264047476
 40
0.0741005296839471
 40
0.1380398132874877
 40
0.2019794828630565
 40
0.2660403663159445
 40
0.3301008493943843
 40
0.3941654823696787
 40
0.4582295469019803
 40
0.5221735094544957
 40
0.5861176252363667
 40
0.6500050464735584
 40
0.713893095649957
 40
0.7778761162532789
 40
0.84185926232539
 40
0.9059409519044803
 40
0.9700220647173569
 40
1.0
 40
1.0
 40
1.0
 40
1.0
 10
7.909479220340412
 20
3.715666264098395
 30
0.0
 10
7.909421812152143
 20
3.715923548401462
 30
0.0
 10
7.909005197767534
 20
3.717790674761356
 30
0.0
 10
7.90734033772927
 20
3.721048082484397
 30
0.0
 10
7.90446803135321
 20
3.725252505810357
 30
0.0
 10
7.900735062375359
 20
3.728954004529539
 30
0.0
 10
7.896326502073174
 20
3.732056234390797
 30
0.0
 10
7.891361140070911
 20
3.734497177934884
 30
0.0
 10
7.885970059638178
 20
3.736185617823458
 30
0.0
 10
7.880321799304335
 20
3.7371079012405
 30
0.0
 10
7.874570782516919
 20
3.737210561167315
 30
0.0
 10
7.868883049677703
 20
3.736525116802448
 30
0.0
 10
7.863422611628423
 20
3.735038018308692
 30
0.0
 10
7.858327512135715
 20
3.732817728554131
 30
0.0
 10
7.853763465802446
 20
3.729888843776723
 30
0.0
 10
7.849816599866791
 20
3.726354469993924
 30
0.0
 10
7.846696375014658
 20
3.722266556625732
 30
0.0
 10
7.844654887347208
 20
3.718603896574866
 30
0.0
 10
7.84403769756771
 20
3.716250200698466
 30
0.0
 10
7.843840990545455
 20
3.715500044875221
 30
0.0
  0
LWPOLYLINE
  5
255
330
1F
100
AcDbEntity
  8
0
  6
Continuous
 62
     7
370
    25
100
AcDbPolyline
 90
       60
 70
   128
 43
0.0
 10
7.8766568196
 20
3.6933041478
 10
7.8802707982
 20
3.6934709589
 10
7.8838438288
 20
3.693969502
 10
7.8873354279
 20
3.6947941284
 10
7.890706034
 20
3.6959354948
 10
7.8939174569
 20
3.6973806691
 10
7.8969333098
 20
3.6991132768
 10
7.8997194221
 20
3.7011136868
 10
7.9022442258
 20
3.7033592338
 10
7.904479114
 20
3.7058244746
 10
7.9063987645
 20
3.7084814772
 10
7.9079814269
 20
3.7113001367
 10
7.9092091689
 20
3.7142485165
 10
7.9100680799
 20
3.7172932103
 10
7.9105484279
 20
3.7203997206
 10
7.9106447704
 20
3.7235328492
 10
7.9103560159
 20
3.7266570966
 10
7.909685436
 20
3.7297370639
 10
7.9086406287
 20
3.7327378538
 10
7.9072334321
 20
3.735625466
 10
7.9054797902
 20
3.7383671829
 10
7.9033995725
 20
3.7409319397
 10
7.9010163488
 20
3.7432906767
 10
7.8983571219
 20
3.7454166683
 10
7.8954520219
 20
3.7472858264
 10
7.8923339647
 20
3.7488769725
 10
7.8890382792
 20
3.7501720784
 10
7.8856023068
 20
3.75115647
 10
7.8820649785
 20
3.7518189937
 10
7.8784663736
 20
3.752152143
 10
7.8748472657
 20
3.752152143
 10
7.8712486608
 20
3.7518189937
 10
7.8677113325
 20
3.75115647
 10
7.8642753601
 20
3.7501720784
 10
7.8609796746
 20
3.7488769725
 10
7.8578616174
 20
3.7472858264
 10
7.8549565174
 20
3.7454166683
 10
7.8522972905
 20
3.7432906767
 10
7.8499140667
 20
3.7409319397
 10
7.8478338491
 20
3.7383671829
 10
7.8460802072
 20
3.735625466
 10
7.8446730106
 20
3.7327378538
 10
7.8436282033
 20
3.7297370639
 10
7.8429576234
 20
3.7266570966
 10
7.8426688689
 20
3.7235328492
 10
7.8427652114
 20
3.7203997206
 10
7.8432455594
 20
3.7172932103
 10
7.8441044703
 20
3.7142485165
 10
7.8453322124
 20
3.7113001367
 10
7.8469148748
 20
3.7084814772
 10
7.8488345253
 20
3.7058244746
 10
7.8510694135
 20
3.7033592338
 10
7.8535942172
 20
3.7011136868
 10
7.8563803295
 20
3.6991132768
 10
7.8593961824
 20
3.6973806691
 10
7.8626076053
 20
3.6959354948
 10
7.8659782114
 20
3.6947941284
 10
7.8694698104
 20
3.693969502
 10
7.8730428411
 20
3.6934709589
 10
7.8766568196
 20
3.6933041478
  0
LINE
  5
256
330
1F
100
AcDbEntity
  8
0
  6
Continuous
 62
     7
370
    25
100
AcDbLine
 10
8.6366568196
 20
4.7069990116
 30
0.0
 11
8.6366568196
 21
2.1919990116
 31
0.0
  0
LINE
  5
257
330
1F
100
AcDbEntity
  8
0
  6
Continuous
 62
     7
370
    25
100
AcDbLine
 10
8.4491568196
 20
4.7069990116
 30
0.0
 11
8.4491568196
 21
2.1919990116
 31
0.0
  0
LINE
  5
258
330
1F
100
AcDbEntity
  8
0
  6
Continuous
 62
     7
370
    25
100
AcDbLine
 10
8.4416568196
 20
4.0379923118
 30
0.0
 11
8.4416568196
 21
2.8610057113
 31
0.0
  0
LINE
  5
259
330
1F
100
AcDbEntity
  8
0
  6
Continuous
 62
     7
370
    25
100
AcDbLine
 10
8.6416568196
 20
3.1369990116
 30
0.0
 11
9.0286941688
 21
3.1369990116
 31
0.0
  0
LINE
  5
25A
330
1F
100
AcDbEntity
  8
0
  6
Continuous
 62
     7
370
    25
100
AcDbLine
 10
8.6416568196
 20
2.943374027
 30
0.0
 11
8.6416568196
 21
3.1369990116
 31
0.0
  0
LINE
  5
25B
330
1F
100
AcDbEntity
  8
VP
100
AcDbLine
 10
8.6366568196
 20
3.2953923821
 30
0.0
 11
9.0286941688
 21
3.1369990116
 31
0.0
  0
DIMENSION
  5
25C
330
1F
100
AcDbEntity
  8
0
  6
Continuous
 62
     7
370
    18
100
AcDbDimension
  2
_D_7
 10
9.0286941688
 20
3.1369990116
 30
0.0
 11
9.4719286205
 21
2.0570510121
 31
0.0
 70
   162
  1
<>
 71
     1
 42
-1.0
  3
SLDDIMSTYLE4
100
AcDb2LineAngularDimension
 13
8.6366568196
 23
2.1919990116
 33
0.0
 14
8.6366568196
 24
4.7069990116
 34
0.0
 15
8.6366568196
 25
3.2953923821
 35
0.0
 16
8.9345845321
 26
1.8316958944
 36
0.0
  0
ARC
  5
268
330
1F
100
AcDbEntity
  8
0
  6
Continuous
 62
     7
370
    25
100
AcDbCircle
 10
18.3070385395
 20
4.6919990116
 30
0.0
 40
0.0150000000000006
100
AcDbArc
 50
90.0
 51
180.0
  0
ARC
  5
269
330
1F
100
AcDbEntity
  8
0
  6
Continuous
 62
     7
370
    25
100
AcDbCircle
 10
18.3070385395
 20
2.2069990116
 30
0.0
 40
0.0150000000000006
100
AcDbArc
 50
180.0
 51
270.0
  0
LINE
  5
26A
330
1F
100
AcDbEntity
  8
0
  6
Continuous
 62
     7
370
    25
100
AcDbLine
 10
18.3070385395
 20
2.1919990116
 30
0.0
 11
18.4705385395
 21
2.1919990116
 31
0.0
  0
LINE
  5
26B
330
1F
100
AcDbEntity
  8
0
  6
Continuous
 62
     7
370
    25
100
AcDbLine
 10
18.4705385395
 20
4.7069990116
 30
0.0
 11
18.3070385395
 21
4.7069990116
 31
0.0
  0
ARC
  5
26C
330
1F
100
AcDbEntity
  8
0
  6
Continuous
 62
     7
370
    25
100
AcDbCircle
 10
18.4705385395
 20
4.6919990116
 30
0.0
 40
0.0150000000000006
100
AcDbArc
 50
0.0
 51
90.0
  0
ARC
  5
26D
330
1F
100
AcDbEntity
  8
0
  6
Continuous
 62
     7
370
    25
100
AcDbCircle
 10
18.4705385395
 20
2.2069990116
 30
0.0
 40
0.0150000000000006
100
AcDbArc
 50
270.0
 51
0.0
  0
LINE
  5
26E
330
1F
100
AcDbEntity
  8
0
  6
Continuous
 62
     7
370
    25
100
AcDbLine
 10
18.2920385395
 20
4.0290603627
 30
0.0
 11
18.2905385395
 21
4.0290472724
 31
0.0
  0
LINE
  5
26F
330
1F
100
AcDbEntity
  8
0
  6
Continuous
 62
     7
370
    25
100
AcDbLine
 10
18.2905385395
 20
2.8699507508
 30
0.0
 11
18.2920385395
 21
2.8699376605
 31
0.0
  0
ARC
  5
270
330
1F
100
AcDbEntity
  8
0
  6
Continuous
 62
     7
370
    25
100
AcDbCircle
 10
18.4792885395
 20
3.4494990116
 30
0.0
 40
0.5062500000000021
100
AcDbArc
 50
338.2615392085
 51
89.2926267275
  0
LINE
  5
271
330
1F
100
AcDbEntity
  8
0
  6
Continuous
 62
     7
370
    25
100
AcDbLine
 10
17.6005385395
 20
2.8944990116
 30
0.0
 11
18.1375528598
 21
2.8944990116
 31
0.0
  0
LINE
  5
272
330
1F
100
AcDbEntity
  8
0
  6
Continuous
 62
     7
370
    25
100
AcDbLine
 10
17.6831762842
 20
4.0044990116
 30
0.0
 11
17.6005385395
 21
4.0044990116
 31
0.0
  0
LINE
  5
273
330
1F
100
AcDbEntity
  8
0
  6
Continuous
 62
     7
370
    25
100
AcDbLine
 10
18.1375528598
 20
4.0044990116
 30
0.0
 11
17.7679777166
 21
4.0044990116
 31
0.0
  0
ARC
  5
274
330
1F
100
AcDbEntity
  8
0
  6
Continuous
 62
     7
370
    25
100
AcDbCircle
 10
18.1599135395
 20
2.8744990116
 30
0.0
 40
0.030000000000001
100
AcDbArc
 50
41.8103148958
 51
138.1896851042
  0
ARC
  5
275
330
1F
100
AcDbEntity
  8
0
  6
Continuous
 62
     7
370
    25
100
AcDbCircle
 10
18.1599135395
 20
4.0244990116
 30
0.0
 40
0.0300000000000016
100
AcDbArc
 50
221.8103148958
 51
318.1896851042
  0
LINE
  5
276
330
1F
100
AcDbEntity
  8
0
  6
Continuous
 62
     7
370
    25
100
AcDbLine
 10
18.1822742193
 20
2.8944990116
 30
0.0
 11
18.2905385395
 21
2.8944990116
 31
0.0
  0
LINE
  5
277
330
1F
100
AcDbEntity
  8
0
  6
Continuous
 62
     7
370
    25
100
AcDbLine
 10
18.2905385395
 20
4.0044990116
 30
0.0
 11
18.1822742193
 21
4.0044990116
 31
0.0
  0
LINE
  5
278
330
1F
100
AcDbEntity
  8
0
  6
Continuous
 62
     7
370
    25
100
AcDbLine
 10
18.2920385395
 20
2.2069990116
 30
0.0
 11
18.2920385395
 21
4.6919990116
 31
0.0
  0
LINE
  5
279
330
1F
100
AcDbEntity
  8
0
  6
Continuous
 62
     7
370
    25
100
AcDbLine
 10
18.4855385395
 20
2.2069990116
 30
0.0
 11
18.4855385395
 21
4.6919990116
 31
0.0
  0
LINE
  5
27A
330
1F
100
AcDbEntity
  8
0
  6
Continuous
 62
     7
370
    25
100
AcDbLine
 10
18.2905385395
 20
4.0290472724
 30
0.0
 11
18.2905385395
 21
2.8699507508
 31
0.0
  0
LINE
  5
27B
330
1F
100
AcDbEntity
  8
0
  6
Continuous
 62
     7
370
    25
100
AcDbLine
 10
18.4855385395
 20
3.2619990116
 30
0.0
 11
18.9495361472
 21
3.2619990116
 31
0.0
  0
LINE
  5
27C
330
1F
100
AcDbEntity
  8
0
  6
Continuous
 62
     7
370
    25
100
AcDbLine
 10
18.1375528598
 20
3.4494990116
 30
0.0
 11
18.1375528598
 21
4.0044990116
 31
0.0
  0
LINE
  5
27D
330
1F
100
AcDbEntity
  8
0
  6
Continuous
 62
     7
370
    25
100
AcDbLine
 10
18.1375528598
 20
2.8944990116
 30
0.0
 11
18.1375528598
 21
3.4494990116
 31
0.0
  0
LINE
  5
27E
330
1F
100
AcDbEntity
  8
0
  6
Continuous
 62
     7
370
    25
100
AcDbLine
 10
17.6005385395
 20
3.4494990116
 30
0.0
 11
17.6005385395
 21
4.0044990116
 31
0.0
  0
LINE
  5
27F
330
1F
100
AcDbEntity
  8
0
  6
Continuous
 62
     7
370
    25
100
AcDbLine
 10
17.6005385395
 20
2.8944990116
 30
0.0
 11
17.6005385395
 21
3.4494990116
 31
0.0
  0
SPLINE
  5
280
330
1F
100
AcDbEntity
  8
0
  6
Continuous
 62
     7
370
    25
100
AcDbSpline
210
0.0
220
0.0
230
1.0
 70
     8
 71
     3
 72
    27
 73
    23
 74
     0
 42
0.00000001
 43
0.00000001
 40
0.0
 40
0.0
 40
0.0
 40
0.0
 40
0.0059455175350004
 40
0.0560678251881016
 40
0.1076445621294721
 40
0.1578226559594855
 40
0.2093879747034107
 40
0.260854971562879
 40
0.3137161742940799
 40
0.3670144043204635
 40
0.4217723857668092
 40
0.4766230708723677
 40
0.5330215391256475
 40
0.5885968983323902
 40
0.6457983357985424
 40
0.701064721828728
 40
0.7580088771398631
 40
0.8119450192838648
 40
0.8675603875582938
 40
0.9195613469234467
 40
0.9731680482807425
 40
1.0
 40
1.0
 40
1.0
 40
1.0
 10
17.76797771656248
 20
4.004494706849585
 30
0.0
 10
17.76799756881811
 20
4.004496111625917
 30
0.0
 10
17.76818478091391
 20
4.004509359043546
 30
0.0
 10
17.76745396863604
 20
4.004457309668977
 30
0.0
 10
17.7657618703576
 20
4.004339969202211
 30
0.0
 10
17.76288401712672
 20
4.004151344300074
 30
0.0
 10
17.75908310760917
 20
4.003923524667039
 30
0.0
 10
17.75434283915805
 20
4.003673337378641
 30
0.0
 10
17.74880794639521
 20
4.003428975403604
 30
0.0
 10
17.74254644516874
 20
4.003214842882419
 30
0.0
 10
17.73575362584174
 20
4.003057597494623
 30
0.0
 10
17.7285545875806
 20
4.002976320751507
 30
0.0
 10
17.72123422310911
 20
4.002984131472836
 30
0.0
 10
17.71393365946431
 20
4.003082497862814
 30
0.0
 10
17.70700709349629
 20
4.00325978436683
 30
0.0
 10
17.7005628275357
 20
4.003497563535793
 30
0.0
 10
17.6949568995183
 20
4.003761847914955
 30
0.0
 10
17.69024031398622
 20
4.004024952630048
 30
0.0
 10
17.68665704557915
 20
4.004250118517877
 30
0.0
 10
17.68426206067865
 20
4.004412286435306
 30
0.0
 10
17.68308571365082
 20
4.004495646986089
 30
0.0
 10
17.68315362951408
 20
4.00449083496783
 30
0.0
 10
17.6831762842341
 20
4.004489229821092
 30
0.0
  0
SPLINE
  5
281
330
1F
100
AcDbEntity
  8
0
  6
Continuous
 62
     7
370
    25
100
AcDbSpline
210
0.0
220
0.0
230
1.0
 70
    11
 71
     3
 72
    45
 73
    41
 74
     0
 42
0.00000001
 43
0.00000001
 40
0.0
 40
0.0
 40
0.0
 40
0.0
 40
0.0237175399948472
 40
0.0474321274804077
 40
0.0737704074114317
 40
0.1001058302052734
 40
0.1256831926192603
 40
0.1512613530838358
 40
0.1766109339556012
 40
0.2019638704002148
 40
0.2277790104241778
 40
0.2535981923459847
 40
0.2802998405742486
 40
0.3070046344696912
 40
0.3345901097638301
 40
0.3621768307668792
 40
0.390300803086859
 40
0.4184235803193777
 40
0.446583929802947
 40
0.4747404512680689
 40
0.5024000164995945
 40
0.5300542399531969
 40
0.5567908251397594
 40
0.5835234845596526
 40
0.6093175702390969
 40
0.6351113171116106
 40
0.6604538350684876
 40
0.6857990961317777
 40
0.7114024556147793
 40
0.7370098334383365
 40
0.7634096901586949
 40
0.7898131155645036
 40
0.8171426391285833
 40
0.844474085407697
 40
0.8724773226205992
 40
0.9004801841984602
 40
0.9286871977639628
 40
0.9568911912208145
 40
0.9784464809507006
 40
1.0
 40
1.0
 40
1.0
 40
1.0
 10
17.69375328986642
 20
3.148778535310871
 30
0.0
 10
17.69241731631373
 20
3.150115606156959
 30
0.0
 10
17.68974553551878
 20
3.152789581402105
 30
0.0
 10
17.68658202848347
 20
3.157584765890761
 30
0.0
 10
17.68425759565793
 20
3.162946858232246
 30
0.0
 10
17.68301559307521
 20
3.168755873129685
 30
0.0
 10
17.68297447022501
 20
3.174644359044928
 30
0.0
 10
17.68404606419182
 20
3.180422702951857
 30
0.0
 10
17.6862276863776
 20
3.185976523069615
 30
0.0
 10
17.68940982982921
 20
3.191194553566538
 30
0.0
 10
17.69355823514703
 20
3.195926614667077
 30
0.0
 10
17.69858640342115
 20
3.200103293862931
 30
0.0
 10
17.70438513160465
 20
3.203535463961318
 30
0.0
 10
17.71086039400093
 20
3.206162152139417
 30
0.0
 10
17.71780856630426
 20
3.207807871233239
 30
0.0
 10
17.72508419883396
 20
3.208434988638758
 30
0.0
 10
17.73242137116826
 20
3.207942700641587
 30
0.0
 10
17.73961828993749
 20
3.206362562465968
 30
0.0
 10
17.74640841075613
 20
3.203694426301687
 30
0.0
 10
17.75257250733626
 20
3.200074123972605
 30
0.0
 10
17.75789737115464
 20
3.195586966910052
 30
0.0
 10
17.76221615699814
 20
3.190471350709915
 30
0.0
 10
17.76540248950755
 20
3.184855538193743
 30
0.0
 10
17.76741316007111
 20
3.179016589694682
 30
0.0
 10
17.76820380308296
 20
3.173074673721143
 30
0.0
 10
17.76785058017755
 20
3.167246664802147
 30
0.0
 10
17.76634832113527
 20
3.161634956286874
 30
0.0
 10
17.76381070833332
 20
3.156356553343869
 30
0.0
 10
17.76025744932368
 20
3.151532556005789
 30
0.0
 10
17.75578161240031
 20
3.147217394168433
 30
0.0
 10
17.75046429984951
 20
3.143566246200039
 30
0.0
 10
17.74439166821361
 20
3.140618897855783
 30
0.0
 10
17.73773836418873
 20
3.138531548102738
 30
0.0
 10
17.7306306499476
 20
3.137337884736269
 30
0.0
 10
17.7233204221125
 20
3.137145435021367
 30
0.0
 10
17.71599547817579
 20
3.137952990364021
 30
0.0
 10
17.70892347319573
 20
3.139788151807433
 30
0.0
 10
17.70283778120126
 20
3.142383090356972
 30
0.0
 10
17.69774396967511
 20
3.145413890742718
 30
0.0
 10
17.69508348004306
 20
3.147657017833397
 30
0.0
 10
17.69375328986642
 20
3.148778535310871
 30
0.0
  0
LINE
  5
282
330
1F
100
AcDbEntity
  8
0
  6
Continuous
 62
     7
370
    25
100
AcDbLine
 10
18.1822742193
 20
3.4494990116
 30
0.0
 11
18.1822742193
 21
4.0044990116
 31
0.0
  0
LINE
  5
283
330
1F
100
AcDbEntity
  8
0
  6
Continuous
 62
     7
370
    25
100
AcDbLine
 10
18.1822742193
 20
2.8944990116
 30
0.0
 11
18.1822742193
 21
3.4494990116
 31
0.0
  0
SPLINE
  5
284
330
1F
100
AcDbEntity
  8
0
  6
Continuous
 62
     7
370
    25
100
AcDbSpline
210
0.0
220
0.0
230
1.0
 70
     8
 71
     3
 72
    15
 73
    11
 74
     0
 42
0.00000001
 43
0.00000001
 40
0.0
 40
0.0
 40
0.0
 40
0.0
 40
0.1280993572887762
 40
0.2561995053534447
 40
0.3842902776355038
 40
0.5123821832912762
 40
0.6406480560186751
 40
0.7689136410542645
 40
0.8972958858846913
 40
1.0
 40
1.0
 40
1.0
 40
1.0
 10
17.72553853953896
 20
3.161863205909404
 30
0.0
 10
17.72744762135691
 20
3.16194229490302
 30
0.0
 10
17.73126579677786
 20
3.162100473378481
 30
0.0
 10
17.73683329632804
 20
3.163337464938608
 30
0.0
 10
17.74207390419877
 20
3.165295645825728
 30
0.0
 10
17.74685544937796
 20
3.167971846467137
 30
0.0
 10
17.75103014412056
 20
3.171303883214062
 30
0.0
 10
17.75447153568643
 20
3.175198065614785
 30
0.0
 10
17.75700074199276
 20
3.179245913644598
 30
0.0
 10
17.75793894931864
 20
3.182088292417926
 30
0.0
 10
17.75835592655909
 20
3.183351560380719
 30
0.0
  0
SPLINE
  5
285
330
1F
100
AcDbEntity
  8
0
  6
Continuous
 62
     7
370
    25
100
AcDbSpline
210
0.0
220
0.0
230
1.0
 70
     8
 71
     3
 72
    16
 73
    12
 74
     0
 42
0.00000001
 43
0.00000001
 40
0.0
 40
0.0
 40
0.0
 40
0.0
 40
0.0704396925092277
 40
0.1979867892236124
 40
0.3255349951982332
 40
0.4533222128680781
 40
0.5811091142256816
 40
0.7090066032464233
 40
0.8369028241809379
 40
0.9184514572447646
 40
1.0
 40
1.0
 40
1.0
 40
1.0
 10
17.69272225495729
 20
3.183495962008592
 30
0.0
 10
17.69296592798583
 20
3.182615419649827
 30
0.0
 10
17.69365082649722
 20
3.180140454922169
 30
0.0
 10
17.69579974399182
 20
3.176384548362664
 30
0.0
 10
17.69898482610483
 20
3.17234259503576
 30
0.0
 10
17.70298350697804
 20
3.168854782798213
 30
0.0
 10
17.7076010511984
 20
3.165974801822383
 30
0.0
 10
17.71274321529288
 20
3.163805781582497
 30
0.0
 10
17.717580754235
 20
3.16256099548812
 30
0.0
 10
17.72188080117581
 20
3.161959074748125
 30
0.0
 10
17.72431929386798
 20
3.161895162177181
 30
0.0
 10
17.72553853953896
 20
3.161863205909404
 30
0.0
  0
LWPOLYLINE
  5
286
330
1F
100
AcDbEntity
  8
0
  6
Continuous
 62
     7
370
    25
100
AcDbPolyline
 90
       60
 70
   128
 43
0.0
 10
17.7255385395
 20
3.1468041478
 10
17.7291525181
 20
3.1469709589
 10
17.7327255487
 20
3.147469502
 10
17.7362171477
 20
3.1482941284
 10
17.7395877539
 20
3.1494354948
 10
17.7427991768
 20
3.1508806691
 10
17.7458150297
 20
3.1526132768
 10
17.748601142
 20
3.1546136868
 10
17.7511259457
 20
3.1568592338
 10
17.7533608339
 20
3.1593244746
 10
17.7552804844
 20
3.1619814772
 10
17.7568631468
 20
3.1648001367
 10
17.7580908888
 20
3.1677485165
 10
17.7589497998
 20
3.1707932103
 10
17.7594301478
 20
3.1738997206
 10
17.7595264903
 20
3.1770328492
 10
17.7592377358
 20
3.1801570966
 10
17.7585671559
 20
3.1832370639
 10
17.7575223486
 20
3.1862378538
 10
17.756115152
 20
3.189125466
 10
17.7543615101
 20
3.1918671829
 10
17.7522812924
 20
3.1944319397
 10
17.7498980687
 20
3.1967906767
 10
17.7472388418
 20
3.1989166683
 10
17.7443337418
 20
3.2007858264
 10
17.7412156846
 20
3.2023769725
 10
17.7379199991
 20
3.2036720784
 10
17.7344840267
 20
3.20465647
 10
17.7309466984
 20
3.2053189937
 10
17.7273480935
 20
3.205652143
 10
17.7237289856
 20
3.205652143
 10
17.7201303807
 20
3.2053189937
 10
17.7165930524
 20
3.20465647
 10
17.71315708
 20
3.2036720784
 10
17.7098613945
 20
3.2023769725
 10
17.7067433373
 20
3.2007858264
 10
17.7038382373
 20
3.1989166683
 10
17.7011790104
 20
3.1967906767
 10
17.6987957866
 20
3.1944319397
 10
17.696715569
 20
3.1918671829
 10
17.6949619271
 20
3.189125466
 10
17.6935547305
 20
3.1862378538
 10
17.6925099232
 20
3.1832370639
 10
17.6918393433
 20
3.1801570966
 10
17.6915505888
 20
3.1770328492
 10
17.6916469313
 20
3.1738997206
 10
17.6921272793
 20
3.1707932103
 10
17.6929861902
 20
3.1677485165
 10
17.6942139323
 20
3.1648001367
 10
17.6957965947
 20
3.1619814772
 10
17.6977162452
 20
3.1593244746
 10
17.6999511334
 20
3.1568592338
 10
17.7024759371
 20
3.1546136868
 10
17.7052620493
 20
3.1526132768
 10
17.7082779023
 20
3.1508806691
 10
17.7114893252
 20
3.1494354948
 10
17.7148599313
 20
3.1482941284
 10
17.7183515303
 20
3.147469502
 10
17.721924561
 20
3.1469709589
 10
17.7255385395
 20
3.1468041478
  0
LINE
  5
287
330
1F
100
AcDbEntity
  8
0
  6
Continuous
 62
     7
370
    25
100
AcDbLine
 10
18.3070385395
 20
4.7069990116
 30
0.0
 11
18.3070385395
 21
2.1919990116
 31
0.0
  0
LINE
  5
288
330
1F
100
AcDbEntity
  8
0
  6
Continuous
 62
     7
370
    25
100
AcDbLine
 10
18.4705385395
 20
2.1919990116
 30
0.0
 11
18.4705385395
 21
4.7069990116
 31
0.0
  0
DIMENSION
  5
289
330
1F
100
AcDbEntity
  8
0
  6
Continuous
 62
     7
370
    18
100
AcDbDimension
  2
_D_8
 10
18.4855385395
 20
4.6919990116
 30
0.0
 11
19.4656072428
 21
2.2819303083
 31
0.0
 70
   162
  1
<>
 71
     1
 42
-1.0
  3
SLDDIMSTYLE4
100
AcDb2LineAngularDimension
 13
18.9495361472
 23
3.2619990116
 33
0.0
 14
18.4855385395
 24
3.2619990116
 34
0.0
 15
18.4855385395
 25
2.2069990116
 35
0.0
 16
18.8647670631
 26
1.9288617144
 36
0.0
  0
ENDSEC
  0
SECTION
  2
OBJECTS
  0
DICTIONARY
  5
C
330
0
100
AcDbDictionary
281
     1
  3
ACAD_GROUP
350
D
  3
ACAD_LAYOUT
350
1A
  3
ACAD_MLINESTYLE
350
17
  3
ACAD_PLOTSETTINGS
350
19
  3
ACAD_PLOTSTYLENAME
350
E
  3
ACAD_SCALELIST
350
47
  3
DWGPROPS
350
294
  0
DICTIONARY
  5
D
102
{ACAD_REACTORS
330
C
102
}
330
C
100
AcDbDictionary
281
     1
  0
DICTIONARY
  5
1A
102
{ACAD_REACTORS
330
C
102
}
330
C
100
AcDbDictionary
281
     1
  3
Layout1
350
1E
  3
Layout2
350
26
  3
Model
350
22
  0
DICTIONARY
  5
17
102
{ACAD_REACTORS
330
C
102
}
330
C
100
AcDbDictionary
281
     1
  3
Standard
350
18
  0
DICTIONARY
  5
19
102
{ACAD_REACTORS
330
C
102
}
330
C
100
AcDbDictionary
281
     1
  0
ACDBDICTIONARYWDFLT
  5
E
102
{ACAD_REACTORS
330
C
102
}
330
C
100
AcDbDictionary
281
     1
  3
Normal
350
F
100
AcDbDictionaryWithDefault
340
F
  0
DICTIONARY
  5
47
102
{ACAD_REACTORS
330
C
102
}
330
C
100
AcDbDictionary
281
     1
  3
A0
350
48
  3
A1
350
49
  3
A2
350
4A
  3
A3
350
4B
  3
A4
350
4C
  3
A5
350
4D
  3
A6
350
4E
  3
A7
350
4F
  3
A8
350
50
  3
A9
350
51
  3
B1
350
52
  3
B2
350
53
  3
B3
350
54
  3
B4
350
55
  3
B5
350
56
  3
B6
350
57
  3
B7
350
58
  0
XRECORD
  5
294
102
{ACAD_REACTORS
330
C
102
}
330
C
100
AcDbXrecord
280
     1
  1
DWGPROPS COOKIE
  2

  3

  4

  6

  7

  8
alekseyb
  9

300
=
301
=
302
=
303
=
304
=
305
=
306
=
307
=
308
=
309
=
 40
0.0
 41
2460538.192839167
 42
2460538.192839838
  1

 90
        0
  0
LAYOUT
  5
1E
102
{ACAD_REACTORS
330
1A
102
}
330
1A
100
AcDbPlotSettings
  1

  2
none_device
  4

  6

 40
0.0
 41
0.0
 42
0.0
 43
0.0
 44
0.0
 45
0.0
 46
0.0
 47
0.0
 48
0.0
 49
0.0
140
0.0
141
0.0
142
1.0
143
1.0
 70
   688
 72
     0
 73
     0
 74
     5
  7

 75
    16
147
1.0
148
0.0
149
0.0
100
AcDbLayout
  1
Layout1
 70
     1
 71
     1
 10
0.0
 20
0.0
 11
12.0
 21
9.0
 12
0.0
 22
0.0
 32
0.0
 14
1.0000000000E+20
 24
1.0000000000E+20
 34
1.0000000000E+20
 15
-1.0000000000E+20
 25
-1.0000000000E+20
 35
-1.0000000000E+20
146
0.0
 13
0.0
 23
0.0
 33
0.0
 16
1.0
 26
0.0
 36
0.0
 17
0.0
 27
1.0
 37
0.0
 76
     0
330
1B
  0
LAYOUT
  5
26
102
{ACAD_REACTORS
330
1A
102
}
330
1A
100
AcDbPlotSettings
  1

  2
none_device
  4

  6

 40
0.0
 41
0.0
 42
0.0
 43
0.0
 44
0.0
 45
0.0
 46
0.0
 47
0.0
 48
0.0
 49
0.0
140
0.0
141
0.0
142
1.0
143
1.0
 70
   688
 72
     0
 73
     0
 74
     5
  7

 75
    16
147
1.0
148
0.0
149
0.0
100
AcDbLayout
  1
Layout2
 70
     1
 71
     2
 10
0.0
 20
0.0
 11
0.0
 21
0.0
 12
0.0
 22
0.0
 32
0.0
 14
0.0
 24
0.0
 34
0.0
 15
0.0
 25
0.0
 35
0.0
146
0.0
 13
0.0
 23
0.0
 33
0.0
 16
1.0
 26
0.0
 36
0.0
 17
0.0
 27
1.0
 37
0.0
 76
     0
330
23
  0
LAYOUT
  5
22
102
{ACAD_REACTORS
330
1A
102
}
330
1A
100
AcDbPlotSettings
  1

  2
none_device
  4
Letter_(8.50_x_11.00_Inches)
  6

 40
6.35
 41
6.35
 42
6.35000508
 43
6.35000508
 44
215.9
 45
279.4
 46
0.0
 47
0.0
 48
0.0
 49
0.0
140
0.0
141
0.0
142
1.0
143
1.0
 70
  1712
 72
     0
 73
     0
 74
     0
  7

 75
     0
147
1.0
148
0.0
149
0.0
100
AcDbLayout
  1
Model
 70
     1
 71
     0
 10
0.0
 20
0.0
 11
22.0
 21
17.0
 12
0.0
 22
0.0
 32
0.0
 14
0.0
 24
0.0
 34
0.0
 15
22.0
 25
17.0
 35
0.0
146
0.0
 13
0.0
 23
0.0
 33
0.0
 16
1.0
 26
0.0
 36
0.0
 17
0.0
 27
1.0
 37
0.0
 76
     0
330
1F
331
29
  0
MLINESTYLE
  5
18
102
{ACAD_REACTORS
330
17
102
}
330
17
100
AcDbMlineStyle
  2
Standard
 70
     0
  3

 62
   256
 51
90.0
 52
90.0
 71
     2
 49
0.5
 62
   256
  6
BYLAYER
 49
-0.5
 62
   256
  6
BYLAYER
  0
ACDBPLACEHOLDER
  5
F
102
{ACAD_REACTORS
330
E
102
}
330
E
  0
SCALE
  5
48
102
{ACAD_REACTORS
330
47
102
}
330
47
100
AcDbScale
 70
     0
300
1:1
140
1.0
141
1.0
290
     1
  0
SCALE
  5
49
102
{ACAD_REACTORS
330
47
102
}
330
47
100
AcDbScale
 70
     0
300
1/128" = 1'-0"
140
0.0078125
141
12.0
290
     0
  0
SCALE
  5
4A
102
{ACAD_REACTORS
330
47
102
}
330
47
100
AcDbScale
 70
     0
300
1/64" = 1'-0"
140
0.015625
141
12.0
290
     0
  0
SCALE
  5
4B
102
{ACAD_REACTORS
330
47
102
}
330
47
100
AcDbScale
 70
     0
300
1/32" = 1'-0"
140
0.03125
141
12.0
290
     0
  0
SCALE
  5
4C
102
{ACAD_REACTORS
330
47
102
}
330
47
100
AcDbScale
 70
     0
300
1/16" = 1'-0"
140
0.0625
141
12.0
290
     0
  0
SCALE
  5
4D
102
{ACAD_REACTORS
330
47
102
}
330
47
100
AcDbScale
 70
     0
300
3/32" = 1'-0"
140
0.09375
141
12.0
290
     0
  0
SCALE
  5
4E
102
{ACAD_REACTORS
330
47
102
}
330
47
100
AcDbScale
 70
     0
300
1/8" = 1'-0"
140
0.125
141
12.0
290
     0
  0
SCALE
  5
4F
102
{ACAD_REACTORS
330
47
102
}
330
47
100
AcDbScale
 70
     0
300
3/16" = 1'-0"
140
0.1875
141
12.0
290
     0
  0
SCALE
  5
50
102
{ACAD_REACTORS
330
47
102
}
330
47
100
AcDbScale
 70
     0
300
1/4" = 1'-0"
140
0.25
141
12.0
290
     0
  0
SCALE
  5
51
102
{ACAD_REACTORS
330
47
102
}
330
47
100
AcDbScale
 70
     0
300
3/8" = 1'-0"
140
0.375
141
12.0
290
     0
  0
SCALE
  5
52
102
{ACAD_REACTORS
330
47
102
}
330
47
100
AcDbScale
 70
     0
300
1/2" = 1'-0"
140
0.5
141
12.0
290
     0
  0
SCALE
  5
53
102
{ACAD_REACTORS
330
47
102
}
330
47
100
AcDbScale
 70
     0
300
3/4" = 1'-0"
140
0.75
141
12.0
290
     0
  0
SCALE
  5
54
102
{ACAD_REACTORS
330
47
102
}
330
47
100
AcDbScale
 70
     0
300
1" = 1'-0"
140
1.0
141
12.0
290
     0
  0
SCALE
  5
55
102
{ACAD_REACTORS
330
47
102
}
330
47
100
AcDbScale
 70
     0
300
1-1/2" = 1'-0"
140
1.5
141
12.0
290
     0
  0
SCALE
  5
56
102
{ACAD_REACTORS
330
47
102
}
330
47
100
AcDbScale
 70
     0
300
3" = 1'-0"
140
3.0
141
12.0
290
     0
  0
SCALE
  5
57
102
{ACAD_REACTORS
330
47
102
}
330
47
100
AcDbScale
 70
     0
300
6" = 1'-0"
140
6.0
141
12.0
290
     0
  0
SCALE
  5
58
102
{ACAD_REACTORS
330
47
102
}
330
47
100
AcDbScale
 70
     0
300
1'-0" = 1'-0"
140
12.0
141
12.0
290
     0
  0
ENDSEC
  0
EOF
