  0
SECTION
  2
HEADER
  9
$ACADVER
  1
AC1015
  9
$ACADMAINTVER
 70
     6
  9
$DWGCODEPAGE
  3
ANSI_1252
  9
$INSBASE
 10
0.0
 20
0.0
 30
0.0
  9
$EXTMIN
 10
0.0
 20
0.0
 30
0.0
  9
$EXTMAX
 10
44.0
 20
34.0
 30
0.0
  9
$LIMMIN
 10
0.0
 20
0.0
  9
$LIMMAX
 10
44.0
 20
34.0
  9
$ORTHOMODE
 70
     0
  9
$REGENMODE
 70
     1
  9
$FILLMODE
 70
     1
  9
$QTEXTMODE
 70
     0
  9
$MIRRTEXT
 70
     1
  9
$LTSCALE
 40
4.0
  9
$ATTMODE
 70
     1
  9
$TEXTSIZE
 40
0.5
  9
$TRACEWID
 40
0.05
  9
$TEXTSTYLE
  7
Standard
  9
$CLAYER
  8
0
  9
$CELTYPE
  6
ByLayer
  9
$CECOLOR
 62
   256
  9
$CELTSCALE
 40
1.0
  9
$DISPSILH
 70
     0
  9
$DIMSCALE
 40
1.0
  9
$DIMASZ
 40
0.52
  9
$DIMEXO
 40
0.2
  9
$DIMDLI
 40
0.38
  9
$DIMRND
 40
0.0
  9
$DIMDLE
 40
0.0
  9
$DIMEXE
 40
0.5
  9
$DIMTP
 40
0.0
  9
$DIMTM
 40
0.0
  9
$DIMTXT
 40
0.5
  9
$DIMCEN
 40
0.09
  9
$DIMTSZ
 40
0.0
  9
$DIMTOL
 70
     0
  9
$DIMLIM
 70
     0
  9
$DIMTIH
 70
     1
  9
$DIMTOH
 70
     1
  9
$DIMSE1
 70
     0
  9
$DIMSE2
 70
     0
  9
$DIMTAD
 70
     0
  9
$DIMZIN
 70
     1
  9
$DIMBLK
  1

  9
$DIMASO
 70
     1
  9
$DIMSHO
 70
     1
  9
$DIMPOST
  1

  9
$DIMAPOST
  1

  9
$DIMALT
 70
     0
  9
$DIMALTD
 70
     2
  9
$DIMALTF
 40
25.4
  9
$DIMLFAC
 40
1.0
  9
$DIMTOFL
 70
     0
  9
$DIMTVP
 40
0.0
  9
$DIMTIX
 70
     0
  9
$DIMSOXD
 70
     0
  9
$DIMSAH
 70
     0
  9
$DIMBLK1
  1

  9
$DIMBLK2
  1

  9
$DIMSTYLE
  2
Standard
  9
$DIMCLRD
 70
     0
  9
$DIMCLRE
 70
     0
  9
$DIMCLRT
 70
     0
  9
$DIMTFAC
 40
1.0
  9
$DIMGAP
 40
0.24
  9
$DIMJUST
 70
     0
  9
$DIMSD1
 70
     0
  9
$DIMSD2
 70
     0
  9
$DIMTOLJ
 70
     1
  9
$DIMTZIN
 70
     1
  9
$DIMALTZ
 70
     0
  9
$DIMALTTZ
 70
     0
  9
$DIMUPT
 70
     0
  9
$DIMDEC
 70
     0
  9
$DIMTDEC
 70
     0
  9
$DIMALTU
 70
     2
  9
$DIMALTTD
 70
     2
  9
$DIMTXSTY
  7
Standard
  9
$DIMAUNIT
 70
     0
  9
$DIMADEC
 70
     0
  9
$DIMALTRND
 40
0.0
  9
$DIMAZIN
 70
     0
  9
$DIMDSEP
 70
    46
  9
$DIMATFIT
 70
     3
  9
$DIMFRAC
 70
     0
  9
$DIMLDRBLK
  1

  9
$DIMLUNIT
 70
     2
  9
$DIMLWD
 70
    -2
  9
$DIMLWE
 70
    -2
  9
$DIMTMOVE
 70
     0
  9
$LUNITS
 70
     2
  9
$LUPREC
 70
     6
  9
$SKETCHINC
 40
0.1
  9
$FILLETRAD
 40
0.0
  9
$AUNITS
 70
     0
  9
$AUPREC
 70
     2
  9
$MENU
  1
.
  9
$ELEVATION
 40
0.0
  9
$PELEVATION
 40
0.0
  9
$THICKNESS
 40
0.0
  9
$LIMCHECK
 70
     0
  9
$CHAMFERA
 40
0.0
  9
$CHAMFERB
 40
0.0
  9
$CHAMFERC
 40
0.0
  9
$CHAMFERD
 40
0.0
  9
$SKPOLY
 70
     0
  9
$TDCREATE
 40
2460536.715207489
  9
$TDUCREATE
 40
2460537.006874156
  9
$TDUPDATE
 40
2460536.715212338
  9
$TDUUPDATE
 40
2460537.006879005
  9
$TDINDWG
 40
0.0000000116
  9
$TDUSRTIMER
 40
0.0000000116
  9
$USRTIMER
 70
     1
  9
$ANGBASE
 50
0.0
  9
$ANGDIR
 70
     0
  9
$PDMODE
 70
     0
  9
$PDSIZE
 40
-1.0
  9
$PLINEWID
 40
0.0
  9
$SPLFRAME
 70
     0
  9
$SPLINETYPE
 70
     6
  9
$SPLINESEGS
 70
     8
  9
$HANDSEED
  5
327
  9
$SURFTAB1
 70
     6
  9
$SURFTAB2
 70
     6
  9
$SURFTYPE
 70
     6
  9
$SURFU
 70
     6
  9
$SURFV
 70
     6
  9
$UCSBASE
  2

  9
$UCSNAME
  2

  9
$UCSORG
 10
0.0
 20
0.0
 30
0.0
  9
$UCSXDIR
 10
1.0
 20
0.0
 30
0.0
  9
$UCSYDIR
 10
0.0
 20
1.0
 30
0.0
  9
$UCSORTHOREF
  2

  9
$UCSORTHOVIEW
 70
     0
  9
$UCSORGTOP
 10
0.0
 20
0.0
 30
0.0
  9
$UCSORGBOTTOM
 10
0.0
 20
0.0
 30
0.0
  9
$UCSORGLEFT
 10
0.0
 20
0.0
 30
0.0
  9
$UCSORGRIGHT
 10
0.0
 20
0.0
 30
0.0
  9
$UCSORGFRONT
 10
0.0
 20
0.0
 30
0.0
  9
$UCSORGBACK
 10
0.0
 20
0.0
 30
0.0
  9
$PUCSBASE
  2

  9
$PUCSNAME
  2

  9
$PUCSORG
 10
0.0
 20
0.0
 30
0.0
  9
$PUCSXDIR
 10
1.0
 20
0.0
 30
0.0
  9
$PUCSYDIR
 10
0.0
 20
1.0
 30
0.0
  9
$PUCSORTHOREF
  2

  9
$PUCSORTHOVIEW
 70
     0
  9
$PUCSORGTOP
 10
0.0
 20
0.0
 30
0.0
  9
$PUCSORGBOTTOM
 10
0.0
 20
0.0
 30
0.0
  9
$PUCSORGLEFT
 10
0.0
 20
0.0
 30
0.0
  9
$PUCSORGRIGHT
 10
0.0
 20
0.0
 30
0.0
  9
$PUCSORGFRONT
 10
0.0
 20
0.0
 30
0.0
  9
$PUCSORGBACK
 10
0.0
 20
0.0
 30
0.0
  9
$USERI1
 70
     0
  9
$USERI2
 70
     0
  9
$USERI3
 70
     0
  9
$USERI4
 70
     0
  9
$USERI5
 70
     0
  9
$USERR1
 40
0.0
  9
$USERR2
 40
0.0
  9
$USERR3
 40
0.0
  9
$USERR4
 40
0.0
  9
$USERR5
 40
0.0
  9
$WORLDVIEW
 70
     1
  9
$SHADEDGE
 70
     3
  9
$SHADEDIF
 70
    70
  9
$TILEMODE
 70
     1
  9
$MAXACTVP
 70
    64
  9
$PINSBASE
 10
0.0
 20
0.0
 30
0.0
  9
$PLIMCHECK
 70
     0
  9
$PEXTMIN
 10
1.0000000000E+20
 20
1.0000000000E+20
 30
1.0000000000E+20
  9
$PEXTMAX
 10
-1.0000000000E+20
 20
-1.0000000000E+20
 30
-1.0000000000E+20
  9
$PLIMMIN
 10
0.0
 20
0.0
  9
$PLIMMAX
 10
12.0
 20
9.0
  9
$UNITMODE
 70
     0
  9
$VISRETAIN
 70
     1
  9
$PLINEGEN
 70
     0
  9
$PSLTSCALE
 70
     1
  9
$TREEDEPTH
 70
  3020
  9
$CMLSTYLE
  2
Standard
  9
$CMLJUST
 70
     0
  9
$CMLSCALE
 40
1.0
  9
$PROXYGRAPHICS
 70
     1
  9
$MEASUREMENT
 70
     0
  9
$CELWEIGHT
370
    -1
  9
$ENDCAPS
280
     0
  9
$JOINSTYLE
280
     0
  9
$LWDISPLAY
290
     1
  9
$INSUNITS
 70
     1
  9
$HYPERLINKBASE
  1

  9
$STYLESHEET
  1

  9
$XEDIT
290
     1
  9
$CEPSNTYPE
380
     0
  9
$PSTYLEMODE
290
     1
  9
$FINGERPRINTGUID
  2
{bf19c575-8750-4e59-9d9a-1303fd7692cf}
  9
$VERSIONGUID
  2
{FAEB1C32-E019-11D5-929B-00C0DF256EC4}
  9
$EXTNAMES
290
     1
  9
$PSVPSCALE
 40
0.0
  9
$OLESTARTUP
290
     0
  0
ENDSEC
  0
SECTION
  2
CLASSES
  0
CLASS
  1
ACDBDICTIONARYWDFLT
  2
AcDbDictionaryWithDefault
  3
ObjectDBX Classes
 90
        0
280
     0
281
     0
  0
CLASS
  1
VISUALSTYLE
  2
AcDbVisualStyle
  3
ObjectDBX Classes
 90
     4095
280
     0
281
     0
  0
CLASS
  1
MATERIAL
  2
AcDbMaterial
  3
ObjectDBX Classes
 90
     1153
280
     0
281
     0
  0
CLASS
  1
SCALE
  2
AcDbScale
  3
ObjectDBX Classes
 90
     1153
280
     0
281
     0
  0
CLASS
  1
TABLESTYLE
  2
AcDbTableStyle
  3
ObjectDBX Classes
 90
     4095
280
     0
281
     0
  0
CLASS
  1
MLEADERSTYLE
  2
AcDbMLeaderStyle
  3
ACDB_MLEADERSTYLE_CLASS
 90
     4095
280
     0
281
     0
  0
CLASS
  1
SUN
  2
AcDbSun
  3
SCENEOE
 90
     1153
280
     0
281
     0
  0
CLASS
  1
ACDBPLACEHOLDER
  2
AcDbPlaceHolder
  3
ObjectDBX Classes
 90
        0
280
     0
281
     0
  0
CLASS
  1
LAYOUT
  2
AcDbLayout
  3
ObjectDBX Classes
 90
        0
280
     0
281
     0
  0
ENDSEC
  0
SECTION
  2
TABLES
  0
TABLE
  2
VPORT
  5
8
330
0
100
AcDbSymbolTable
 70
     1
  0
VPORT
  5
29
330
8
100
AcDbSymbolTableRecord
100
AcDbViewportTableRecord
  2
*Active
 70
     0
 10
0.0
 20
0.0
 11
1.0
 21
1.0
 12
22.0
 22
17.0
 13
0.0
 23
0.0
 14
0.5
 24
0.5
 15
0.5
 25
0.5
 16
0.0
 26
0.0
 36
1.0
 17
0.0
 27
0.0
 37
0.0
 40
34.0
 41
1.2941176471
 42
50.0
 43
0.0
 44
0.0
 50
0.0
 51
0.0
 71
     0
 72
  2000
 73
     1
 74
     3
 75
     0
 76
     0
 77
     0
 78
     0
281
     0
 65
     1
110
0.0
120
0.0
130
0.0
111
1.0
121
0.0
131
0.0
112
0.0
122
1.0
132
0.0
 79
     0
146
0.0
  0
ENDTAB
  0
TABLE
  2
LTYPE
  5
5
330
0
100
AcDbSymbolTable
 70
     6
  0
LTYPE
  5
14
330
5
100
AcDbSymbolTableRecord
100
AcDbLinetypeTableRecord
  2
ByBlock
 70
     0
  3

 72
    65
 73
     0
 40
0.0
  0
LTYPE
  5
15
330
5
100
AcDbSymbolTableRecord
100
AcDbLinetypeTableRecord
  2
ByLayer
 70
     0
  3

 72
    65
 73
     0
 40
0.0
  0
LTYPE
  5
16
330
5
100
AcDbSymbolTableRecord
100
AcDbLinetypeTableRecord
  2
Continuous
 70
     0
  3
Solid line
 72
    65
 73
     0
 40
0.0
  0
LTYPE
  5
5E
330
5
100
AcDbSymbolTableRecord
100
AcDbLinetypeTableRecord
  2
HIDDEN
 70
     0
  3
Hidden __ __ __ __ __ __ __ __ __ __ __ __ __ __
 72
    65
 73
     2
 40
0.075
 49
0.05
 74
     0
 49
-0.025
 74
     0
  0
LTYPE
  5
5F
330
5
100
AcDbSymbolTableRecord
100
AcDbLinetypeTableRecord
  2
PHANTOM
 70
     0
  3
Phantom ______  __  __  ______  __  __  ______
 72
    65
 73
     6
 40
0.5
 49
0.25
 74
     0
 49
-0.05
 74
     0
 49
0.05
 74
     0
 49
-0.05
 74
     0
 49
0.05
 74
     0
 49
-0.05
 74
     0
  0
LTYPE
  5
60
330
5
100
AcDbSymbolTableRecord
100
AcDbLinetypeTableRecord
  2
CENTER
 70
     0
  3
Center ____ _ ____ _ ____ _ ____ _ ____ _ ____
 72
    65
 73
     4
 40
0.4
 49
0.25
 74
     0
 49
-0.05
 74
     0
 49
0.05
 74
     0
 49
-0.05
 74
     0
  0
LTYPE
  5
61
330
5
100
AcDbSymbolTableRecord
100
AcDbLinetypeTableRecord
  2
CENTERX2
 70
     0
  3
Center (2x) ________  __  ________  __  _____
 72
    65
 73
     4
 40
0.8
 49
0.5
 74
     0
 49
-0.1
 74
     0
 49
0.1
 74
     0
 49
-0.1
 74
     0
  0
LTYPE
  5
62
330
5
100
AcDbSymbolTableRecord
100
AcDbLinetypeTableRecord
  2
DOT2
 70
     0
  3
Dot (.5x) ........................................
 72
    65
 73
     2
 40
0.025
 49
0.0
 74
     0
 49
-0.025
 74
     0
  0
ENDTAB
  0
TABLE
  2
LAYER
  5
2
330
0
100
AcDbSymbolTable
 70
    12
  0
LAYER
  5
10
330
2
100
AcDbSymbolTableRecord
100
AcDbLayerTableRecord
  2
0
 70
     0
 62
     7
  6
Continuous
370
    -3
390
F
  0
LAYER
  5
63
330
2
100
AcDbSymbolTableRecord
100
AcDbLayerTableRecord
  2
SLD-0
 70
     0
 62
     7
  6
Continuous
370
    -3
390
F
  0
LAYER
  5
64
330
2
100
AcDbSymbolTableRecord
100
AcDbLayerTableRecord
  2
DIM
 70
     0
 62
     7
  6
Continuous
370
    -3
390
F
  0
LAYER
  5
65
330
2
100
AcDbSymbolTableRecord
100
AcDbLayerTableRecord
  2
CEN
 70
     0
 62
     1
  6
CENTER
370
    -3
390
F
  0
LAYER
  5
66
330
2
100
AcDbSymbolTableRecord
100
AcDbLayerTableRecord
  2
HAT
 70
     0
 62
     4
  6
Continuous
370
    -3
390
F
  0
LAYER
  5
67
330
2
100
AcDbSymbolTableRecord
100
AcDbLayerTableRecord
  2
OBJ
 70
     0
 62
     5
  6
Continuous
370
    -3
390
F
  0
LAYER
  5
68
330
2
100
AcDbSymbolTableRecord
100
AcDbLayerTableRecord
  2
SLD-DEFPOINTS
 70
     0
 62
     7
  6
Continuous
370
    -3
390
F
  0
LAYER
  5
69
330
2
100
AcDbSymbolTableRecord
100
AcDbLayerTableRecord
  2
HID
 70
     0
 62
     4
  6
HIDDEN
370
    -3
390
F
  0
LAYER
  5
6A
330
2
100
AcDbSymbolTableRecord
100
AcDbLayerTableRecord
  2
NOTE
 70
     0
 62
     7
  6
Continuous
370
    -3
390
F
  0
LAYER
  5
6B
330
2
100
AcDbSymbolTableRecord
100
AcDbLayerTableRecord
  2
VP
 70
     0
 62
    -5
  6
Continuous
290
     0
370
    -3
390
F
  0
LAYER
  5
6C
330
2
100
AcDbSymbolTableRecord
100
AcDbLayerTableRecord
  2
TITLE
 70
     0
 62
     7
  6
Continuous
370
    -3
390
F
  0
LAYER
  5
6D
330
2
100
AcDbSymbolTableRecord
100
AcDbLayerTableRecord
  2
THICK_TITLE
 70
     0
 62
     7
  6
Continuous
370
   100
390
F
  0
ENDTAB
  0
TABLE
  2
STYLE
  5
3
330
0
100
AcDbSymbolTable
 70
     2
  0
STYLE
  5
11
330
3
100
AcDbSymbolTableRecord
100
AcDbTextStyleTableRecord
  2
Standard
 70
     0
 40
0.0
 41
1.0
 50
0.0
 71
     0
 42
0.5
  3
txt
  4

  0
STYLE
  5
74
330
3
100
AcDbSymbolTableRecord
100
AcDbTextStyleTableRecord
  2
SLDTEXTSTYLE0
 70
     0
 40
0.0
 41
0.75
 50
0.0
 71
     0
 42
0.5
  3
TXT
  4

  0
ENDTAB
  0
TABLE
  2
VIEW
  5
6
330
0
100
AcDbSymbolTable
 70
     0
  0
ENDTAB
  0
TABLE
  2
UCS
  5
7
330
0
100
AcDbSymbolTable
 70
     0
  0
ENDTAB
  0
TABLE
  2
APPID
  5
9
330
0
100
AcDbSymbolTable
 70
     1
  0
APPID
  5
12
330
9
100
AcDbSymbolTableRecord
100
AcDbRegAppTableRecord
  2
ACAD
 70
     0
  0
ENDTAB
  0
TABLE
  2
DIMSTYLE
  5
A
330
0
100
AcDbSymbolTable
 70
     4
100
AcDbDimStyleTable
  0
DIMSTYLE
105
27
330
A
100
AcDbSymbolTableRecord
100
AcDbDimStyleTableRecord
  2
Standard
 70
     0
178
     0
340
11
  0
DIMSTYLE
105
1F9
102
{ACAD_REACTORS
330
1F8
330
2B6
330
2C9
330
312
102
}
330
A
100
AcDbSymbolTableRecord
100
AcDbDimStyleTableRecord
  2
SLDDIMSTYLE0
 70
     0
 41
0.52
 44
0.0
 45
0.000000001
 78
    12
 79
     3
140
0.5
147
0.125
148
0.000000001
170
     1
172
     1
173
     1
178
     0
271
     6
272
     0
276
     2
277
     5
284
    12
289
     0
340
74
  0
DIMSTYLE
105
20E
102
{ACAD_REACTORS
330
20D
102
}
330
A
100
AcDbSymbolTableRecord
100
AcDbDimStyleTableRecord
  2
SLDDIMSTYLE1
 70
     0
 41
0.52
 44
0.0
 45
0.000000001
 78
    12
 79
     3
140
0.5
147
0.125
148
0.000000001
170
     1
172
     1
173
     1
178
     0
271
     0
272
     0
276
     2
277
     5
284
    12
289
     0
340
74
  0
DIMSTYLE
105
2DE
102
{ACAD_REACTORS
330
2DD
102
}
330
A
100
AcDbSymbolTableRecord
100
AcDbDimStyleTableRecord
  2
SLDDIMSTYLE2
 70
     0
 41
0.52
 44
0.0
 45
0.000000001
 78
    12
 79
     3
140
0.5
147
0.125
148
0.000000001
170
     1
173
     1
178
     0
271
     6
272
     0
276
     2
277
     5
284
    12
340
74
  0
ENDTAB
  0
TABLE
  2
BLOCK_RECORD
  5
1
330
0
100
AcDbSymbolTable
 70
     9
  0
BLOCK_RECORD
  5
1F
330
1
100
AcDbSymbolTableRecord
100
AcDbBlockTableRecord
  2
*Model_Space
340
22
  0
BLOCK_RECORD
  5
1B
330
1
100
AcDbSymbolTableRecord
100
AcDbBlockTableRecord
  2
*Paper_Space
340
1E
  0
BLOCK_RECORD
  5
23
330
1
100
AcDbSymbolTableRecord
100
AcDbBlockTableRecord
  2
*Paper_Space0
340
26
  0
BLOCK_RECORD
  5
6E
330
1
100
AcDbSymbolTableRecord
100
AcDbBlockTableRecord
  2
Block1
340
0
  0
BLOCK_RECORD
  5
71
330
1
100
AcDbSymbolTableRecord
100
AcDbBlockTableRecord
  2
SW_NOTE_0
340
0
102
{BLKREFS
331
76
102
}
  0
BLOCK_RECORD
  5
1FA
330
1
100
AcDbSymbolTableRecord
100
AcDbBlockTableRecord
  2
_D
340
0
  0
BLOCK_RECORD
  5
20F
330
1
100
AcDbSymbolTableRecord
100
AcDbBlockTableRecord
  2
_D_1
340
0
  0
BLOCK_RECORD
  5
2B7
330
1
100
AcDbSymbolTableRecord
100
AcDbBlockTableRecord
  2
_D_2
340
0
  0
BLOCK_RECORD
  5
2CA
330
1
100
AcDbSymbolTableRecord
100
AcDbBlockTableRecord
  2
_D_3
340
0
  0
BLOCK_RECORD
  5
2DF
330
1
100
AcDbSymbolTableRecord
100
AcDbBlockTableRecord
  2
_D_4
340
0
  0
BLOCK_RECORD
  5
313
330
1
100
AcDbSymbolTableRecord
100
AcDbBlockTableRecord
  2
_D_5
340
0
  0
ENDTAB
  0
ENDSEC
  0
SECTION
  2
BLOCKS
  0
BLOCK
  5
20
330
1F
100
AcDbEntity
  8
0
100
AcDbBlockBegin
  2
*Model_Space
 70
     0
 10
0.0
 20
0.0
 30
0.0
  3
*Model_Space
  1

  0
ENDBLK
  5
21
330
1F
100
AcDbEntity
  8
0
100
AcDbBlockEnd
  0
BLOCK
  5
1C
330
1B
100
AcDbEntity
 67
     1
  8
0
100
AcDbBlockBegin
  2
*Paper_Space
 70
     0
 10
0.0
 20
0.0
 30
0.0
  3
*Paper_Space
  1

  0
ENDBLK
  5
1D
330
1B
100
AcDbEntity
 67
     1
  8
0
100
AcDbBlockEnd
  0
BLOCK
  5
24
330
23
100
AcDbEntity
  8
0
100
AcDbBlockBegin
  2
*Paper_Space0
 70
     0
 10
0.0
 20
0.0
 30
0.0
  3
*Paper_Space0
  1

  0
ENDBLK
  5
25
330
23
100
AcDbEntity
  8
0
100
AcDbBlockEnd
  0
BLOCK
  5
6F
330
6E
100
AcDbEntity
  8
0
100
AcDbBlockBegin
  2
Block1
 70
     0
 10
0.0
 20
0.0
 30
0.0
  3
Block1
  1

  0
INSERT
  5
76
330
6E
100
AcDbEntity
  8
0
  6
Continuous
 62
     7
370
     0
100
AcDbBlockReference
  2
SW_NOTE_0
 10
-1.7593519105
 20
-0.069528387
 30
0.0
  0
ENDBLK
  5
70
330
6E
100
AcDbEntity
  8
0
100
AcDbBlockEnd
  0
BLOCK
  5
72
330
71
100
AcDbEntity
  8
0
100
AcDbBlockBegin
  2
SW_NOTE_0
 70
     0
 10
0.0
 20
0.0
 30
0.0
  3
SW_NOTE_0
  1

  0
MTEXT
  5
75
330
71
100
AcDbEntity
  8
0
  6
Continuous
 62
     0
370
     0
100
AcDbMText
 10
4.0625
 20
1.0742231165
 30
0.0
 40
0.8333333333
 41
0.0
 71
     2
 72
     1
  1
FACEPLATE BQL
  7
SLDTEXTSTYLE0
 73
     1
 44
1.0
  0
ENDBLK
  5
73
330
71
100
AcDbEntity
  8
0
100
AcDbBlockEnd
  0
BLOCK
  5
1FB
330
1FA
100
AcDbEntity
  8
0
100
AcDbBlockBegin
  2
_D
 70
     0
 10
0.0
 20
0.0
 30
0.0
  3
_D
  1

  0
SOLID
  5
1FD
330
1FA
100
AcDbEntity
  8
0
  6
Continuous
 62
     7
370
    18
100
AcDbTrace
 10
16.8067055669
 20
10.7546709503
 30
0.0
 11
16.2867055669
 21
10.8346709503
 31
0.0
 12
16.2867055669
 22
10.6746709503
 32
0.0
 13
16.2867055669
 23
10.6746709503
 33
0.0
  0
SOLID
  5
1FE
330
1FA
100
AcDbEntity
  8
0
  6
Continuous
 62
     7
370
    18
100
AcDbTrace
 10
20.1197055669
 20
10.7546709503
 30
0.0
 11
20.6397055669
 21
10.6746709503
 31
0.0
 12
20.6397055669
 22
10.8346709503
 32
0.0
 13
20.6397055669
 23
10.8346709503
 33
0.0
  0
LINE
  5
1FF
330
1FA
100
AcDbEntity
  8
0
  6
Continuous
 62
     7
370
     0
100
AcDbLine
 10
17.4687611748
 20
10.7508514278
 30
0.0
 11
17.3164174264
 21
10.7508514278
 31
0.0
  0
LINE
  5
200
330
1FA
100
AcDbEntity
  8
0
  6
Continuous
 62
     7
370
     0
100
AcDbLine
 10
17.3164174264
 20
10.7508514278
 30
0.0
 11
17.3164174264
 21
9.9571014039
 31
0.0
  0
LINE
  5
201
330
1FA
100
AcDbEntity
  8
0
  6
Continuous
 62
     7
370
     0
100
AcDbLine
 10
17.3164174264
 20
9.9571014039
 30
0.0
 11
17.4687611748
 21
9.9571014039
 31
0.0
  0
LINE
  5
202
330
1FA
100
AcDbEntity
  8
0
  6
Continuous
 62
     7
370
     0
100
AcDbLine
 10
19.4576501057
 20
10.7508514278
 30
0.0
 11
19.6099938541
 21
10.7508514278
 31
0.0
  0
LINE
  5
203
330
1FA
100
AcDbEntity
  8
0
  6
Continuous
 62
     7
370
     0
100
AcDbLine
 10
19.6099938541
 20
10.7508514278
 30
0.0
 11
19.6099938541
 21
9.9571014039
 31
0.0
  0
LINE
  5
204
330
1FA
100
AcDbEntity
  8
0
  6
Continuous
 62
     7
370
     0
100
AcDbLine
 10
19.6099938541
 20
9.9571014039
 30
0.0
 11
19.4576501057
 21
9.9571014039
 31
0.0
  0
LINE
  5
205
330
1FA
100
AcDbEntity
  8
0
  6
Continuous
 62
     7
370
     0
100
AcDbLine
 10
16.8067055669
 20
7.7548678007
 30
0.0
 11
16.8067055669
 21
11.2546709503
 31
0.0
  0
LINE
  5
206
330
1FA
100
AcDbEntity
  8
0
  6
Continuous
 62
     7
370
     0
100
AcDbLine
 10
20.1197055669
 20
7.7548678007
 30
0.0
 11
20.1197055669
 21
11.2546709503
 31
0.0
  0
LINE
  5
207
330
1FA
100
AcDbEntity
  8
0
  6
Continuous
 62
     7
370
     0
100
AcDbLine
 10
16.8067055669
 20
10.7546709503
 30
0.0
 11
15.8067055669
 21
10.7546709503
 31
0.0
  0
LINE
  5
208
330
1FA
100
AcDbEntity
  8
0
  6
Continuous
 62
     7
370
     0
100
AcDbLine
 10
20.1197055669
 20
10.7546709503
 30
0.0
 11
21.1197055669
 21
10.7546709503
 31
0.0
  0
MTEXT
  5
209
330
1FA
100
AcDbEntity
  8
0
  6
Continuous
 62
     7
370
    18
100
AcDbMText
 10
17.1668514552
 20
11.5045867378
 30
0.0
 40
0.5
 41
0.0
 71
     1
 72
     1
  1

  7
SLDTEXTSTYLE0
 73
     1
 44
1.0
  0
MTEXT
  5
20A
330
1FA
100
AcDbEntity
  8
0
  6
Continuous
 62
     7
370
    18
100
AcDbMText
 10
17.3829972556
 20
11.4969478119
 30
0.0
 40
0.5
 41
0.0
 71
     1
 72
     1
  1
3 5/16"
  7
SLDTEXTSTYLE0
 73
     1
 44
1.0
  0
MTEXT
  5
20B
330
1FA
100
AcDbEntity
  8
0
  6
Continuous
 62
     7
370
    18
100
AcDbMText
 10
17.4687611748
 20
10.6016353288
 30
0.0
 40
0.5
 41
0.0
 71
     1
 72
     1
  1
84mm
  7
SLDTEXTSTYLE0
 73
     1
 44
1.0
  0
MTEXT
  5
20C
330
1FA
100
AcDbEntity
  8
0
  6
Continuous
 62
     7
370
    18
100
AcDbMText
 10
19.9498374926
 20
11.5045867378
 30
0.0
 40
0.5
 41
0.0
 71
     1
 72
     1
  1

  7
SLDTEXTSTYLE0
 73
     1
 44
1.0
  0
ENDBLK
  5
1FC
330
1FA
100
AcDbEntity
  8
0
100
AcDbBlockEnd
  0
BLOCK
  5
210
330
20F
100
AcDbEntity
  8
0
100
AcDbBlockBegin
  2
_D_1
 70
     0
 10
0.0
 20
0.0
 30
0.0
  3
_D_1
  1

  0
SOLID
  5
212
330
20F
100
AcDbEntity
  8
0
  6
Continuous
 62
     7
370
    18
100
AcDbTrace
 10
15.9632055669
 20
13.5893166196
 30
0.0
 11
15.4432055669
 21
13.6693166196
 31
0.0
 12
15.4432055669
 22
13.5093166196
 32
0.0
 13
15.4432055669
 23
13.5093166196
 33
0.0
  0
SOLID
  5
213
330
20F
100
AcDbEntity
  8
0
  6
Continuous
 62
     7
370
    18
100
AcDbTrace
 10
20.9632055669
 20
13.5893166196
 30
0.0
 11
21.4832055669
 21
13.5093166196
 31
0.0
 12
21.4832055669
 22
13.6693166196
 32
0.0
 13
21.4832055669
 23
13.6693166196
 33
0.0
  0
LINE
  5
214
330
20F
100
AcDbEntity
  8
0
  6
Continuous
 62
     7
370
     0
100
AcDbLine
 10
17.2840389888
 20
13.5854970971
 30
0.0
 11
17.1316952403
 21
13.5854970971
 31
0.0
  0
LINE
  5
215
330
20F
100
AcDbEntity
  8
0
  6
Continuous
 62
     7
370
     0
100
AcDbLine
 10
17.1316952403
 20
13.5854970971
 30
0.0
 11
17.1316952403
 21
12.7917470732
 31
0.0
  0
LINE
  5
216
330
20F
100
AcDbEntity
  8
0
  6
Continuous
 62
     7
370
     0
100
AcDbLine
 10
17.1316952403
 20
12.7917470732
 30
0.0
 11
17.2840389888
 21
12.7917470732
 31
0.0
  0
LINE
  5
217
330
20F
100
AcDbEntity
  8
0
  6
Continuous
 62
     7
370
     0
100
AcDbLine
 10
19.6423722918
 20
13.5854970971
 30
0.0
 11
19.7947160402
 21
13.5854970971
 31
0.0
  0
LINE
  5
218
330
20F
100
AcDbEntity
  8
0
  6
Continuous
 62
     7
370
     0
100
AcDbLine
 10
19.7947160402
 20
13.5854970971
 30
0.0
 11
19.7947160402
 21
12.7917470732
 31
0.0
  0
LINE
  5
219
330
20F
100
AcDbEntity
  8
0
  6
Continuous
 62
     7
370
     0
100
AcDbLine
 10
19.7947160402
 20
12.7917470732
 30
0.0
 11
19.6423722918
 21
12.7917470732
 31
0.0
  0
LINE
  5
21A
330
20F
100
AcDbEntity
  8
0
  6
Continuous
 62
     7
370
     0
100
AcDbLine
 10
15.9632055669
 20
9.3498678007
 30
0.0
 11
15.9632055669
 21
14.0893166196
 31
0.0
  0
LINE
  5
21B
330
20F
100
AcDbEntity
  8
0
  6
Continuous
 62
     7
370
     0
100
AcDbLine
 10
20.9632055669
 20
9.3498678007
 30
0.0
 11
20.9632055669
 21
14.0893166196
 31
0.0
  0
LINE
  5
21C
330
20F
100
AcDbEntity
  8
0
  6
Continuous
 62
     7
370
     0
100
AcDbLine
 10
15.9632055669
 20
13.5893166196
 30
0.0
 11
14.9632055669
 21
13.5893166196
 31
0.0
  0
LINE
  5
21D
330
20F
100
AcDbEntity
  8
0
  6
Continuous
 62
     7
370
     0
100
AcDbLine
 10
20.9632055669
 20
13.5893166196
 30
0.0
 11
21.9632055669
 21
13.5893166196
 31
0.0
  0
MTEXT
  5
21E
330
20F
100
AcDbEntity
  8
0
  6
Continuous
 62
     7
370
    18
100
AcDbMText
 10
16.9821292691
 20
14.3392324071
 30
0.0
 40
0.5
 41
0.0
 71
     1
 72
     1
  1

  7
SLDTEXTSTYLE0
 73
     1
 44
1.0
  0
MTEXT
  5
21F
330
20F
100
AcDbEntity
  8
0
  6
Continuous
 62
     7
370
    18
100
AcDbMText
 10
18.1753583805
 20
14.3315934812
 30
0.0
 40
0.5
 41
0.0
 71
     1
 72
     1
  1
5"
  7
SLDTEXTSTYLE0
 73
     1
 44
1.0
  0
MTEXT
  5
220
330
20F
100
AcDbEntity
  8
0
  6
Continuous
 62
     7
370
    18
100
AcDbMText
 10
17.2840389888
 20
13.4362809981
 30
0.0
 40
0.5
 41
0.0
 71
     1
 72
     1
  1
127mm
  7
SLDTEXTSTYLE0
 73
     1
 44
1.0
  0
MTEXT
  5
221
330
20F
100
AcDbEntity
  8
0
  6
Continuous
 62
     7
370
    18
100
AcDbMText
 10
20.1345596787
 20
14.3392324071
 30
0.0
 40
0.5
 41
0.0
 71
     1
 72
     1
  1

  7
SLDTEXTSTYLE0
 73
     1
 44
1.0
  0
ENDBLK
  5
211
330
20F
100
AcDbEntity
  8
0
100
AcDbBlockEnd
  0
BLOCK
  5
2B8
330
2B7
100
AcDbEntity
  8
0
100
AcDbBlockBegin
  2
_D_2
 70
     0
 10
0.0
 20
0.0
 30
0.0
  3
_D_2
  1

  0
SOLID
  5
2BA
330
2B7
100
AcDbEntity
  8
0
  6
Continuous
 62
     7
370
    18
100
AcDbTrace
 10
9.8847463241
 20
21.8811812065
 30
0.0
 11
9.9647463241
 21
22.4011812065
 31
0.0
 12
9.8047463241
 22
22.4011812065
 32
0.0
 13
9.8047463241
 23
22.4011812065
 33
0.0
  0
SOLID
  5
2BB
330
2B7
100
AcDbEntity
  8
0
  6
Continuous
 62
     7
370
    18
100
AcDbTrace
 10
9.8847463241
 20
19.6611812065
 30
0.0
 11
9.8047463241
 21
19.1411812065
 31
0.0
 12
9.9647463241
 22
19.1411812065
 32
0.0
 13
9.9647463241
 23
19.1411812065
 33
0.0
  0
LINE
  5
2BC
330
2B7
100
AcDbEntity
  8
0
  6
Continuous
 62
     7
370
     0
100
AcDbLine
 10
8.8903018954
 20
20.7711811332
 30
0.0
 11
8.7379581469
 21
20.7711811332
 31
0.0
  0
LINE
  5
2BD
330
2B7
100
AcDbEntity
  8
0
  6
Continuous
 62
     7
370
     0
100
AcDbLine
 10
8.7379581469
 20
20.7711811332
 30
0.0
 11
8.7379581469
 21
19.9774311093
 31
0.0
  0
LINE
  5
2BE
330
2B7
100
AcDbEntity
  8
0
  6
Continuous
 62
     7
370
     0
100
AcDbLine
 10
8.7379581469
 20
19.9774311093
 30
0.0
 11
8.8903018954
 21
19.9774311093
 31
0.0
  0
LINE
  5
2BF
330
2B7
100
AcDbEntity
  8
0
  6
Continuous
 62
     7
370
     0
100
AcDbLine
 10
10.8791908262
 20
20.7711811332
 30
0.0
 11
11.0315345747
 21
20.7711811332
 31
0.0
  0
LINE
  5
2C0
330
2B7
100
AcDbEntity
  8
0
  6
Continuous
 62
     7
370
     0
100
AcDbLine
 10
11.0315345747
 20
20.7711811332
 30
0.0
 11
11.0315345747
 21
19.9774311093
 31
0.0
  0
LINE
  5
2C1
330
2B7
100
AcDbEntity
  8
0
  6
Continuous
 62
     7
370
     0
100
AcDbLine
 10
11.0315345747
 20
19.9774311093
 30
0.0
 11
10.8791908262
 21
19.9774311093
 31
0.0
  0
LINE
  5
2C2
330
2B7
100
AcDbEntity
  8
0
  6
Continuous
 62
     7
370
     0
100
AcDbLine
 10
16.5210573149
 20
21.8811812065
 30
0.0
 11
9.3847463241
 21
21.8811812065
 31
0.0
  0
LINE
  5
2C3
330
2B7
100
AcDbEntity
  8
0
  6
Continuous
 62
     7
370
     0
100
AcDbLine
 10
16.5210573149
 20
19.6611812065
 30
0.0
 11
9.3847463241
 21
19.6611812065
 31
0.0
  0
LINE
  5
2C4
330
2B7
100
AcDbEntity
  8
0
  6
Continuous
 62
     7
370
     0
100
AcDbLine
 10
9.8847463241
 20
21.8811812065
 30
0.0
 11
9.8847463241
 21
22.8811812065
 31
0.0
  0
LINE
  5
2C5
330
2B7
100
AcDbEntity
  8
0
  6
Continuous
 62
     7
370
     0
100
AcDbLine
 10
9.8847463241
 20
19.6611812065
 30
0.0
 11
9.8847463241
 21
18.6611812065
 31
0.0
  0
MTEXT
  5
2C6
330
2B7
100
AcDbEntity
  8
0
  6
Continuous
 62
     7
370
    18
100
AcDbMText
 10
8.6122289577
 20
21.517277554
 30
0.0
 40
0.5
 41
0.0
 71
     1
 72
     1
  1
%%c
  7
SLDTEXTSTYLE0
 73
     1
 44
1.0
  0
MTEXT
  5
2C7
330
2B7
100
AcDbEntity
  8
0
  6
Continuous
 62
     7
370
    18
100
AcDbMText
 10
9.36629144
 20
21.517277554
 30
0.0
 40
0.5
 41
0.0
 71
     1
 72
     1
  1
2 1/4"
  7
SLDTEXTSTYLE0
 73
     1
 44
1.0
  0
MTEXT
  5
2C8
330
2B7
100
AcDbEntity
  8
0
  6
Continuous
 62
     7
370
    18
100
AcDbMText
 10
8.8903018954
 20
20.6219650342
 30
0.0
 40
0.5
 41
0.0
 71
     1
 72
     1
  1
56mm
  7
SLDTEXTSTYLE0
 73
     1
 44
1.0
  0
ENDBLK
  5
2B9
330
2B7
100
AcDbEntity
  8
0
100
AcDbBlockEnd
  0
BLOCK
  5
2CB
330
2CA
100
AcDbEntity
  8
0
100
AcDbBlockBegin
  2
_D_3
 70
     0
 10
0.0
 20
0.0
 30
0.0
  3
_D_3
  1

  0
SOLID
  5
2CD
330
2CA
100
AcDbEntity
  8
0
  6
Continuous
 62
     7
370
    18
100
AcDbTrace
 10
20.9180573149
 20
25.4058780608
 30
0.0
 11
21.4380573149
 21
25.3258780608
 31
0.0
 12
21.4380573149
 22
25.4858780608
 32
0.0
 13
21.4380573149
 23
25.4858780608
 33
0.0
  0
SOLID
  5
2CE
330
2CA
100
AcDbEntity
  8
0
  6
Continuous
 62
     7
370
    18
100
AcDbTrace
 10
20.5380573149
 20
25.4058780608
 30
0.0
 11
20.0180573149
 21
25.4858780608
 31
0.0
 12
20.0180573149
 22
25.3258780608
 32
0.0
 13
20.0180573149
 23
25.3258780608
 33
0.0
  0
LINE
  5
2CF
330
2CA
100
AcDbEntity
  8
0
  6
Continuous
 62
     7
370
     0
100
AcDbLine
 10
22.7708263067
 20
25.4020585383
 30
0.0
 11
22.6184825582
 21
25.4020585383
 31
0.0
  0
LINE
  5
2D0
330
2CA
100
AcDbEntity
  8
0
  6
Continuous
 62
     7
370
     0
100
AcDbLine
 10
22.6184825582
 20
25.4020585383
 30
0.0
 11
22.6184825582
 21
24.6083085144
 31
0.0
  0
LINE
  5
2D1
330
2CA
100
AcDbEntity
  8
0
  6
Continuous
 62
     7
370
     0
100
AcDbLine
 10
22.6184825582
 20
24.6083085144
 30
0.0
 11
22.7708263067
 21
24.6083085144
 31
0.0
  0
LINE
  5
2D2
330
2CA
100
AcDbEntity
  8
0
  6
Continuous
 62
     7
370
     0
100
AcDbLine
 10
24.7597152375
 20
25.4020585383
 30
0.0
 11
24.912058986
 21
25.4020585383
 31
0.0
  0
LINE
  5
2D3
330
2CA
100
AcDbEntity
  8
0
  6
Continuous
 62
     7
370
     0
100
AcDbLine
 10
24.912058986
 20
25.4020585383
 30
0.0
 11
24.912058986
 21
24.6083085144
 31
0.0
  0
LINE
  5
2D4
330
2CA
100
AcDbEntity
  8
0
  6
Continuous
 62
     7
370
     0
100
AcDbLine
 10
24.912058986
 20
24.6083085144
 30
0.0
 11
24.7597152375
 21
24.6083085144
 31
0.0
  0
LINE
  5
2D5
330
2CA
100
AcDbEntity
  8
0
  6
Continuous
 62
     7
370
     0
100
AcDbLine
 10
20.9180573149
 20
22.5961812065
 30
0.0
 11
20.9180573149
 21
25.9058780608
 31
0.0
  0
LINE
  5
2D6
330
2CA
100
AcDbEntity
  8
0
  6
Continuous
 62
     7
370
     0
100
AcDbLine
 10
20.5380573149
 20
22.5961812065
 30
0.0
 11
20.5380573149
 21
25.9058780608
 31
0.0
  0
LINE
  5
2D7
330
2CA
100
AcDbEntity
  8
0
  6
Continuous
 62
     7
370
     0
100
AcDbLine
 10
20.9180573149
 20
25.4058780608
 30
0.0
 11
22.1799559678
 21
25.4058780608
 31
0.0
  0
LINE
  5
2D8
330
2CA
100
AcDbEntity
  8
0
  6
Continuous
 62
     7
370
     0
100
AcDbLine
 10
20.5380573149
 20
25.4058780608
 30
0.0
 11
19.5380573149
 21
25.4058780608
 31
0.0
  0
MTEXT
  5
2D9
330
2CA
100
AcDbEntity
  8
0
  6
Continuous
 62
     7
370
    18
100
AcDbMText
 10
22.468916587
 20
26.1557938483
 30
0.0
 40
0.5
 41
0.0
 71
     1
 72
     1
  1

  7
SLDTEXTSTYLE0
 73
     1
 44
1.0
  0
MTEXT
  5
2DA
330
2CA
100
AcDbEntity
  8
0
  6
Continuous
 62
     7
370
    18
100
AcDbMText
 10
23.1468679259
 20
26.1481549224
 30
0.0
 40
0.5
 41
0.0
 71
     1
 72
     1
  1
3/8"
  7
SLDTEXTSTYLE0
 73
     1
 44
1.0
  0
MTEXT
  5
2DB
330
2CA
100
AcDbEntity
  8
0
  6
Continuous
 62
     7
370
    18
100
AcDbMText
 10
22.7708263067
 20
25.2528424393
 30
0.0
 40
0.5
 41
0.0
 71
     1
 72
     1
  1
10mm
  7
SLDTEXTSTYLE0
 73
     1
 44
1.0
  0
MTEXT
  5
2DC
330
2CA
100
AcDbEntity
  8
0
  6
Continuous
 62
     7
370
    18
100
AcDbMText
 10
25.2519026244
 20
26.1557938483
 30
0.0
 40
0.5
 41
0.0
 71
     1
 72
     1
  1

  7
SLDTEXTSTYLE0
 73
     1
 44
1.0
  0
ENDBLK
  5
2CC
330
2CA
100
AcDbEntity
  8
0
100
AcDbBlockEnd
  0
BLOCK
  5
2E0
330
2DF
100
AcDbEntity
  8
0
100
AcDbBlockBegin
  2
_D_4
 70
     0
 10
0.0
 20
0.0
 30
0.0
  3
_D_4
  1

  0
SOLID
  5
2E2
330
2DF
100
AcDbEntity
  8
0
  6
Continuous
 62
     7
370
    18
100
AcDbTrace
 10
20.5380573149
 20
25.4058780608
 30
0.0
 11
20.0180573149
 21
25.4858780608
 31
0.0
 12
20.0180573149
 22
25.3258780608
 32
0.0
 13
20.0180573149
 23
25.3258780608
 33
0.0
  0
SOLID
  5
2E3
330
2DF
100
AcDbEntity
  8
0
  6
Continuous
 62
     7
370
    18
100
AcDbTrace
 10
16.6910573149
 20
25.4058780608
 30
0.0
 11
17.2110573149
 21
25.3258780608
 31
0.0
 12
17.2110573149
 22
25.4858780608
 32
0.0
 13
17.2110573149
 23
25.4858780608
 33
0.0
  0
LINE
  5
2E4
330
2DF
100
AcDbEntity
  8
0
  6
Continuous
 62
     7
370
     0
100
AcDbLine
 10
8.890301932
 20
25.4020585383
 30
0.0
 11
8.7379581836
 21
25.4020585383
 31
0.0
  0
LINE
  5
2E5
330
2DF
100
AcDbEntity
  8
0
  6
Continuous
 62
     7
370
     0
100
AcDbLine
 10
8.7379581836
 20
25.4020585383
 30
0.0
 11
8.7379581836
 21
24.6083085144
 31
0.0
  0
LINE
  5
2E6
330
2DF
100
AcDbEntity
  8
0
  6
Continuous
 62
     7
370
     0
100
AcDbLine
 10
8.7379581836
 20
24.6083085144
 30
0.0
 11
8.890301932
 21
24.6083085144
 31
0.0
  0
LINE
  5
2E7
330
2DF
100
AcDbEntity
  8
0
  6
Continuous
 62
     7
370
     0
100
AcDbLine
 10
10.8791908629
 20
25.4020585383
 30
0.0
 11
11.0315346113
 21
25.4020585383
 31
0.0
  0
LINE
  5
2E8
330
2DF
100
AcDbEntity
  8
0
  6
Continuous
 62
     7
370
     0
100
AcDbLine
 10
11.0315346113
 20
25.4020585383
 30
0.0
 11
11.0315346113
 21
24.6083085144
 31
0.0
  0
LINE
  5
2E9
330
2DF
100
AcDbEntity
  8
0
  6
Continuous
 62
     7
370
     0
100
AcDbLine
 10
11.0315346113
 20
24.6083085144
 30
0.0
 11
10.8791908629
 21
24.6083085144
 31
0.0
  0
LINE
  5
2EA
330
2DF
100
AcDbEntity
  8
0
  6
Continuous
 62
     7
370
     0
100
AcDbLine
 10
20.5380573149
 20
22.5961812065
 30
0.0
 11
20.5380573149
 21
25.9058780608
 31
0.0
  0
LINE
  5
2EB
330
2DF
100
AcDbEntity
  8
0
  6
Continuous
 62
     7
370
     0
100
AcDbLine
 10
16.6910573149
 20
22.0511812065
 30
0.0
 11
16.6910573149
 21
25.9058780608
 31
0.0
  0
LINE
  5
2EC
330
2DF
100
AcDbEntity
  8
0
  6
Continuous
 62
     7
370
     0
100
AcDbLine
 10
20.5380573149
 20
25.4058780608
 30
0.0
 11
16.6910573149
 21
25.4058780608
 31
0.0
  0
LINE
  5
2ED
330
2DF
100
AcDbEntity
  8
0
  6
Continuous
 62
     7
370
     0
100
AcDbLine
 10
16.6910573149
 20
25.4058780608
 30
0.0
 11
11.4700610551
 21
25.4058780608
 31
0.0
  0
MTEXT
  5
2EE
330
2DF
100
AcDbEntity
  8
0
  6
Continuous
 62
     7
370
    18
100
AcDbMText
 10
8.5883922124
 20
26.1557938483
 30
0.0
 40
0.5
 41
0.0
 71
     1
 72
     1
  1

  7
SLDTEXTSTYLE0
 73
     1
 44
1.0
  0
MTEXT
  5
2EF
330
2DF
100
AcDbEntity
  8
0
  6
Continuous
 62
     7
370
    18
100
AcDbMText
 10
8.9892602722
 20
26.1481549224
 30
0.0
 40
0.5
 41
0.0
 71
     1
 72
     1
  1
3 7/8"
  7
SLDTEXTSTYLE0
 73
     1
 44
1.0
  0
MTEXT
  5
2F0
330
2DF
100
AcDbEntity
  8
0
  6
Continuous
 62
     7
370
    18
100
AcDbMText
 10
8.890301932
 20
25.2528424393
 30
0.0
 40
0.5
 41
0.0
 71
     1
 72
     1
  1
98mm
  7
SLDTEXTSTYLE0
 73
     1
 44
1.0
  0
MTEXT
  5
2F1
330
2DF
100
AcDbEntity
  8
0
  6
Continuous
 62
     7
370
    18
100
AcDbMText
 10
11.3713782498
 20
26.1557938483
 30
0.0
 40
0.5
 41
0.0
 71
     1
 72
     1
  1

  7
SLDTEXTSTYLE0
 73
     1
 44
1.0
  0
ENDBLK
  5
2E1
330
2DF
100
AcDbEntity
  8
0
100
AcDbBlockEnd
  0
BLOCK
  5
314
330
313
100
AcDbEntity
  8
0
100
AcDbBlockBegin
  2
_D_5
 70
     0
 10
0.0
 20
0.0
 30
0.0
  3
_D_5
  1

  0
SOLID
  5
316
330
313
100
AcDbEntity
  8
0
  6
Continuous
 62
     7
370
    18
100
AcDbTrace
 10
29.6704807273
 20
11.5155180896
 30
0.0
 11
30.1904807273
 21
11.4355180896
 31
0.0
 12
30.1904807273
 22
11.5955180896
 32
0.0
 13
30.1904807273
 23
11.5955180896
 33
0.0
  0
SOLID
  5
317
330
313
100
AcDbEntity
  8
0
  6
Continuous
 62
     7
370
    18
100
AcDbTrace
 10
29.2904807273
 20
11.5155180896
 30
0.0
 11
28.7704807273
 21
11.5955180896
 31
0.0
 12
28.7704807273
 22
11.4355180896
 32
0.0
 13
28.7704807273
 23
11.4355180896
 33
0.0
  0
LINE
  5
318
330
313
100
AcDbEntity
  8
0
  6
Continuous
 62
     7
370
     0
100
AcDbLine
 10
30.9503935867
 20
11.511698567
 30
0.0
 11
30.7980498382
 21
11.511698567
 31
0.0
  0
LINE
  5
319
330
313
100
AcDbEntity
  8
0
  6
Continuous
 62
     7
370
     0
100
AcDbLine
 10
30.7980498382
 20
11.511698567
 30
0.0
 11
30.7980498382
 21
10.7179485432
 31
0.0
  0
LINE
  5
31A
330
313
100
AcDbEntity
  8
0
  6
Continuous
 62
     7
370
     0
100
AcDbLine
 10
30.7980498382
 20
10.7179485432
 30
0.0
 11
30.9503935867
 21
10.7179485432
 31
0.0
  0
LINE
  5
31B
330
313
100
AcDbEntity
  8
0
  6
Continuous
 62
     7
370
     0
100
AcDbLine
 10
32.9392825175
 20
11.511698567
 30
0.0
 11
33.091626266
 21
11.511698567
 31
0.0
  0
LINE
  5
31C
330
313
100
AcDbEntity
  8
0
  6
Continuous
 62
     7
370
     0
100
AcDbLine
 10
33.091626266
 20
11.511698567
 30
0.0
 11
33.091626266
 21
10.7179485432
 31
0.0
  0
LINE
  5
31D
330
313
100
AcDbEntity
  8
0
  6
Continuous
 62
     7
370
     0
100
AcDbLine
 10
33.091626266
 20
10.7179485432
 30
0.0
 11
32.9392825175
 21
10.7179485432
 31
0.0
  0
LINE
  5
31E
330
313
100
AcDbEntity
  8
0
  6
Continuous
 62
     7
370
     0
100
AcDbLine
 10
29.6704807273
 20
9.3798678007
 30
0.0
 11
29.6704807273
 21
12.0155180896
 31
0.0
  0
LINE
  5
31F
330
313
100
AcDbEntity
  8
0
  6
Continuous
 62
     7
370
     0
100
AcDbLine
 10
29.2904807273
 20
9.3798678007
 30
0.0
 11
29.2904807273
 21
12.0155180896
 31
0.0
  0
LINE
  5
320
330
313
100
AcDbEntity
  8
0
  6
Continuous
 62
     7
370
     0
100
AcDbLine
 10
29.6704807273
 20
11.5155180896
 30
0.0
 11
30.3595232478
 21
11.5155180896
 31
0.0
  0
LINE
  5
321
330
313
100
AcDbEntity
  8
0
  6
Continuous
 62
     7
370
     0
100
AcDbLine
 10
29.2904807273
 20
11.5155180896
 30
0.0
 11
28.2904807273
 21
11.5155180896
 31
0.0
  0
MTEXT
  5
322
330
313
100
AcDbEntity
  8
0
  6
Continuous
 62
     7
370
    18
100
AcDbMText
 10
30.648483867
 20
12.2654338771
 30
0.0
 40
0.5
 41
0.0
 71
     1
 72
     1
  1

  7
SLDTEXTSTYLE0
 73
     1
 44
1.0
  0
MTEXT
  5
323
330
313
100
AcDbEntity
  8
0
  6
Continuous
 62
     7
370
    18
100
AcDbMText
 10
31.3264352059
 20
12.2577949512
 30
0.0
 40
0.5
 41
0.0
 71
     1
 72
     1
  1
3/8"
  7
SLDTEXTSTYLE0
 73
     1
 44
1.0
  0
MTEXT
  5
324
330
313
100
AcDbEntity
  8
0
  6
Continuous
 62
     7
370
    18
100
AcDbMText
 10
30.9503935867
 20
11.3624824681
 30
0.0
 40
0.5
 41
0.0
 71
     1
 72
     1
  1
10mm
  7
SLDTEXTSTYLE0
 73
     1
 44
1.0
  0
MTEXT
  5
325
330
313
100
AcDbEntity
  8
0
  6
Continuous
 62
     7
370
    18
100
AcDbMText
 10
33.4314699044
 20
12.2654338771
 30
0.0
 40
0.5
 41
0.0
 71
     1
 72
     1
  1

  7
SLDTEXTSTYLE0
 73
     1
 44
1.0
  0
ENDBLK
  5
315
330
313
100
AcDbEntity
  8
0
100
AcDbBlockEnd
  0
ENDSEC
  0
SECTION
  2
ENTITIES
  0
LINE
  5
77
330
1F
100
AcDbEntity
  8
0
  6
Continuous
 62
     7
370
    25
100
AcDbLine
 10
33.941755547
 20
18.4910474747
 30
0.0
 11
34.2104561238
 21
18.6461650159
 31
0.0
  0
LINE
  5
78
330
1F
100
AcDbEntity
  8
0
  6
Continuous
 62
     7
370
    25
100
AcDbLine
 10
30.6873510628
 20
23.3194211738
 30
0.0
 11
30.4186504859
 21
23.1643036325
 31
0.0
  0
LINE
  5
79
330
1F
100
AcDbEntity
  8
0
  6
Continuous
 62
     7
370
    25
100
AcDbLine
 10
36.5208620221
 20
23.4778183176
 30
0.0
 11
36.0315921349
 21
23.1953688238
 31
0.0
  0
LINE
  5
7A
330
1F
100
AcDbEntity
  8
0
  6
Continuous
 62
     7
370
    25
100
AcDbLine
 10
36.1285722272
 20
22.9626869241
 30
0.0
 11
36.6458518637
 21
23.261306102
 31
0.0
  0
LINE
  5
7B
330
1F
100
AcDbEntity
  8
0
  6
Continuous
 62
     7
370
    25
100
AcDbLine
 10
36.9522786389
 20
23.6251297978
 30
0.0
 11
36.6246357598
 21
23.4359855898
 31
0.0
  0
LINE
  5
7C
330
1F
100
AcDbEntity
  8
0
  6
Continuous
 62
     7
370
    25
100
AcDbLine
 10
36.6706083376
 20
23.3355113753
 30
0.0
 11
37.0072741691
 21
23.529864423
 31
0.0
  0
LINE
  5
7D
330
1F
100
AcDbEntity
  8
0
  6
Continuous
 62
     7
370
    25
100
AcDbLine
 10
36.8665464979
 20
23.6746219093
 30
0.0
 11
36.5342111825
 21
23.4827688155
 31
0.0
  0
LINE
  5
7E
330
1F
100
AcDbEntity
  8
0
  6
Continuous
 62
     7
370
    25
100
AcDbLine
 10
36.6699006817
 20
23.2988581805
 30
0.0
 11
36.9644080987
 21
23.4688736935
 31
0.0
  0
LINE
  5
7F
330
1F
100
AcDbEntity
  8
0
  6
Continuous
 62
     7
370
    25
100
AcDbLine
 10
37.1378046231
 20
23.7120249567
 30
0.0
 11
36.9811464086
 21
23.6215880945
 31
0.0
  0
LINE
  5
80
330
1F
100
AcDbEntity
  8
0
  6
Continuous
 62
     7
370
    25
100
AcDbLine
 10
37.0186433611
 20
23.5566344298
 30
0.0
 11
37.1753015755
 21
23.647071292
 31
0.0
  0
LINE
  5
81
330
1F
100
AcDbEntity
  8
0
  6
Continuous
 62
     7
370
    25
100
AcDbLine
 10
37.0520724821
 20
23.7615170682
 30
0.0
 11
36.8954142677
 21
23.6710802061
 31
0.0
  0
LINE
  5
82
330
1F
100
AcDbEntity
  8
0
  6
Continuous
 62
     7
370
    25
100
AcDbLine
 10
36.9688893
 20
23.6268962448
 30
0.0
 11
37.0895694345
 21
23.6965634036
 31
0.0
  0
LINE
  5
83
330
1F
100
AcDbEntity
  8
0
  6
Continuous
 62
     7
370
    25
100
AcDbLine
 10
36.9757772906
 20
23.4956437004
 30
0.0
 11
37.132435505
 21
23.5860805625
 31
0.0
  0
LINE
  5
84
330
1F
100
AcDbEntity
  8
0
  6
Continuous
 62
     7
370
    25
100
AcDbLine
 10
36.1958011401
 20
22.7894113892
 30
0.0
 11
36.0529142384
 21
23.1576875259
 31
0.0
  0
ARC
  5
85
330
1F
100
AcDbEntity
  8
0
  6
Continuous
 62
     7
370
    25
100
AcDbCircle
 10
35.9130710462
 20
23.1034299771
 30
0.0
 40
0.1500000000000044
100
AcDbArc
 50
21.2056798701
 51
60.0026882664
  0
LINE
  5
86
330
1F
100
AcDbEntity
  8
0
  6
Continuous
 62
     7
370
    25
100
AcDbLine
 10
35.9880649512
 20
23.2333373064
 30
0.0
 11
35.7022911478
 21
23.3983110115
 31
0.0
  0
ARC
  5
87
330
1F
100
AcDbEntity
  8
0
  6
Continuous
 62
     7
370
    25
100
AcDbCircle
 10
36.0559579479
 20
22.7351538404
 30
0.0
 40
0.1500000000000057
100
AcDbArc
 50
324.8993285036
 51
0.0
  0
ARC
  5
88
330
1F
100
AcDbEntity
  8
0
  6
Continuous
 62
     7
370
    25
100
AcDbCircle
 10
36.0559579479
 20
22.7351538404
 30
0.0
 40
0.150000000000007
100
AcDbArc
 50
0.0
 51
21.2056798701
  0
LINE
  5
89
330
1F
100
AcDbEntity
  8
0
  6
Continuous
 62
     7
370
    25
100
AcDbLine
 10
35.5523033379
 20
23.3983110115
 30
0.0
 11
35.3665551126
 21
23.2910808435
 31
0.0
  0
LINE
  5
8A
330
1F
100
AcDbEntity
  8
0
  6
Continuous
 62
     7
370
    25
100
AcDbLine
 10
36.035792493
 20
22.4455991827
 30
0.0
 11
36.1786793946
 21
22.6489016143
 31
0.0
  0
ARC
  5
8B
330
1F
100
AcDbEntity
  8
0
  6
Continuous
 62
     7
370
    25
100
AcDbCircle
 10
35.6272972429
 20
23.2684036822
 30
0.0
 40
0.1500000000000003
100
AcDbArc
 50
60.0026882663
 51
119.9973117337
  0
LINE
  5
8C
330
1F
100
AcDbEntity
  8
0
  6
Continuous
 62
     7
370
    25
100
AcDbLine
 10
35.9068939712
 20
22.3550850701
 30
0.0
 11
35.9880649512
 21
22.4019440794
 31
0.0
  0
ARC
  5
8D
330
1F
100
AcDbEntity
  8
0
  6
Continuous
 62
     7
370
    25
100
AcDbCircle
 10
35.9130710462
 20
22.5318514088
 30
0.0
 40
0.1500000000000014
100
AcDbArc
 50
299.9973117337
 51
324.8993285036
  0
LINE
  5
8E
330
1F
100
AcDbEntity
  8
0
  6
Continuous
 62
     7
370
    25
100
AcDbLine
 10
34.2166705463
 20
20.7216203548
 30
0.0
 11
35.7028850737
 21
21.579593739
 31
0.0
  0
LINE
  5
8F
330
1F
100
AcDbEntity
  8
0
  6
Continuous
 62
     7
370
    25
100
AcDbLine
 10
34.5929752805
 20
23.5022222135
 30
0.0
 11
32.9546088685
 21
22.556413416
 31
0.0
  0
LINE
  5
90
330
1F
100
AcDbEntity
  8
0
  6
Continuous
 62
     7
370
    25
100
AcDbLine
 10
35.9328187042
 20
22.0878014742
 30
0.0
 11
35.9328187042
 21
22.1122937176
 31
0.0
  0
LINE
  5
91
330
1F
100
AcDbEntity
  8
0
  6
Continuous
 62
     7
370
    25
100
AcDbLine
 10
35.1692674993
 20
23.4349465109
 30
0.0
 11
35.1480577436
 21
23.447194623
 31
0.0
  0
LINE
  5
92
330
1F
100
AcDbEntity
  8
0
  6
Continuous
 62
     7
370
    25
100
AcDbLine
 10
32.9546088685
 20
22.556413416
 30
0.0
 11
32.4880486665
 21
22.2870739444
 31
0.0
  0
LINE
  5
93
330
1F
100
AcDbEntity
  8
0
  6
Continuous
 62
     7
370
    25
100
AcDbLine
 10
33.4048066504
 20
20.2529413038
 30
0.0
 11
33.4187438007
 21
20.2609870494
 31
0.0
  0
LINE
  5
94
330
1F
100
AcDbEntity
  8
0
  6
Continuous
 62
     7
370
    25
100
AcDbLine
 10
32.5148807757
 20
21.403161716
 30
0.0
 11
32.5148807757
 21
21.380439067
 31
0.0
  0
LINE
  5
95
330
1F
100
AcDbEntity
  8
0
  6
Continuous
 62
     7
370
    25
100
AcDbLine
 10
32.5148807757
 20
21.2500603138
 30
0.0
 11
32.5148807757
 21
21.2273376648
 31
0.0
  0
LINE
  5
96
330
1F
100
AcDbEntity
  8
0
  6
Continuous
 62
     7
370
    25
100
AcDbLine
 10
32.5148807757
 20
21.0969589115
 30
0.0
 11
32.5148807757
 21
21.0742362625
 31
0.0
  0
LINE
  5
97
330
1F
100
AcDbEntity
  8
0
  6
Continuous
 62
     7
370
    25
100
AcDbLine
 10
32.5148807757
 20
20.9438575093
 30
0.0
 11
32.5148807757
 21
20.9211348603
 31
0.0
  0
LINE
  5
98
330
1F
100
AcDbEntity
  8
0
  6
Continuous
 62
     7
370
    25
100
AcDbLine
 10
32.5148807757
 20
20.7907561071
 30
0.0
 11
32.5148807757
 21
20.7680334581
 31
0.0
  0
LINE
  5
99
330
1F
100
AcDbEntity
  8
0
  6
Continuous
 62
     7
370
    25
100
AcDbLine
 10
32.5148807757
 20
20.6376547049
 30
0.0
 11
32.5148807757
 21
20.6149320559
 31
0.0
  0
LINE
  5
9A
330
1F
100
AcDbEntity
  8
0
  6
Continuous
 62
     7
370
    25
100
AcDbLine
 10
32.5148807757
 20
20.4845533026
 30
0.0
 11
32.5148807757
 21
20.4618306536
 31
0.0
  0
LINE
  5
9B
330
1F
100
AcDbEntity
  8
0
  6
Continuous
 62
     7
370
    25
100
AcDbLine
 10
32.5148807757
 20
20.3314519004
 30
0.0
 11
32.5148807757
 21
20.3087292514
 31
0.0
  0
LINE
  5
9C
330
1F
100
AcDbEntity
  8
0
  6
Continuous
 62
     7
370
    25
100
AcDbLine
 10
32.4264924281
 20
21.454187223
 30
0.0
 11
32.4264924281
 21
21.431464574
 31
0.0
  0
LINE
  5
9D
330
1F
100
AcDbEntity
  8
0
  6
Continuous
 62
     7
370
    25
100
AcDbLine
 10
32.4264924281
 20
21.3010858208
 30
0.0
 11
32.4264924281
 21
21.2783631718
 31
0.0
  0
LINE
  5
9E
330
1F
100
AcDbEntity
  8
0
  6
Continuous
 62
     7
370
    25
100
AcDbLine
 10
32.4264924281
 20
21.1479844185
 30
0.0
 11
32.4264924281
 21
21.1252617695
 31
0.0
  0
LINE
  5
9F
330
1F
100
AcDbEntity
  8
0
  6
Continuous
 62
     7
370
    25
100
AcDbLine
 10
32.4264924281
 20
20.9948830163
 30
0.0
 11
32.4264924281
 21
20.9721603673
 31
0.0
  0
LINE
  5
A0
330
1F
100
AcDbEntity
  8
0
  6
Continuous
 62
     7
370
    25
100
AcDbLine
 10
32.4264924281
 20
20.8417816141
 30
0.0
 11
32.4264924281
 21
20.8190589651
 31
0.0
  0
LINE
  5
A1
330
1F
100
AcDbEntity
  8
0
  6
Continuous
 62
     7
370
    25
100
AcDbLine
 10
32.4264924281
 20
20.6886802118
 30
0.0
 11
32.4264924281
 21
20.6659575628
 31
0.0
  0
LINE
  5
A2
330
1F
100
AcDbEntity
  8
0
  6
Continuous
 62
     7
370
    25
100
AcDbLine
 10
32.4264924281
 20
20.5355788096
 30
0.0
 11
32.4264924281
 21
20.5128561606
 31
0.0
  0
LINE
  5
A3
330
1F
100
AcDbEntity
  8
0
  6
Continuous
 62
     7
370
    25
100
AcDbLine
 10
32.4264924281
 20
20.3824774074
 30
0.0
 11
32.4264924281
 21
20.3597547584
 31
0.0
  0
LINE
  5
A4
330
1F
100
AcDbEntity
  8
0
  6
Continuous
 62
     7
370
    25
100
AcDbLine
 10
32.4264924281
 20
20.2293760052
 30
0.0
 11
32.4264924281
 21
20.2283427954
 31
0.0
  0
LINE
  5
A5
330
1F
100
AcDbEntity
  8
0
  6
Continuous
 62
     7
370
    25
100
AcDbLine
 10
32.3381040804
 20
21.50521273
 30
0.0
 11
32.3381040804
 21
21.482490081
 31
0.0
  0
LINE
  5
A6
330
1F
100
AcDbEntity
  8
0
  6
Continuous
 62
     7
370
    25
100
AcDbLine
 10
32.3381040804
 20
21.3521113277
 30
0.0
 11
32.3381040804
 21
21.3293886787
 31
0.0
  0
LINE
  5
A7
330
1F
100
AcDbEntity
  8
0
  6
Continuous
 62
     7
370
    25
100
AcDbLine
 10
32.3381040804
 20
21.1990099255
 30
0.0
 11
32.3381040804
 21
21.1762872765
 31
0.0
  0
LINE
  5
A8
330
1F
100
AcDbEntity
  8
0
  6
Continuous
 62
     7
370
    25
100
AcDbLine
 10
32.3381040804
 20
21.0459085233
 30
0.0
 11
32.3381040804
 21
21.0231858743
 31
0.0
  0
LINE
  5
A9
330
1F
100
AcDbEntity
  8
0
  6
Continuous
 62
     7
370
    25
100
AcDbLine
 10
32.3381040804
 20
20.8928071211
 30
0.0
 11
32.3381040804
 21
20.8700844721
 31
0.0
  0
LINE
  5
AA
330
1F
100
AcDbEntity
  8
0
  6
Continuous
 62
     7
370
    25
100
AcDbLine
 10
32.3381040804
 20
20.7397057188
 30
0.0
 11
32.3381040804
 21
20.7169830698
 31
0.0
  0
LINE
  5
AB
330
1F
100
AcDbEntity
  8
0
  6
Continuous
 62
     7
370
    25
100
AcDbLine
 10
32.3381040804
 20
20.5866043166
 30
0.0
 11
32.3381040804
 21
20.5638816676
 31
0.0
  0
LINE
  5
AC
330
1F
100
AcDbEntity
  8
0
  6
Continuous
 62
     7
370
    25
100
AcDbLine
 10
32.3381040804
 20
20.4335029144
 30
0.0
 11
32.3381040804
 21
20.4107802654
 31
0.0
  0
LINE
  5
AD
330
1F
100
AcDbEntity
  8
0
  6
Continuous
 62
     7
370
    25
100
AcDbLine
 10
32.2497157328
 20
21.556238237
 30
0.0
 11
32.2497157328
 21
21.533515588
 31
0.0
  0
LINE
  5
AE
330
1F
100
AcDbEntity
  8
0
  6
Continuous
 62
     7
370
    25
100
AcDbLine
 10
32.2497157328
 20
21.4031368347
 30
0.0
 11
32.2497157328
 21
21.3804141857
 31
0.0
  0
LINE
  5
AF
330
1F
100
AcDbEntity
  8
0
  6
Continuous
 62
     7
370
    25
100
AcDbLine
 10
32.2497157328
 20
21.2500354325
 30
0.0
 11
32.2497157328
 21
21.2273127835
 31
0.0
  0
LINE
  5
B0
330
1F
100
AcDbEntity
  8
0
  6
Continuous
 62
     7
370
    25
100
AcDbLine
 10
32.2497157328
 20
21.0969340303
 30
0.0
 11
32.2497157328
 21
21.0742113813
 31
0.0
  0
LINE
  5
B1
330
1F
100
AcDbEntity
  8
0
  6
Continuous
 62
     7
370
    25
100
AcDbLine
 10
32.2497157328
 20
20.943832628
 30
0.0
 11
32.2497157328
 21
20.921109979
 31
0.0
  0
LINE
  5
B2
330
1F
100
AcDbEntity
  8
0
  6
Continuous
 62
     7
370
    25
100
AcDbLine
 10
32.2497157328
 20
20.7907312258
 30
0.0
 11
32.2497157328
 21
20.7680085768
 31
0.0
  0
LINE
  5
B3
330
1F
100
AcDbEntity
  8
0
  6
Continuous
 62
     7
370
    25
100
AcDbLine
 10
32.2497157328
 20
20.6376298236
 30
0.0
 11
32.2497157328
 21
20.6149071746
 31
0.0
  0
LINE
  5
B4
330
1F
100
AcDbEntity
  8
0
  6
Continuous
 62
     7
370
    25
100
AcDbLine
 10
32.2497157328
 20
20.4845284214
 30
0.0
 11
32.2497157328
 21
20.4618057724
 31
0.0
  0
LINE
  5
B5
330
1F
100
AcDbEntity
  8
0
  6
Continuous
 62
     7
370
    25
100
AcDbLine
 10
32.1613273851
 20
21.607263744
 30
0.0
 11
32.1613273851
 21
21.5845410949
 31
0.0
  0
LINE
  5
B6
330
1F
100
AcDbEntity
  8
0
  6
Continuous
 62
     7
370
    25
100
AcDbLine
 10
32.1613273851
 20
21.4541623417
 30
0.0
 11
32.1613273851
 21
21.4314396927
 31
0.0
  0
LINE
  5
B7
330
1F
100
AcDbEntity
  8
0
  6
Continuous
 62
     7
370
    25
100
AcDbLine
 10
32.1613273851
 20
21.3010609395
 30
0.0
 11
32.1613273851
 21
21.2783382905
 31
0.0
  0
LINE
  5
B8
330
1F
100
AcDbEntity
  8
0
  6
Continuous
 62
     7
370
    25
100
AcDbLine
 10
32.1613273851
 20
21.1479595373
 30
0.0
 11
32.1613273851
 21
21.1252368883
 31
0.0
  0
LINE
  5
B9
330
1F
100
AcDbEntity
  8
0
  6
Continuous
 62
     7
370
    25
100
AcDbLine
 10
32.1613273851
 20
20.994858135
 30
0.0
 11
32.1613273851
 21
20.972135486
 31
0.0
  0
LINE
  5
BA
330
1F
100
AcDbEntity
  8
0
  6
Continuous
 62
     7
370
    25
100
AcDbLine
 10
32.1613273851
 20
20.8417567328
 30
0.0
 11
32.1613273851
 21
20.8190340838
 31
0.0
  0
LINE
  5
BB
330
1F
100
AcDbEntity
  8
0
  6
Continuous
 62
     7
370
    25
100
AcDbLine
 10
32.1613273851
 20
20.6886553306
 30
0.0
 11
32.1613273851
 21
20.6659326816
 31
0.0
  0
LINE
  5
BC
330
1F
100
AcDbEntity
  8
0
  6
Continuous
 62
     7
370
    25
100
AcDbLine
 10
32.1613273851
 20
20.5355539284
 30
0.0
 11
32.1613273851
 21
20.5128312793
 31
0.0
  0
LINE
  5
BD
330
1F
100
AcDbEntity
  8
0
  6
Continuous
 62
     7
370
    25
100
AcDbLine
 10
32.0729390375
 20
21.6582892509
 30
0.0
 11
32.0729390375
 21
21.6355666019
 31
0.0
  0
LINE
  5
BE
330
1F
100
AcDbEntity
  8
0
  6
Continuous
 62
     7
370
    25
100
AcDbLine
 10
32.0729390375
 20
21.5051878487
 30
0.0
 11
32.0729390375
 21
21.4824651997
 31
0.0
  0
LINE
  5
BF
330
1F
100
AcDbEntity
  8
0
  6
Continuous
 62
     7
370
    25
100
AcDbLine
 10
32.0729390375
 20
21.3520864465
 30
0.0
 11
32.0729390375
 21
21.3293637975
 31
0.0
  0
LINE
  5
C0
330
1F
100
AcDbEntity
  8
0
  6
Continuous
 62
     7
370
    25
100
AcDbLine
 10
32.0729390375
 20
21.1989850443
 30
0.0
 11
32.0729390375
 21
21.1762623953
 31
0.0
  0
LINE
  5
C1
330
1F
100
AcDbEntity
  8
0
  6
Continuous
 62
     7
370
    25
100
AcDbLine
 10
32.0729390375
 20
21.045883642
 30
0.0
 11
32.0729390375
 21
21.023160993
 31
0.0
  0
LINE
  5
C2
330
1F
100
AcDbEntity
  8
0
  6
Continuous
 62
     7
370
    25
100
AcDbLine
 10
32.0729390375
 20
20.8927822398
 30
0.0
 11
32.0729390375
 21
20.8700595908
 31
0.0
  0
LINE
  5
C3
330
1F
100
AcDbEntity
  8
0
  6
Continuous
 62
     7
370
    25
100
AcDbLine
 10
32.0729390375
 20
20.7396808376
 30
0.0
 11
32.0729390375
 21
20.7169581886
 31
0.0
  0
LINE
  5
C4
330
1F
100
AcDbEntity
  8
0
  6
Continuous
 62
     7
370
    25
100
AcDbLine
 10
32.0729390375
 20
20.5865794353
 30
0.0
 11
32.0729390375
 21
20.5638567863
 31
0.0
  0
LINE
  5
C5
330
1F
100
AcDbEntity
  8
0
  6
Continuous
 62
     7
370
    25
100
AcDbLine
 10
31.9845506898
 20
21.7093147579
 30
0.0
 11
31.9845506898
 21
21.6865921089
 31
0.0
  0
LINE
  5
C6
330
1F
100
AcDbEntity
  8
0
  6
Continuous
 62
     7
370
    25
100
AcDbLine
 10
31.9845506898
 20
21.5562133557
 30
0.0
 11
31.9845506898
 21
21.5334907067
 31
0.0
  0
LINE
  5
C7
330
1F
100
AcDbEntity
  8
0
  6
Continuous
 62
     7
370
    25
100
AcDbLine
 10
31.9845506898
 20
21.4031119535
 30
0.0
 11
31.9845506898
 21
21.3803893045
 31
0.0
  0
LINE
  5
C8
330
1F
100
AcDbEntity
  8
0
  6
Continuous
 62
     7
370
    25
100
AcDbLine
 10
31.9845506898
 20
21.2500105512
 30
0.0
 11
31.9845506898
 21
21.2272879022
 31
0.0
  0
LINE
  5
C9
330
1F
100
AcDbEntity
  8
0
  6
Continuous
 62
     7
370
    25
100
AcDbLine
 10
31.9845506898
 20
21.096909149
 30
0.0
 11
31.9845506898
 21
21.0741865
 31
0.0
  0
LINE
  5
CA
330
1F
100
AcDbEntity
  8
0
  6
Continuous
 62
     7
370
    25
100
AcDbLine
 10
31.9845506898
 20
20.9438077468
 30
0.0
 11
31.9845506898
 21
20.9210850978
 31
0.0
  0
LINE
  5
CB
330
1F
100
AcDbEntity
  8
0
  6
Continuous
 62
     7
370
    25
100
AcDbLine
 10
31.9845506898
 20
20.7907063446
 30
0.0
 11
31.9845506898
 21
20.7679836956
 31
0.0
  0
ARC
  5
CC
330
1F
100
AcDbEntity
  8
0
  6
Continuous
 62
     7
370
    25
100
AcDbCircle
 10
33.9019134864
 20
21.1074521832
 30
0.0
 40
0.0461041442272021
100
AcDbArc
 50
2.6054784857
 51
57.39452166
  0
LINE
  5
CD
330
1F
100
AcDbEntity
  8
0
  6
Continuous
 62
     7
370
    25
100
AcDbLine
 10
33.9479699694
 20
21.1095480088
 30
0.0
 11
33.9479699694
 21
18.5047828189
 31
0.0
  0
ARC
  5
CE
330
1F
100
AcDbEntity
  8
0
  6
Continuous
 62
     7
370
    25
100
AcDbCircle
 10
33.9350377384
 20
18.502685003
 30
0.0
 40
0.0131012759228534
100
AcDbArc
 50
230.7967147643
 51
9.2140369905
  0
LINE
  5
CF
330
1F
100
AcDbEntity
  8
0
  6
Continuous
 62
     7
370
    25
100
AcDbLine
 10
33.926756766
 20
18.4925327162
 30
0.0
 11
30.4336492669
 21
20.5090607524
 31
0.0
  0
ARC
  5
D0
330
1F
100
AcDbEntity
  8
0
  6
Continuous
 62
     7
370
    25
100
AcDbCircle
 10
30.4584925465
 20
20.547898924
 30
0.0
 40
0.0461041442271727
100
AcDbArc
 50
182.6054784857
 51
237.39452166
  0
LINE
  5
D1
330
1F
100
AcDbEntity
  8
0
  6
Continuous
 62
     7
370
    25
100
AcDbLine
 10
30.4124360635
 20
20.5458030984
 30
0.0
 11
30.4124360635
 21
23.1505682884
 31
0.0
  0
ARC
  5
D2
330
1F
100
AcDbEntity
  8
0
  6
Continuous
 62
     7
370
    25
100
AcDbCircle
 10
30.4253682945
 20
23.1526661043
 30
0.0
 40
0.0131012759228529
100
AcDbArc
 50
50.7967147643
 51
189.2140369905
  0
LINE
  5
D3
330
1F
100
AcDbEntity
  8
0
  6
Continuous
 62
     7
370
    25
100
AcDbLine
 10
30.4336492669
 20
23.162818391
 30
0.0
 11
33.926756766
 21
21.1462903548
 31
0.0
  0
LWPOLYLINE
  5
D4
330
1F
100
AcDbEntity
  8
0
  6
Continuous
 62
     7
370
    25
100
AcDbPolyline
 90
       77
 70
   128
 43
0.0
 10
33.2065685094
 20
20.2351673665
 10
33.2070636106
 20
20.2210585224
 10
33.2085455324
 20
20.2064744243
 10
33.2110041516
 20
20.1915146963
 10
33.2144226735
 20
20.1762815285
 10
33.218777746
 20
20.160878979
 10
33.2240396196
 20
20.1454122627
 10
33.2301723503
 20
20.1299870331
 10
33.2371340454
 20
20.11470866
 10
33.2448771494
 20
20.0996815102
 10
33.2533487691
 20
20.0850082345
 10
33.2624910348
 20
20.0707890661
 10
33.2722414954
 20
20.0571211364
 10
33.2825335455
 20
20.0440978113
 10
33.29329688
 20
20.0318080532
 10
33.3044579742
 20
20.0203358137
 10
33.3159405867
 20
20.0097594597
 10
33.3276662796
 20
20.0001512386
 10
33.3395549544
 20
19.9915767841
 10
33.3515253995
 20
19.9840946686
 10
33.3634958446
 20
19.9777560024
 10
33.3753845194
 20
19.972604085
 10
33.3871102123
 20
19.9686741094
 10
33.3985928248
 20
19.9659929212
 10
33.409753919
 20
19.9645788356
 10
33.4205172535
 20
19.9644415122
 10
33.4308093036
 20
19.9655818893
 10
33.4405597642
 20
19.9679921767
 10
33.4497020299
 20
19.9716559098
 10
33.4581736496
 20
19.9765480616
 10
33.4659167536
 20
19.9826352137
 10
33.4728784487
 20
19.9898757848
 10
33.4790111794
 20
19.9982203143
 10
33.484273053
 20
20.0076118006
 10
33.4886281255
 20
20.0179860905
 10
33.4920466474
 20
20.0292723169
 10
33.4945052666
 20
20.0413933836
 10
33.4959871884
 20
20.0542664912
 10
33.4964822896
 20
20.0678037035
 10
33.4959871884
 20
20.0819125476
 10
33.4945052666
 20
20.0964966457
 10
33.4920466474
 20
20.1114563737
 10
33.4886281255
 20
20.1266895415
 10
33.484273053
 20
20.142092091
 10
33.4790111794
 20
20.1575588073
 10
33.4728784487
 20
20.1729840369
 10
33.4659167536
 20
20.18826241
 10
33.4581736496
 20
20.2032895598
 10
33.4497020299
 20
20.2179628355
 10
33.4405597642
 20
20.2321820039
 10
33.4308093036
 20
20.2458499336
 10
33.4205172535
 20
20.2588732587
 10
33.409753919
 20
20.2711630168
 10
33.3985928248
 20
20.2826352563
 10
33.3871102123
 20
20.2932116103
 10
33.3753845194
 20
20.3028198314
 10
33.3634958446
 20
20.3113942859
 10
33.3515253995
 20
20.3188764014
 10
33.3395549544
 20
20.3252150676
 10
33.3276662796
 20
20.330366985
 10
33.3159405867
 20
20.3342969606
 10
33.3044579742
 20
20.3369781488
 10
33.29329688
 20
20.3383922344
 10
33.2825335455
 20
20.3385295578
 10
33.2722414954
 20
20.3373891807
 10
33.2624910348
 20
20.3349788933
 10
33.2533487691
 20
20.3313151602
 10
33.2448771494
 20
20.3264230084
 10
33.2371340454
 20
20.3203358563
 10
33.2301723503
 20
20.3130952852
 10
33.2240396196
 20
20.3047507557
 10
33.218777746
 20
20.2953592694
 10
33.2144226735
 20
20.2849849795
 10
33.2110041516
 20
20.2736987531
 10
33.2085455324
 20
20.2615776864
 10
33.2070636106
 20
20.2487045788
 10
33.2065685094
 20
20.2351673665
  0
LWPOLYLINE
  5
D5
330
1F
100
AcDbEntity
  8
0
  6
Continuous
 62
     7
370
    25
100
AcDbPolyline
 90
       77
 70
   128
 43
0.0
 10
30.8639237433
 20
21.5875474037
 10
30.8644188446
 20
21.5734385596
 10
30.8659007663
 20
21.5588544615
 10
30.8683593856
 20
21.5438947335
 10
30.8717779074
 20
21.5286615658
 10
30.8761329799
 20
21.5132590162
 10
30.8813948535
 20
21.4977923
 10
30.8875275842
 20
21.4823670703
 10
30.8944892793
 20
21.4670886972
 10
30.9022323833
 20
21.4520615474
 10
30.9107040031
 20
21.4373882717
 10
30.9198462687
 20
21.4231691033
 10
30.9295967294
 20
21.4095011737
 10
30.9398887795
 20
21.3964778485
 10
30.9506521139
 20
21.3841880905
 10
30.9618132081
 20
21.3727158509
 10
30.9732958206
 20
21.362139497
 10
30.9850215135
 20
21.3525312758
 10
30.9969101883
 20
21.3439568213
 10
31.0088806334
 20
21.3364747058
 10
31.0208510785
 20
21.3301360396
 10
31.0327397534
 20
21.3249841223
 10
31.0444654462
 20
21.3210541466
 10
31.0559480587
 20
21.3183729584
 10
31.067109153
 20
21.3169588728
 10
31.0778724874
 20
21.3168215495
 10
31.0881645375
 20
21.3179619265
 10
31.0979149981
 20
21.3203722139
 10
31.1070572638
 20
21.324035947
 10
31.1155288835
 20
21.3289280988
 10
31.1232719876
 20
21.335015251
 10
31.1302336826
 20
21.342255822
 10
31.1363664134
 20
21.3506003515
 10
31.1416282869
 20
21.3599918379
 10
31.1459833594
 20
21.3703661277
 10
31.1494018813
 20
21.3816523542
 10
31.1518605005
 20
21.3937734208
 10
31.1533424223
 20
21.4066465285
 10
31.1538375236
 20
21.4201837408
 10
31.1533424223
 20
21.4342925848
 10
31.1518605005
 20
21.448876683
 10
31.1494018813
 20
21.463836411
 10
31.1459833594
 20
21.4790695787
 10
31.1416282869
 20
21.4944721282
 10
31.1363664134
 20
21.5099388445
 10
31.1302336826
 20
21.5253640742
 10
31.1232719876
 20
21.5406424473
 10
31.1155288835
 20
21.555669597
 10
31.1070572638
 20
21.5703428728
 10
31.0979149981
 20
21.5845620411
 10
31.0881645375
 20
21.5982299708
 10
31.0778724874
 20
21.6112532959
 10
31.067109153
 20
21.623543054
 10
31.0559480587
 20
21.6350152936
 10
31.0444654462
 20
21.6455916475
 10
31.0327397534
 20
21.6551998687
 10
31.0208510785
 20
21.6637743231
 10
31.0088806334
 20
21.6712564387
 10
30.9969101883
 20
21.6775951049
 10
30.9850215135
 20
21.6827470222
 10
30.9732958206
 20
21.6866769978
 10
30.9618132081
 20
21.6893581861
 10
30.9506521139
 20
21.6907722717
 10
30.9398887795
 20
21.690909595
 10
30.9295967294
 20
21.689769218
 10
30.9198462687
 20
21.6873589305
 10
30.9107040031
 20
21.6836951974
 10
30.9022323833
 20
21.6788030456
 10
30.8944892793
 20
21.6727158935
 10
30.8875275842
 20
21.6654753225
 10
30.8813948535
 20
21.657130793
 10
30.8761329799
 20
21.6477393066
 10
30.8717779074
 20
21.6373650167
 10
30.8683593856
 20
21.6260787903
 10
30.8659007663
 20
21.6139577237
 10
30.8644188446
 20
21.601084616
 10
30.8639237433
 20
21.5875474037
  0
LINE
  5
D6
330
1F
100
AcDbEntity
  8
0
  6
Continuous
 62
     7
370
    25
100
AcDbLine
 10
32.5567373774
 20
20.0521195948
 30
0.0
 11
31.8036686555
 21
20.4868569144
 31
0.0
  0
SPLINE
  5
D7
330
1F
100
AcDbEntity
  8
0
  6
Continuous
 62
     7
370
    25
100
AcDbSpline
210
0.0
220
0.0
230
1.0
 70
     8
 71
     3
 72
    25
 73
    21
 74
     0
 42
0.00000001
 43
0.00000001
 40
0.0
 40
0.0
 40
0.0
 40
0.0
 40
0.0611618131782261
 40
0.1223236263564529
 40
0.1760236318511601
 40
0.2297236373458678
 40
0.2834236428405756
 40
0.3371236483352836
 40
0.3908236538299916
 40
0.4445236593247003
 40
0.4982236648194021
 40
0.5519236703141037
 40
0.6048587710067816
 40
0.6577938716994598
 40
0.710728972392137
 40
0.7636640730848141
 40
0.816599173777492
 40
0.8695342744701696
 40
0.9224693751628467
 40
1.0
 40
1.0
 40
1.0
 40
1.0
 10
32.55673737744267
 20
20.15418719632567
 30
0.0
 10
32.55956774218802
 20
20.15236668767526
 30
0.0
 10
32.56522847167874
 20
20.14872567037446
 30
0.0
 10
32.57308257175593
 20
20.1414185889126
 30
0.0
 10
32.58005860848845
 20
20.133318191261
 30
0.0
 10
32.5860786954661
 20
20.1247075883117
 30
0.0
 10
32.59124838608815
 20
20.11548059466395
 30
0.0
 10
32.59545866436169
 20
20.10590872872432
 30
0.0
 10
32.59854716313916
 20
20.09625755677692
 30
0.0
 10
32.60047301854826
 20
20.08679817012199
 30
0.0
 10
32.60113268348508
 20
20.07781183992794
 30
0.0
 10
32.60055742079913
 20
20.06957243257332
 30
0.0
 10
32.59874886297229
 20
20.06231897106123
 30
0.0
 10
32.59579369642744
 20
20.05622451326055
 30
0.0
 10
32.59176039422857
 20
20.05142438194153
 30
0.0
 10
32.58676129125858
 20
20.04805318526095
 30
0.0
 10
32.58093427090904
 20
20.04619305029611
 30
0.0
 10
32.57443895401605
 20
20.04593648850283
 30
0.0
 10
32.56637780991158
 20
20.04732247800783
 30
0.0
 10
32.56033084796125
 20
20.05033146988125
 30
0.0
 10
32.55673737744267
 20
20.05211959483995
 30
0.0
  0
LINE
  5
D8
330
1F
100
AcDbEntity
  8
0
  6
Continuous
 62
     7
370
    25
100
AcDbLine
 10
31.8036686555
 20
20.5889245159
 30
0.0
 11
32.5567373774
 21
20.1541871963
 31
0.0
  0
SPLINE
  5
D9
330
1F
100
AcDbEntity
  8
0
  6
Continuous
 62
     7
370
    25
100
AcDbSpline
210
0.0
220
0.0
230
1.0
 70
     8
 71
     3
 72
    25
 73
    21
 74
     0
 42
0.00000001
 43
0.00000001
 40
0.0
 40
0.0
 40
0.0
 40
0.0
 40
0.060033322635674
 40
0.1129709835186555
 40
0.1659086444016369
 40
0.2188463052846195
 40
0.2717839661676006
 40
0.3247216270505803
 40
0.3776592879335607
 40
0.4305969488165426
 40
0.4835346096995223
 40
0.5364722705824906
 40
0.5894099314654713
 40
0.6423475923484522
 40
0.6952852532314335
 40
0.7482229141144138
 40
0.8011605749973946
 40
0.8540982358803756
 40
0.907035896763356
 40
1.0
 40
1.0
 40
1.0
 40
1.0
 10
31.803668655479
 20
20.48685691438554
 30
0.0
 10
31.80088984908562
 20
20.48863484803158
 30
0.0
 10
31.79566067839366
 20
20.49198057176974
 30
0.0
 10
31.78824123229763
 20
20.49874000318663
 30
0.0
 10
31.78156362124185
 20
20.50618361111477
 30
0.0
 10
31.77549596305347
 20
20.51453029740306
 30
0.0
 10
31.7702052747091
 20
20.52351364490357
 30
0.0
 10
31.76583757095532
 20
20.5328955814998
 30
0.0
 10
31.76251329476442
 20
20.54241474160972
 30
0.0
 10
31.76032414072883
 20
20.5518092691757
 30
0.0
 10
31.75933048675822
 20
20.56081986817085
 30
0.0
 10
31.75955974036565
 20
20.56919804752075
 30
0.0
 10
31.76100557560899
 20
20.57671277392359
 30
0.0
 10
31.76362812446663
 20
20.5831565544819
 30
0.0
 10
31.76735501598337
 20
20.58835251886179
 30
0.0
 10
31.77208359733513
 20
20.59215415030415
 30
0.0
 10
31.77768292569968
 20
20.5944685567838
 30
0.0
 10
31.78400051259635
 20
20.59518726029878
 30
0.0
 10
31.79258236858746
 20
20.5942730114019
 30
0.0
 10
31.79935398829568
 20
20.59100609452532
 30
0.0
 10
31.803668655479
 20
20.58892451587126
 30
0.0
  0
LINE
  5
DA
330
1F
100
AcDbEntity
  8
0
  6
Continuous
 62
     7
370
    25
100
AcDbLine
 10
31.8036686555
 20
20.7420259181
 30
0.0
 11
32.5567373774
 21
20.3072885986
 31
0.0
  0
SPLINE
  5
DB
330
1F
100
AcDbEntity
  8
0
  6
Continuous
 62
     7
370
    25
100
AcDbSpline
210
0.0
220
0.0
230
1.0
 70
     8
 71
     3
 72
    25
 73
    21
 74
     0
 42
0.00000001
 43
0.00000001
 40
0.0
 40
0.0
 40
0.0
 40
0.0
 40
0.0600333226356724
 40
0.1129709835186533
 40
0.1659086444016344
 40
0.2188463052846155
 40
0.2717839661675965
 40
0.3247216270505768
 40
0.3776592879335587
 40
0.4305969488165386
 40
0.483534609699519
 40
0.5364722705824985
 40
0.5894099314654793
 40
0.6423475923484576
 40
0.6952852532314361
 40
0.7482229141144152
 40
0.8011605749973942
 40
0.8540982358803735
 40
0.907035896763353
 40
0.9999999999999999
 40
0.9999999999999999
 40
0.9999999999999999
 40
0.9999999999999999
 10
31.803668655479
 20
20.63995831661412
 30
0.0
 10
31.80088984908562
 20
20.64173625026015
 30
0.0
 10
31.79566067839366
 20
20.64508197399832
 30
0.0
 10
31.78824123229763
 20
20.65184140541521
 30
0.0
 10
31.78156362124185
 20
20.65928501334334
 30
0.0
 10
31.77549596305347
 20
20.66763169963163
 30
0.0
 10
31.7702052747091
 20
20.67661504713215
 30
0.0
 10
31.76583757095532
 20
20.68599698372837
 30
0.0
 10
31.76251329476442
 20
20.6955161438383
 30
0.0
 10
31.76032414072883
 20
20.70491067140428
 30
0.0
 10
31.75933048675822
 20
20.71392127039943
 30
0.0
 10
31.75955974036565
 20
20.72229944974933
 30
0.0
 10
31.76100557560899
 20
20.72981417615216
 30
0.0
 10
31.76362812446663
 20
20.73625795671048
 30
0.0
 10
31.76735501598337
 20
20.74145392109036
 30
0.0
 10
31.77208359733513
 20
20.74525555253273
 30
0.0
 10
31.77768292569968
 20
20.74756995901238
 30
0.0
 10
31.78400051259635
 20
20.74828866252736
 30
0.0
 10
31.79258236858746
 20
20.74737441363047
 30
0.0
 10
31.79935398829569
 20
20.74410749675389
 30
0.0
 10
31.803668655479
 20
20.74202591809983
 30
0.0
  0
LINE
  5
DC
330
1F
100
AcDbEntity
  8
0
  6
Continuous
 62
     7
370
    25
100
AcDbLine
 10
32.5567373774
 20
20.2052209971
 30
0.0
 11
31.8036686555
 21
20.6399583166
 31
0.0
  0
SPLINE
  5
DD
330
1F
100
AcDbEntity
  8
0
  6
Continuous
 62
     7
370
    25
100
AcDbSpline
210
0.0
220
0.0
230
1.0
 70
     8
 71
     3
 72
    25
 73
    21
 74
     0
 42
0.00000001
 43
0.00000001
 40
0.0
 40
0.0
 40
0.0
 40
0.0
 40
0.0611618131782255
 40
0.1223236263564512
 40
0.1760236318511583
 40
0.2297236373458652
 40
0.2834236428405723
 40
0.3371236483352802
 40
0.3908236538299878
 40
0.4445236593246954
 40
0.4982236648194022
 40
0.5519236703141096
 40
0.6048587710067868
 40
0.6577938716994635
 40
0.7107289723921404
 40
0.7636640730848163
 40
0.8165991737774935
 40
0.8695342744701701
 40
0.9224693751628464
 40
0.9999999999999999
 40
0.9999999999999999
 40
0.9999999999999999
 40
0.9999999999999999
 10
32.55673737744267
 20
20.30728859855424
 30
0.0
 10
32.55956774218802
 20
20.30546808990384
 30
0.0
 10
32.56522847167874
 20
20.30182707260304
 30
0.0
 10
32.57308257175593
 20
20.29451999114118
 30
0.0
 10
32.58005860848845
 20
20.28641959348958
 30
0.0
 10
32.5860786954661
 20
20.27780899054028
 30
0.0
 10
32.59124838608815
 20
20.26858199689253
 30
0.0
 10
32.59545866436169
 20
20.2590101309529
 30
0.0
 10
32.59854716313916
 20
20.24935895900549
 30
0.0
 10
32.60047301854826
 20
20.23989957235058
 30
0.0
 10
32.60113268348508
 20
20.23091324215651
 30
0.0
 10
32.60055742079913
 20
20.22267383480189
 30
0.0
 10
32.59874886297229
 20
20.21542037328981
 30
0.0
 10
32.59579369642744
 20
20.20932591548912
 30
0.0
 10
32.59176039422857
 20
20.2045257841701
 30
0.0
 10
32.58676129125858
 20
20.20115458748953
 30
0.0
 10
32.58093427090904
 20
20.19929445252469
 30
0.0
 10
32.57443895401605
 20
20.19903789073141
 30
0.0
 10
32.56637780991158
 20
20.20042388023641
 30
0.0
 10
32.56033084796125
 20
20.20343287210982
 30
0.0
 10
32.55673737744267
 20
20.20522099706853
 30
0.0
  0
LINE
  5
DE
330
1F
100
AcDbEntity
  8
0
  6
Continuous
 62
     7
370
    25
100
AcDbLine
 10
32.5567373774
 20
20.3583223993
 30
0.0
 11
31.8036686555
 21
20.7930597188
 31
0.0
  0
SPLINE
  5
DF
330
1F
100
AcDbEntity
  8
0
  6
Continuous
 62
     7
370
    25
100
AcDbSpline
210
0.0
220
0.0
230
1.0
 70
     8
 71
     3
 72
    25
 73
    21
 74
     0
 42
0.00000001
 43
0.00000001
 40
0.0
 40
0.0
 40
0.0
 40
0.0
 40
0.0611618131782251
 40
0.1223236263564508
 40
0.1760236318511582
 40
0.2297236373458651
 40
0.2834236428405725
 40
0.3371236483352796
 40
0.3908236538299866
 40
0.4445236593246936
 40
0.4982236648194008
 40
0.5519236703141084
 40
0.6048587710067861
 40
0.6577938716994635
 40
0.7107289723921403
 40
0.7636640730848168
 40
0.8165991737774929
 40
0.8695342744701694
 40
0.9224693751628457
 40
1.0
 40
1.0
 40
1.0
 40
1.0
 10
32.55673737744267
 20
20.46039000078283
 30
0.0
 10
32.55956774218802
 20
20.45856949213243
 30
0.0
 10
32.56522847167874
 20
20.45492847483162
 30
0.0
 10
32.57308257175593
 20
20.44762139336976
 30
0.0
 10
32.58005860848845
 20
20.43952099571816
 30
0.0
 10
32.5860786954661
 20
20.43091039276886
 30
0.0
 10
32.59124838608815
 20
20.42168339912111
 30
0.0
 10
32.59545866436169
 20
20.41211153318147
 30
0.0
 10
32.59854716313916
 20
20.40246036123407
 30
0.0
 10
32.60047301854826
 20
20.39300097457915
 30
0.0
 10
32.60113268348508
 20
20.38401464438509
 30
0.0
 10
32.60055742079913
 20
20.37577523703047
 30
0.0
 10
32.59874886297229
 20
20.36852177551839
 30
0.0
 10
32.59579369642744
 20
20.3624273177177
 30
0.0
 10
32.59176039422857
 20
20.35762718639868
 30
0.0
 10
32.58676129125858
 20
20.35425598971811
 30
0.0
 10
32.58093427090904
 20
20.35239585475327
 30
0.0
 10
32.57443895401605
 20
20.35213929295999
 30
0.0
 10
32.56637780991158
 20
20.35352528246499
 30
0.0
 10
32.56033084796125
 20
20.3565342743384
 30
0.0
 10
32.55673737744267
 20
20.3583223992971
 30
0.0
  0
LINE
  5
E0
330
1F
100
AcDbEntity
  8
0
  6
Continuous
 62
     7
370
    25
100
AcDbLine
 10
31.8036686555
 20
20.8951273203
 30
0.0
 11
32.5567373774
 21
20.4603900008
 31
0.0
  0
SPLINE
  5
E1
330
1F
100
AcDbEntity
  8
0
  6
Continuous
 62
     7
370
    25
100
AcDbSpline
210
0.0
220
0.0
230
1.0
 70
     8
 71
     3
 72
    25
 73
    21
 74
     0
 42
0.00000001
 43
0.00000001
 40
0.0
 40
0.0
 40
0.0
 40
0.0
 40
0.0600333226356738
 40
0.1129709835186547
 40
0.1659086444016359
 40
0.218846305284617
 40
0.2717839661675975
 40
0.3247216270505777
 40
0.3776592879335584
 40
0.4305969488165384
 40
0.4835346096995182
 40
0.5364722705824978
 40
0.5894099314654773
 40
0.642347592348457
 40
0.6952852532314366
 40
0.7482229141144168
 40
0.8011605749973967
 40
0.8540982358803766
 40
0.9070358967633569
 40
1.0
 40
1.0
 40
1.0
 40
1.0
 10
31.803668655479
 20
20.7930597188427
 30
0.0
 10
31.80088984908562
 20
20.79483765248873
 30
0.0
 10
31.79566067839366
 20
20.7981833762269
 30
0.0
 10
31.78824123229763
 20
20.80494280764379
 30
0.0
 10
31.78156362124185
 20
20.81238641557193
 30
0.0
 10
31.77549596305347
 20
20.82073310186021
 30
0.0
 10
31.7702052747091
 20
20.82971644936073
 30
0.0
 10
31.76583757095532
 20
20.83909838595695
 30
0.0
 10
31.76251329476442
 20
20.84861754606687
 30
0.0
 10
31.76032414072883
 20
20.85801207363285
 30
0.0
 10
31.75933048675822
 20
20.867022672628
 30
0.0
 10
31.75955974036565
 20
20.8754008519779
 30
0.0
 10
31.76100557560899
 20
20.88291557838074
 30
0.0
 10
31.76362812446663
 20
20.88935935893905
 30
0.0
 10
31.76735501598337
 20
20.89455532331895
 30
0.0
 10
31.77208359733513
 20
20.8983569547613
 30
0.0
 10
31.77768292569968
 20
20.90067136124096
 30
0.0
 10
31.78400051259635
 20
20.90139006475594
 30
0.0
 10
31.79258236858746
 20
20.90047581585905
 30
0.0
 10
31.79935398829569
 20
20.89720889898247
 30
0.0
 10
31.803668655479
 20
20.89512732032842
 30
0.0
  0
LINE
  5
E2
330
1F
100
AcDbEntity
  8
0
  6
Continuous
 62
     7
370
    25
100
AcDbLine
 10
31.8036686555
 20
21.0482287226
 30
0.0
 11
32.5567373774
 21
20.613491403
 31
0.0
  0
SPLINE
  5
E3
330
1F
100
AcDbEntity
  8
0
  6
Continuous
 62
     7
370
    25
100
AcDbSpline
210
0.0
220
0.0
230
1.0
 70
     8
 71
     3
 72
    25
 73
    21
 74
     0
 42
0.00000001
 43
0.00000001
 40
0.0
 40
0.0
 40
0.0
 40
0.0
 40
0.0600333226356727
 40
0.1129709835186539
 40
0.1659086444016355
 40
0.2188463052846159
 40
0.2717839661675964
 40
0.3247216270505772
 40
0.3776592879335577
 40
0.430596948816537
 40
0.4835346096995168
 40
0.5364722705824971
 40
0.5894099314654774
 40
0.6423475923484567
 40
0.6952852532314369
 40
0.7482229141144175
 40
0.8011605749973977
 40
0.8540982358803775
 40
0.9070358967633574
 40
1.0
 40
1.0
 40
1.0
 40
1.0
 10
31.803668655479
 20
20.94616112107127
 30
0.0
 10
31.80088984908562
 20
20.94793905471731
 30
0.0
 10
31.79566067839366
 20
20.95128477845548
 30
0.0
 10
31.78824123229763
 20
20.95804420987237
 30
0.0
 10
31.78156362124185
 20
20.9654878178005
 30
0.0
 10
31.77549596305347
 20
20.97383450408879
 30
0.0
 10
31.7702052747091
 20
20.9828178515893
 30
0.0
 10
31.76583757095532
 20
20.99219978818553
 30
0.0
 10
31.76251329476442
 20
21.00171894829545
 30
0.0
 10
31.76032414072883
 20
21.01111347586143
 30
0.0
 10
31.75933048675822
 20
21.02012407485659
 30
0.0
 10
31.75955974036565
 20
21.02850225420648
 30
0.0
 10
31.76100557560899
 20
21.03601698060932
 30
0.0
 10
31.76362812446663
 20
21.04246076116763
 30
0.0
 10
31.76735501598337
 20
21.04765672554752
 30
0.0
 10
31.77208359733513
 20
21.05145835698988
 30
0.0
 10
31.77768292569968
 20
21.05377276346954
 30
0.0
 10
31.78400051259635
 20
21.05449146698452
 30
0.0
 10
31.79258236858746
 20
21.05357721808763
 30
0.0
 10
31.79935398829569
 20
21.05031030121105
 30
0.0
 10
31.803668655479
 20
21.04822872255699
 30
0.0
  0
LINE
  5
E4
330
1F
100
AcDbEntity
  8
0
  6
Continuous
 62
     7
370
    25
100
AcDbLine
 10
32.5567373774
 20
20.5114238015
 30
0.0
 11
31.8036686555
 21
20.9461611211
 31
0.0
  0
SPLINE
  5
E5
330
1F
100
AcDbEntity
  8
0
  6
Continuous
 62
     7
370
    25
100
AcDbSpline
210
0.0
220
0.0
230
1.0
 70
     8
 71
     3
 72
    25
 73
    21
 74
     0
 42
0.00000001
 43
0.00000001
 40
0.0
 40
0.0
 40
0.0
 40
0.0
 40
0.061161813178226
 40
0.1223236263564511
 40
0.1760236318511584
 40
0.2297236373458657
 40
0.2834236428405731
 40
0.3371236483352803
 40
0.390823653829987
 40
0.4445236593246932
 40
0.4982236648194006
 40
0.551923670314108
 40
0.6048587710067851
 40
0.6577938716994619
 40
0.7107289723921391
 40
0.7636640730848162
 40
0.8165991737774937
 40
0.8695342744701711
 40
0.9224693751628483
 40
1.0
 40
1.0
 40
1.0
 40
1.0
 10
32.55673737744267
 20
20.6134914030114
 30
0.0
 10
32.55956774218802
 20
20.611670894361
 30
0.0
 10
32.56522847167874
 20
20.6080298770602
 30
0.0
 10
32.57308257175593
 20
20.60072279559834
 30
0.0
 10
32.58005860848845
 20
20.59262239794674
 30
0.0
 10
32.5860786954661
 20
20.58401179499743
 30
0.0
 10
32.59124838608815
 20
20.57478480134969
 30
0.0
 10
32.59545866436169
 20
20.56521293541005
 30
0.0
 10
32.59854716313916
 20
20.55556176346265
 30
0.0
 10
32.60047301854826
 20
20.54610237680773
 30
0.0
 10
32.60113268348508
 20
20.53711604661367
 30
0.0
 10
32.60055742079913
 20
20.52887663925905
 30
0.0
 10
32.59874886297229
 20
20.52162317774696
 30
0.0
 10
32.59579369642744
 20
20.51552871994628
 30
0.0
 10
32.59176039422857
 20
20.51072858862726
 30
0.0
 10
32.58676129125858
 20
20.50735739194669
 30
0.0
 10
32.58093427090904
 20
20.50549725698185
 30
0.0
 10
32.57443895401605
 20
20.50524069518857
 30
0.0
 10
32.56637780991158
 20
20.50662668469356
 30
0.0
 10
32.56033084796125
 20
20.50963567656698
 30
0.0
 10
32.55673737744267
 20
20.51142380152568
 30
0.0
  0
LINE
  5
E6
330
1F
100
AcDbEntity
  8
0
  6
Continuous
 62
     7
370
    25
100
AcDbLine
 10
32.5567373774
 20
20.6645252038
 30
0.0
 11
31.8036686555
 21
21.0992625233
 31
0.0
  0
SPLINE
  5
E7
330
1F
100
AcDbEntity
  8
0
  6
Continuous
 62
     7
370
    25
100
AcDbSpline
210
0.0
220
0.0
230
1.0
 70
     8
 71
     3
 72
    25
 73
    21
 74
     0
 42
0.00000001
 43
0.00000001
 40
0.0
 40
0.0
 40
0.0
 40
0.0
 40
0.0611618131782255
 40
0.1223236263564505
 40
0.1760236318511575
 40
0.2297236373458648
 40
0.2834236428405719
 40
0.3371236483352792
 40
0.3908236538299865
 40
0.4445236593246939
 40
0.4982236648194009
 40
0.5519236703141079
 40
0.6048587710067856
 40
0.6577938716994637
 40
0.7107289723921402
 40
0.7636640730848168
 40
0.8165991737774919
 40
0.8695342744701683
 40
0.9224693751628444
 40
1.0
 40
1.0
 40
1.0
 40
1.0
 10
32.55673737744267
 20
20.76659280523998
 30
0.0
 10
32.55956774218802
 20
20.76477229658958
 30
0.0
 10
32.56522847167874
 20
20.76113127928878
 30
0.0
 10
32.57308257175593
 20
20.75382419782691
 30
0.0
 10
32.58005860848845
 20
20.74572380017532
 30
0.0
 10
32.58607869546611
 20
20.73711319722601
 30
0.0
 10
32.59124838608815
 20
20.72788620357827
 30
0.0
 10
32.59545866436169
 20
20.71831433763863
 30
0.0
 10
32.59854716313916
 20
20.70866316569123
 30
0.0
 10
32.60047301854826
 20
20.69920377903631
 30
0.0
 10
32.60113268348508
 20
20.69021744884225
 30
0.0
 10
32.60055742079913
 20
20.68197804148762
 30
0.0
 10
32.59874886297229
 20
20.67472457997554
 30
0.0
 10
32.59579369642744
 20
20.66863012217485
 30
0.0
 10
32.59176039422857
 20
20.66382999085583
 30
0.0
 10
32.58676129125858
 20
20.66045879417526
 30
0.0
 10
32.58093427090904
 20
20.65859865921042
 30
0.0
 10
32.57443895401605
 20
20.65834209741714
 30
0.0
 10
32.56637780991158
 20
20.65972808692214
 30
0.0
 10
32.56033084796125
 20
20.66273707879555
 30
0.0
 10
32.55673737744267
 20
20.66452520375426
 30
0.0
  0
LINE
  5
E8
330
1F
100
AcDbEntity
  8
0
  6
Continuous
 62
     7
370
    25
100
AcDbLine
 10
31.8036686555
 20
21.2013301248
 30
0.0
 11
32.5567373774
 21
20.7665928052
 31
0.0
  0
SPLINE
  5
E9
330
1F
100
AcDbEntity
  8
0
  6
Continuous
 62
     7
370
    25
100
AcDbSpline
210
0.0
220
0.0
230
1.0
 70
     8
 71
     3
 72
    25
 73
    21
 74
     0
 42
0.00000001
 43
0.00000001
 40
0.0
 40
0.0
 40
0.0
 40
0.0
 40
0.0600333226356738
 40
0.1129709835186544
 40
0.1659086444016353
 40
0.2188463052846156
 40
0.2717839661675957
 40
0.3247216270505755
 40
0.377659287933556
 40
0.4305969488165361
 40
0.4835346096995166
 40
0.5364722705824962
 40
0.589409931465477
 40
0.6423475923484571
 40
0.6952852532314376
 40
0.7482229141144173
 40
0.8011605749973977
 40
0.8540982358803775
 40
0.907035896763357
 40
1.0
 40
1.0
 40
1.0
 40
1.0
 10
31.803668655479
 20
21.09926252329985
 30
0.0
 10
31.80088984908562
 20
21.10104045694588
 30
0.0
 10
31.79566067839366
 20
21.10438618068406
 30
0.0
 10
31.78824123229763
 20
21.11114561210095
 30
0.0
 10
31.78156362124185
 20
21.11858922002908
 30
0.0
 10
31.77549596305347
 20
21.12693590631737
 30
0.0
 10
31.7702052747091
 20
21.13591925381788
 30
0.0
 10
31.76583757095532
 20
21.14530119041411
 30
0.0
 10
31.76251329476442
 20
21.15482035052403
 30
0.0
 10
31.76032414072883
 20
21.16421487809001
 30
0.0
 10
31.75933048675823
 20
21.17322547708516
 30
0.0
 10
31.75955974036565
 20
21.18160365643505
 30
0.0
 10
31.76100557560899
 20
21.1891183828379
 30
0.0
 10
31.76362812446663
 20
21.19556216339621
 30
0.0
 10
31.76735501598337
 20
21.2007581277761
 30
0.0
 10
31.77208359733513
 20
21.20455975921846
 30
0.0
 10
31.77768292569968
 20
21.20687416569811
 30
0.0
 10
31.78400051259635
 20
21.20759286921309
 30
0.0
 10
31.79258236858746
 20
21.20667862031621
 30
0.0
 10
31.79935398829569
 20
21.20341170343962
 30
0.0
 10
31.803668655479
 20
21.20133012478557
 30
0.0
  0
LINE
  5
EA
330
1F
100
AcDbEntity
  8
0
  6
Continuous
 62
     7
370
    25
100
AcDbLine
 10
31.8036686555
 20
21.5075329292
 30
0.0
 11
32.5567373774
 21
21.0727956097
 31
0.0
  0
SPLINE
  5
EB
330
1F
100
AcDbEntity
  8
0
  6
Continuous
 62
     7
370
    25
100
AcDbSpline
210
0.0
220
0.0
230
1.0
 70
     8
 71
     3
 72
    25
 73
    21
 74
     0
 42
0.00000001
 43
0.00000001
 40
0.0
 40
0.0
 40
0.0
 40
0.0
 40
0.0600333226356728
 40
0.1129709835186543
 40
0.165908644401635
 40
0.2188463052846157
 40
0.2717839661675958
 40
0.3247216270505763
 40
0.3776592879335575
 40
0.4305969488165377
 40
0.4835346096995176
 40
0.5364722705824974
 40
0.5894099314654778
 40
0.6423475923484577
 40
0.6952852532314373
 40
0.7482229141144175
 40
0.8011605749973977
 40
0.8540982358803775
 40
0.9070358967633577
 40
1.0
 40
1.0
 40
1.0
 40
1.0
 10
31.803668655479
 20
21.40546532775701
 30
0.0
 10
31.80088984908562
 20
21.40724326140304
 30
0.0
 10
31.79566067839366
 20
21.41058898514121
 30
0.0
 10
31.78824123229763
 20
21.4173484165581
 30
0.0
 10
31.78156362124185
 20
21.42479202448623
 30
0.0
 10
31.77549596305347
 20
21.43313871077452
 30
0.0
 10
31.7702052747091
 20
21.44212205827504
 30
0.0
 10
31.76583757095532
 20
21.45150399487126
 30
0.0
 10
31.76251329476442
 20
21.46102315498118
 30
0.0
 10
31.76032414072883
 20
21.47041768254716
 30
0.0
 10
31.75933048675823
 20
21.47942828154232
 30
0.0
 10
31.75955974036565
 20
21.48780646089221
 30
0.0
 10
31.76100557560899
 20
21.49532118729505
 30
0.0
 10
31.76362812446663
 20
21.50176496785336
 30
0.0
 10
31.76735501598337
 20
21.50696093223326
 30
0.0
 10
31.77208359733513
 20
21.51076256367561
 30
0.0
 10
31.77768292569968
 20
21.51307697015527
 30
0.0
 10
31.78400051259635
 20
21.51379567367025
 30
0.0
 10
31.79258236858746
 20
21.51288142477336
 30
0.0
 10
31.79935398829569
 20
21.50961450789678
 30
0.0
 10
31.803668655479
 20
21.50753292924272
 30
0.0
  0
LINE
  5
EC
330
1F
100
AcDbEntity
  8
0
  6
Continuous
 62
     7
370
    25
100
AcDbLine
 10
32.5567373774
 20
20.9707280082
 30
0.0
 11
31.8036686555
 21
21.4054653278
 31
0.0
  0
SPLINE
  5
ED
330
1F
100
AcDbEntity
  8
0
  6
Continuous
 62
     7
370
    25
100
AcDbSpline
210
0.0
220
0.0
230
1.0
 70
     8
 71
     3
 72
    25
 73
    21
 74
     0
 42
0.00000001
 43
0.00000001
 40
0.0
 40
0.0
 40
0.0
 40
0.0
 40
0.0611618131782258
 40
0.1223236263564511
 40
0.1760236318511584
 40
0.2297236373458659
 40
0.2834236428405728
 40
0.3371236483352802
 40
0.3908236538299878
 40
0.4445236593246946
 40
0.4982236648194019
 40
0.551923670314109
 40
0.6048587710067873
 40
0.657793871699464
 40
0.710728972392141
 40
0.7636640730848177
 40
0.8165991737774944
 40
0.8695342744701712
 40
0.9224693751628477
 40
1.0
 40
1.0
 40
1.0
 40
1.0
 10
32.55673737744267
 20
21.07279560969713
 30
0.0
 10
32.55956774218802
 20
21.07097510104673
 30
0.0
 10
32.56522847167874
 20
21.06733408374593
 30
0.0
 10
32.57308257175593
 20
21.06002700228407
 30
0.0
 10
32.58005860848845
 20
21.05192660463247
 30
0.0
 10
32.58607869546611
 20
21.04331600168317
 30
0.0
 10
32.59124838608815
 20
21.03408900803542
 30
0.0
 10
32.59545866436169
 20
21.02451714209578
 30
0.0
 10
32.59854716313916
 20
21.01486597014838
 30
0.0
 10
32.60047301854826
 20
21.00540658349346
 30
0.0
 10
32.60113268348508
 20
20.9964202532994
 30
0.0
 10
32.60055742079913
 20
20.98818084594478
 30
0.0
 10
32.59874886297229
 20
20.98092738443269
 30
0.0
 10
32.59579369642744
 20
20.97483292663201
 30
0.0
 10
32.59176039422857
 20
20.97003279531299
 30
0.0
 10
32.58676129125858
 20
20.96666159863242
 30
0.0
 10
32.58093427090904
 20
20.96480146366758
 30
0.0
 10
32.57443895401605
 20
20.9645449018743
 30
0.0
 10
32.56637780991158
 20
20.9659308913793
 30
0.0
 10
32.56033084796125
 20
20.96893988325271
 30
0.0
 10
32.55673737744267
 20
20.97072800821142
 30
0.0
  0
LINE
  5
EE
330
1F
100
AcDbEntity
  8
0
  6
Continuous
 62
     7
370
    25
100
AcDbLine
 10
31.8036686555
 20
21.354431527
 30
0.0
 11
32.5567373774
 21
20.9196942075
 31
0.0
  0
SPLINE
  5
EF
330
1F
100
AcDbEntity
  8
0
  6
Continuous
 62
     7
370
    25
100
AcDbSpline
210
0.0
220
0.0
230
1.0
 70
     8
 71
     3
 72
    25
 73
    21
 74
     0
 42
0.00000001
 43
0.00000001
 40
0.0
 40
0.0
 40
0.0
 40
0.0
 40
0.0600333226356734
 40
0.1129709835186549
 40
0.1659086444016367
 40
0.2188463052846184
 40
0.2717839661675995
 40
0.3247216270505804
 40
0.3776592879335614
 40
0.430596948816542
 40
0.4835346096995117
 40
0.5364722705824927
 40
0.5894099314654735
 40
0.6423475923484541
 40
0.6952852532314342
 40
0.7482229141144154
 40
0.8011605749973969
 40
0.8540982358803774
 40
0.9070358967633583
 40
1.0
 40
1.0
 40
1.0
 40
1.0
 10
31.803668655479
 20
21.25236392552843
 30
0.0
 10
31.80088984908562
 20
21.25414185917446
 30
0.0
 10
31.79566067839366
 20
21.25748758291263
 30
0.0
 10
31.78824123229763
 20
21.26424701432952
 30
0.0
 10
31.78156362124185
 20
21.27169062225766
 30
0.0
 10
31.77549596305347
 20
21.28003730854595
 30
0.0
 10
31.7702052747091
 20
21.28902065604646
 30
0.0
 10
31.76583757095532
 20
21.29840259264268
 30
0.0
 10
31.76251329476442
 20
21.30792175275261
 30
0.0
 10
31.76032414072883
 20
21.31731628031859
 30
0.0
 10
31.75933048675823
 20
21.32632687931374
 30
0.0
 10
31.75955974036565
 20
21.33470505866363
 30
0.0
 10
31.76100557560899
 20
21.34221978506647
 30
0.0
 10
31.76362812446663
 20
21.34866356562479
 30
0.0
 10
31.76735501598337
 20
21.35385953000467
 30
0.0
 10
31.77208359733513
 20
21.35766116144704
 30
0.0
 10
31.77768292569968
 20
21.35997556792669
 30
0.0
 10
31.78400051259635
 20
21.36069427144167
 30
0.0
 10
31.79258236858746
 20
21.35978002254479
 30
0.0
 10
31.79935398829569
 20
21.3565131056682
 30
0.0
 10
31.803668655479
 20
21.35443152701415
 30
0.0
  0
LINE
  5
F0
330
1F
100
AcDbEntity
  8
0
  6
Continuous
 62
     7
370
    25
100
AcDbLine
 10
32.5567373774
 20
20.817626606
 30
0.0
 11
31.8036686555
 21
21.2523639255
 31
0.0
  0
SPLINE
  5
F1
330
1F
100
AcDbEntity
  8
0
  6
Continuous
 62
     7
370
    25
100
AcDbSpline
210
0.0
220
0.0
230
1.0
 70
     8
 71
     3
 72
    25
 73
    21
 74
     0
 42
0.00000001
 43
0.00000001
 40
0.0
 40
0.0
 40
0.0
 40
0.0
 40
0.0611618131782263
 40
0.1223236263564524
 40
0.1760236318511602
 40
0.2297236373458682
 40
0.2834236428405757
 40
0.3371236483352839
 40
0.3908236538299924
 40
0.4445236593247001
 40
0.4982236648194019
 40
0.5519236703141038
 40
0.6048587710067816
 40
0.6577938716994589
 40
0.7107289723921364
 40
0.7636640730848139
 40
0.8165991737774905
 40
0.8695342744701674
 40
0.9224693751628446
 40
0.9999999999999999
 40
0.9999999999999999
 40
0.9999999999999999
 40
0.9999999999999999
 10
32.55673737744267
 20
20.91969420746856
 30
0.0
 10
32.55956774218802
 20
20.91787369881815
 30
0.0
 10
32.56522847167874
 20
20.91423268151735
 30
0.0
 10
32.57308257175593
 20
20.90692560005549
 30
0.0
 10
32.58005860848845
 20
20.89882520240389
 30
0.0
 10
32.58607869546611
 20
20.89021459945459
 30
0.0
 10
32.59124838608815
 20
20.88098760580684
 30
0.0
 10
32.59545866436169
 20
20.87141573986721
 30
0.0
 10
32.59854716313916
 20
20.86176456791981
 30
0.0
 10
32.60047301854826
 20
20.85230518126489
 30
0.0
 10
32.60113268348508
 20
20.84331885107083
 30
0.0
 10
32.60055742079913
 20
20.8350794437162
 30
0.0
 10
32.59874886297229
 20
20.82782598220411
 30
0.0
 10
32.59579369642744
 20
20.82173152440343
 30
0.0
 10
32.59176039422857
 20
20.81693139308441
 30
0.0
 10
32.58676129125858
 20
20.81356019640384
 30
0.0
 10
32.58093427090904
 20
20.81170006143901
 30
0.0
 10
32.57443895401605
 20
20.81144349964572
 30
0.0
 10
32.56637780991159
 20
20.81282948915072
 30
0.0
 10
32.56033084796125
 20
20.81583848102413
 30
0.0
 10
32.55673737744267
 20
20.81762660598284
 30
0.0
  0
LINE
  5
F2
330
1F
100
AcDbEntity
  8
0
  6
Continuous
 62
     7
370
    25
100
AcDbLine
 10
32.5567373774
 20
21.1238294104
 30
0.0
 11
31.8036686555
 21
21.55856673
 31
0.0
  0
SPLINE
  5
F3
330
1F
100
AcDbEntity
  8
0
  6
Continuous
 62
     7
370
    25
100
AcDbSpline
210
0.0
220
0.0
230
1.0
 70
     8
 71
     3
 72
    25
 73
    21
 74
     0
 42
0.00000001
 43
0.00000001
 40
0.0
 40
0.0
 40
0.0
 40
0.0
 40
0.0611618131782253
 40
0.1223236263564509
 40
0.1760236318511581
 40
0.2297236373458655
 40
0.2834236428405726
 40
0.3371236483352795
 40
0.3908236538299872
 40
0.4445236593246941
 40
0.4982236648194009
 40
0.5519236703141083
 40
0.6048587710067854
 40
0.6577938716994627
 40
0.7107289723921392
 40
0.7636640730848159
 40
0.8165991737774928
 40
0.8695342744701701
 40
0.9224693751628475
 40
1.0
 40
1.0
 40
1.0
 40
1.0
 10
32.55673737744267
 20
21.22589701192571
 30
0.0
 10
32.55956774218802
 20
21.22407650327531
 30
0.0
 10
32.56522847167874
 20
21.22043548597451
 30
0.0
 10
32.57308257175593
 20
21.21312840451264
 30
0.0
 10
32.58005860848845
 20
21.20502800686105
 30
0.0
 10
32.58607869546611
 20
21.19641740391174
 30
0.0
 10
32.59124838608815
 20
21.187190410264
 30
0.0
 10
32.59545866436169
 20
21.17761854432436
 30
0.0
 10
32.59854716313916
 20
21.16796737237696
 30
0.0
 10
32.60047301854826
 20
21.15850798572204
 30
0.0
 10
32.60113268348508
 20
21.14952165552798
 30
0.0
 10
32.60055742079913
 20
21.14128224817336
 30
0.0
 10
32.59874886297229
 20
21.13402878666127
 30
0.0
 10
32.59579369642744
 20
21.12793432886059
 30
0.0
 10
32.59176039422857
 20
21.12313419754157
 30
0.0
 10
32.58676129125858
 20
21.119763000861
 30
0.0
 10
32.58093427090904
 20
21.11790286589616
 30
0.0
 10
32.57443895401605
 20
21.11764630410287
 30
0.0
 10
32.56637780991158
 20
21.11903229360788
 30
0.0
 10
32.56033084796125
 20
21.12204128548129
 30
0.0
 10
32.55673737744267
 20
21.12382941043999
 30
0.0
  0
LINE
  5
F4
330
1F
100
AcDbEntity
  8
0
  6
Continuous
 62
     7
370
    25
100
AcDbLine
 10
31.8036686555
 20
21.6606343315
 30
0.0
 11
32.5567373774
 21
21.2258970119
 31
0.0
  0
SPLINE
  5
F5
330
1F
100
AcDbEntity
  8
0
  6
Continuous
 62
     7
370
    25
100
AcDbSpline
210
0.0
220
0.0
230
1.0
 70
     8
 71
     3
 72
    25
 73
    21
 74
     0
 42
0.00000001
 43
0.00000001
 40
0.0
 40
0.0
 40
0.0
 40
0.0
 40
0.0600333226356734
 40
0.1129709835186552
 40
0.1659086444016358
 40
0.2188463052846167
 40
0.2717839661675978
 40
0.3247216270505786
 40
0.377659287933559
 40
0.4305969488165405
 40
0.4835346096995209
 40
0.5364722705824991
 40
0.5894099314654779
 40
0.6423475923484571
 40
0.6952852532314362
 40
0.748222914114416
 40
0.8011605749973958
 40
0.8540982358803753
 40
0.9070358967633549
 40
1.0
 40
1.0
 40
1.0
 40
1.0
 10
31.803668655479
 20
21.55856672998558
 30
0.0
 10
31.80088984908562
 20
21.56034466363162
 30
0.0
 10
31.79566067839366
 20
21.56369038736979
 30
0.0
 10
31.78824123229763
 20
21.57044981878668
 30
0.0
 10
31.78156362124185
 20
21.57789342671481
 30
0.0
 10
31.77549596305347
 20
21.5862401130031
 30
0.0
 10
31.7702052747091
 20
21.59522346050361
 30
0.0
 10
31.76583757095532
 20
21.60460539709984
 30
0.0
 10
31.76251329476442
 20
21.61412455720976
 30
0.0
 10
31.76032414072883
 20
21.62351908477574
 30
0.0
 10
31.75933048675822
 20
21.63252968377089
 30
0.0
 10
31.75955974036565
 20
21.64090786312079
 30
0.0
 10
31.76100557560899
 20
21.64842258952363
 30
0.0
 10
31.76362812446663
 20
21.65486637008194
 30
0.0
 10
31.76735501598337
 20
21.66006233446183
 30
0.0
 10
31.77208359733513
 20
21.66386396590419
 30
0.0
 10
31.77768292569968
 20
21.66617837238385
 30
0.0
 10
31.78400051259635
 20
21.66689707589882
 30
0.0
 10
31.79258236858746
 20
21.66598282700194
 30
0.0
 10
31.79935398829569
 20
21.66271591012536
 30
0.0
 10
31.803668655479
 20
21.6606343314713
 30
0.0
  0
LINE
  5
F6
330
1F
100
AcDbEntity
  8
0
  6
Continuous
 62
     7
370
    25
100
AcDbLine
 10
31.8036686555
 20
21.8137357337
 30
0.0
 11
32.5567373774
 21
21.3789984142
 31
0.0
  0
SPLINE
  5
F7
330
1F
100
AcDbEntity
  8
0
  6
Continuous
 62
     7
370
    25
100
AcDbSpline
210
0.0
220
0.0
230
1.0
 70
     8
 71
     3
 72
    25
 73
    21
 74
     0
 42
0.00000001
 43
0.00000001
 40
0.0
 40
0.0
 40
0.0
 40
0.0
 40
0.0600333226356725
 40
0.1129709835186536
 40
0.1659086444016346
 40
0.2188463052846149
 40
0.2717839661675958
 40
0.3247216270505758
 40
0.3776592879335567
 40
0.4305969488165367
 40
0.4835346096995163
 40
0.5364722705824972
 40
0.5894099314654772
 40
0.6423475923484565
 40
0.6952852532314365
 40
0.748222914114417
 40
0.8011605749973963
 40
0.8540982358803761
 40
0.9070358967633559
 40
1.0
 40
1.0
 40
1.0
 40
1.0
 10
31.803668655479
 20
21.71166813221416
 30
0.0
 10
31.80088984908562
 20
21.7134460658602
 30
0.0
 10
31.79566067839366
 20
21.71679178959837
 30
0.0
 10
31.78824123229763
 20
21.72355122101526
 30
0.0
 10
31.78156362124185
 20
21.73099482894339
 30
0.0
 10
31.77549596305347
 20
21.73934151523168
 30
0.0
 10
31.7702052747091
 20
21.74832486273219
 30
0.0
 10
31.76583757095532
 20
21.75770679932841
 30
0.0
 10
31.76251329476442
 20
21.76722595943834
 30
0.0
 10
31.76032414072883
 20
21.77662048700432
 30
0.0
 10
31.75933048675823
 20
21.78563108599948
 30
0.0
 10
31.75955974036565
 20
21.79400926534937
 30
0.0
 10
31.76100557560899
 20
21.80152399175221
 30
0.0
 10
31.76362812446663
 20
21.80796777231052
 30
0.0
 10
31.76735501598337
 20
21.81316373669041
 30
0.0
 10
31.77208359733513
 20
21.81696536813277
 30
0.0
 10
31.77768292569968
 20
21.81927977461243
 30
0.0
 10
31.78400051259635
 20
21.81999847812741
 30
0.0
 10
31.79258236858746
 20
21.81908422923052
 30
0.0
 10
31.79935398829569
 20
21.81581731235394
 30
0.0
 10
31.803668655479
 20
21.81373573369988
 30
0.0
  0
LINE
  5
F8
330
1F
100
AcDbEntity
  8
0
  6
Continuous
 62
     7
370
    25
100
AcDbLine
 10
32.5567373774
 20
21.2769308127
 30
0.0
 11
31.8036686555
 21
21.7116681322
 31
0.0
  0
SPLINE
  5
F9
330
1F
100
AcDbEntity
  8
0
  6
Continuous
 62
     7
370
    25
100
AcDbSpline
210
0.0
220
0.0
230
1.0
 70
     8
 71
     3
 72
    25
 73
    21
 74
     0
 42
0.00000001
 43
0.00000001
 40
0.0
 40
0.0
 40
0.0
 40
0.0
 40
0.0611618131782257
 40
0.1223236263564515
 40
0.1760236318511583
 40
0.229723637345866
 40
0.2834236428405741
 40
0.3371236483352809
 40
0.3908236538299883
 40
0.4445236593246951
 40
0.4982236648194018
 40
0.551923670314109
 40
0.6048587710067869
 40
0.657793871699465
 40
0.710728972392142
 40
0.7636640730848187
 40
0.8165991737774944
 40
0.8695342744701708
 40
0.9224693751628475
 40
1.0
 40
1.0
 40
1.0
 40
1.0
 10
32.55673737744267
 20
21.37899841415429
 30
0.0
 10
32.55956774218803
 20
21.37717790550389
 30
0.0
 10
32.56522847167874
 20
21.37353688820308
 30
0.0
 10
32.57308257175593
 20
21.36622980674123
 30
0.0
 10
32.58005860848845
 20
21.35812940908963
 30
0.0
 10
32.58607869546611
 20
21.34951880614032
 30
0.0
 10
32.59124838608815
 20
21.34029181249258
 30
0.0
 10
32.59545866436169
 20
21.33071994655294
 30
0.0
 10
32.59854716313916
 20
21.32106877460554
 30
0.0
 10
32.60047301854826
 20
21.31160938795062
 30
0.0
 10
32.60113268348508
 20
21.30262305775656
 30
0.0
 10
32.60055742079913
 20
21.29438365040194
 30
0.0
 10
32.59874886297229
 20
21.28713018888985
 30
0.0
 10
32.59579369642744
 20
21.28103573108917
 30
0.0
 10
32.59176039422857
 20
21.27623559977014
 30
0.0
 10
32.58676129125858
 20
21.27286440308957
 30
0.0
 10
32.58093427090904
 20
21.27100426812474
 30
0.0
 10
32.57443895401605
 20
21.27074770633145
 30
0.0
 10
32.56637780991158
 20
21.27213369583646
 30
0.0
 10
32.56033084796125
 20
21.27514268770987
 30
0.0
 10
32.55673737744267
 20
21.27693081266857
 30
0.0
  0
LINE
  5
FA
330
1F
100
AcDbEntity
  8
0
  6
Continuous
 62
     7
370
    25
100
AcDbLine
 10
34.2166705463
 20
21.26466555
 30
0.0
 11
33.9479699694
 21
21.1095480088
 31
0.0
  0
LINE
  5
FB
330
1F
100
AcDbEntity
  8
0
  6
Continuous
 62
     7
370
    25
100
AcDbLine
 10
33.926756766
 20
21.1462903548
 30
0.0
 11
34.1954573428
 21
21.3014078961
 31
0.0
  0
ARC
  5
FC
330
1F
100
AcDbEntity
  8
0
  6
Continuous
 62
     7
370
    25
100
AcDbCircle
 10
34.1706140632
 20
21.2625697245
 30
0.0
 40
0.0461041442271599
100
AcDbArc
 50
2.6054784856
 51
57.39452166
  0
LINE
  5
FD
330
1F
100
AcDbEntity
  8
0
  6
Continuous
 62
     7
370
    25
100
AcDbLine
 10
33.9479699694
 20
18.5047828189
 30
0.0
 11
34.2166705463
 21
18.6599003601
 31
0.0
  0
LINE
  5
FE
330
1F
100
AcDbEntity
  8
0
  6
Continuous
 62
     7
370
    25
100
AcDbLine
 10
34.2166705463
 20
21.26466555
 30
0.0
 11
34.2166705463
 21
18.6599003601
 31
0.0
  0
LINE
  5
FF
330
1F
100
AcDbEntity
  8
0
  6
Continuous
 62
     7
370
    25
100
AcDbLine
 10
30.7023498438
 20
23.3179359323
 30
0.0
 11
30.4336492669
 21
23.162818391
 31
0.0
  0
LINE
  5
100
330
1F
100
AcDbEntity
  8
0
  6
Continuous
 62
     7
370
    25
100
AcDbLine
 10
30.7023498438
 20
23.3179359323
 30
0.0
 11
34.1954573428
 21
21.3014078961
 31
0.0
  0
LWPOLYLINE
  5
101
330
1F
100
AcDbEntity
  8
0
  6
Continuous
 62
     7
370
    25
100
AcDbPolyline
 90
       22
 70
   128
 43
0.0
 10
33.365464948
 20
20.2415816803
 10
33.365963741
 20
20.2315879587
 10
33.3674531181
 20
20.2211586329
 10
33.3699121717
 20
20.2104401077
 10
33.373306382
 20
20.1995828478
 10
33.3775881019
 20
20.1887392652
 10
33.3826972252
 20
20.1780615802
 10
33.3885620312
 20
20.167699684
 10
33.3951001908
 20
20.1577990349
 10
33.4022199226
 20
20.1484986164
 10
33.4098212812
 20
20.1399289858
 10
33.4177975601
 20
20.1322104421
 10
33.4260367899
 20
20.1254513367
 10
33.4344233098
 20
20.1197465526
 10
33.4428393916
 20
20.1151761724
 10
33.4511668918
 20
20.1118043543
 10
33.4592889106
 20
20.1096784313
 10
33.4670914326
 20
20.1088282466
 10
33.4744649276
 20
20.1092657349
 10
33.4813058879
 20
20.1109847549
 10
33.4875182813
 20
20.1139611753
 10
33.4910293692
 20
20.1164314272
  0
ARC
  5
102
330
1F
100
AcDbEntity
  8
0
  6
Continuous
 62
     7
370
    25
100
AcDbCircle
 10
33.4122994957
 20
20.2476997017
 30
0.0
 40
0.0472324575365032
100
AcDbArc
 50
116.8962927331
 51
187.4424351082
  0
ARC
  5
103
330
1F
100
AcDbEntity
  8
0
  6
Continuous
 62
     7
370
    25
100
AcDbCircle
 10
33.5504428437
 20
20.2663181312
 30
0.0
 40
0.1457150024365583
100
AcDbArc
 50
176.1355923043
 51
243.859031163
  0
LINE
  5
104
330
1F
100
AcDbEntity
  8
0
  6
Continuous
 62
     7
370
    25
100
AcDbLine
 10
31.9663032152
 20
21.6971261518
 30
0.0
 11
31.8036686555
 21
21.7116681322
 31
0.0
  0
LINE
  5
105
330
1F
100
AcDbEntity
  8
0
  6
Continuous
 62
     7
370
    25
100
AcDbLine
 10
31.9663032152
 20
21.6971261518
 30
0.0
 11
32.5933169502
 21
21.3351588273
 31
0.0
  0
LINE
  5
106
330
1F
100
AcDbEntity
  8
0
  6
Continuous
 62
     7
370
    25
100
AcDbLine
 10
31.9663032152
 20
21.5440247496
 30
0.0
 11
31.8036686555
 21
21.55856673
 31
0.0
  0
LINE
  5
107
330
1F
100
AcDbEntity
  8
0
  6
Continuous
 62
     7
370
    25
100
AcDbLine
 10
31.9663032152
 20
21.5440247496
 30
0.0
 11
32.5933169502
 21
21.182057425
 31
0.0
  0
LINE
  5
108
330
1F
100
AcDbEntity
  8
0
  6
Continuous
 62
     7
370
    25
100
AcDbLine
 10
31.9663032152
 20
21.3909233474
 30
0.0
 11
31.8036686555
 21
21.4054653278
 31
0.0
  0
LINE
  5
109
330
1F
100
AcDbEntity
  8
0
  6
Continuous
 62
     7
370
    25
100
AcDbLine
 10
31.9663032152
 20
21.3909233474
 30
0.0
 11
32.5933169502
 21
21.0289560228
 31
0.0
  0
ARC
  5
10A
330
1F
100
AcDbEntity
  8
0
  6
Continuous
 62
     7
370
    25
100
AcDbCircle
 10
34.2023999796
 20
18.6580834393
 30
0.0
 40
0.0143857664039318
100
AcDbArc
 50
304.0563508597
 51
7.2558295337
  0
LINE
  5
10B
330
1F
100
AcDbEntity
  8
0
  6
Continuous
 62
     7
370
    25
100
AcDbLine
 10
31.9663032152
 20
21.2378219452
 30
0.0
 11
31.8036686555
 21
21.2523639255
 31
0.0
  0
LINE
  5
10C
330
1F
100
AcDbEntity
  8
0
  6
Continuous
 62
     7
370
    25
100
AcDbLine
 10
31.9663032152
 20
21.2378219452
 30
0.0
 11
32.5933169502
 21
20.8758546206
 31
0.0
  0
LINE
  5
10D
330
1F
100
AcDbEntity
  8
0
  6
Continuous
 62
     7
370
    25
100
AcDbLine
 10
31.9663032152
 20
21.0847205429
 30
0.0
 11
31.8036686555
 21
21.0992625233
 31
0.0
  0
LINE
  5
10E
330
1F
100
AcDbEntity
  8
0
  6
Continuous
 62
     7
370
    25
100
AcDbLine
 10
31.9663032152
 20
21.0847205429
 30
0.0
 11
32.5933169502
 21
20.7227532183
 31
0.0
  0
SPLINE
  5
10F
330
1F
100
AcDbEntity
  8
0
  6
Continuous
 62
     7
370
    25
100
AcDbSpline
210
0.0
220
0.0
230
1.0
 70
     8
 71
     3
 72
    14
 73
    10
 74
     0
 42
0.00000001
 43
0.00000001
 40
0.0
 40
0.0
 40
0.0
 40
0.0
 40
0.0243445742319522
 40
0.1937051887753334
 40
0.3630658033187125
 40
0.5324264178620899
 40
0.7017870324054705
 40
0.8492912286596058
 40
1.0
 40
1.0
 40
1.0
 40
1.0
 10
31.92962326491084
 20
21.74102368539435
 30
0.0
 10
31.92979826558578
 20
21.74057017996408
 30
0.0
 10
31.93119071297273
 20
21.7369617227307
 30
0.0
 10
31.93478042618734
 20
21.7303703635121
 30
0.0
 10
31.94030107752909
 20
21.72158907484278
 30
0.0
 10
31.94663843446395
 20
21.7135473318793
 30
0.0
 10
31.9531975181522
 20
21.7067853369578
 30
0.0
 10
31.95981239305539
 20
21.701193872907
 30
0.0
 10
31.96412416312944
 20
21.69849173784401
 30
0.0
 10
31.9663032151519
 20
21.69712615183807
 30
0.0
  0
LINE
  5
110
330
1F
100
AcDbEntity
  8
0
  6
Continuous
 62
     7
370
    25
100
AcDbLine
 10
31.9663032152
 20
20.9316191407
 30
0.0
 11
31.8036686555
 21
20.9461611211
 31
0.0
  0
LINE
  5
111
330
1F
100
AcDbEntity
  8
0
  6
Continuous
 62
     7
370
    25
100
AcDbLine
 10
31.9663032152
 20
20.9316191407
 30
0.0
 11
32.5933169502
 21
20.5696518161
 31
0.0
  0
SPLINE
  5
112
330
1F
100
AcDbEntity
  8
0
  6
Continuous
 62
     7
370
    25
100
AcDbSpline
210
0.0
220
0.0
230
1.0
 70
     8
 71
     3
 72
    14
 73
    10
 74
     0
 42
0.00000001
 43
0.00000001
 40
0.0
 40
0.0
 40
0.0
 40
0.0
 40
0.0243445742319341
 40
0.1937051887753207
 40
0.3630658033187074
 40
0.5324264178620922
 40
0.7017870324054789
 40
0.8492912286596099
 40
1.0
 40
1.0
 40
1.0
 40
1.0
 10
31.92962326491084
 20
21.58792228316576
 30
0.0
 10
31.92979826558578
 20
21.5874687777355
 30
0.0
 10
31.93119071297273
 20
21.58386032050212
 30
0.0
 10
31.93478042618734
 20
21.57726896128353
 30
0.0
 10
31.94030107752909
 20
21.5684876726142
 30
0.0
 10
31.94663843446395
 20
21.56044592965073
 30
0.0
 10
31.9531975181522
 20
21.55368393472922
 30
0.0
 10
31.95981239305539
 20
21.54809247067842
 30
0.0
 10
31.96412416312944
 20
21.54539033561543
 30
0.0
 10
31.9663032151519
 20
21.54402474960949
 30
0.0
  0
LINE
  5
113
330
1F
100
AcDbEntity
  8
0
  6
Continuous
 62
     7
370
    25
100
AcDbLine
 10
31.9663032152
 20
20.7785177385
 30
0.0
 11
31.8036686555
 21
20.7930597188
 31
0.0
  0
LINE
  5
114
330
1F
100
AcDbEntity
  8
0
  6
Continuous
 62
     7
370
    25
100
AcDbLine
 10
31.9663032152
 20
20.7785177385
 30
0.0
 11
32.5933169502
 21
20.4165504139
 31
0.0
  0
SPLINE
  5
115
330
1F
100
AcDbEntity
  8
0
  6
Continuous
 62
     7
370
    25
100
AcDbSpline
210
0.0
220
0.0
230
1.0
 70
     8
 71
     3
 72
    14
 73
    10
 74
     0
 42
0.00000001
 43
0.00000001
 40
0.0
 40
0.0
 40
0.0
 40
0.0
 40
0.024344574231958
 40
0.1937051887753359
 40
0.363065803318715
 40
0.5324264178620931
 40
0.7017870324054722
 40
0.8492912286596068
 40
0.9999999999999999
 40
0.9999999999999999
 40
0.9999999999999999
 40
0.9999999999999999
 10
31.92962326491084
 20
21.43482088093719
 30
0.0
 10
31.92979826558578
 20
21.43436737550692
 30
0.0
 10
31.93119071297273
 20
21.43075891827354
 30
0.0
 10
31.93478042618734
 20
21.42416755905494
 30
0.0
 10
31.94030107752909
 20
21.41538627038562
 30
0.0
 10
31.94663843446395
 20
21.40734452742215
 30
0.0
 10
31.9531975181522
 20
21.40058253250064
 30
0.0
 10
31.95981239305539
 20
21.39499106844984
 30
0.0
 10
31.96412416312944
 20
21.39228893338686
 30
0.0
 10
31.9663032151519
 20
21.39092334738091
 30
0.0
  0
LINE
  5
116
330
1F
100
AcDbEntity
  8
0
  6
Continuous
 62
     7
370
    25
100
AcDbLine
 10
31.9663032152
 20
20.6254163362
 30
0.0
 11
31.8036686555
 21
20.6399583166
 31
0.0
  0
LINE
  5
117
330
1F
100
AcDbEntity
  8
0
  6
Continuous
 62
     7
370
    25
100
AcDbLine
 10
31.9663032152
 20
20.6254163362
 30
0.0
 11
32.5933169502
 21
20.2634490117
 31
0.0
  0
SPLINE
  5
118
330
1F
100
AcDbEntity
  8
0
  6
Continuous
 62
     7
370
    25
100
AcDbSpline
210
0.0
220
0.0
230
1.0
 70
     8
 71
     3
 72
    14
 73
    10
 74
     0
 42
0.00000001
 43
0.00000001
 40
0.0
 40
0.0
 40
0.0
 40
0.0
 40
0.0243445742319129
 40
0.193705188775303
 40
0.3630658033186923
 40
0.5324264178620814
 40
0.7017870324054711
 40
0.8492912286596068
 40
1.0
 40
1.0
 40
1.0
 40
1.0
 10
31.92962326491084
 20
21.28171947870861
 30
0.0
 10
31.92979826558578
 20
21.28126597327834
 30
0.0
 10
31.93119071297273
 20
21.27765751604496
 30
0.0
 10
31.93478042618734
 20
21.27106615682637
 30
0.0
 10
31.94030107752909
 20
21.26228486815705
 30
0.0
 10
31.94663843446395
 20
21.25424312519357
 30
0.0
 10
31.9531975181522
 20
21.24748113027207
 30
0.0
 10
31.95981239305539
 20
21.24188966622127
 30
0.0
 10
31.96412416312944
 20
21.23918753115828
 30
0.0
 10
31.9663032151519
 20
21.23782194515233
 30
0.0
  0
LINE
  5
119
330
1F
100
AcDbEntity
  8
0
  6
Continuous
 62
     7
370
    25
100
AcDbLine
 10
31.9663032152
 20
20.472314934
 30
0.0
 11
31.8036686555
 21
20.4868569144
 31
0.0
  0
LINE
  5
11A
330
1F
100
AcDbEntity
  8
0
  6
Continuous
 62
     7
370
    25
100
AcDbLine
 10
31.9663032152
 20
20.472314934
 30
0.0
 11
32.5933169502
 21
20.1103476094
 31
0.0
  0
SPLINE
  5
11B
330
1F
100
AcDbEntity
  8
0
  6
Continuous
 62
     7
370
    25
100
AcDbSpline
210
0.0
220
0.0
230
1.0
 70
     8
 71
     3
 72
    14
 73
    10
 74
     0
 42
0.00000001
 43
0.00000001
 40
0.0
 40
0.0
 40
0.0
 40
0.0
 40
0.0243445742319375
 40
0.1937051887753208
 40
0.3630658033187052
 40
0.5324264178620892
 40
0.7017870324054725
 40
0.8492912286596083
 40
1.0
 40
1.0
 40
1.0
 40
1.0
 10
31.92962326491084
 20
21.12861807648003
 30
0.0
 10
31.92979826558578
 20
21.12816457104977
 30
0.0
 10
31.93119071297273
 20
21.12455611381639
 30
0.0
 10
31.93478042618734
 20
21.11796475459779
 30
0.0
 10
31.94030107752909
 20
21.10918346592847
 30
0.0
 10
31.94663843446395
 20
21.10114172296499
 30
0.0
 10
31.9531975181522
 20
21.09437972804349
 30
0.0
 10
31.95981239305539
 20
21.08878826399269
 30
0.0
 10
31.96412416312944
 20
21.0860861289297
 30
0.0
 10
31.9663032151519
 20
21.08472054292375
 30
0.0
  0
SPLINE
  5
11C
330
1F
100
AcDbEntity
  8
0
  6
Continuous
 62
     7
370
    25
100
AcDbSpline
210
0.0
220
0.0
230
1.0
 70
     8
 71
     3
 72
    14
 73
    10
 74
     0
 42
0.00000001
 43
0.00000001
 40
0.0
 40
0.0
 40
0.0
 40
0.0
 40
0.024344574231954
 40
0.193705188775337
 40
0.36306580331872
 40
0.532426417862102
 40
0.7017870324054846
 40
0.8492912286596146
 40
1.0
 40
1.0
 40
1.0
 40
1.0
 10
31.92962326491084
 20
20.97551667425146
 30
0.0
 10
31.92979826558578
 20
20.97506316882119
 30
0.0
 10
31.93119071297273
 20
20.97145471158781
 30
0.0
 10
31.93478042618734
 20
20.96486335236921
 30
0.0
 10
31.94030107752909
 20
20.95608206369989
 30
0.0
 10
31.94663843446395
 20
20.94804032073642
 30
0.0
 10
31.9531975181522
 20
20.94127832581491
 30
0.0
 10
31.95981239305539
 20
20.93568686176411
 30
0.0
 10
31.96412416312944
 20
20.93298472670113
 30
0.0
 10
31.9663032151519
 20
20.93161914069518
 30
0.0
  0
SPLINE
  5
11D
330
1F
100
AcDbEntity
  8
0
  6
Continuous
 62
     7
370
    25
100
AcDbSpline
210
0.0
220
0.0
230
1.0
 70
     8
 71
     3
 72
    14
 73
    10
 74
     0
 42
0.00000001
 43
0.00000001
 40
0.0
 40
0.0
 40
0.0
 40
0.0
 40
0.0243445742319613
 40
0.1937051887753433
 40
0.3630658033187258
 40
0.5324264178621085
 40
0.701787032405491
 40
0.8492912286596177
 40
1.0
 40
1.0
 40
1.0
 40
1.0
 10
31.92962326491084
 20
20.82241527202288
 30
0.0
 10
31.92979826558578
 20
20.82196176659261
 30
0.0
 10
31.93119071297273
 20
20.81835330935923
 30
0.0
 10
31.93478042618734
 20
20.81176195014064
 30
0.0
 10
31.94030107752909
 20
20.80298066147131
 30
0.0
 10
31.94663843446395
 20
20.79493891850784
 30
0.0
 10
31.9531975181522
 20
20.78817692358633
 30
0.0
 10
31.95981239305539
 20
20.78258545953553
 30
0.0
 10
31.96412416312944
 20
20.77988332447254
 30
0.0
 10
31.9663032151519
 20
20.7785177384666
 30
0.0
  0
ARC
  5
11E
330
1F
100
AcDbEntity
  8
0
  6
Continuous
 62
     7
370
    25
100
AcDbCircle
 10
30.6935622421
 20
23.3056694924
 30
0.0
 40
0.0150893170770646
100
AcDbArc
 50
54.3824225248
 51
114.3071190461
  0
SPLINE
  5
11F
330
1F
100
AcDbEntity
  8
0
  6
Continuous
 62
     7
370
    25
100
AcDbSpline
210
0.0
220
0.0
230
1.0
 70
     8
 71
     3
 72
    14
 73
    10
 74
     0
 42
0.00000001
 43
0.00000001
 40
0.0
 40
0.0
 40
0.0
 40
0.0
 40
0.0243445742319568
 40
0.1937051887753371
 40
0.3630658033186892
 40
0.5324264178620719
 40
0.7017870324054533
 40
0.8492912286595976
 40
1.0
 40
1.0
 40
1.0
 40
1.0
 10
31.92962326491084
 20
20.6693138697943
 30
0.0
 10
31.92979826558578
 20
20.66886036436403
 30
0.0
 10
31.93119071297273
 20
20.66525190713065
 30
0.0
 10
31.93478042618734
 20
20.65866054791206
 30
0.0
 10
31.94030107752909
 20
20.64987925924274
 30
0.0
 10
31.94663843446395
 20
20.64183751627926
 30
0.0
 10
31.9531975181522
 20
20.63507552135776
 30
0.0
 10
31.95981239305539
 20
20.62948405730695
 30
0.0
 10
31.96412416312944
 20
20.62678192224397
 30
0.0
 10
31.9663032151519
 20
20.62541633623802
 30
0.0
  0
SPLINE
  5
120
330
1F
100
AcDbEntity
  8
0
  6
Continuous
 62
     7
370
    25
100
AcDbSpline
210
0.0
220
0.0
230
1.0
 70
     8
 71
     3
 72
    14
 73
    10
 74
     0
 42
0.00000001
 43
0.00000001
 40
0.0
 40
0.0
 40
0.0
 40
0.0
 40
0.0243445742318961
 40
0.1937051887752885
 40
0.3630658033186808
 40
0.5324264178620709
 40
0.701787032405462
 40
0.8492912286596025
 40
0.9999999999999999
 40
0.9999999999999999
 40
0.9999999999999999
 40
0.9999999999999999
 10
31.92962326491084
 20
20.51621246756572
 30
0.0
 10
31.92979826558578
 20
20.51575896213545
 30
0.0
 10
31.93119071297273
 20
20.51215050490208
 30
0.0
 10
31.93478042618734
 20
20.50555914568348
 30
0.0
 10
31.94030107752909
 20
20.49677785701416
 30
0.0
 10
31.94663843446395
 20
20.48873611405068
 30
0.0
 10
31.9531975181522
 20
20.48197411912918
 30
0.0
 10
31.95981239305539
 20
20.47638265507838
 30
0.0
 10
31.96412416312944
 20
20.47368052001539
 30
0.0
 10
31.9663032151519
 20
20.47231493400945
 30
0.0
  0
LWPOLYLINE
  5
121
330
1F
100
AcDbEntity
  8
0
  6
Continuous
 62
     7
370
    25
100
AcDbPolyline
 90
       22
 70
   128
 43
0.0
 10
31.0228201819
 20
21.5939617175
 10
31.023318975
 20
21.5839679959
 10
31.024808352
 20
21.5735386701
 10
31.0272674056
 20
21.5628201449
 10
31.030661616
 20
21.551962885
 10
31.0349433358
 20
21.5411193025
 10
31.0400524592
 20
21.5304416175
 10
31.0459172652
 20
21.5200797212
 10
31.0524554248
 20
21.5101790722
 10
31.0595751566
 20
21.5008786536
 10
31.0671765151
 20
21.492309023
 10
31.0751527941
 20
21.4845904793
 10
31.0833920238
 20
21.4778313739
 10
31.0917785438
 20
21.4721265898
 10
31.1001946255
 20
21.4675562096
 10
31.1085221257
 20
21.4641843916
 10
31.1166441445
 20
21.4620584685
 10
31.1244466665
 20
21.4612082838
 10
31.1318201616
 20
21.4616457721
 10
31.1386611218
 20
21.4633647921
 10
31.1448735153
 20
21.4663412125
 10
31.1483846031
 20
21.4688114645
  0
ARC
  5
122
330
1F
100
AcDbEntity
  8
0
  6
Continuous
 62
     7
370
    25
100
AcDbCircle
 10
31.0696547296
 20
21.6000797389
 30
0.0
 40
0.0472324575365027
100
AcDbArc
 50
116.8962927331
 51
187.4424351082
  0
ARC
  5
123
330
1F
100
AcDbEntity
  8
0
  6
Continuous
 62
     7
370
    25
100
AcDbCircle
 10
31.2077980776
 20
21.6186981685
 30
0.0
 40
0.145715002436538
100
AcDbArc
 50
176.1355923043
 51
243.859031163
  0
LINE
  5
124
330
1F
100
AcDbEntity
  8
0
  6
Continuous
 62
     7
370
    25
100
AcDbLine
 10
35.7878618141
 20
22.9103989969
 30
0.0
 11
35.7878618141
 21
22.918564405
 31
0.0
  0
LINE
  5
125
330
1F
100
AcDbEntity
  8
0
  6
Continuous
 62
     7
370
    25
100
AcDbLine
 10
35.7878618141
 20
22.9103989969
 30
0.0
 11
35.7091585317
 21
22.8649645591
 31
0.0
  0
LINE
  5
126
330
1F
100
AcDbEntity
  8
0
  6
Continuous
 62
     7
370
    25
100
AcDbLine
 10
35.7878618141
 20
22.918564405
 30
0.0
 11
35.7056112327
 21
22.8710821551
 31
0.0
  0
LINE
  5
127
330
1F
100
AcDbEntity
  8
0
  6
Continuous
 62
     7
370
    25
100
AcDbLine
 10
35.6069120783
 20
23.023024464
 30
0.0
 11
35.7878618141
 21
22.918564405
 31
0.0
  0
ARC
  5
128
330
1F
100
AcDbEntity
  8
0
  6
Continuous
 62
     7
370
    25
100
AcDbCircle
 10
36.5802412623
 20
23.3277239196
 30
0.0
 40
0.0933599352844565
100
AcDbArc
 50
314.6497003426
 51
31.4296853297
  0
LWPOLYLINE
  5
129
330
1F
100
AcDbEntity
  8
0
  6
Continuous
 62
     7
370
    25
100
AcDbPolyline
 90
       18
 70
   128
 43
0.0
 10
36.6599034974
 20
23.3764066252
 10
36.6545771892
 20
23.3888956685
 10
36.6483863637
 20
23.4011500298
 10
36.6414061691
 20
23.4130209577
 10
36.6337213356
 20
23.4243643553
 10
36.6254251465
 20
23.4350425291
 10
36.6166183065
 20
23.4449258605
 10
36.6074077186
 20
23.4538943793
 10
36.5979051868
 20
23.4618392198
 10
36.588226059
 20
23.4686639424
 10
36.5784878268
 20
23.4742857042
 10
36.568808699
 20
23.4786362646
 10
36.5593061673
 20
23.4816628138
 10
36.5500955793
 20
23.4833286135
 10
36.5412887393
 20
23.4836134432
 10
36.5329925502
 20
23.4825138454
 10
36.5253077167
 20
23.4800431677
 10
36.5208620221
 20
23.4778183176
  0
LWPOLYLINE
  5
12A
330
1F
100
AcDbEntity
  8
0
  6
Continuous
 62
     7
370
    25
100
AcDbPolyline
 90
       16
 70
   128
 43
0.0
 10
37.018667277
 20
23.5550458873
 10
37.0181636504
 20
23.5625406544
 10
37.0166658143
 20
23.5704227859
 10
37.0142125618
 20
23.5784881386
 10
37.010867431
 20
23.5865278243
 10
37.0067170588
 20
23.5943336191
 10
37.0018689379
 20
23.6017033573
 10
36.9964486319
 20
23.6084461664
 10
36.990596524
 20
23.6143874112
 10
36.9844641807
 20
23.6193732165
 10
36.9782104264
 20
23.6232744528
 10
36.9719972302
 20
23.6259900799
 10
36.9659855104
 20
23.6274497645
 10
36.9603309675
 20
23.6276157017
 10
36.9551800512
 20
23.6264835936
 10
36.9522786389
 20
23.6251297978
  0
ARC
  5
12B
330
1F
100
AcDbEntity
  8
0
  6
Continuous
 62
     7
370
    25
100
AcDbCircle
 10
36.9908046121
 20
23.5524839957
 30
0.0
 40
0.0279801962675574
100
AcDbArc
 50
306.0587702918
 51
5.2534101016
  0
LWPOLYLINE
  5
12C
330
1F
100
AcDbEntity
  8
0
  6
Continuous
 62
     7
370
    25
100
AcDbPolyline
 90
       15
 70
   128
 43
0.0
 10
36.9322162454
 20
23.6135480246
 10
36.9309336733
 20
23.6199148974
 10
36.9284804208
 20
23.6279802501
 10
36.92513529
 20
23.6360199358
 10
36.9209849178
 20
23.6438257307
 10
36.9161367969
 20
23.6511954688
 10
36.910716491
 20
23.6579382779
 10
36.904864383
 20
23.6638795227
 10
36.8987320397
 20
23.6688653281
 10
36.8924782854
 20
23.6727665643
 10
36.8862650892
 20
23.6754821914
 10
36.8802533694
 20
23.676941876
 10
36.8745988265
 20
23.6771078132
 10
36.8694479102
 20
23.6759757052
 10
36.8665464979
 20
23.6746219093
  0
ARC
  5
12D
330
1F
100
AcDbEntity
  8
0
  6
Continuous
 62
     7
370
    25
100
AcDbCircle
 10
36.9088844736
 20
23.4931790039
 30
0.0
 40
0.0669224684693123
100
AcDbArc
 50
0.7501420267
 51
14.9098328608
  0
ARC
  5
12E
330
1F
100
AcDbEntity
  8
0
  6
Continuous
 62
     7
370
    25
100
AcDbCircle
 10
36.9479385416
 20
23.4914932663
 30
0.0
 40
0.0279801962675556
100
AcDbArc
 50
306.0587702918
 51
5.2534101016
  0
LWPOLYLINE
  5
12F
330
1F
100
AcDbEntity
  8
0
  6
Continuous
 62
     7
370
    25
100
AcDbPolyline
 90
       13
 70
   128
 43
0.0
 10
37.1830696036
 20
23.6642404723
 10
37.1825600964
 20
23.6705083249
 10
37.1810511549
 20
23.6771235719
 10
37.1786007668
 20
23.6838319932
 10
37.1753030993
 20
23.6903757877
 10
37.1712848798
 20
23.6965034812
 10
37.1667005262
 20
23.7019795899
 10
37.1617262127
 20
23.7065936699
 10
37.1565530993
 20
23.7101684048
 10
37.1513799859
 20
23.7125664195
 10
37.1464056724
 20
23.7136955596
 10
37.1418213188
 20
23.7135124329
 10
37.1378046231
 20
23.7120249567
  0
ARC
  5
130
330
1F
100
AcDbEntity
  8
0
  6
Continuous
 62
     7
370
    25
100
AcDbCircle
 10
37.1646945323
 20
23.6622122196
 30
0.0
 40
0.0184866723744367
100
AcDbArc
 50
305.0133328738
 51
6.2988475196
  0
LWPOLYLINE
  5
131
330
1F
100
AcDbEntity
  8
0
  6
Continuous
 62
     7
370
    25
100
AcDbPolyline
 90
       13
 70
   128
 43
0.0
 10
37.0973374626
 20
23.7137325838
 10
37.0968279554
 20
23.7200004364
 10
37.0953190139
 20
23.7266156834
 10
37.0928686258
 20
23.7333241047
 10
37.0895709583
 20
23.7398678992
 10
37.0855527388
 20
23.7459955928
 10
37.0809683852
 20
23.7514717014
 10
37.0759940717
 20
23.7560857815
 10
37.0708209583
 20
23.7596605163
 10
37.0656478449
 20
23.762058531
 10
37.0606735314
 20
23.7631876711
 10
37.0560891778
 20
23.7630045444
 10
37.0520724821
 20
23.7615170682
  0
ARC
  5
132
330
1F
100
AcDbEntity
  8
0
  6
Continuous
 62
     7
370
    25
100
AcDbCircle
 10
37.0789623912
 20
23.7117043312
 30
0.0
 40
0.0184866723883421
100
AcDbArc
 50
305.0133328993
 51
6.2988474941
  0
ARC
  5
133
330
1F
100
AcDbEntity
  8
0
  6
Continuous
 62
     7
370
    25
100
AcDbCircle
 10
37.0880511358
 20
23.6016919189
 30
0.0
 40
0.052175658671615
100
AcDbArc
 50
1.7109510541
 51
25.2469289812
  0
ARC
  5
134
330
1F
100
AcDbEntity
  8
0
  6
Continuous
 62
     7
370
    25
100
AcDbCircle
 10
37.1218284617
 20
23.6012214901
 30
0.0
 40
0.0184866723905009
100
AcDbArc
 50
305.0133329033
 51
6.2988474901
  0
ARC
  5
135
330
1F
100
AcDbEntity
  8
0
  6
Continuous
 62
     7
370
    25
100
AcDbCircle
 10
35.0257489316
 20
22.470013253
 30
0.0
 40
0.7934849107530689
100
AcDbArc
 50
22.2496470826
 51
30.024035743
  0
ARC
  5
136
330
1F
100
AcDbEntity
  8
0
  6
Continuous
 62
     7
370
    25
100
AcDbCircle
 10
35.3727508978
 20
23.1944736108
 30
0.0
 40
0.0924002076008872
100
AcDbArc
 50
57.6184527742
 51
90.9037276251
  0
LINE
  5
137
330
1F
100
AcDbEntity
  8
0
  6
Continuous
 62
     7
370
    25
100
AcDbLine
 10
35.7080100797
 20
23.1075319227
 30
0.0
 11
35.4222362763
 21
23.2725056278
 31
0.0
  0
ARC
  5
138
330
1F
100
AcDbEntity
  8
0
  6
Continuous
 62
     7
370
    25
100
AcDbCircle
 10
35.5844147683
 20
22.9141242654
 30
0.0
 40
0.2295263010143166
100
AcDbArc
 50
20.1693655555
 51
57.4197776411
  0
LINE
  5
139
330
1F
100
AcDbEntity
  8
0
  6
Continuous
 62
     7
370
    25
100
AcDbLine
 10
35.9427528467
 20
22.6249879627
 30
0.0
 11
35.799865945
 21
22.9932640994
 31
0.0
  0
ARC
  5
13A
330
1F
100
AcDbEntity
  8
0
  6
Continuous
 62
     7
370
    25
100
AcDbCircle
 10
35.8202639252
 20
22.5637474018
 30
0.0
 40
0.1369450333984645
100
AcDbArc
 50
333.4364081968
 51
26.5635918032
  0
LINE
  5
13B
330
1F
100
AcDbEntity
  8
0
  6
Continuous
 62
     7
370
    25
100
AcDbLine
 10
35.8901329305
 20
22.4276381386
 30
0.0
 11
35.9427528467
 21
22.5025068409
 31
0.0
  0
LWPOLYLINE
  5
13C
330
1F
100
AcDbEntity
  8
0
  6
Continuous
 62
     7
370
    25
100
AcDbPolyline
 90
       36
 70
   128
 43
0.0
 10
35.8939278313
 20
22.5919334833
 10
35.8934371901
 20
22.612951378
 10
35.8919667309
 20
22.6344730293
 10
35.8895208421
 20
22.656434208
 10
35.8861068231
 20
22.6787693735
 10
35.8817348628
 20
22.7014118688
 10
35.8764180088
 20
22.7242941198
 10
35.8701721286
 20
22.7473478368
 10
35.8630158625
 20
22.7705042186
 10
35.8549705675
 20
22.7936941573
 10
35.846060254
 20
22.8168484451
 10
35.8363115139
 20
22.8398979805
 10
35.8257534412
 20
22.8627739745
 10
35.8144175453
 20
22.8854081563
 10
35.8023376571
 20
22.9077329766
 10
35.7895498276
 20
22.9296818093
 10
35.7760922208
 20
22.9511891505
 10
35.7620049994
 20
22.9721908137
 10
35.7473302053
 20
22.9926241219
 10
35.7321116339
 20
23.0124280939
 10
35.7163947032
 20
23.031543627
 10
35.7002263189
 20
23.0499136729
 10
35.6836547336
 20
23.0674834081
 10
35.6667294037
 20
23.0842003976
 10
35.6495008408
 20
23.1000147514
 10
35.6320204618
 20
23.1148792732
 10
35.6143404351
 20
23.1287496015
 10
35.5965135246
 20
23.1415843417
 10
35.5785929331
 20
23.15334519
 10
35.5606321425
 20
23.1639970472
 10
35.5426847549
 20
23.1735081242
 10
35.5248043324
 20
23.1818500361
 10
35.5070442372
 20
23.1889978874
 10
35.4894574724
 20
23.1949303461
 10
35.4720965238
 20
23.1996297073
 10
35.4582095606
 20
23.2025271558
  0
ARC
  5
13D
330
1F
100
AcDbEntity
  8
0
  6
Continuous
 62
     7
370
    25
100
AcDbCircle
 10
35.5579758682
 20
22.5870047427
 30
0.0
 40
0.3359881158063056
100
AcDbArc
 50
341.2022680999
 51
0.8405242576
  0
ARC
  5
13E
330
1F
100
AcDbEntity
  8
0
  6
Continuous
 62
     7
370
    25
100
AcDbCircle
 10
35.1608198325
 20
22.5356385815
 30
0.0
 40
0.6846099798520383
100
AcDbArc
 50
3.3473341065
 51
30.92342111
  0
ARC
  5
13F
330
1F
100
AcDbEntity
  8
0
  6
Continuous
 62
     7
370
    25
100
AcDbCircle
 10
35.1946217457
 20
22.6054574199
 30
0.0
 40
0.6176545298328684
100
AcDbArc
 50
36.8153532888
 51
57.5309741215
  0
ARC
  5
140
330
1F
100
AcDbEntity
  8
0
  6
Continuous
 62
     7
370
    25
100
AcDbCircle
 10
35.2024134529
 20
22.5588268545
 30
0.0
 40
0.6778313108291906
100
AcDbArc
 50
2.1088217662
 51
30.9929557432
  0
ARC
  5
141
330
1F
100
AcDbEntity
  8
0
  6
Continuous
 62
     7
370
    25
100
AcDbCircle
 10
35.2717740498
 20
22.6544777909
 30
0.0
 40
0.5696377253028433
100
AcDbArc
 50
28.703237913
 51
69.4050607136
  0
ARC
  5
142
330
1F
100
AcDbEntity
  8
0
  6
Continuous
 62
     7
370
    25
100
AcDbCircle
 10
35.519388935
 20
22.580910459
 30
0.0
 40
0.3604081001265679
100
AcDbArc
 50
346.7363106824
 51
0.4545044728
  0
LINE
  5
143
330
1F
100
AcDbEntity
  8
0
  6
Continuous
 62
     7
370
    25
100
AcDbLine
 10
36.0049269116
 20
23.1116432756
 30
0.0
 11
35.799865945
 21
22.9932640994
 31
0.0
  0
LINE
  5
144
330
1F
100
AcDbEntity
  8
0
  6
Continuous
 62
     7
370
    25
100
AcDbLine
 10
36.1478138132
 20
22.7433671389
 30
0.0
 11
36.0049269116
 21
23.1116432756
 31
0.0
  0
LINE
  5
145
330
1F
100
AcDbEntity
  8
0
  6
Continuous
 62
     7
370
    25
100
AcDbLine
 10
35.9427528467
 20
22.6249879627
 30
0.0
 11
36.1478138132
 21
22.7433671389
 31
0.0
  0
LINE
  5
146
330
1F
100
AcDbEntity
  8
0
  6
Continuous
 62
     7
370
    25
100
AcDbLine
 10
35.7080100797
 20
23.1075319227
 30
0.0
 11
35.9130710462
 21
23.2259110989
 31
0.0
  0
ARC
  5
147
330
1F
100
AcDbEntity
  8
0
  6
Continuous
 62
     7
370
    25
100
AcDbCircle
 10
35.7894757349
 20
23.0325034416
 30
0.0
 40
0.2295263010145756
100
AcDbArc
 50
20.1693655555
 51
57.4197776411
  0
LINE
  5
148
330
1F
100
AcDbEntity
  8
0
  6
Continuous
 62
     7
370
    25
100
AcDbLine
 10
35.6272972429
 20
23.390884804
 30
0.0
 11
35.4222362763
 21
23.2725056278
 31
0.0
  0
LINE
  5
149
330
1F
100
AcDbEntity
  8
0
  6
Continuous
 62
     7
370
    25
100
AcDbLine
 10
35.9130710462
 20
23.2259110989
 30
0.0
 11
35.6272972429
 21
23.390884804
 31
0.0
  0
ARC
  5
14A
330
1F
100
AcDbEntity
  8
0
  6
Continuous
 62
     7
370
    25
100
AcDbCircle
 10
36.0253248918
 20
22.682126578
 30
0.0
 40
0.1369450333985678
100
AcDbArc
 50
333.4364081968
 51
26.5635918032
  0
LINE
  5
14B
330
1F
100
AcDbEntity
  8
0
  6
Continuous
 62
     7
370
    25
100
AcDbLine
 10
36.1478138132
 20
22.6208860171
 30
0.0
 11
35.9427528467
 21
22.5025068409
 31
0.0
  0
LINE
  5
14C
330
1F
100
AcDbEntity
  8
0
  6
Continuous
 62
     7
370
    25
100
AcDbLine
 10
36.0049269116
 20
22.4175835855
 30
0.0
 11
36.1478138132
 21
22.6208860171
 31
0.0
  0
LWPOLYLINE
  5
14D
330
1F
100
AcDbEntity
  8
0
  6
Continuous
 62
     7
370
    25
100
AcDbPolyline
 90
       68
 70
   128
 43
0.0
 10
34.2944522922
 20
21.1419926767
 10
34.2939633555
 20
21.1742617157
 10
34.2924971546
 20
21.2070550657
 10
34.2900555162
 20
21.2403318704
 10
34.2866414823
 20
21.274050671
 10
34.2822593063
 20
21.3081694581
 10
34.2769144478
 20
21.3426457239
 10
34.270613566
 20
21.3774365152
 10
34.2633645109
 20
21.4124984871
 10
34.2551763139
 20
21.4477879568
 10
34.2460591766
 20
21.4832609578
 10
34.2360244576
 20
21.5188732954
 10
34.2250846591
 20
21.5545806009
 10
34.2132534107
 20
21.5903383876
 10
34.2005454526
 20
21.6261021055
 10
34.1869766173
 20
21.6618271977
 10
34.17256381
 20
21.6974691551
 10
34.1573249872
 20
21.7329835723
 10
34.1412791346
 20
21.7683262027
 10
34.1244462433
 20
21.8034530137
 10
34.106847285
 20
21.8383202418
 10
34.0885041858
 20
21.8728844468
 10
34.0694397989
 20
21.9071025659
 10
34.0496778762
 20
21.9409319677
 10
34.0292430386
 20
21.9743305049
 10
34.0081607453
 20
22.007256567
 10
33.9864572623
 20
22.0396691324
 10
33.9641596294
 20
22.071527819
 10
33.9412956266
 20
22.1027929348
 10
33.9178937397
 20
22.1334255274
 10
33.8939831244
 20
22.1633874324
 10
33.8695935706
 20
22.192641321
 10
33.8447554644
 20
22.2211507465
 10
33.8194997511
 20
22.2488801897
 10
33.7938578962
 20
22.2757951032
 10
33.7678618461
 20
22.3018619544
 10
33.7415439889
 20
22.3270482671
 10
33.7149371131
 20
22.3513226624
 10
33.6880743678
 20
22.3746548974
 10
33.6609892204
 20
22.3970159031
 10
33.6337154158
 20
22.4183778203
 10
33.6062869337
 20
22.4387140349
 10
33.5787379466
 20
22.4579992105
 10
33.551102777
 20
22.47620932
 10
33.5234158551
 20
22.4933216761
 10
33.4957116751
 20
22.5093149588
 10
33.4680247531
 20
22.5241692424
 10
33.4403895836
 20
22.5378660204
 10
33.4128405965
 20
22.5503882284
 10
33.3854121144
 20
22.5617202651
 10
33.3581383098
 20
22.5718480124
 10
33.3310531624
 20
22.5807588522
 10
33.3041904171
 20
22.5884416828
 10
33.2775835413
 20
22.5948869323
 10
33.2512656841
 20
22.6000865708
 10
33.225269634
 20
22.6040341202
 10
33.1996277791
 20
22.6067246622
 10
33.1743720658
 20
22.6081548449
 10
33.1495339596
 20
22.6083228864
 10
33.1251444057
 20
22.6072285773
 10
33.1012337905
 20
22.604873281
 10
33.0778319036
 20
22.6012599319
 10
33.0549679008
 20
22.5963930318
 10
33.0326702679
 20
22.5902786442
 10
33.0109667849
 20
22.582924387
 10
32.9898844916
 20
22.5743394225
 10
32.969449654
 20
22.5645344467
 10
32.9546088685
 20
22.556413416
  0
ARC
  5
14E
330
1F
100
AcDbEntity
  8
0
  6
Continuous
 62
     7
370
    25
100
AcDbCircle
 10
33.5690818397
 20
21.1209764913
 30
0.0
 40
0.7256748400079064
100
AcDbArc
 50
333.1757805247
 51
1.6595685102
  0
LWPOLYLINE
  5
14F
330
1F
100
AcDbEntity
  8
0
  6
Continuous
 62
     7
370
    25
100
AcDbPolyline
 90
       91
 70
   128
 43
0.0
 10
35.7028850737
 20
21.579593739
 10
35.7078062109
 20
21.5824854798
 10
35.7268705978
 20
21.5946923264
 10
35.745213697
 20
21.6080780398
 10
35.7628126553
 20
21.6226259432
 10
35.7796455466
 20
21.6383179117
 10
35.7956913992
 20
21.6551343949
 10
35.810930222
 20
21.6730544418
 10
35.8253430293
 20
21.6920557261
 10
35.8389118646
 20
21.7121145745
 10
35.8516198227
 20
21.7332059964
 10
35.8634510711
 20
21.7553037144
 10
35.8743908696
 20
21.7783801974
 10
35.8844255886
 20
21.8024066951
 10
35.8935427259
 20
21.8273532734
 10
35.9017309229
 20
21.8531888521
 10
35.908979978
 20
21.8798812431
 10
35.9152808598
 20
21.9073971911
 10
35.9206257183
 20
21.9357024147
 10
35.9250078943
 20
21.964761649
 10
35.9284219282
 20
21.9945386899
 10
35.9308635666
 20
22.024996439
 10
35.9323297675
 20
22.0560969495
 10
35.9328187042
 20
22.0878014742
 10
35.9323297675
 20
22.1200705132
 10
35.9308635666
 20
22.1528638633
 10
35.9284219282
 20
22.186140668
 10
35.9250078943
 20
22.2198594686
 10
35.9206257183
 20
22.2539782557
 10
35.9152808598
 20
22.2884545214
 10
35.908979978
 20
22.3232453128
 10
35.9017309229
 20
22.3583072847
 10
35.8935427259
 20
22.3935967543
 10
35.8844255886
 20
22.4290697554
 10
35.8743908696
 20
22.4646820929
 10
35.8634510711
 20
22.5003893985
 10
35.8516198227
 20
22.5361471851
 10
35.8389118646
 20
22.5719109031
 10
35.8253430293
 20
22.6076359953
 10
35.810930222
 20
22.6432779527
 10
35.7956913992
 20
22.6787923698
 10
35.7796455466
 20
22.7141350002
 10
35.7628126553
 20
22.7492618113
 10
35.745213697
 20
22.7841290394
 10
35.7268705978
 20
22.8186932444
 10
35.7078062109
 20
22.8529113635
 10
35.6880442882
 20
22.8867407652
 10
35.6676094506
 20
22.9201393024
 10
35.6465271573
 20
22.9530653646
 10
35.6248236743
 20
22.9854779299
 10
35.6025260414
 20
23.0173366165
 10
35.5796620386
 20
23.0486017323
 10
35.5562601517
 20
23.0792343249
 10
35.5323495364
 20
23.1091962299
 10
35.5079599826
 20
23.1384501185
 10
35.4831218764
 20
23.1669595441
 10
35.4578661631
 20
23.1946889873
 10
35.4322243082
 20
23.2216039008
 10
35.4062282581
 20
23.2476707519
 10
35.3799104009
 20
23.2728570646
 10
35.3533035251
 20
23.2971314599
 10
35.3264407798
 20
23.3204636949
 10
35.2993556324
 20
23.3428247006
 10
35.2720818278
 20
23.3641866179
 10
35.2446533457
 20
23.3845228325
 10
35.2171043586
 20
23.403808008
 10
35.1894691891
 20
23.4220181176
 10
35.1617822671
 20
23.4391304736
 10
35.1340780871
 20
23.4551237563
 10
35.1063911651
 20
23.4699780399
 10
35.0787559956
 20
23.483674818
 10
35.0512070085
 20
23.4961970259
 10
35.0237785264
 20
23.5075290627
 10
34.9965047218
 20
23.5176568099
 10
34.9694195744
 20
23.5265676497
 10
34.9425568291
 20
23.5342504803
 10
34.9159499533
 20
23.5406957299
 10
34.8896320961
 20
23.5458953684
 10
34.863636046
 20
23.5498429177
 10
34.8379941911
 20
23.5525334598
 10
34.8127384778
 20
23.5539636425
 10
34.7879003716
 20
23.5541316839
 10
34.7635108178
 20
23.5530373748
 10
34.7396002025
 20
23.5506820785
 10
34.7161983156
 20
23.5470687294
 10
34.6933343128
 20
23.5422018293
 10
34.6710366799
 20
23.5360874418
 10
34.6493331969
 20
23.5287331845
 10
34.6282509036
 20
23.5201482201
 10
34.607816066
 20
23.5103432442
 10
34.5929752805
 20
23.5022222135
  0
ARC
  5
150
330
1F
100
AcDbEntity
  8
0
  6
Continuous
 62
     7
370
    25
100
AcDbCircle
 10
34.2747507393
 20
22.0368322164
 30
0.0
 40
1.659784267450679
100
AcDbArc
 50
2.60583048
 51
57.3887929873
  0
LWPOLYLINE
  5
151
330
1F
100
AcDbEntity
  8
0
  6
Continuous
 62
     7
370
    25
100
AcDbPolyline
 90
       43
 70
   128
 43
0.0
 10
33.9638328335
 20
21.5414155011
 10
33.9661510431
 20
21.5323021217
 10
33.9695050692
 20
21.523669563
 10
33.9738199882
 20
21.515710662
 10
33.9789994122
 20
21.5086032076
 10
33.9849276413
 20
21.5025059684
 10
33.9914722487
 20
21.4975551467
 10
33.9984870386
 20
21.4938613358
 10
34.0058153123
 20
21.4915070491
 10
34.0132933682
 20
21.4905448777
 10
34.0207541589
 20
21.4909963148
 10
34.0280310226
 20
21.4928512761
 10
34.0349614064
 20
21.4960683247
 10
34.0413904967
 20
21.5005755972
 10
34.0471746785
 20
21.5062724086
 10
34.0521847426
 20
21.5130315014
 10
34.0563087724
 20
21.5207018887
 10
34.059454644
 20
21.5291122267
 10
34.0615520838
 20
21.5380746424
 10
34.0625542385
 20
21.5473889303
 10
34.0624387215
 20
21.5568470245
 10
34.0612081133
 20
21.5662376467
 10
34.0588899037
 20
21.5753510262
 10
34.0555358777
 20
21.5839835849
 10
34.0512209586
 20
21.5919424859
 10
34.0460415346
 20
21.5990499403
 10
34.0401133055
 20
21.6051471795
 10
34.0335686982
 20
21.6100980012
 10
34.0265539082
 20
21.6137918121
 10
34.0192256346
 20
21.6161460987
 10
34.0117475787
 20
21.6171082702
 10
34.004286788
 20
21.6166568331
 10
33.9970099242
 20
21.6148018718
 10
33.9900795405
 20
21.6115848232
 10
33.9836504501
 20
21.6070775506
 10
33.9778662683
 20
21.6013807393
 10
33.9728562043
 20
21.5946216465
 10
33.9687321744
 20
21.5869512592
 10
33.9655863028
 20
21.5785409212
 10
33.963488863
 20
21.5695785054
 10
33.9624867084
 20
21.5602642176
 10
33.9626022254
 20
21.5508061234
 10
33.9638328335
 20
21.5414155011
  0
LWPOLYLINE
  5
152
330
1F
100
AcDbEntity
  8
0
  6
Continuous
 62
     7
370
    25
100
AcDbPolyline
 90
       47
 70
   128
 43
0.0
 10
33.991861499
 20
21.6260153587
 10
33.9997651144
 20
21.627318993
 10
34.0077815434
 20
21.6272424441
 10
34.0157614553
 20
21.6257871379
 10
34.0235561994
 20
21.6229801841
 10
34.0310205742
 20
21.6188738708
 10
34.0380155327
 20
21.613544691
 10
34.044410772
 20
21.6070919171
 10
34.0500871609
 20
21.5996357522
 10
34.054938959
 20
21.5913150904
 10
34.0588757865
 20
21.58228493
 10
34.0618243078
 20
21.5727134858
 10
34.0637295974
 20
21.5627790556
 10
34.0645561634
 20
21.5526666992
 10
34.0642886085
 20
21.5425647905
 10
34.0629319167
 20
21.532661509
 10
34.0605113607
 20
21.5231413341
 10
34.0570720307
 20
21.5141816086
 10
34.052677995
 20
21.5059492354
 10
34.0474111062
 20
21.4985975679
 10
34.0413694764
 20
21.4922635537
 10
34.0346656498
 20
21.4870651836
 10
34.027424506
 20
21.4830992934
 10
34.0197809338
 20
21.4804397602
 10
34.0118773184
 20
21.4791361258
 10
34.0038608893
 20
21.4792126748
 10
33.9958809775
 20
21.4806679809
 10
33.9880862334
 20
21.4834749348
 10
33.9806218586
 20
21.487581248
 10
33.9736269001
 20
21.4929104278
 10
33.9672316607
 20
21.4993632017
 10
33.9615552718
 20
21.5068193666
 10
33.9567034737
 20
21.5151400284
 10
33.9527666462
 20
21.5241701888
 10
33.949818125
 20
21.533741633
 10
33.9479128354
 20
21.5436760632
 10
33.9470862694
 20
21.5537884197
 10
33.9473538243
 20
21.5638903284
 10
33.948710516
 20
21.5737936099
 10
33.9511310721
 20
21.5833137848
 10
33.9545704021
 20
21.5922735102
 10
33.9589644378
 20
21.6005058834
 10
33.9642313266
 20
21.607857551
 10
33.9702729564
 20
21.6141915651
 10
33.976976783
 20
21.6193899352
 10
33.9842179268
 20
21.6233558254
 10
33.991861499
 20
21.6260153587
  0
LINE
  5
153
330
1F
100
AcDbEntity
  8
0
  6
Continuous
 62
     7
370
    25
100
AcDbLine
 10
34.0371355198
 20
21.5200486245
 30
0.0
 11
34.0471035352
 21
21.5626422179
 31
0.0
  0
LINE
  5
154
330
1F
100
AcDbEntity
  8
0
  6
Continuous
 62
     7
370
    25
100
AcDbLine
 10
34.0224884888
 20
21.5964201673
 30
0.0
 11
34.0471035352
 21
21.5626422179
 31
0.0
  0
LINE
  5
155
330
1F
100
AcDbEntity
  8
0
  6
Continuous
 62
     7
370
    25
100
AcDbLine
 10
33.987905427
 20
21.5876045234
 30
0.0
 11
34.0224884888
 21
21.5964201673
 31
0.0
  0
LINE
  5
156
330
1F
100
AcDbEntity
  8
0
  6
Continuous
 62
     7
370
    25
100
AcDbLine
 10
33.987905427
 20
21.5876045234
 30
0.0
 11
33.9779374117
 21
21.54501093
 31
0.0
  0
LINE
  5
157
330
1F
100
AcDbEntity
  8
0
  6
Continuous
 62
     7
370
    25
100
AcDbLine
 10
34.002552458
 20
21.5112329806
 30
0.0
 11
33.9779374117
 21
21.54501093
 31
0.0
  0
LINE
  5
158
330
1F
100
AcDbEntity
  8
0
  6
Continuous
 62
     7
370
    25
100
AcDbLine
 10
34.002552458
 20
21.5112329806
 30
0.0
 11
34.0371355198
 21
21.5200486245
 31
0.0
  0
LINE
  5
159
330
1F
100
AcDbEntity
  8
0
  6
Continuous
 62
     7
370
    25
100
AcDbLine
 10
33.9986367835
 20
21.5166062573
 30
0.0
 11
34.0371355198
 21
21.5200486245
 31
0.0
  0
LINE
  5
15A
330
1F
100
AcDbEntity
  8
0
  6
Continuous
 62
     7
370
    25
100
AcDbLine
 10
33.991990016
 20
21.5577142388
 30
0.0
 11
34.0471035352
 21
21.5626422179
 31
0.0
  0
LINE
  5
15B
330
1F
100
AcDbEntity
  8
0
  6
Continuous
 62
     7
370
    25
100
AcDbLine
 10
33.9836035609
 20
21.5692225354
 30
0.0
 11
33.991990016
 21
21.5577142388
 31
0.0
  0
LINE
  5
15C
330
1F
100
AcDbEntity
  8
0
  6
Continuous
 62
     7
370
    25
100
AcDbLine
 10
33.9863238668
 20
21.5335026333
 30
0.0
 11
33.991990016
 21
21.5577142388
 31
0.0
  0
ARC
  5
15D
330
1F
100
AcDbEntity
  8
0
  6
Continuous
 62
     7
370
    25
100
AcDbCircle
 10
33.1007352724
 20
21.334225588
 30
0.0
 40
1.374980258396026
100
AcDbArc
 50
220.234114148
 51
222.8221150874
  0
LWPOLYLINE
  5
15E
330
1F
100
AcDbEntity
  8
0
  6
Continuous
 62
     7
370
    25
100
AcDbPolyline
 90
        3
 70
   128
 43
0.0
 10
31.9460977122
 20
21.7147153057
 10
31.9532262547
 20
21.7171868735
 10
31.9647126916
 20
21.7207669905
  0
ARC
  5
15F
330
1F
100
AcDbEntity
  8
0
  6
Continuous
 62
     7
370
    25
100
AcDbCircle
 10
32.8323222326
 20
20.9622649254
 30
0.0
 40
0.8386441925354661
100
AcDbArc
 50
237.1652622346
 51
242.8401142981
  0
LWPOLYLINE
  5
160
330
1F
100
AcDbEntity
  8
0
  6
Continuous
 62
     7
370
    25
100
AcDbPolyline
 90
        3
 70
   128
 43
0.0
 10
32.0524096108
 20
20.5757081721
 10
32.0436402796
 20
20.5879963203
 10
32.0258408988
 20
20.6137686121
  0
ARC
  5
161
330
1F
100
AcDbEntity
  8
0
  6
Continuous
 62
     7
370
    25
100
AcDbCircle
 10
33.5738604663
 20
21.1199098893
 30
0.0
 40
0.7209301138085571
100
AcDbArc
 50
333.080049278
 51
1.7552997569
  0
LWPOLYLINE
  5
162
330
1F
100
AcDbEntity
  8
0
  6
Continuous
 62
     7
370
    25
100
AcDbPolyline
 90
       68
 70
   128
 43
0.0
 10
32.9546088685
 20
22.556413416
 10
32.969449654
 20
22.5645344467
 10
32.9898844916
 20
22.5743394225
 10
33.0109667849
 20
22.582924387
 10
33.0326702679
 20
22.5902786442
 10
33.0549679008
 20
22.5963930318
 10
33.0778319036
 20
22.6012599319
 10
33.1012337905
 20
22.604873281
 10
33.1251444057
 20
22.6072285773
 10
33.1495339596
 20
22.6083228864
 10
33.1743720658
 20
22.6081548449
 10
33.1996277791
 20
22.6067246622
 10
33.225269634
 20
22.6040341202
 10
33.2512656841
 20
22.6000865708
 10
33.2775835413
 20
22.5948869323
 10
33.3041904171
 20
22.5884416828
 10
33.3310531624
 20
22.5807588522
 10
33.3581383098
 20
22.5718480124
 10
33.3854121144
 20
22.5617202651
 10
33.4128405965
 20
22.5503882284
 10
33.4403895836
 20
22.5378660204
 10
33.4680247531
 20
22.5241692424
 10
33.4957116751
 20
22.5093149588
 10
33.5234158551
 20
22.4933216761
 10
33.551102777
 20
22.47620932
 10
33.5787379466
 20
22.4579992105
 10
33.6062869337
 20
22.4387140349
 10
33.6337154158
 20
22.4183778203
 10
33.6609892204
 20
22.3970159031
 10
33.6880743678
 20
22.3746548974
 10
33.7149371131
 20
22.3513226624
 10
33.7415439889
 20
22.3270482671
 10
33.7678618461
 20
22.3018619544
 10
33.7938578962
 20
22.2757951032
 10
33.8194997511
 20
22.2488801897
 10
33.8447554644
 20
22.2211507465
 10
33.8695935706
 20
22.192641321
 10
33.8939831244
 20
22.1633874324
 10
33.9178937397
 20
22.1334255274
 10
33.9412956266
 20
22.1027929348
 10
33.9641596294
 20
22.071527819
 10
33.9864572623
 20
22.0396691324
 10
34.0081607453
 20
22.007256567
 10
34.0292430386
 20
21.9743305049
 10
34.0496778762
 20
21.9409319677
 10
34.0694397989
 20
21.9071025659
 10
34.0885041858
 20
21.8728844468
 10
34.106847285
 20
21.8383202418
 10
34.1244462433
 20
21.8034530137
 10
34.1412791346
 20
21.7683262027
 10
34.1573249872
 20
21.7329835723
 10
34.17256381
 20
21.6974691551
 10
34.1869766173
 20
21.6618271977
 10
34.2005454526
 20
21.6261021055
 10
34.2132534107
 20
21.5903383876
 10
34.2250846591
 20
21.5545806009
 10
34.2360244576
 20
21.5188732954
 10
34.2460591766
 20
21.4832609578
 10
34.2551763139
 20
21.4477879568
 10
34.2633645109
 20
21.4124984871
 10
34.270613566
 20
21.3774365152
 10
34.2769144478
 20
21.3426457239
 10
34.2822593063
 20
21.3081694581
 10
34.2866414823
 20
21.274050671
 10
34.2900555162
 20
21.2403318704
 10
34.2924971546
 20
21.2070550657
 10
34.2939633555
 20
21.1742617157
 10
34.2944522922
 20
21.1419926767
  0
SPLINE
  5
163
330
1F
100
AcDbEntity
  8
0
  6
Continuous
 62
     7
370
    25
100
AcDbSpline
210
0.0
220
0.0
230
1.0
 70
    11
 71
     3
 72
    45
 73
    41
 74
     0
 42
0.00000001
 43
0.00000001
 40
0.0
 40
0.0
 40
0.0
 40
0.0
 40
0.0237175399948474
 40
0.0474321274804091
 40
0.073770407411434
 40
0.1001058302052763
 40
0.1256831926192633
 40
0.1512613530838383
 40
0.1766109339556045
 40
0.2019638704002195
 40
0.2277790104241827
 40
0.2535981923459901
 40
0.2802998405742536
 40
0.3070046344696954
 40
0.3345901097638351
 40
0.3621768307668858
 40
0.3903008030868648
 40
0.4184235803193827
 40
0.4465839298029504
 40
0.4747404512680708
 40
0.5024000164995959
 40
0.5300542399531976
 40
0.5567908251397594
 40
0.583523484559652
 40
0.6093175702390966
 40
0.6351113171116101
 40
0.660453835068487
 40
0.6857990961317763
 40
0.7114024556147774
 40
0.7370098334383349
 40
0.7634096901586933
 40
0.7898131155645017
 40
0.8171426391285791
 40
0.8444740854076903
 40
0.8724773226205926
 40
0.9004801841984538
 40
0.9286871977639608
 40
0.9568911912208169
 40
0.9784464809507016
 40
1.0
 40
1.0
 40
1.0
 40
1.0
 10
34.03742326999965
 20
21.62927089990666
 30
0.0
 10
34.04052526984819
 20
21.62747800697397
 30
0.0
 10
34.04672888338872
 20
21.62389244429925
 30
0.0
 10
34.05544698091849
 20
21.61619409166239
 30
0.0
 10
34.06336754872284
 20
21.60666028235667
 30
0.0
 10
34.07001200955764
 20
21.59536588324896
 30
0.0
 10
34.07488169393258
 20
21.58300544221452
 30
0.0
 10
34.07796111396637
 20
21.57004150760426
 30
0.0
 10
34.07916680547665
 20
21.55671344703595
 30
0.0
 10
34.07859616674985
 20
21.54332554459042
 30
0.0
 10
34.07620321998336
 20
21.53020553782335
 30
0.0
 10
34.07209201094503
 20
21.51754795550665
 30
0.0
 10
34.06630882592294
 20
21.50581324578476
 30
0.0
 10
34.05897240254986
 20
21.49518596316065
 30
0.0
 10
34.05027599569977
 20
21.48617360990294
 30
0.0
 10
34.04041297830627
 20
21.4789635039056
 30
0.0
 10
34.02970251143051
 20
21.47397021728235
 30
0.0
 10
34.01844065919909
 20
21.47130079508182
 30
0.0
 10
34.00699052878699
 20
21.47118107937693
 30
0.0
 10
33.99572455649297
 20
21.47353219905292
 30
0.0
 10
33.9849689363412
 20
21.47837465611289
 30
0.0
 10
33.97509643711714
 20
21.48537636382151
 30
0.0
 10
33.96634138708647
 20
21.49439893143033
 30
0.0
 10
33.95895809651891
 20
21.50491363832911
 30
0.0
 10
33.95307944476173
 20
21.51671997080168
 30
0.0
 10
33.94878017850144
 20
21.52929624674404
 30
0.0
 10
33.94614975534247
 20
21.5424320487019
 30
0.0
 10
33.94515251486201
 20
21.5557712615787
 30
0.0
 10
33.94588081875045
 20
21.56903062105694
 30
0.0
 10
33.94828513263637
 20
21.58199787083765
 30
0.0
 10
33.9524189764635
 20
21.59425627044457
 30
0.0
 10
33.95823054873235
 20
21.60563007306104
 30
0.0
 10
33.96565082381363
 20
21.61561887471307
 30
0.0
 10
33.9745546082306
 20
21.62403377021279
 30
0.0
 10
33.98470884980299
 20
21.63042239602811
 30
0.0
 10
33.99584362238289
 20
21.63463591214775
 30
0.0
 10
34.00760208170978
 20
21.63639821410053
 30
0.0
 10
34.01866161102712
 20
21.63571275388478
 30
0.0
 10
34.0286968364161
 20
21.63328725526454
 30
0.0
 10
34.03451453845855
 20
21.63060964836534
 30
0.0
 10
34.03742326999965
 20
21.62927089990666
 30
0.0
  0
LINE
  5
164
330
1F
100
AcDbEntity
  8
0
  6
Continuous
 62
     7
370
    25
100
AcDbLine
 10
32.588118208
 20
21.2741248935
 30
0.0
 11
32.5567373774
 21
21.2769308127
 31
0.0
  0
LINE
  5
165
330
1F
100
AcDbEntity
  8
0
  6
Continuous
 62
     7
370
    25
100
AcDbLine
 10
32.588118208
 20
21.1210234913
 30
0.0
 11
32.5567373774
 21
21.1238294104
 31
0.0
  0
LINE
  5
166
330
1F
100
AcDbEntity
  8
0
  6
Continuous
 62
     7
370
    25
100
AcDbLine
 10
32.588118208
 20
20.9679220891
 30
0.0
 11
32.5567373774
 21
20.9707280082
 31
0.0
  0
LINE
  5
167
330
1F
100
AcDbEntity
  8
0
  6
Continuous
 62
     7
370
    25
100
AcDbLine
 10
32.588118208
 20
20.8148206868
 30
0.0
 11
32.5567373774
 21
20.817626606
 31
0.0
  0
LINE
  5
168
330
1F
100
AcDbEntity
  8
0
  6
Continuous
 62
     7
370
    25
100
AcDbLine
 10
32.588118208
 20
20.6617192846
 30
0.0
 11
32.5567373774
 21
20.6645252038
 31
0.0
  0
LINE
  5
169
330
1F
100
AcDbEntity
  8
0
  6
Continuous
 62
     7
370
    25
100
AcDbLine
 10
32.588118208
 20
20.5086178824
 30
0.0
 11
32.5567373774
 21
20.5114238015
 31
0.0
  0
LINE
  5
16A
330
1F
100
AcDbEntity
  8
0
  6
Continuous
 62
     7
370
    25
100
AcDbLine
 10
32.588118208
 20
20.3555164802
 30
0.0
 11
32.5567373774
 21
20.3583223993
 31
0.0
  0
LINE
  5
16B
330
1F
100
AcDbEntity
  8
0
  6
Continuous
 62
     7
370
    25
100
AcDbLine
 10
32.588118208
 20
20.2024150779
 30
0.0
 11
32.5567373774
 21
20.2052209971
 31
0.0
  0
LINE
  5
16C
330
1F
100
AcDbEntity
  8
0
  6
Continuous
 62
     7
370
    25
100
AcDbLine
 10
32.588118208
 20
20.0493136757
 30
0.0
 11
32.5567373774
 21
20.0521195948
 31
0.0
  0
LWPOLYLINE
  5
16D
330
1F
100
AcDbEntity
  8
0
  6
Continuous
 62
     7
370
    25
100
AcDbPolyline
 90
       11
 70
   128
 43
0.0
 10
36.0529142384
 20
23.1576875259
 10
36.0533339303
 20
23.1559723389
 10
36.0530229515
 20
23.1525342346
 10
36.0513641593
 20
23.1486232295
 10
36.0483735288
 20
23.1442769886
 10
36.0440798615
 20
23.1395373687
 10
36.0385245077
 20
23.1344500149
 10
36.0317609684
 20
23.1290639211
 10
36.0238543803
 20
23.1234309585
 10
36.0148808882
 20
23.1176053755
 10
36.0049269116
 20
23.1116432756
  0
LWPOLYLINE
  5
16E
330
1F
100
AcDbEntity
  8
0
  6
Continuous
 62
     7
370
    25
100
AcDbPolyline
 90
       11
 70
   128
 43
0.0
 10
36.1478138132
 20
22.7433671389
 10
36.1577677898
 20
22.7493292388
 10
36.166741282
 20
22.7551548218
 10
36.1746478701
 20
22.7607877844
 10
36.1814114093
 20
22.7661738782
 10
36.1869667632
 20
22.771261232
 10
36.1912604305
 20
22.7760008519
 10
36.194251061
 20
22.7803470928
 10
36.1959098532
 20
22.7842580979
 10
36.196220832
 20
22.7876962022
 10
36.1958011401
 20
22.7894113892
  0
ARC
  5
16F
330
1F
100
AcDbEntity
  8
0
  6
Continuous
 62
     7
370
    25
100
AcDbCircle
 10
35.9570090544
 20
23.1645788995
 30
0.0
 40
0.0754465853852493
100
AcDbArc
 50
65.6928809539
 51
125.6175774752
  0
LINE
  5
170
330
1F
100
AcDbEntity
  8
0
  6
Continuous
 62
     7
370
    25
100
AcDbLine
 10
35.9058056204
 20
22.3603620821
 30
0.0
 11
36.0049269116
 21
22.4175835855
 31
0.0
  0
ARC
  5
171
330
1F
100
AcDbEntity
  8
0
  6
Continuous
 62
     7
370
    25
100
AcDbCircle
 10
35.6712352511
 20
23.3295526046
 30
0.0
 40
0.075446585385326
100
AcDbArc
 50
65.6928809539
 51
125.6175774752
  0
ARC
  5
172
330
1F
100
AcDbEntity
  8
0
  6
Continuous
 62
     7
370
    25
100
AcDbCircle
 10
36.1001378202
 20
22.7044225604
 30
0.0
 40
0.0961839610916887
100
AcDbArc
 50
299.7142760215
 51
324.74355472
  0
ARC
  5
173
330
1F
100
AcDbEntity
  8
0
  6
Continuous
 62
     7
370
    25
100
AcDbCircle
 10
35.5834530975
 20
23.3305004824
 30
0.0
 40
0.0746228877434344
100
AcDbArc
 50
54.0171641951
 51
114.6723773758
  0
ARC
  5
174
330
1F
100
AcDbEntity
  8
0
  6
Continuous
 62
     7
370
    25
100
AcDbCircle
 10
35.9572509185
 20
22.5011201288
 30
0.0
 40
0.0961839610918345
100
AcDbArc
 50
299.7142760215
 51
324.74355472
  0
ARC
  5
175
330
1F
100
AcDbEntity
  8
0
  6
Continuous
 62
     7
370
    25
100
AcDbCircle
 10
35.9615056334
 20
22.4474891299
 30
0.0
 40
0.0527233248178127
100
AcDbArc
 50
300.2483378418
 51
325.443642964
  0
LINE
  5
176
330
1F
100
AcDbEntity
  8
0
  6
Continuous
 62
     7
370
    25
100
AcDbLine
 10
32.5682278626
 20
20.2779326336
 30
0.0
 11
32.5682278626
 21
20.2986659433
 31
0.0
  0
LINE
  5
177
330
1F
100
AcDbEntity
  8
0
  6
Continuous
 62
     7
370
    25
100
AcDbLine
 10
32.5682278626
 20
20.4310340359
 30
0.0
 11
32.5682278626
 21
20.4517673456
 31
0.0
  0
LINE
  5
178
330
1F
100
AcDbEntity
  8
0
  6
Continuous
 62
     7
370
    25
100
AcDbLine
 10
32.5682278626
 20
20.5841354381
 30
0.0
 11
32.5682278626
 21
20.6048687478
 31
0.0
  0
LINE
  5
179
330
1F
100
AcDbEntity
  8
0
  6
Continuous
 62
     7
370
    25
100
AcDbLine
 10
32.5682278626
 20
20.7372368403
 30
0.0
 11
32.5682278626
 21
20.75797015
 31
0.0
  0
LINE
  5
17A
330
1F
100
AcDbEntity
  8
0
  6
Continuous
 62
     7
370
    25
100
AcDbLine
 10
32.5682278626
 20
20.8903382426
 30
0.0
 11
32.5682278626
 21
20.9110715523
 31
0.0
  0
LINE
  5
17B
330
1F
100
AcDbEntity
  8
0
  6
Continuous
 62
     7
370
    25
100
AcDbLine
 10
32.5682278626
 20
21.0434396448
 30
0.0
 11
32.5682278626
 21
21.0641729545
 31
0.0
  0
LINE
  5
17C
330
1F
100
AcDbEntity
  8
0
  6
Continuous
 62
     7
370
    25
100
AcDbLine
 10
32.5682278626
 20
21.196541047
 30
0.0
 11
32.5682278626
 21
21.2172743567
 31
0.0
  0
LINE
  5
17D
330
1F
100
AcDbEntity
  8
0
  6
Continuous
 62
     7
370
    25
100
AcDbLine
 10
32.5682278626
 20
21.3496424492
 30
0.0
 11
32.5682278626
 21
21.3703757589
 31
0.0
  0
LINE
  5
17E
330
1F
100
AcDbEntity
  8
0
  6
Continuous
 62
     7
370
    25
100
AcDbLine
 10
32.479839515
 20
20.3289581406
 30
0.0
 11
32.479839515
 21
20.3516807896
 31
0.0
  0
LINE
  5
17F
330
1F
100
AcDbEntity
  8
0
  6
Continuous
 62
     7
370
    25
100
AcDbLine
 10
32.479839515
 20
20.4820595429
 30
0.0
 11
32.479839515
 21
20.5047821919
 31
0.0
  0
LINE
  5
180
330
1F
100
AcDbEntity
  8
0
  6
Continuous
 62
     7
370
    25
100
AcDbLine
 10
32.479839515
 20
20.6351609451
 30
0.0
 11
32.479839515
 21
20.6578835941
 31
0.0
  0
LINE
  5
181
330
1F
100
AcDbEntity
  8
0
  6
Continuous
 62
     7
370
    25
100
AcDbLine
 10
32.479839515
 20
20.7882623473
 30
0.0
 11
32.479839515
 21
20.8109849963
 31
0.0
  0
LINE
  5
182
330
1F
100
AcDbEntity
  8
0
  6
Continuous
 62
     7
370
    25
100
AcDbLine
 10
32.479839515
 20
20.9413637495
 30
0.0
 11
32.479839515
 21
20.9640863985
 31
0.0
  0
LINE
  5
183
330
1F
100
AcDbEntity
  8
0
  6
Continuous
 62
     7
370
    25
100
AcDbLine
 10
32.479839515
 20
21.0944651518
 30
0.0
 11
32.479839515
 21
21.1171878008
 31
0.0
  0
LINE
  5
184
330
1F
100
AcDbEntity
  8
0
  6
Continuous
 62
     7
370
    25
100
AcDbLine
 10
32.479839515
 20
21.247566554
 30
0.0
 11
32.479839515
 21
21.270289203
 31
0.0
  0
LINE
  5
185
330
1F
100
AcDbEntity
  8
0
  6
Continuous
 62
     7
370
    25
100
AcDbLine
 10
32.479839515
 20
21.4006679562
 30
0.0
 11
32.479839515
 21
21.4233906052
 31
0.0
  0
LINE
  5
186
330
1F
100
AcDbEntity
  8
0
  6
Continuous
 62
     7
370
    25
100
AcDbLine
 10
32.3914511673
 20
20.2488660637
 30
0.0
 11
32.3914511673
 21
20.2496048944
 31
0.0
  0
LINE
  5
187
330
1F
100
AcDbEntity
  8
0
  6
Continuous
 62
     7
370
    25
100
AcDbLine
 10
32.3914511673
 20
20.3799836476
 30
0.0
 11
32.3914511673
 21
20.4027062966
 31
0.0
  0
LINE
  5
188
330
1F
100
AcDbEntity
  8
0
  6
Continuous
 62
     7
370
    25
100
AcDbLine
 10
32.3914511673
 20
20.5330850498
 30
0.0
 11
32.3914511673
 21
20.5558076989
 31
0.0
  0
LINE
  5
189
330
1F
100
AcDbEntity
  8
0
  6
Continuous
 62
     7
370
    25
100
AcDbLine
 10
32.3914511673
 20
20.6861864521
 30
0.0
 11
32.3914511673
 21
20.7089091011
 31
0.0
  0
LINE
  5
18A
330
1F
100
AcDbEntity
  8
0
  6
Continuous
 62
     7
370
    25
100
AcDbLine
 10
32.3914511673
 20
20.8392878543
 30
0.0
 11
32.3914511673
 21
20.8620105033
 31
0.0
  0
LINE
  5
18B
330
1F
100
AcDbEntity
  8
0
  6
Continuous
 62
     7
370
    25
100
AcDbLine
 10
32.3914511673
 20
20.9923892565
 30
0.0
 11
32.3914511673
 21
21.0151119055
 31
0.0
  0
LINE
  5
18C
330
1F
100
AcDbEntity
  8
0
  6
Continuous
 62
     7
370
    25
100
AcDbLine
 10
32.3914511673
 20
21.1454906588
 30
0.0
 11
32.3914511673
 21
21.1682133078
 31
0.0
  0
LINE
  5
18D
330
1F
100
AcDbEntity
  8
0
  6
Continuous
 62
     7
370
    25
100
AcDbLine
 10
32.3914511673
 20
21.298592061
 30
0.0
 11
32.3914511673
 21
21.32131471
 31
0.0
  0
LINE
  5
18E
330
1F
100
AcDbEntity
  8
0
  6
Continuous
 62
     7
370
    25
100
AcDbLine
 10
32.3914511673
 20
21.4516934632
 30
0.0
 11
32.3914511673
 21
21.4744161122
 31
0.0
  0
LINE
  5
18F
330
1F
100
AcDbEntity
  8
0
  6
Continuous
 62
     7
370
    25
100
AcDbLine
 10
32.3030628197
 20
20.4310091546
 30
0.0
 11
32.3030628197
 21
20.4537318036
 31
0.0
  0
LINE
  5
190
330
1F
100
AcDbEntity
  8
0
  6
Continuous
 62
     7
370
    25
100
AcDbLine
 10
32.3030628197
 20
20.5841105568
 30
0.0
 11
32.3030628197
 21
20.6068332058
 31
0.0
  0
LINE
  5
191
330
1F
100
AcDbEntity
  8
0
  6
Continuous
 62
     7
370
    25
100
AcDbLine
 10
32.3030628197
 20
20.7372119591
 30
0.0
 11
32.3030628197
 21
20.7599346081
 31
0.0
  0
LINE
  5
192
330
1F
100
AcDbEntity
  8
0
  6
Continuous
 62
     7
370
    25
100
AcDbLine
 10
32.3030628197
 20
20.8903133613
 30
0.0
 11
32.3030628197
 21
20.9130360103
 31
0.0
  0
LINE
  5
193
330
1F
100
AcDbEntity
  8
0
  6
Continuous
 62
     7
370
    25
100
AcDbLine
 10
32.3030628197
 20
21.0434147635
 30
0.0
 11
32.3030628197
 21
21.0661374125
 31
0.0
  0
LINE
  5
194
330
1F
100
AcDbEntity
  8
0
  6
Continuous
 62
     7
370
    25
100
AcDbLine
 10
32.3030628197
 20
21.1965161658
 30
0.0
 11
32.3030628197
 21
21.2192388148
 31
0.0
  0
LINE
  5
195
330
1F
100
AcDbEntity
  8
0
  6
Continuous
 62
     7
370
    25
100
AcDbLine
 10
32.3030628197
 20
21.349617568
 30
0.0
 11
32.3030628197
 21
21.372340217
 31
0.0
  0
LINE
  5
196
330
1F
100
AcDbEntity
  8
0
  6
Continuous
 62
     7
370
    25
100
AcDbLine
 10
32.3030628197
 20
21.5027189702
 30
0.0
 11
32.3030628197
 21
21.5254416192
 31
0.0
  0
LINE
  5
197
330
1F
100
AcDbEntity
  8
0
  6
Continuous
 62
     7
370
    25
100
AcDbLine
 10
32.214674472
 20
20.4820346616
 30
0.0
 11
32.214674472
 21
20.5047573106
 31
0.0
  0
LINE
  5
198
330
1F
100
AcDbEntity
  8
0
  6
Continuous
 62
     7
370
    25
100
AcDbLine
 10
32.214674472
 20
20.6351360638
 30
0.0
 11
32.214674472
 21
20.6578587128
 31
0.0
  0
LINE
  5
199
330
1F
100
AcDbEntity
  8
0
  6
Continuous
 62
     7
370
    25
100
AcDbLine
 10
32.214674472
 20
20.7882374661
 30
0.0
 11
32.214674472
 21
20.8109601151
 31
0.0
  0
LINE
  5
19A
330
1F
100
AcDbEntity
  8
0
  6
Continuous
 62
     7
370
    25
100
AcDbLine
 10
32.214674472
 20
20.9413388683
 30
0.0
 11
32.214674472
 21
20.9640615173
 31
0.0
  0
LINE
  5
19B
330
1F
100
AcDbEntity
  8
0
  6
Continuous
 62
     7
370
    25
100
AcDbLine
 10
32.214674472
 20
21.0944402705
 30
0.0
 11
32.214674472
 21
21.1171629195
 31
0.0
  0
LINE
  5
19C
330
1F
100
AcDbEntity
  8
0
  6
Continuous
 62
     7
370
    25
100
AcDbLine
 10
32.214674472
 20
21.2475416727
 30
0.0
 11
32.214674472
 21
21.2702643217
 31
0.0
  0
LINE
  5
19D
330
1F
100
AcDbEntity
  8
0
  6
Continuous
 62
     7
370
    25
100
AcDbLine
 10
32.214674472
 20
21.400643075
 30
0.0
 11
32.214674472
 21
21.423365724
 31
0.0
  0
LINE
  5
19E
330
1F
100
AcDbEntity
  8
0
  6
Continuous
 62
     7
370
    25
100
AcDbLine
 10
32.214674472
 20
21.5537444772
 30
0.0
 11
32.214674472
 21
21.5764671262
 31
0.0
  0
LINE
  5
19F
330
1F
100
AcDbEntity
  8
0
  6
Continuous
 62
     7
370
    25
100
AcDbLine
 10
32.1262861244
 20
20.5330601686
 30
0.0
 11
32.1262861244
 21
20.5557828176
 31
0.0
  0
LINE
  5
1A0
330
1F
100
AcDbEntity
  8
0
  6
Continuous
 62
     7
370
    25
100
AcDbLine
 10
32.1262861244
 20
20.6861615708
 30
0.0
 11
32.1262861244
 21
20.7088842198
 31
0.0
  0
LINE
  5
1A1
330
1F
100
AcDbEntity
  8
0
  6
Continuous
 62
     7
370
    25
100
AcDbLine
 10
32.1262861244
 20
20.839262973
 30
0.0
 11
32.1262861244
 21
20.861985622
 31
0.0
  0
LINE
  5
1A2
330
1F
100
AcDbEntity
  8
0
  6
Continuous
 62
     7
370
    25
100
AcDbLine
 10
32.1262861244
 20
20.9923643753
 30
0.0
 11
32.1262861244
 21
21.0150870243
 31
0.0
  0
LINE
  5
1A3
330
1F
100
AcDbEntity
  8
0
  6
Continuous
 62
     7
370
    25
100
AcDbLine
 10
32.1262861244
 20
21.1454657775
 30
0.0
 11
32.1262861244
 21
21.1681884265
 31
0.0
  0
LINE
  5
1A4
330
1F
100
AcDbEntity
  8
0
  6
Continuous
 62
     7
370
    25
100
AcDbLine
 10
32.1262861244
 20
21.2985671797
 30
0.0
 11
32.1262861244
 21
21.3212898287
 31
0.0
  0
LINE
  5
1A5
330
1F
100
AcDbEntity
  8
0
  6
Continuous
 62
     7
370
    25
100
AcDbLine
 10
32.1262861244
 20
21.451668582
 30
0.0
 11
32.1262861244
 21
21.474391231
 31
0.0
  0
LINE
  5
1A6
330
1F
100
AcDbEntity
  8
0
  6
Continuous
 62
     7
370
    25
100
AcDbLine
 10
32.1262861244
 20
21.6047699842
 30
0.0
 11
32.1262861244
 21
21.6274926332
 31
0.0
  0
LINE
  5
1A7
330
1F
100
AcDbEntity
  8
0
  6
Continuous
 62
     7
370
    25
100
AcDbLine
 10
32.0378977767
 20
20.5961868794
 30
0.0
 11
32.0378977767
 21
20.6068083246
 31
0.0
  0
LINE
  5
1A8
330
1F
100
AcDbEntity
  8
0
  6
Continuous
 62
     7
370
    25
100
AcDbLine
 10
32.0378977767
 20
20.7371870778
 30
0.0
 11
32.0378977767
 21
20.7599097268
 31
0.0
  0
LINE
  5
1A9
330
1F
100
AcDbEntity
  8
0
  6
Continuous
 62
     7
370
    25
100
AcDbLine
 10
32.0378977767
 20
20.89028848
 30
0.0
 11
32.0378977767
 21
20.913011129
 31
0.0
  0
LINE
  5
1AA
330
1F
100
AcDbEntity
  8
0
  6
Continuous
 62
     7
370
    25
100
AcDbLine
 10
32.0378977767
 20
21.0433898823
 30
0.0
 11
32.0378977767
 21
21.0661125313
 31
0.0
  0
LINE
  5
1AB
330
1F
100
AcDbEntity
  8
0
  6
Continuous
 62
     7
370
    25
100
AcDbLine
 10
32.0378977767
 20
21.1964912845
 30
0.0
 11
32.0378977767
 21
21.2192139335
 31
0.0
  0
LINE
  5
1AC
330
1F
100
AcDbEntity
  8
0
  6
Continuous
 62
     7
370
    25
100
AcDbLine
 10
32.0378977767
 20
21.3495926867
 30
0.0
 11
32.0378977767
 21
21.3723153357
 31
0.0
  0
LINE
  5
1AD
330
1F
100
AcDbEntity
  8
0
  6
Continuous
 62
     7
370
    25
100
AcDbLine
 10
32.0378977767
 20
21.5026940889
 30
0.0
 11
32.0378977767
 21
21.525416738
 31
0.0
  0
LINE
  5
1AE
330
1F
100
AcDbEntity
  8
0
  6
Continuous
 62
     7
370
    25
100
AcDbLine
 10
32.0378977767
 20
21.6557954912
 30
0.0
 11
32.0378977767
 21
21.6785181402
 31
0.0
  0
LINE
  5
1AF
330
1F
100
AcDbEntity
  8
0
  6
Continuous
 62
     7
370
    25
100
AcDbLine
 10
31.9495094291
 20
20.7922249317
 30
0.0
 11
31.9495094291
 21
20.8109352338
 31
0.0
  0
LINE
  5
1B0
330
1F
100
AcDbEntity
  8
0
  6
Continuous
 62
     7
370
    25
100
AcDbLine
 10
31.9495094291
 20
20.9453263339
 30
0.0
 11
31.9495094291
 21
20.964036636
 31
0.0
  0
LINE
  5
1B1
330
1F
100
AcDbEntity
  8
0
  6
Continuous
 62
     7
370
    25
100
AcDbLine
 10
31.9495094291
 20
21.0984277361
 30
0.0
 11
31.9495094291
 21
21.1171380383
 31
0.0
  0
LINE
  5
1B2
330
1F
100
AcDbEntity
  8
0
  6
Continuous
 62
     7
370
    25
100
AcDbLine
 10
31.9495094291
 20
21.2515291384
 30
0.0
 11
31.9495094291
 21
21.2702394405
 31
0.0
  0
LINE
  5
1B3
330
1F
100
AcDbEntity
  8
0
  6
Continuous
 62
     7
370
    25
100
AcDbLine
 10
31.9495094291
 20
21.4046305406
 30
0.0
 11
31.9495094291
 21
21.4233408427
 31
0.0
  0
LINE
  5
1B4
330
1F
100
AcDbEntity
  8
0
  6
Continuous
 62
     7
370
    25
100
AcDbLine
 10
31.9495094291
 20
21.5577319428
 30
0.0
 11
31.9495094291
 21
21.5764422449
 31
0.0
  0
LINE
  5
1B5
330
1F
100
AcDbEntity
  8
0
  6
Continuous
 62
     7
370
    25
100
AcDbLine
 10
31.9495094291
 20
21.7108333451
 30
0.0
 11
31.9495094291
 21
21.7159226432
 31
0.0
  0
ARC
  5
1B6
330
1F
100
AcDbEntity
  8
0
  6
Continuous
 62
     7
370
    25
100
AcDbCircle
 10
15.9932055669
 20
5.9598678007
 30
0.0
 40
0.0300000000000002
100
AcDbArc
 50
180.0
 51
270.0
  0
LINE
  5
1B7
330
1F
100
AcDbEntity
  8
0
  6
Continuous
 62
     7
370
    25
100
AcDbLine
 10
15.9632055669
 20
5.9598678007
 30
0.0
 11
15.9632055669
 21
9.1498678007
 31
0.0
  0
ARC
  5
1B8
330
1F
100
AcDbEntity
  8
0
  6
Continuous
 62
     7
370
    25
100
AcDbCircle
 10
15.9932055669
 20
9.1498678007
 30
0.0
 40
0.0300000000000011
100
AcDbArc
 50
90.0
 51
180.0
  0
LINE
  5
1B9
330
1F
100
AcDbEntity
  8
0
  6
Continuous
 62
     7
370
    25
100
AcDbLine
 10
15.9932055669
 20
9.1798678007
 30
0.0
 11
20.9332055669
 21
9.1798678007
 31
0.0
  0
ARC
  5
1BA
330
1F
100
AcDbEntity
  8
0
  6
Continuous
 62
     7
370
    25
100
AcDbCircle
 10
20.9332055669
 20
9.1498678007
 30
0.0
 40
0.0300000000000047
100
AcDbArc
 50
0.0
 51
90.0
  0
LINE
  5
1BB
330
1F
100
AcDbEntity
  8
0
  6
Continuous
 62
     7
370
    25
100
AcDbLine
 10
20.9632055669
 20
9.1498678007
 30
0.0
 11
20.9632055669
 21
5.9598678007
 31
0.0
  0
ARC
  5
1BC
330
1F
100
AcDbEntity
  8
0
  6
Continuous
 62
     7
370
    25
100
AcDbCircle
 10
20.9332055669
 20
5.9598678007
 30
0.0
 40
0.0300000000000047
100
AcDbArc
 50
270.0
 51
0.0
  0
LINE
  5
1BD
330
1F
100
AcDbEntity
  8
0
  6
Continuous
 62
     7
370
    25
100
AcDbLine
 10
20.9332055669
 20
5.9298678007
 30
0.0
 11
15.9932055669
 21
5.9298678007
 31
0.0
  0
CIRCLE
  5
1BE
330
1F
100
AcDbEntity
  8
0
  6
Continuous
 62
     7
370
    25
100
AcDbCircle
 10
16.8067055669
 20
7.5548678007
 30
0.0
 40
0.2050000000000018
  0
CIRCLE
  5
1BF
330
1F
100
AcDbEntity
  8
0
  6
Continuous
 62
     7
370
    25
100
AcDbCircle
 10
20.1197055669
 20
7.5548678007
 30
0.0
 40
0.2049999999999983
  0
LINE
  5
1C0
330
1F
100
AcDbEntity
  8
0
  6
Continuous
 62
     7
370
    25
100
AcDbLine
 10
17.9307055669
 20
8.2384678007
 30
0.0
 11
18.9957055669
 21
8.2384678007
 31
0.0
  0
SPLINE
  5
1C1
330
1F
100
AcDbEntity
  8
0
  6
Continuous
 62
     7
370
    25
100
AcDbSpline
210
0.0
220
0.0
230
1.0
 70
     8
 71
     3
 72
    26
 73
    22
 74
     0
 42
0.00000001
 43
0.00000001
 40
0.0
 40
0.0
 40
0.0
 40
0.0
 40
0.1249999999999996
 40
0.1249999999999996
 40
0.1874999999999996
 40
0.1874999999999996
 40
0.2499999999999996
 40
0.2499999999999996
 40
0.3124999999999995
 40
0.3124999999999995
 40
0.3749999999999995
 40
0.3749999999999995
 40
0.5000000000000004
 40
0.5000000000000004
 40
0.6250000000000003
 40
0.6250000000000003
 40
0.7500000000000002
 40
0.7500000000000002
 40
0.8750000000000002
 40
0.8750000000000002
 40
1.0
 40
1.0
 40
1.0
 40
1.0
 10
17.93070556693914
 20
8.11346780071602
 30
0.0
 10
17.92246794192737
 20
8.11346780071602
 30
0.0
 10
17.9145184838325
 20
8.115042056611543
 30
0.0
 10
17.90310455219205
 20
8.119741797181375
 30
0.0
 10
17.89951408992652
 20
8.121655312892312
 30
0.0
 10
17.89274550118927
 20
8.126150253806378
 30
0.0
 10
17.88953619611757
 20
8.128765968033937
 30
0.0
 10
17.88374361959748
 20
8.13452500153124
 30
0.0
 10
17.88115737192973
 20
8.137655413601458
 30
0.0
 10
17.87660119944078
 20
8.144414987010906
 30
0.0
 10
17.87463109167061
 20
8.148067309612767
 30
0.0
 10
17.86991750733474
 20
8.159318520512155
 30
0.0
 10
17.86824956383404
 20
8.167515374080434
 30
0.0
 10
17.86816333190618
 20
8.183756553952337
 30
0.0
 10
17.86974438963518
 20
8.19201198512115
 30
0.0
 10
17.87595776552845
 20
8.20721454826207
 30
0.0
 10
17.88058859486209
 20
8.214204224015413
 30
0.0
 10
17.89217163756124
 20
8.225856389026388
 30
0.0
 10
17.89912559274631
 20
8.230526464016517
 30
0.0
 10
17.91432106764377
 20
8.236840542513944
 30
0.0
 10
17.92246794192737
 20
8.238467800716021
 30
0.0
 10
17.93070556693914
 20
8.238467800716021
 30
0.0
  0
LINE
  5
1C2
330
1F
100
AcDbEntity
  8
0
  6
Continuous
 62
     7
370
    25
100
AcDbLine
 10
18.9957055669
 20
8.1134678007
 30
0.0
 11
17.9307055669
 21
8.1134678007
 31
0.0
  0
SPLINE
  5
1C3
330
1F
100
AcDbEntity
  8
0
  6
Continuous
 62
     7
370
    25
100
AcDbSpline
210
0.0
220
0.0
230
1.0
 70
     8
 71
     3
 72
    22
 73
    18
 74
     0
 42
0.00000001
 43
0.00000001
 40
0.0
 40
0.0
 40
0.0
 40
0.0
 40
0.1250000000000006
 40
0.1250000000000006
 40
0.2500000000000011
 40
0.2500000000000011
 40
0.3750000000000017
 40
0.3750000000000017
 40
0.5000000000000022
 40
0.5000000000000022
 40
0.6250000000000017
 40
0.6250000000000017
 40
0.7500000000000011
 40
0.7500000000000011
 40
0.8750000000000006
 40
0.8750000000000006
 40
1.0
 40
1.0
 40
1.0
 40
1.0
 10
18.99570556693914
 20
8.238467800716018
 30
0.0
 10
19.00390975193701
 20
8.238467800716018
 30
0.0
 10
19.01206848732512
 20
8.236840505641789
 30
0.0
 10
19.02719028186402
 20
8.23057498059776
 30
0.0
 10
19.03413019259402
 20
8.225934368575295
 30
0.0
 10
19.04569105939201
 20
8.214367804682137
 30
0.0
 10
19.05032426250013
 20
8.207436429604828
 30
0.0
 10
19.05659294436539
 20
8.192283553198784
 30
0.0
 10
19.05821112968637
 20
8.184104816990933
 30
0.0
 10
19.05819997513451
 20
8.167745553303257
 30
0.0
 10
19.05656483290477
 20
8.15955731603972
 30
0.0
 10
19.05029218732586
 20
8.144448677378872
 30
0.0
 10
19.04565716332862
 20
8.137518873980078
 30
0.0
 10
19.03404908824586
 20
8.125935248084717
 30
0.0
 10
19.02710934005192
 20
8.121315134844112
 30
0.0
 10
19.01199267455877
 20
8.115075757081305
 30
0.0
 10
19.00390975193701
 20
8.11346780071602
 30
0.0
 10
18.99570556693914
 20
8.11346780071602
 30
0.0
  0
LINE
  5
1C4
330
1F
100
AcDbEntity
  8
0
  6
Continuous
 62
     7
370
    25
100
AcDbLine
 10
18.9957055669
 20
7.9259678007
 30
0.0
 11
17.9307055669
 21
7.9259678007
 31
0.0
  0
SPLINE
  5
1C5
330
1F
100
AcDbEntity
  8
0
  6
Continuous
 62
     7
370
    25
100
AcDbSpline
210
0.0
220
0.0
230
1.0
 70
     8
 71
     3
 72
    22
 73
    18
 74
     0
 42
0.00000001
 43
0.00000001
 40
0.0
 40
0.0
 40
0.0
 40
0.0
 40
0.125
 40
0.125
 40
0.25
 40
0.25
 40
0.375
 40
0.375
 40
0.5
 40
0.5
 40
0.625
 40
0.625
 40
0.75
 40
0.75
 40
0.875
 40
0.875
 40
1.0
 40
1.0
 40
1.0
 40
1.0
 10
18.99570556693914
 20
8.05096780071602
 30
0.0
 10
19.00390975193701
 20
8.05096780071602
 30
0.0
 10
19.01206848732512
 20
8.049340505641794
 30
0.0
 10
19.02719028186402
 20
8.043074980597765
 30
0.0
 10
19.03413019259402
 20
8.0384343685753
 30
0.0
 10
19.04569105939201
 20
8.02686780468214
 30
0.0
 10
19.05032426250013
 20
8.019936429604831
 30
0.0
 10
19.05659294436539
 20
8.004783553198786
 30
0.0
 10
19.05821112968637
 20
7.996604816990938
 30
0.0
 10
19.05819997513451
 20
7.980245553303258
 30
0.0
 10
19.05656483290477
 20
7.972057316039722
 30
0.0
 10
19.05029218732586
 20
7.956948677378873
 30
0.0
 10
19.04565716332861
 20
7.95001887398008
 30
0.0
 10
19.03404908824586
 20
7.938435248084721
 30
0.0
 10
19.02710934005191
 20
7.933815134844116
 30
0.0
 10
19.01199267455877
 20
7.927575757081311
 30
0.0
 10
19.00390975193701
 20
7.925967800716021
 30
0.0
 10
18.99570556693914
 20
7.925967800716021
 30
0.0
  0
LINE
  5
1C6
330
1F
100
AcDbEntity
  8
0
  6
Continuous
 62
     7
370
    25
100
AcDbLine
 10
17.9307055669
 20
8.0509678007
 30
0.0
 11
18.9957055669
 21
8.0509678007
 31
0.0
  0
SPLINE
  5
1C7
330
1F
100
AcDbEntity
  8
0
  6
Continuous
 62
     7
370
    25
100
AcDbSpline
210
0.0
220
0.0
230
1.0
 70
     8
 71
     3
 72
    26
 73
    22
 74
     0
 42
0.00000001
 43
0.00000001
 40
0.0
 40
0.0
 40
0.0
 40
0.0
 40
0.1250000000000011
 40
0.1250000000000011
 40
0.1875000000000011
 40
0.1875000000000011
 40
0.2500000000000012
 40
0.2500000000000012
 40
0.3125000000000013
 40
0.3125000000000013
 40
0.3750000000000013
 40
0.3750000000000013
 40
0.500000000000001
 40
0.500000000000001
 40
0.6250000000000008
 40
0.6250000000000008
 40
0.7500000000000004
 40
0.7500000000000004
 40
0.8750000000000002
 40
0.8750000000000002
 40
1.0
 40
1.0
 40
1.0
 40
1.0
 10
17.93070556693914
 20
7.925967800716021
 30
0.0
 10
17.92246794192737
 20
7.925967800716021
 30
0.0
 10
17.9145184838325
 20
7.927542056611548
 30
0.0
 10
17.90310455219206
 20
7.93224179718138
 30
0.0
 10
17.89951408992652
 20
7.934155312892318
 30
0.0
 10
17.89274550118927
 20
7.938650253806382
 30
0.0
 10
17.88953619611758
 20
7.941265968033939
 30
0.0
 10
17.88374361959748
 20
7.947025001531243
 30
0.0
 10
17.88115737192973
 20
7.950155413601459
 30
0.0
 10
17.87660119944079
 20
7.956914987010909
 30
0.0
 10
17.87463109167062
 20
7.960567309612766
 30
0.0
 10
17.86991750733474
 20
7.971818520512155
 30
0.0
 10
17.86824956383404
 20
7.980015374080435
 30
0.0
 10
17.86816333190618
 20
7.99625655395234
 30
0.0
 10
17.86974438963518
 20
8.004511985121153
 30
0.0
 10
17.87595776552845
 20
8.019714548262074
 30
0.0
 10
17.88058859486209
 20
8.026704224015418
 30
0.0
 10
17.89217163756124
 20
8.038356389026394
 30
0.0
 10
17.89912559274631
 20
8.043026464016524
 30
0.0
 10
17.91432106764377
 20
8.049340542513953
 30
0.0
 10
17.92246794192737
 20
8.050967800716023
 30
0.0
 10
17.93070556693914
 20
8.050967800716025
 30
0.0
  0
LINE
  5
1C8
330
1F
100
AcDbEntity
  8
0
  6
Continuous
 62
     7
370
    25
100
AcDbLine
 10
17.9307055669
 20
7.8634678007
 30
0.0
 11
18.9957055669
 21
7.8634678007
 31
0.0
  0
SPLINE
  5
1C9
330
1F
100
AcDbEntity
  8
0
  6
Continuous
 62
     7
370
    25
100
AcDbSpline
210
0.0
220
0.0
230
1.0
 70
     8
 71
     3
 72
    26
 73
    22
 74
     0
 42
0.00000001
 43
0.00000001
 40
0.0
 40
0.0
 40
0.0
 40
0.0
 40
0.1250000000000003
 40
0.1250000000000003
 40
0.1875000000000004
 40
0.1875000000000004
 40
0.2500000000000006
 40
0.2500000000000006
 40
0.3125000000000008
 40
0.3125000000000008
 40
0.3750000000000009
 40
0.3750000000000009
 40
0.5000000000000007
 40
0.5000000000000007
 40
0.6250000000000006
 40
0.6250000000000006
 40
0.7500000000000003
 40
0.7500000000000003
 40
0.8750000000000002
 40
0.8750000000000002
 40
1.0
 40
1.0
 40
1.0
 40
1.0
 10
17.93070556693914
 20
7.73846780071602
 30
0.0
 10
17.92246794192737
 20
7.73846780071602
 30
0.0
 10
17.9145184838325
 20
7.740042056611548
 30
0.0
 10
17.90310455219206
 20
7.74474179718138
 30
0.0
 10
17.89951408992652
 20
7.746655312892316
 30
0.0
 10
17.89274550118927
 20
7.751150253806382
 30
0.0
 10
17.88953619611758
 20
7.753765968033939
 30
0.0
 10
17.88374361959748
 20
7.75952500153124
 30
0.0
 10
17.88115737192973
 20
7.762655413601458
 30
0.0
 10
17.87660119944079
 20
7.769414987010908
 30
0.0
 10
17.87463109167062
 20
7.773067309612766
 30
0.0
 10
17.86991750733474
 20
7.784318520512154
 30
0.0
 10
17.86824956383404
 20
7.792515374080432
 30
0.0
 10
17.86816333190618
 20
7.808756553952337
 30
0.0
 10
17.86974438963518
 20
7.817011985121152
 30
0.0
 10
17.87595776552845
 20
7.832214548262073
 30
0.0
 10
17.88058859486209
 20
7.839204224015417
 30
0.0
 10
17.89217163756124
 20
7.850856389026393
 30
0.0
 10
17.89912559274631
 20
7.855526464016522
 30
0.0
 10
17.91432106764377
 20
7.861840542513951
 30
0.0
 10
17.92246794192737
 20
7.863467800716023
 30
0.0
 10
17.93070556693914
 20
7.863467800716025
 30
0.0
  0
LINE
  5
1CA
330
1F
100
AcDbEntity
  8
0
  6
Continuous
 62
     7
370
    25
100
AcDbLine
 10
18.9957055669
 20
7.7384678007
 30
0.0
 11
17.9307055669
 21
7.7384678007
 31
0.0
  0
SPLINE
  5
1CB
330
1F
100
AcDbEntity
  8
0
  6
Continuous
 62
     7
370
    25
100
AcDbSpline
210
0.0
220
0.0
230
1.0
 70
     8
 71
     3
 72
    22
 73
    18
 74
     0
 42
0.00000001
 43
0.00000001
 40
0.0
 40
0.0
 40
0.0
 40
0.0
 40
0.125
 40
0.125
 40
0.25
 40
0.25
 40
0.375
 40
0.375
 40
0.5
 40
0.5
 40
0.625
 40
0.625
 40
0.75
 40
0.75
 40
0.875
 40
0.875
 40
1.0
 40
1.0
 40
1.0
 40
1.0
 10
18.99570556693914
 20
7.863467800716021
 30
0.0
 10
19.00390975193701
 20
7.863467800716021
 30
0.0
 10
19.01206848732512
 20
7.861840505641795
 30
0.0
 10
19.02719028186402
 20
7.855574980597766
 30
0.0
 10
19.03413019259402
 20
7.8509343685753
 30
0.0
 10
19.04569105939201
 20
7.839367804682141
 30
0.0
 10
19.05032426250013
 20
7.83243642960483
 30
0.0
 10
19.05659294436539
 20
7.817283553198784
 30
0.0
 10
19.05821112968637
 20
7.809104816990935
 30
0.0
 10
19.05819997513451
 20
7.792745553303256
 30
0.0
 10
19.05656483290476
 20
7.784557316039719
 30
0.0
 10
19.05029218732586
 20
7.769448677378872
 30
0.0
 10
19.04565716332861
 20
7.76251887398008
 30
0.0
 10
19.03404908824586
 20
7.750935248084722
 30
0.0
 10
19.02710934005191
 20
7.746315134844117
 30
0.0
 10
19.01199267455877
 20
7.740075757081312
 30
0.0
 10
19.00390975193701
 20
7.73846780071602
 30
0.0
 10
18.99570556693914
 20
7.73846780071602
 30
0.0
  0
LINE
  5
1CC
330
1F
100
AcDbEntity
  8
0
  6
Continuous
 62
     7
370
    25
100
AcDbLine
 10
18.9957055669
 20
7.5509678007
 30
0.0
 11
17.9307055669
 21
7.5509678007
 31
0.0
  0
SPLINE
  5
1CD
330
1F
100
AcDbEntity
  8
0
  6
Continuous
 62
     7
370
    25
100
AcDbSpline
210
0.0
220
0.0
230
1.0
 70
     8
 71
     3
 72
    22
 73
    18
 74
     0
 42
0.00000001
 43
0.00000001
 40
0.0
 40
0.0
 40
0.0
 40
0.0
 40
0.1249999999999999
 40
0.1249999999999999
 40
0.2499999999999998
 40
0.2499999999999998
 40
0.3749999999999997
 40
0.3749999999999997
 40
0.4999999999999997
 40
0.4999999999999997
 40
0.6249999999999997
 40
0.6249999999999997
 40
0.7499999999999998
 40
0.7499999999999998
 40
0.8749999999999999
 40
0.8749999999999999
 40
1.0
 40
1.0
 40
1.0
 40
1.0
 10
18.99570556693914
 20
7.675967800716021
 30
0.0
 10
19.00390975193701
 20
7.675967800716021
 30
0.0
 10
19.01206848732512
 20
7.6743405056418
 30
0.0
 10
19.02719028186402
 20
7.668074980597771
 30
0.0
 10
19.03413019259402
 20
7.663434368575304
 30
0.0
 10
19.04569105939201
 20
7.651867804682145
 30
0.0
 10
19.05032426250013
 20
7.644936429604834
 30
0.0
 10
19.05659294436539
 20
7.629783553198788
 30
0.0
 10
19.05821112968637
 20
7.621604816990937
 30
0.0
 10
19.05819997513451
 20
7.605245553303259
 30
0.0
 10
19.05656483290476
 20
7.597057316039722
 30
0.0
 10
19.05029218732585
 20
7.581948677378874
 30
0.0
 10
19.04565716332861
 20
7.575018873980085
 30
0.0
 10
19.03404908824586
 20
7.563435248084726
 30
0.0
 10
19.02710934005191
 20
7.558815134844123
 30
0.0
 10
19.01199267455877
 20
7.552575757081318
 30
0.0
 10
19.00390975193701
 20
7.550967800716022
 30
0.0
 10
18.99570556693914
 20
7.550967800716022
 30
0.0
  0
LINE
  5
1CE
330
1F
100
AcDbEntity
  8
0
  6
Continuous
 62
     7
370
    25
100
AcDbLine
 10
17.9307055669
 20
7.6759678007
 30
0.0
 11
18.9957055669
 21
7.6759678007
 31
0.0
  0
SPLINE
  5
1CF
330
1F
100
AcDbEntity
  8
0
  6
Continuous
 62
     7
370
    25
100
AcDbSpline
210
0.0
220
0.0
230
1.0
 70
     8
 71
     3
 72
    26
 73
    22
 74
     0
 42
0.00000001
 43
0.00000001
 40
0.0
 40
0.0
 40
0.0
 40
0.0
 40
0.1249999999999994
 40
0.1249999999999994
 40
0.1874999999999996
 40
0.1874999999999996
 40
0.2499999999999998
 40
0.2499999999999998
 40
0.3125
 40
0.3125
 40
0.3750000000000001
 40
0.3750000000000001
 40
0.5000000000000001
 40
0.5000000000000001
 40
0.6250000000000001
 40
0.6250000000000001
 40
0.75
 40
0.75
 40
0.875
 40
0.875
 40
1.0
 40
1.0
 40
1.0
 40
1.0
 10
17.93070556693914
 20
7.550967800716022
 30
0.0
 10
17.92246794192737
 20
7.550967800716022
 30
0.0
 10
17.9145184838325
 20
7.552542056611551
 30
0.0
 10
17.90310455219206
 20
7.557241797181383
 30
0.0
 10
17.89951408992652
 20
7.559155312892321
 30
0.0
 10
17.89274550118927
 20
7.563650253806384
 30
0.0
 10
17.88953619611758
 20
7.566265968033941
 30
0.0
 10
17.88374361959748
 20
7.572025001531244
 30
0.0
 10
17.88115737192973
 20
7.575155413601461
 30
0.0
 10
17.87660119944079
 20
7.581914987010911
 30
0.0
 10
17.87463109167062
 20
7.585567309612768
 30
0.0
 10
17.86991750733474
 20
7.596818520512156
 30
0.0
 10
17.86824956383404
 20
7.605015374080434
 30
0.0
 10
17.86816333190618
 20
7.621256553952339
 30
0.0
 10
17.86974438963518
 20
7.629511985121153
 30
0.0
 10
17.87595776552845
 20
7.644714548262075
 30
0.0
 10
17.88058859486209
 20
7.651704224015418
 30
0.0
 10
17.89217163756124
 20
7.663356389026395
 30
0.0
 10
17.89912559274631
 20
7.668026464016524
 30
0.0
 10
17.91432106764377
 20
7.674340542513955
 30
0.0
 10
17.92246794192737
 20
7.675967800716025
 30
0.0
 10
17.93070556693914
 20
7.675967800716026
 30
0.0
  0
LINE
  5
1D0
330
1F
100
AcDbEntity
  8
0
  6
Continuous
 62
     7
370
    25
100
AcDbLine
 10
17.9307055669
 20
7.4884678007
 30
0.0
 11
18.9957055669
 21
7.4884678007
 31
0.0
  0
SPLINE
  5
1D1
330
1F
100
AcDbEntity
  8
0
  6
Continuous
 62
     7
370
    25
100
AcDbSpline
210
0.0
220
0.0
230
1.0
 70
     8
 71
     3
 72
    26
 73
    22
 74
     0
 42
0.00000001
 43
0.00000001
 40
0.0
 40
0.0
 40
0.0
 40
0.0
 40
0.1250000000000012
 40
0.1250000000000012
 40
0.1875000000000014
 40
0.1875000000000014
 40
0.2500000000000016
 40
0.2500000000000016
 40
0.3125000000000017
 40
0.3125000000000017
 40
0.3750000000000019
 40
0.3750000000000019
 40
0.5000000000000016
 40
0.5000000000000016
 40
0.6250000000000011
 40
0.6250000000000011
 40
0.7500000000000008
 40
0.7500000000000008
 40
0.8750000000000003
 40
0.8750000000000003
 40
1.0
 40
1.0
 40
1.0
 40
1.0
 10
17.93070556693914
 20
7.363467800716023
 30
0.0
 10
17.92246794192737
 20
7.363467800716023
 30
0.0
 10
17.9145184838325
 20
7.365042056611549
 30
0.0
 10
17.90310455219206
 20
7.369741797181381
 30
0.0
 10
17.89951408992652
 20
7.371655312892318
 30
0.0
 10
17.89274550118927
 20
7.376150253806383
 30
0.0
 10
17.88953619611758
 20
7.378765968033941
 30
0.0
 10
17.88374361959748
 20
7.384525001531242
 30
0.0
 10
17.88115737192973
 20
7.387655413601461
 30
0.0
 10
17.87660119944078
 20
7.394414987010911
 30
0.0
 10
17.87463109167062
 20
7.398067309612768
 30
0.0
 10
17.86991750733474
 20
7.409318520512157
 30
0.0
 10
17.86824956383404
 20
7.417515374080435
 30
0.0
 10
17.86816333190618
 20
7.433756553952342
 30
0.0
 10
17.86974438963518
 20
7.442011985121154
 30
0.0
 10
17.87595776552845
 20
7.457214548262075
 30
0.0
 10
17.88058859486209
 20
7.464204224015418
 30
0.0
 10
17.89217163756124
 20
7.475856389026394
 30
0.0
 10
17.89912559274631
 20
7.480526464016523
 30
0.0
 10
17.91432106764377
 20
7.486840542513953
 30
0.0
 10
17.92246794192737
 20
7.488467800716026
 30
0.0
 10
17.93070556693914
 20
7.488467800716027
 30
0.0
  0
LINE
  5
1D2
330
1F
100
AcDbEntity
  8
0
  6
Continuous
 62
     7
370
    25
100
AcDbLine
 10
18.9957055669
 20
7.3634678007
 30
0.0
 11
17.9307055669
 21
7.3634678007
 31
0.0
  0
SPLINE
  5
1D3
330
1F
100
AcDbEntity
  8
0
  6
Continuous
 62
     7
370
    25
100
AcDbSpline
210
0.0
220
0.0
230
1.0
 70
     8
 71
     3
 72
    22
 73
    18
 74
     0
 42
0.00000001
 43
0.00000001
 40
0.0
 40
0.0
 40
0.0
 40
0.0
 40
0.1250000000000001
 40
0.1250000000000001
 40
0.2500000000000002
 40
0.2500000000000002
 40
0.3750000000000002
 40
0.3750000000000002
 40
0.5000000000000003
 40
0.5000000000000003
 40
0.6250000000000004
 40
0.6250000000000004
 40
0.7500000000000002
 40
0.7500000000000002
 40
0.8750000000000001
 40
0.8750000000000001
 40
1.0
 40
1.0
 40
1.0
 40
1.0
 10
18.99570556693914
 20
7.488467800716022
 30
0.0
 10
19.00390975193701
 20
7.488467800716022
 30
0.0
 10
19.01206848732512
 20
7.486840505641799
 30
0.0
 10
19.02719028186402
 20
7.480574980597769
 30
0.0
 10
19.03413019259402
 20
7.475934368575303
 30
0.0
 10
19.04569105939201
 20
7.464367804682145
 30
0.0
 10
19.05032426250013
 20
7.457436429604834
 30
0.0
 10
19.05659294436539
 20
7.442283553198789
 30
0.0
 10
19.05821112968637
 20
7.434104816990939
 30
0.0
 10
19.05819997513451
 20
7.417745553303258
 30
0.0
 10
19.05656483290476
 20
7.409557316039723
 30
0.0
 10
19.05029218732586
 20
7.394448677378874
 30
0.0
 10
19.04565716332861
 20
7.387518873980083
 30
0.0
 10
19.03404908824586
 20
7.375935248084724
 30
0.0
 10
19.02710934005191
 20
7.371315134844121
 30
0.0
 10
19.01199267455877
 20
7.365075757081315
 30
0.0
 10
19.00390975193701
 20
7.363467800716023
 30
0.0
 10
18.99570556693914
 20
7.363467800716023
 30
0.0
  0
LINE
  5
1D4
330
1F
100
AcDbEntity
  8
0
  6
Continuous
 62
     7
370
    25
100
AcDbLine
 10
18.9957055669
 20
6.9884678007
 30
0.0
 11
17.9307055669
 21
6.9884678007
 31
0.0
  0
SPLINE
  5
1D5
330
1F
100
AcDbEntity
  8
0
  6
Continuous
 62
     7
370
    25
100
AcDbSpline
210
0.0
220
0.0
230
1.0
 70
     8
 71
     3
 72
    22
 73
    18
 74
     0
 42
0.00000001
 43
0.00000001
 40
0.0
 40
0.0
 40
0.0
 40
0.0
 40
0.125
 40
0.125
 40
0.25
 40
0.25
 40
0.375
 40
0.375
 40
0.5
 40
0.5
 40
0.625
 40
0.625
 40
0.75
 40
0.75
 40
0.875
 40
0.875
 40
1.0
 40
1.0
 40
1.0
 40
1.0
 10
18.99570556693914
 20
7.113467800716025
 30
0.0
 10
19.00390975193701
 20
7.113467800716025
 30
0.0
 10
19.01206848732512
 20
7.1118405056418
 30
0.0
 10
19.02719028186402
 20
7.105574980597771
 30
0.0
 10
19.03413019259402
 20
7.100934368575305
 30
0.0
 10
19.04569105939201
 20
7.089367804682146
 30
0.0
 10
19.05032426250013
 20
7.082436429604836
 30
0.0
 10
19.05659294436539
 20
7.067283553198791
 30
0.0
 10
19.05821112968637
 20
7.059104816990941
 30
0.0
 10
19.05819997513451
 20
7.042745553303262
 30
0.0
 10
19.05656483290476
 20
7.034557316039725
 30
0.0
 10
19.05029218732586
 20
7.019448677378876
 30
0.0
 10
19.04565716332861
 20
7.012518873980084
 30
0.0
 10
19.03404908824586
 20
7.000935248084725
 30
0.0
 10
19.02710934005191
 20
6.996315134844122
 30
0.0
 10
19.01199267455877
 20
6.990075757081316
 30
0.0
 10
19.00390975193701
 20
6.988467800716025
 30
0.0
 10
18.99570556693914
 20
6.988467800716025
 30
0.0
  0
LINE
  5
1D6
330
1F
100
AcDbEntity
  8
0
  6
Continuous
 62
     7
370
    25
100
AcDbLine
 10
17.9307055669
 20
7.1134678007
 30
0.0
 11
18.9957055669
 21
7.1134678007
 31
0.0
  0
SPLINE
  5
1D7
330
1F
100
AcDbEntity
  8
0
  6
Continuous
 62
     7
370
    25
100
AcDbSpline
210
0.0
220
0.0
230
1.0
 70
     8
 71
     3
 72
    26
 73
    22
 74
     0
 42
0.00000001
 43
0.00000001
 40
0.0
 40
0.0
 40
0.0
 40
0.0
 40
0.1249999999999991
 40
0.1249999999999991
 40
0.1874999999999988
 40
0.1874999999999988
 40
0.2499999999999985
 40
0.2499999999999985
 40
0.3124999999999982
 40
0.3124999999999982
 40
0.3749999999999979
 40
0.3749999999999979
 40
0.4999999999999983
 40
0.4999999999999983
 40
0.6249999999999987
 40
0.6249999999999987
 40
0.7499999999999991
 40
0.7499999999999991
 40
0.8749999999999994
 40
0.8749999999999994
 40
1.0
 40
1.0
 40
1.0
 40
1.0
 10
17.93070556693914
 20
6.988467800716025
 30
0.0
 10
17.92246794192737
 20
6.988467800716025
 30
0.0
 10
17.9145184838325
 20
6.990042056611553
 30
0.0
 10
17.90310455219206
 20
6.994741797181385
 30
0.0
 10
17.89951408992652
 20
6.996655312892321
 30
0.0
 10
17.89274550118927
 20
7.001150253806387
 30
0.0
 10
17.88953619611758
 20
7.003765968033942
 30
0.0
 10
17.88374361959748
 20
7.009525001531245
 30
0.0
 10
17.88115737192973
 20
7.012655413601463
 30
0.0
 10
17.87660119944078
 20
7.019414987010912
 30
0.0
 10
17.87463109167062
 20
7.023067309612769
 30
0.0
 10
17.86991750733474
 20
7.034318520512159
 30
0.0
 10
17.86824956383404
 20
7.042515374080438
 30
0.0
 10
17.86816333190618
 20
7.058756553952343
 30
0.0
 10
17.86974438963518
 20
7.067011985121156
 30
0.0
 10
17.87595776552845
 20
7.082214548262078
 30
0.0
 10
17.88058859486209
 20
7.089204224015422
 30
0.0
 10
17.89217163756124
 20
7.100856389026397
 30
0.0
 10
17.89912559274631
 20
7.105526464016526
 30
0.0
 10
17.91432106764377
 20
7.111840542513956
 30
0.0
 10
17.92246794192737
 20
7.113467800716029
 30
0.0
 10
17.93070556693914
 20
7.113467800716029
 30
0.0
  0
LINE
  5
1D8
330
1F
100
AcDbEntity
  8
0
  6
Continuous
 62
     7
370
    25
100
AcDbLine
 10
18.9957055669
 20
7.1759678007
 30
0.0
 11
17.9307055669
 21
7.1759678007
 31
0.0
  0
SPLINE
  5
1D9
330
1F
100
AcDbEntity
  8
0
  6
Continuous
 62
     7
370
    25
100
AcDbSpline
210
0.0
220
0.0
230
1.0
 70
     8
 71
     3
 72
    22
 73
    18
 74
     0
 42
0.00000001
 43
0.00000001
 40
0.0
 40
0.0
 40
0.0
 40
0.0
 40
0.125
 40
0.125
 40
0.25
 40
0.25
 40
0.375
 40
0.375
 40
0.5
 40
0.5
 40
0.625
 40
0.625
 40
0.75
 40
0.75
 40
0.875
 40
0.875
 40
1.0
 40
1.0
 40
1.0
 40
1.0
 10
18.99570556693914
 20
7.300967800716022
 30
0.0
 10
19.00390975193701
 20
7.300967800716022
 30
0.0
 10
19.01206848732512
 20
7.299340505641799
 30
0.0
 10
19.02719028186402
 20
7.293074980597768
 30
0.0
 10
19.03413019259402
 20
7.288434368575303
 30
0.0
 10
19.04569105939201
 20
7.276867804682144
 30
0.0
 10
19.05032426250013
 20
7.269936429604834
 30
0.0
 10
19.05659294436539
 20
7.254783553198789
 30
0.0
 10
19.05821112968637
 20
7.24660481699094
 30
0.0
 10
19.05819997513451
 20
7.230245553303261
 30
0.0
 10
19.05656483290476
 20
7.222057316039725
 30
0.0
 10
19.05029218732586
 20
7.206948677378875
 30
0.0
 10
19.04565716332861
 20
7.200018873980084
 30
0.0
 10
19.03404908824586
 20
7.188435248084724
 30
0.0
 10
19.02710934005191
 20
7.183815134844121
 30
0.0
 10
19.01199267455877
 20
7.177575757081315
 30
0.0
 10
19.00390975193701
 20
7.175967800716025
 30
0.0
 10
18.99570556693914
 20
7.175967800716025
 30
0.0
  0
LINE
  5
1DA
330
1F
100
AcDbEntity
  8
0
  6
Continuous
 62
     7
370
    25
100
AcDbLine
 10
17.9307055669
 20
7.3009678007
 30
0.0
 11
18.9957055669
 21
7.3009678007
 31
0.0
  0
SPLINE
  5
1DB
330
1F
100
AcDbEntity
  8
0
  6
Continuous
 62
     7
370
    25
100
AcDbSpline
210
0.0
220
0.0
230
1.0
 70
     8
 71
     3
 72
    26
 73
    22
 74
     0
 42
0.00000001
 43
0.00000001
 40
0.0
 40
0.0
 40
0.0
 40
0.0
 40
0.1249999999999997
 40
0.1249999999999997
 40
0.1874999999999995
 40
0.1874999999999995
 40
0.2499999999999993
 40
0.2499999999999993
 40
0.3124999999999992
 40
0.3124999999999992
 40
0.374999999999999
 40
0.374999999999999
 40
0.4999999999999992
 40
0.4999999999999992
 40
0.6249999999999994
 40
0.6249999999999994
 40
0.7499999999999997
 40
0.7499999999999997
 40
0.8749999999999999
 40
0.8749999999999999
 40
1.0
 40
1.0
 40
1.0
 40
1.0
 10
17.93070556693914
 20
7.175967800716025
 30
0.0
 10
17.92246794192737
 20
7.175967800716025
 30
0.0
 10
17.9145184838325
 20
7.17754205661155
 30
0.0
 10
17.90310455219206
 20
7.182241797181383
 30
0.0
 10
17.89951408992652
 20
7.184155312892321
 30
0.0
 10
17.89274550118927
 20
7.188650253806385
 30
0.0
 10
17.88953619611758
 20
7.191265968033943
 30
0.0
 10
17.88374361959748
 20
7.197025001531244
 30
0.0
 10
17.88115737192973
 20
7.200155413601463
 30
0.0
 10
17.87660119944078
 20
7.206914987010912
 30
0.0
 10
17.87463109167062
 20
7.210567309612769
 30
0.0
 10
17.86991750733474
 20
7.221818520512159
 30
0.0
 10
17.86824956383404
 20
7.230015374080438
 30
0.0
 10
17.86816333190618
 20
7.246256553952342
 30
0.0
 10
17.86974438963518
 20
7.254511985121154
 30
0.0
 10
17.87595776552845
 20
7.269714548262074
 30
0.0
 10
17.88058859486209
 20
7.276704224015419
 30
0.0
 10
17.89217163756124
 20
7.288356389026395
 30
0.0
 10
17.89912559274631
 20
7.293026464016525
 30
0.0
 10
17.91432106764377
 20
7.299340542513954
 30
0.0
 10
17.92246794192737
 20
7.300967800716026
 30
0.0
 10
17.93070556693914
 20
7.300967800716026
 30
0.0
  0
LINE
  5
1DC
330
1F
100
AcDbEntity
  8
0
  6
Continuous
 62
     7
370
    25
100
AcDbLine
 10
17.9307055669
 20
6.9259678007
 30
0.0
 11
18.9957055669
 21
6.9259678007
 31
0.0
  0
SPLINE
  5
1DD
330
1F
100
AcDbEntity
  8
0
  6
Continuous
 62
     7
370
    25
100
AcDbSpline
210
0.0
220
0.0
230
1.0
 70
     8
 71
     3
 72
    26
 73
    22
 74
     0
 42
0.00000001
 43
0.00000001
 40
0.0
 40
0.0
 40
0.0
 40
0.0
 40
0.1249999999999981
 40
0.1249999999999981
 40
0.1874999999999975
 40
0.1874999999999975
 40
0.2499999999999969
 40
0.2499999999999969
 40
0.3124999999999964
 40
0.3124999999999964
 40
0.3749999999999958
 40
0.3749999999999958
 40
0.4999999999999967
 40
0.4999999999999967
 40
0.6249999999999976
 40
0.6249999999999976
 40
0.7499999999999983
 40
0.7499999999999983
 40
0.8749999999999992
 40
0.8749999999999992
 40
1.0
 40
1.0
 40
1.0
 40
1.0
 10
17.93070556693914
 20
6.800967800716026
 30
0.0
 10
17.92246794192737
 20
6.800967800716026
 30
0.0
 10
17.9145184838325
 20
6.802542056611553
 30
0.0
 10
17.90310455219206
 20
6.807241797181384
 30
0.0
 10
17.89951408992652
 20
6.809155312892322
 30
0.0
 10
17.89274550118927
 20
6.813650253806386
 30
0.0
 10
17.88953619611758
 20
6.816265968033944
 30
0.0
 10
17.88374361959748
 20
6.822025001531246
 30
0.0
 10
17.88115737192973
 20
6.825155413601464
 30
0.0
 10
17.87660119944078
 20
6.831914987010913
 30
0.0
 10
17.87463109167062
 20
6.835567309612772
 30
0.0
 10
17.86991750733474
 20
6.84681852051216
 30
0.0
 10
17.86824956383404
 20
6.855015374080439
 30
0.0
 10
17.86816333190618
 20
6.871256553952344
 30
0.0
 10
17.86974438963518
 20
6.879511985121159
 30
0.0
 10
17.87595776552845
 20
6.894714548262079
 30
0.0
 10
17.88058859486209
 20
6.901704224015423
 30
0.0
 10
17.89217163756124
 20
6.913356389026397
 30
0.0
 10
17.89912559274631
 20
6.918026464016526
 30
0.0
 10
17.91432106764377
 20
6.924340542513955
 30
0.0
 10
17.92246794192737
 20
6.925967800716029
 30
0.0
 10
17.93070556693914
 20
6.925967800716029
 30
0.0
  0
LINE
  5
1DE
330
1F
100
AcDbEntity
  8
0
  6
Continuous
 62
     7
370
    25
100
AcDbLine
 10
18.9957055669
 20
6.8009678007
 30
0.0
 11
17.9307055669
 21
6.8009678007
 31
0.0
  0
SPLINE
  5
1DF
330
1F
100
AcDbEntity
  8
0
  6
Continuous
 62
     7
370
    25
100
AcDbSpline
210
0.0
220
0.0
230
1.0
 70
     8
 71
     3
 72
    22
 73
    18
 74
     0
 42
0.00000001
 43
0.00000001
 40
0.0
 40
0.0
 40
0.0
 40
0.0
 40
0.125
 40
0.125
 40
0.25
 40
0.25
 40
0.375
 40
0.375
 40
0.5
 40
0.5
 40
0.625
 40
0.625
 40
0.75
 40
0.75
 40
0.875
 40
0.875
 40
1.0
 40
1.0
 40
1.0
 40
1.0
 10
18.99570556693914
 20
6.925967800716025
 30
0.0
 10
19.00390975193701
 20
6.925967800716025
 30
0.0
 10
19.01206848732512
 20
6.924340505641801
 30
0.0
 10
19.02719028186402
 20
6.918074980597773
 30
0.0
 10
19.03413019259402
 20
6.913434368575307
 30
0.0
 10
19.04569105939201
 20
6.901867804682148
 30
0.0
 10
19.05032426250013
 20
6.894936429604837
 30
0.0
 10
19.05659294436539
 20
6.879783553198792
 30
0.0
 10
19.05821112968637
 20
6.871604816990942
 30
0.0
 10
19.05819997513451
 20
6.855245553303263
 30
0.0
 10
19.05656483290476
 20
6.847057316039725
 30
0.0
 10
19.05029218732586
 20
6.831948677378877
 30
0.0
 10
19.04565716332861
 20
6.825018873980086
 30
0.0
 10
19.03404908824586
 20
6.813435248084728
 30
0.0
 10
19.02710934005191
 20
6.808815134844123
 30
0.0
 10
19.01199267455877
 20
6.802575757081319
 30
0.0
 10
19.00390975193701
 20
6.800967800716026
 30
0.0
 10
18.99570556693914
 20
6.800967800716026
 30
0.0
  0
LINE
  5
1E0
330
1F
100
AcDbEntity
  8
0
  6
Continuous
 62
     7
370
    25
100
AcDbLine
 10
18.9957055669
 20
6.6134678007
 30
0.0
 11
17.9307055669
 21
6.6134678007
 31
0.0
  0
SPLINE
  5
1E1
330
1F
100
AcDbEntity
  8
0
  6
Continuous
 62
     7
370
    25
100
AcDbSpline
210
0.0
220
0.0
230
1.0
 70
     8
 71
     3
 72
    22
 73
    18
 74
     0
 42
0.00000001
 43
0.00000001
 40
0.0
 40
0.0
 40
0.0
 40
0.0
 40
0.125
 40
0.125
 40
0.25
 40
0.25
 40
0.375
 40
0.375
 40
0.5
 40
0.5
 40
0.625
 40
0.625
 40
0.75
 40
0.75
 40
0.875
 40
0.875
 40
1.0
 40
1.0
 40
1.0
 40
1.0
 10
18.99570556693914
 20
6.738467800716026
 30
0.0
 10
19.00390975193701
 20
6.738467800716026
 30
0.0
 10
19.01206848732512
 20
6.736840505641799
 30
0.0
 10
19.02719028186402
 20
6.730574980597771
 30
0.0
 10
19.03413019259402
 20
6.725934368575305
 30
0.0
 10
19.04569105939201
 20
6.714367804682144
 30
0.0
 10
19.05032426250013
 20
6.707436429604836
 30
0.0
 10
19.05659294436539
 20
6.692283553198791
 30
0.0
 10
19.05821112968637
 20
6.684104816990941
 30
0.0
 10
19.05819997513451
 20
6.667745553303263
 30
0.0
 10
19.05656483290476
 20
6.659557316039725
 30
0.0
 10
19.05029218732586
 20
6.644448677378877
 30
0.0
 10
19.04565716332861
 20
6.637518873980085
 30
0.0
 10
19.03404908824586
 20
6.625935248084725
 30
0.0
 10
19.02710934005191
 20
6.621315134844122
 30
0.0
 10
19.01199267455877
 20
6.615075757081316
 30
0.0
 10
19.00390975193701
 20
6.613467800716026
 30
0.0
 10
18.99570556693914
 20
6.613467800716026
 30
0.0
  0
LINE
  5
1E2
330
1F
100
AcDbEntity
  8
0
  6
Continuous
 62
     7
370
    25
100
AcDbLine
 10
17.9307055669
 20
6.7384678007
 30
0.0
 11
18.9957055669
 21
6.7384678007
 31
0.0
  0
SPLINE
  5
1E3
330
1F
100
AcDbEntity
  8
0
  6
Continuous
 62
     7
370
    25
100
AcDbSpline
210
0.0
220
0.0
230
1.0
 70
     8
 71
     3
 72
    26
 73
    22
 74
     0
 42
0.00000001
 43
0.00000001
 40
0.0
 40
0.0
 40
0.0
 40
0.0
 40
0.1250000000000011
 40
0.1250000000000011
 40
0.1875000000000011
 40
0.1875000000000011
 40
0.2500000000000012
 40
0.2500000000000012
 40
0.3125000000000013
 40
0.3125000000000013
 40
0.3750000000000013
 40
0.3750000000000013
 40
0.500000000000001
 40
0.500000000000001
 40
0.6250000000000008
 40
0.6250000000000008
 40
0.7500000000000004
 40
0.7500000000000004
 40
0.8750000000000002
 40
0.8750000000000002
 40
1.0
 40
1.0
 40
1.0
 40
1.0
 10
17.93070556693914
 20
6.613467800716026
 30
0.0
 10
17.92246794192737
 20
6.613467800716026
 30
0.0
 10
17.9145184838325
 20
6.615042056611549
 30
0.0
 10
17.90310455219205
 20
6.619741797181382
 30
0.0
 10
17.89951408992652
 20
6.621655312892319
 30
0.0
 10
17.89274550118927
 20
6.626150253806384
 30
0.0
 10
17.88953619611757
 20
6.628765968033941
 30
0.0
 10
17.88374361959748
 20
6.634525001531244
 30
0.0
 10
17.88115737192973
 20
6.637655413601461
 30
0.0
 10
17.87660119944078
 20
6.644414987010912
 30
0.0
 10
17.87463109167061
 20
6.648067309612769
 30
0.0
 10
17.86991750733474
 20
6.659318520512159
 30
0.0
 10
17.86824956383404
 20
6.667515374080438
 30
0.0
 10
17.86816333190618
 20
6.683756553952344
 30
0.0
 10
17.86974438963518
 20
6.692011985121157
 30
0.0
 10
17.87595776552845
 20
6.707214548262079
 30
0.0
 10
17.88058859486209
 20
6.714204224015421
 30
0.0
 10
17.89217163756124
 20
6.725856389026396
 30
0.0
 10
17.89912559274631
 20
6.730526464016523
 30
0.0
 10
17.91432106764377
 20
6.736840542513953
 30
0.0
 10
17.92246794192737
 20
6.738467800716029
 30
0.0
 10
17.93070556693914
 20
6.738467800716029
 30
0.0
  0
CIRCLE
  5
1E4
330
1F
100
AcDbEntity
  8
0
  6
Continuous
 62
     7
370
    25
100
AcDbCircle
 10
16.8067055669
 20
7.5548678007
 30
0.0
 40
0.1005000000000003
  0
CIRCLE
  5
1E5
330
1F
100
AcDbEntity
  8
0
  6
Continuous
 62
     7
370
    25
100
AcDbCircle
 10
20.1197055669
 20
7.5548678007
 30
0.0
 40
0.1005000000000003
  0
LINE
  5
1E6
330
1F
100
AcDbEntity
  8
0
  6
Continuous
 62
     7
370
    25
100
AcDbLine
 10
17.9307055669
 20
8.2384678007
 30
0.0
 11
17.9307055669
 21
8.1134678007
 31
0.0
  0
LINE
  5
1E7
330
1F
100
AcDbEntity
  8
0
  6
Continuous
 62
     7
370
    25
100
AcDbLine
 10
17.9307055669
 20
8.0509678007
 30
0.0
 11
17.9307055669
 21
7.9259678007
 31
0.0
  0
LINE
  5
1E8
330
1F
100
AcDbEntity
  8
0
  6
Continuous
 62
     7
370
    25
100
AcDbLine
 10
17.9307055669
 20
7.1134678007
 30
0.0
 11
17.9307055669
 21
6.9884678007
 31
0.0
  0
LINE
  5
1E9
330
1F
100
AcDbEntity
  8
0
  6
Continuous
 62
     7
370
    25
100
AcDbLine
 10
17.9307055669
 20
7.8634678007
 30
0.0
 11
17.9307055669
 21
7.7384678007
 31
0.0
  0
LINE
  5
1EA
330
1F
100
AcDbEntity
  8
0
  6
Continuous
 62
     7
370
    25
100
AcDbLine
 10
17.9307055669
 20
6.9259678007
 30
0.0
 11
17.9307055669
 21
6.8009678007
 31
0.0
  0
LINE
  5
1EB
330
1F
100
AcDbEntity
  8
0
  6
Continuous
 62
     7
370
    25
100
AcDbLine
 10
17.9307055669
 20
6.7384678007
 30
0.0
 11
17.9307055669
 21
6.6134678007
 31
0.0
  0
LINE
  5
1EC
330
1F
100
AcDbEntity
  8
0
  6
Continuous
 62
     7
370
    25
100
AcDbLine
 10
17.9307055669
 20
7.6759678007
 30
0.0
 11
17.9307055669
 21
7.5509678007
 31
0.0
  0
LINE
  5
1ED
330
1F
100
AcDbEntity
  8
0
  6
Continuous
 62
     7
370
    25
100
AcDbLine
 10
17.9307055669
 20
7.3009678007
 30
0.0
 11
17.9307055669
 21
7.1759678007
 31
0.0
  0
LINE
  5
1EE
330
1F
100
AcDbEntity
  8
0
  6
Continuous
 62
     7
370
    25
100
AcDbLine
 10
17.9307055669
 20
7.4884678007
 30
0.0
 11
17.9307055669
 21
7.3634678007
 31
0.0
  0
LINE
  5
1EF
330
1F
100
AcDbEntity
  8
0
  6
Continuous
 62
     7
370
    25
100
AcDbLine
 10
18.9957055669
 20
8.2384678007
 30
0.0
 11
18.9957055669
 21
8.1134678007
 31
0.0
  0
LINE
  5
1F0
330
1F
100
AcDbEntity
  8
0
  6
Continuous
 62
     7
370
    25
100
AcDbLine
 10
18.9957055669
 20
7.1134678007
 30
0.0
 11
18.9957055669
 21
6.9884678007
 31
0.0
  0
LINE
  5
1F1
330
1F
100
AcDbEntity
  8
0
  6
Continuous
 62
     7
370
    25
100
AcDbLine
 10
18.9957055669
 20
8.0509678007
 30
0.0
 11
18.9957055669
 21
7.9259678007
 31
0.0
  0
LINE
  5
1F2
330
1F
100
AcDbEntity
  8
0
  6
Continuous
 62
     7
370
    25
100
AcDbLine
 10
18.9957055669
 20
7.6759678007
 30
0.0
 11
18.9957055669
 21
7.5509678007
 31
0.0
  0
LINE
  5
1F3
330
1F
100
AcDbEntity
  8
0
  6
Continuous
 62
     7
370
    25
100
AcDbLine
 10
18.9957055669
 20
6.9259678007
 30
0.0
 11
18.9957055669
 21
6.8009678007
 31
0.0
  0
LINE
  5
1F4
330
1F
100
AcDbEntity
  8
0
  6
Continuous
 62
     7
370
    25
100
AcDbLine
 10
18.9957055669
 20
7.4884678007
 30
0.0
 11
18.9957055669
 21
7.3634678007
 31
0.0
  0
LINE
  5
1F5
330
1F
100
AcDbEntity
  8
0
  6
Continuous
 62
     7
370
    25
100
AcDbLine
 10
18.9957055669
 20
6.7384678007
 30
0.0
 11
18.9957055669
 21
6.6134678007
 31
0.0
  0
LINE
  5
1F6
330
1F
100
AcDbEntity
  8
0
  6
Continuous
 62
     7
370
    25
100
AcDbLine
 10
18.9957055669
 20
7.8634678007
 30
0.0
 11
18.9957055669
 21
7.7384678007
 31
0.0
  0
LINE
  5
1F7
330
1F
100
AcDbEntity
  8
0
  6
Continuous
 62
     7
370
    25
100
AcDbLine
 10
18.9957055669
 20
7.3009678007
 30
0.0
 11
18.9957055669
 21
7.1759678007
 31
0.0
  0
DIMENSION
  5
1F8
330
1F
100
AcDbEntity
  8
0
  6
Continuous
 62
     7
370
    18
100
AcDbDimension
  2
_D
 10
20.1197055669
 20
10.7546709503
 30
0.0
 11
18.4632055669
 21
10.7546709503
 31
0.0
 70
   160
  1
<>
 71
     2
 42
-1.0
  3
SLDDIMSTYLE0
100
AcDbAlignedDimension
 13
16.8067055669
 23
7.5548678007
 33
0.0
 14
20.1197055669
 24
7.5548678007
 34
0.0
100
AcDbRotatedDimension
  0
DIMENSION
  5
20D
330
1F
100
AcDbEntity
  8
0
  6
Continuous
 62
     7
370
    18
100
AcDbDimension
  2
_D_1
 10
20.9632055669
 20
13.5893166196
 30
0.0
 11
18.4632055669
 21
13.5893166196
 31
0.0
 70
   160
  1
<>
 71
     2
 42
-1.0
  3
SLDDIMSTYLE1
100
AcDbAlignedDimension
 13
15.9632055669
 23
9.1498678007
 33
0.0
 14
20.9632055669
 24
9.1498678007
 34
0.0
100
AcDbRotatedDimension
  0
MTEXT
  5
222
330
1F
100
AcDbEntity
  8
0
  6
Continuous
 62
     7
370
     0
100
AcDbMText
 10
22.3253617322
 20
4.466640172
 30
0.0
 40
0.4166661417
 41
0.0
 71
     1
 72
     1
  1
FACEPLATE BQL
  7
SLDTEXTSTYLE0
 73
     1
 44
1.0
  0
LINE
  5
223
330
1F
100
AcDbEntity
  8
0
  6
Continuous
 62
     7
370
    25
100
AcDbLine
 10
20.4180573149
 20
19.5461812065
 30
0.0
 11
20.5380573149
 21
19.5461812065
 31
0.0
  0
LINE
  5
224
330
1F
100
AcDbEntity
  8
0
  6
Continuous
 62
     7
370
    25
100
AcDbLine
 10
20.5380573149
 20
21.9961812065
 30
0.0
 11
20.4180573149
 21
21.9961812065
 31
0.0
  0
LINE
  5
225
330
1F
100
AcDbEntity
  8
0
  6
Continuous
 62
     7
370
    25
100
AcDbLine
 10
14.6910573149
 20
20.6461812065
 30
0.0
 11
15.6910573149
 21
20.6461812065
 31
0.0
  0
LINE
  5
226
330
1F
100
AcDbEntity
  8
0
  6
Continuous
 62
     7
370
    25
100
AcDbLine
 10
15.6910573149
 20
20.8961812065
 30
0.0
 11
14.6910573149
 21
20.8961812065
 31
0.0
  0
LINE
  5
227
330
1F
100
AcDbEntity
  8
0
  6
Continuous
 62
     7
370
    25
100
AcDbLine
 10
14.1910573149
 20
20.7511812065
 30
0.0
 11
14.6910573149
 21
20.7511812065
 31
0.0
  0
LINE
  5
228
330
1F
100
AcDbEntity
  8
0
  6
Continuous
 62
     7
370
    25
100
AcDbLine
 10
14.6910573149
 20
20.8611812065
 30
0.0
 11
14.1910573149
 21
20.8611812065
 31
0.0
  0
LINE
  5
229
330
1F
100
AcDbEntity
  8
0
  6
Continuous
 62
     7
370
    25
100
AcDbLine
 10
13.9410573149
 20
20.7686812065
 30
0.0
 11
14.1910573149
 21
20.7686812065
 31
0.0
  0
LINE
  5
22A
330
1F
100
AcDbEntity
  8
0
  6
Continuous
 62
     7
370
    25
100
AcDbLine
 10
14.1910573149
 20
20.8436812065
 30
0.0
 11
13.9410573149
 21
20.8436812065
 31
0.0
  0
LINE
  5
22B
330
1F
100
AcDbEntity
  8
0
  6
Continuous
 62
     7
370
    25
100
AcDbLine
 10
14.1910573149
 20
20.6461812065
 30
0.0
 11
14.6910573149
 21
20.6461812065
 31
0.0
  0
LINE
  5
22C
330
1F
100
AcDbEntity
  8
0
  6
Continuous
 62
     7
370
    25
100
AcDbLine
 10
13.9410573149
 20
20.6636812065
 30
0.0
 11
14.1910573149
 21
20.6636812065
 31
0.0
  0
LINE
  5
22D
330
1F
100
AcDbEntity
  8
0
  6
Continuous
 62
     7
370
    25
100
AcDbLine
 10
14.1910573149
 20
20.7386812065
 30
0.0
 11
13.9410573149
 21
20.7386812065
 31
0.0
  0
LINE
  5
22E
330
1F
100
AcDbEntity
  8
0
  6
Continuous
 62
     7
370
    25
100
AcDbLine
 10
16.1510573149
 20
21.2361812065
 30
0.0
 11
16.1310573149
 21
21.2361812065
 31
0.0
  0
LINE
  5
22F
330
1F
100
AcDbEntity
  8
0
  6
Continuous
 62
     7
370
    25
100
AcDbLine
 10
16.1310573149
 20
20.3061812065
 30
0.0
 11
16.1510573149
 21
20.3061812065
 31
0.0
  0
LINE
  5
230
330
1F
100
AcDbEntity
  8
0
  6
Continuous
 62
     7
370
    25
100
AcDbLine
 10
16.1510573149
 20
20.3061812065
 30
0.0
 11
16.1760573149
 21
20.3561812065
 31
0.0
  0
LINE
  5
231
330
1F
100
AcDbEntity
  8
0
  6
Continuous
 62
     7
370
    25
100
AcDbLine
 10
16.1760573149
 20
21.1861812065
 30
0.0
 11
16.1510573149
 21
21.2361812065
 31
0.0
  0
LINE
  5
232
330
1F
100
AcDbEntity
  8
0
  6
Continuous
 62
     7
370
    25
100
AcDbLine
 10
16.2010573149
 20
21.2361812065
 30
0.0
 11
16.1760573149
 21
21.1861812065
 31
0.0
  0
LINE
  5
233
330
1F
100
AcDbEntity
  8
0
  6
Continuous
 62
     7
370
    25
100
AcDbLine
 10
16.1760573149
 20
20.3561812065
 30
0.0
 11
16.2010573149
 21
20.3061812065
 31
0.0
  0
LINE
  5
234
330
1F
100
AcDbEntity
  8
0
  6
Continuous
 62
     7
370
    25
100
AcDbLine
 10
16.2010573149
 20
20.3061812065
 30
0.0
 11
16.2260573149
 21
20.3561812065
 31
0.0
  0
LINE
  5
235
330
1F
100
AcDbEntity
  8
0
  6
Continuous
 62
     7
370
    25
100
AcDbLine
 10
16.2260573149
 20
21.1861812065
 30
0.0
 11
16.2010573149
 21
21.2361812065
 31
0.0
  0
LINE
  5
236
330
1F
100
AcDbEntity
  8
0
  6
Continuous
 62
     7
370
    25
100
AcDbLine
 10
16.2510573149
 20
20.3061812065
 30
0.0
 11
16.2760573149
 21
20.3561812065
 31
0.0
  0
LINE
  5
237
330
1F
100
AcDbEntity
  8
0
  6
Continuous
 62
     7
370
    25
100
AcDbLine
 10
16.2760573149
 20
21.1861812065
 30
0.0
 11
16.2510573149
 21
21.2361812065
 31
0.0
  0
LINE
  5
238
330
1F
100
AcDbEntity
  8
0
  6
Continuous
 62
     7
370
    25
100
AcDbLine
 10
16.2510573149
 20
21.2361812065
 30
0.0
 11
16.2260573149
 21
21.1861812065
 31
0.0
  0
LINE
  5
239
330
1F
100
AcDbEntity
  8
0
  6
Continuous
 62
     7
370
    25
100
AcDbLine
 10
16.2260573149
 20
20.3561812065
 30
0.0
 11
16.2510573149
 21
20.3061812065
 31
0.0
  0
LINE
  5
23A
330
1F
100
AcDbEntity
  8
0
  6
Continuous
 62
     7
370
    25
100
AcDbLine
 10
16.3010573149
 20
21.2361812065
 30
0.0
 11
16.2760573149
 21
21.1861812065
 31
0.0
  0
LINE
  5
23B
330
1F
100
AcDbEntity
  8
0
  6
Continuous
 62
     7
370
    25
100
AcDbLine
 10
16.2760573149
 20
20.3561812065
 30
0.0
 11
16.3010573149
 21
20.3061812065
 31
0.0
  0
LINE
  5
23C
330
1F
100
AcDbEntity
  8
0
  6
Continuous
 62
     7
370
    25
100
AcDbLine
 10
16.3010573149
 20
20.3061812065
 30
0.0
 11
16.3260573149
 21
20.3561812065
 31
0.0
  0
LINE
  5
23D
330
1F
100
AcDbEntity
  8
0
  6
Continuous
 62
     7
370
    25
100
AcDbLine
 10
16.3260573149
 20
21.1861812065
 30
0.0
 11
16.3010573149
 21
21.2361812065
 31
0.0
  0
LINE
  5
23E
330
1F
100
AcDbEntity
  8
0
  6
Continuous
 62
     7
370
    25
100
AcDbLine
 10
16.3510573149
 20
20.3061812065
 30
0.0
 11
16.3760573149
 21
20.3561812065
 31
0.0
  0
LINE
  5
23F
330
1F
100
AcDbEntity
  8
0
  6
Continuous
 62
     7
370
    25
100
AcDbLine
 10
16.3760573149
 20
21.1861812065
 30
0.0
 11
16.3510573149
 21
21.2361812065
 31
0.0
  0
LINE
  5
240
330
1F
100
AcDbEntity
  8
0
  6
Continuous
 62
     7
370
    25
100
AcDbLine
 10
16.3510573149
 20
21.2361812065
 30
0.0
 11
16.3260573149
 21
21.1861812065
 31
0.0
  0
LINE
  5
241
330
1F
100
AcDbEntity
  8
0
  6
Continuous
 62
     7
370
    25
100
AcDbLine
 10
16.3260573149
 20
20.3561812065
 30
0.0
 11
16.3510573149
 21
20.3061812065
 31
0.0
  0
LINE
  5
242
330
1F
100
AcDbEntity
  8
0
  6
Continuous
 62
     7
370
    25
100
AcDbLine
 10
16.4010573149
 20
21.2361812065
 30
0.0
 11
16.3760573149
 21
21.1861812065
 31
0.0
  0
LINE
  5
243
330
1F
100
AcDbEntity
  8
0
  6
Continuous
 62
     7
370
    25
100
AcDbLine
 10
16.3760573149
 20
20.3561812065
 30
0.0
 11
16.4010573149
 21
20.3061812065
 31
0.0
  0
LINE
  5
244
330
1F
100
AcDbEntity
  8
0
  6
Continuous
 62
     7
370
    25
100
AcDbLine
 10
16.4010573149
 20
20.3061812065
 30
0.0
 11
16.4260573149
 21
20.3561812065
 31
0.0
  0
LINE
  5
245
330
1F
100
AcDbEntity
  8
0
  6
Continuous
 62
     7
370
    25
100
AcDbLine
 10
16.4260573149
 20
21.1861812065
 30
0.0
 11
16.4010573149
 21
21.2361812065
 31
0.0
  0
LINE
  5
246
330
1F
100
AcDbEntity
  8
0
  6
Continuous
 62
     7
370
    25
100
AcDbLine
 10
16.4510573149
 20
21.2361812065
 30
0.0
 11
16.4260573149
 21
21.1861812065
 31
0.0
  0
LINE
  5
247
330
1F
100
AcDbEntity
  8
0
  6
Continuous
 62
     7
370
    25
100
AcDbLine
 10
16.4260573149
 20
20.3561812065
 30
0.0
 11
16.4510573149
 21
20.3061812065
 31
0.0
  0
LINE
  5
248
330
1F
100
AcDbEntity
  8
0
  6
Continuous
 62
     7
370
    25
100
AcDbLine
 10
16.4510573149
 20
20.3061812065
 30
0.0
 11
16.4760573149
 21
20.3561812065
 31
0.0
  0
LINE
  5
249
330
1F
100
AcDbEntity
  8
0
  6
Continuous
 62
     7
370
    25
100
AcDbLine
 10
16.4760573149
 20
21.1861812065
 30
0.0
 11
16.4510573149
 21
21.2361812065
 31
0.0
  0
LINE
  5
24A
330
1F
100
AcDbEntity
  8
0
  6
Continuous
 62
     7
370
    25
100
AcDbLine
 10
16.5010573149
 20
21.2361812065
 30
0.0
 11
16.4760573149
 21
21.1861812065
 31
0.0
  0
LINE
  5
24B
330
1F
100
AcDbEntity
  8
0
  6
Continuous
 62
     7
370
    25
100
AcDbLine
 10
16.4760573149
 20
20.3561812065
 30
0.0
 11
16.5010573149
 21
20.3061812065
 31
0.0
  0
LINE
  5
24C
330
1F
100
AcDbEntity
  8
0
  6
Continuous
 62
     7
370
    25
100
AcDbLine
 10
19.0380573149
 20
21.8811812065
 30
0.0
 11
16.7210573149
 21
21.8811812065
 31
0.0
  0
LINE
  5
24D
330
1F
100
AcDbEntity
  8
0
  6
Continuous
 62
     7
370
    25
100
AcDbLine
 10
16.7210573149
 20
19.6611812065
 30
0.0
 11
19.0380573149
 21
19.6611812065
 31
0.0
  0
LINE
  5
24E
330
1F
100
AcDbEntity
  8
0
  6
Continuous
 62
     7
370
    25
100
AcDbLine
 10
16.7210573149
 20
21.8811812065
 30
0.0
 11
16.6910573149
 21
21.8511812065
 31
0.0
  0
LINE
  5
24F
330
1F
100
AcDbEntity
  8
0
  6
Continuous
 62
     7
370
    25
100
AcDbLine
 10
16.6910573149
 20
19.6911812065
 30
0.0
 11
16.7210573149
 21
19.6611812065
 31
0.0
  0
LINE
  5
250
330
1F
100
AcDbEntity
  8
0
  6
Continuous
 62
     7
370
    25
100
AcDbLine
 10
19.2233858477
 20
19.6624526737
 30
0.0
 11
19.2246573149
 21
19.6611812065
 31
0.0
  0
LINE
  5
251
330
1F
100
AcDbEntity
  8
0
  6
Continuous
 62
     7
370
    25
100
AcDbLine
 10
19.3514573149
 20
19.6611812065
 30
0.0
 11
19.3527237899
 21
19.6624476816
 31
0.0
  0
LINE
  5
252
330
1F
100
AcDbEntity
  8
0
  6
Continuous
 62
     7
370
    25
100
AcDbLine
 10
19.3729356689
 20
19.6611812065
 30
0.0
 11
20.1120859553
 21
19.6611812065
 31
0.0
  0
LINE
  5
253
330
1F
100
AcDbEntity
  8
0
  6
Continuous
 62
     7
370
    25
100
AcDbLine
 10
19.0380573149
 20
19.6611812065
 30
0.0
 11
19.2033328043
 21
19.6611812065
 31
0.0
  0
LINE
  5
254
330
1F
100
AcDbEntity
  8
0
  6
Continuous
 62
     7
370
    25
100
AcDbLine
 10
20.1120859553
 20
21.8811812065
 30
0.0
 11
19.0380573149
 21
21.8811812065
 31
0.0
  0
ARC
  5
255
330
1F
100
AcDbEntity
  8
0
  6
Continuous
 62
     7
370
    25
100
AcDbCircle
 10
20.1568073149
 20
19.6211812065
 30
0.0
 40
0.0600000000000031
100
AcDbArc
 50
41.8103148958
 51
138.1896851042
  0
ARC
  5
256
330
1F
100
AcDbEntity
  8
0
  6
Continuous
 62
     7
370
    25
100
AcDbCircle
 10
20.1568073149
 20
21.9211812065
 30
0.0
 40
0.0600000000000028
100
AcDbArc
 50
221.8103148958
 51
318.1896851042
  0
LINE
  5
257
330
1F
100
AcDbEntity
  8
0
  6
Continuous
 62
     7
370
    25
100
AcDbLine
 10
20.2015286744
 20
19.6611812065
 30
0.0
 11
20.4180573149
 21
19.6611812065
 31
0.0
  0
LINE
  5
258
330
1F
100
AcDbEntity
  8
0
  6
Continuous
 62
     7
370
    25
100
AcDbLine
 10
20.4180573149
 20
21.8811812065
 30
0.0
 11
20.2015286744
 21
21.8811812065
 31
0.0
  0
LINE
  5
259
330
1F
100
AcDbEntity
  8
0
  6
Continuous
 62
     7
370
    25
100
AcDbLine
 10
20.5380573149
 20
19.1761812065
 30
0.0
 11
20.9180573149
 21
19.1761812065
 31
0.0
  0
LINE
  5
25A
330
1F
100
AcDbEntity
  8
0
  6
Continuous
 62
     7
370
    25
100
AcDbLine
 10
20.5380573149
 20
19.1761812065
 30
0.0
 11
20.5380573149
 21
22.3661812065
 31
0.0
  0
LINE
  5
25B
330
1F
100
AcDbEntity
  8
0
  6
Continuous
 62
     7
370
    25
100
AcDbLine
 10
20.9180573149
 20
22.3661812065
 30
0.0
 11
20.5380573149
 21
22.3661812065
 31
0.0
  0
LINE
  5
25C
330
1F
100
AcDbEntity
  8
0
  6
Continuous
 62
     7
370
    25
100
AcDbLine
 10
20.9180573149
 20
19.1761812065
 30
0.0
 11
20.9180573149
 21
22.3661812065
 31
0.0
  0
LINE
  5
25D
330
1F
100
AcDbEntity
  8
0
  6
Continuous
 62
     7
370
    25
100
AcDbLine
 10
20.9180573149
 20
19.1761812065
 30
0.0
 11
20.9180573149
 21
19.1461812065
 31
0.0
  0
LINE
  5
25E
330
1F
100
AcDbEntity
  8
0
  6
Continuous
 62
     7
370
    25
100
AcDbLine
 10
20.9180573149
 20
19.1461812065
 30
0.0
 11
20.5380573149
 21
19.1461812065
 31
0.0
  0
LINE
  5
25F
330
1F
100
AcDbEntity
  8
0
  6
Continuous
 62
     7
370
    25
100
AcDbLine
 10
20.5380573149
 20
19.1461812065
 30
0.0
 11
20.5380573149
 21
19.1761812065
 31
0.0
  0
LINE
  5
260
330
1F
100
AcDbEntity
  8
0
  6
Continuous
 62
     7
370
    25
100
AcDbLine
 10
20.5380573149
 20
22.3961812065
 30
0.0
 11
20.9180573149
 21
22.3961812065
 31
0.0
  0
LINE
  5
261
330
1F
100
AcDbEntity
  8
0
  6
Continuous
 62
     7
370
    25
100
AcDbLine
 10
20.9180573149
 20
22.3961812065
 30
0.0
 11
20.9180573149
 21
22.3661812065
 31
0.0
  0
LINE
  5
262
330
1F
100
AcDbEntity
  8
0
  6
Continuous
 62
     7
370
    25
100
AcDbLine
 10
20.5380573149
 20
22.3661812065
 30
0.0
 11
20.5380573149
 21
22.3961812065
 31
0.0
  0
LINE
  5
263
330
1F
100
AcDbEntity
  8
0
  6
Continuous
 62
     7
370
    25
100
AcDbLine
 10
20.4180573149
 20
19.5461812065
 30
0.0
 11
20.4180573149
 21
21.9961812065
 31
0.0
  0
LINE
  5
264
330
1F
100
AcDbEntity
  8
0
  6
Continuous
 62
     7
370
    25
100
AcDbLine
 10
16.6910573149
 20
21.2711812065
 30
0.0
 11
16.3160573149
 21
21.2711812065
 31
0.0
  0
LINE
  5
265
330
1F
100
AcDbEntity
  8
0
  6
Continuous
 62
     7
370
    25
100
AcDbLine
 10
16.3160573149
 20
21.2711812065
 30
0.0
 11
16.3160573149
 21
21.2811812065
 31
0.0
  0
LINE
  5
266
330
1F
100
AcDbEntity
  8
0
  6
Continuous
 62
     7
370
    25
100
AcDbLine
 10
16.6910573149
 20
21.2811812065
 30
0.0
 11
16.3160573149
 21
21.2811812065
 31
0.0
  0
LINE
  5
267
330
1F
100
AcDbEntity
  8
0
  6
Continuous
 62
     7
370
    25
100
AcDbLine
 10
14.6910573149
 20
20.8336812065
 30
0.0
 11
14.6910573149
 21
20.6461812065
 31
0.0
  0
LINE
  5
268
330
1F
100
AcDbEntity
  8
0
  6
Continuous
 62
     7
370
    25
100
AcDbLine
 10
14.6910573149
 20
20.8961812065
 30
0.0
 11
14.6910573149
 21
20.8336812065
 31
0.0
  0
LINE
  5
269
330
1F
100
AcDbEntity
  8
0
  6
Continuous
 62
     7
370
    25
100
AcDbLine
 10
14.1910573149
 20
20.8611812065
 30
0.0
 11
14.1910573149
 21
20.7511812065
 31
0.0
  0
LINE
  5
26A
330
1F
100
AcDbEntity
  8
0
  6
Continuous
 62
     7
370
    25
100
AcDbLine
 10
13.9410573149
 20
20.8436812065
 30
0.0
 11
13.9410573149
 21
20.7686812065
 31
0.0
  0
LINE
  5
26B
330
1F
100
AcDbEntity
  8
0
  6
Continuous
 62
     7
370
    25
100
AcDbLine
 10
14.1910573149
 20
20.7511812065
 30
0.0
 11
14.1910573149
 21
20.6461812065
 31
0.0
  0
LINE
  5
26C
330
1F
100
AcDbEntity
  8
0
  6
Continuous
 62
     7
370
    25
100
AcDbLine
 10
13.9410573149
 20
20.7386812065
 30
0.0
 11
13.9410573149
 21
20.6636812065
 31
0.0
  0
LINE
  5
26D
330
1F
100
AcDbEntity
  8
0
  6
Continuous
 62
     7
370
    25
100
AcDbLine
 10
16.6910573149
 20
20.7461812065
 30
0.0
 11
16.5010573149
 21
20.7461812065
 31
0.0
  0
LINE
  5
26E
330
1F
100
AcDbEntity
  8
0
  6
Continuous
 62
     7
370
    25
100
AcDbLine
 10
16.5010573149
 20
20.7961812065
 30
0.0
 11
16.6910573149
 21
20.7961812065
 31
0.0
  0
LINE
  5
26F
330
1F
100
AcDbEntity
  8
0
  6
Continuous
 62
     7
370
    25
100
AcDbLine
 10
16.5010573149
 20
20.7461812065
 30
0.0
 11
16.5010573149
 21
20.7961812065
 31
0.0
  0
LINE
  5
270
330
1F
100
AcDbEntity
  8
0
  6
Continuous
 62
     7
370
    25
100
AcDbLine
 10
16.6910573149
 20
21.2461812065
 30
0.0
 11
16.5010573149
 21
21.2461812065
 31
0.0
  0
LINE
  5
271
330
1F
100
AcDbEntity
  8
0
  6
Continuous
 62
     7
370
    25
100
AcDbLine
 10
16.5010573149
 20
21.2461812065
 30
0.0
 11
16.5010573149
 21
20.7961812065
 31
0.0
  0
LINE
  5
272
330
1F
100
AcDbEntity
  8
0
  6
Continuous
 62
     7
370
    25
100
AcDbLine
 10
16.5010573149
 20
20.2961812065
 30
0.0
 11
16.6910573149
 21
20.2961812065
 31
0.0
  0
LINE
  5
273
330
1F
100
AcDbEntity
  8
0
  6
Continuous
 62
     7
370
    25
100
AcDbLine
 10
16.5010573149
 20
20.7461812065
 30
0.0
 11
16.5010573149
 21
20.2961812065
 31
0.0
  0
LWPOLYLINE
  5
274
330
1F
100
AcDbEntity
  8
0
  6
Continuous
 62
     7
370
    25
100
AcDbPolyline
 90
       21
 70
   128
 43
0.0
 10
15.6910573149
 20
20.7711812065
 10
15.6915197148
 20
20.7770656387
 10
15.6929040638
 20
20.7829137914
 10
15.6952018268
 20
20.7886896088
 10
15.6983988374
 20
20.7943574811
 10
15.702475385
 20
20.799882464
 10
15.7074063362
 20
20.805230494
 10
15.7131612902
 20
20.8103685989
 10
15.7197047657
 20
20.8152651005
 10
15.72699642
 20
20.8198898102
 10
15.7349912977
 20
20.8242142151
 10
15.7436401076
 20
20.8282116539
 10
15.752889527
 20
20.8318574811
 10
15.7626825302
 20
20.8351292189
 10
15.7729587399
 20
20.8380066958
 10
15.7836548
 20
20.8404721715
 10
15.7947047657
 20
20.8425104453
 10
15.8060405103
 20
20.8441089506
 10
15.8175921451
 20
20.8452578321
 10
15.8292884505
 20
20.8459500066
 10
15.8410573149
 20
20.8461812065
  0
LINE
  5
275
330
1F
100
AcDbEntity
  8
0
  6
Continuous
 62
     7
370
    25
100
AcDbLine
 10
15.8410573149
 20
20.6961812065
 30
0.0
 11
15.8410573149
 21
20.8461812065
 31
0.0
  0
LWPOLYLINE
  5
276
330
1F
100
AcDbEntity
  8
0
  6
Continuous
 62
     7
370
    25
100
AcDbPolyline
 90
       21
 70
   128
 43
0.0
 10
15.6910573149
 20
20.7711812065
 10
15.6915197148
 20
20.7652967743
 10
15.6929040638
 20
20.7594486217
 10
15.6952018268
 20
20.7536728042
 10
15.6983988374
 20
20.748004932
 10
15.702475385
 20
20.7424799491
 10
15.7074063362
 20
20.737131919
 10
15.7131612902
 20
20.7319938142
 10
15.7197047657
 20
20.7270973126
 10
15.72699642
 20
20.7224726029
 10
15.7349912977
 20
20.7181481979
 10
15.7436401076
 20
20.7141507591
 10
15.752889527
 20
20.710504932
 10
15.7626825302
 20
20.7072331942
 10
15.7729587399
 20
20.7043557172
 10
15.7836548
 20
20.7018902416
 10
15.7947047657
 20
20.6998519678
 10
15.8060405103
 20
20.6982534625
 10
15.8175921451
 20
20.697104581
 10
15.8292884505
 20
20.6964124065
 10
15.8410573149
 20
20.6961812065
  0
LINE
  5
277
330
1F
100
AcDbEntity
  8
0
  6
Continuous
 62
     7
370
    25
100
AcDbLine
 10
16.1310573149
 20
20.6961812065
 30
0.0
 11
15.8410573149
 21
20.6961812065
 31
0.0
  0
LINE
  5
278
330
1F
100
AcDbEntity
  8
0
  6
Continuous
 62
     7
370
    25
100
AcDbLine
 10
15.8410573149
 20
20.8461812065
 30
0.0
 11
16.1310573149
 21
20.8461812065
 31
0.0
  0
LINE
  5
279
330
1F
100
AcDbEntity
  8
0
  6
Continuous
 62
     7
370
    25
100
AcDbLine
 10
16.1310573149
 20
20.8461812065
 30
0.0
 11
16.1310573149
 21
20.6961812065
 31
0.0
  0
LINE
  5
27A
330
1F
100
AcDbEntity
  8
0
  6
Continuous
 62
     7
370
    25
100
AcDbLine
 10
15.6910573149
 20
20.4211812065
 30
0.0
 11
15.6910573149
 21
20.7711812065
 31
0.0
  0
LINE
  5
27B
330
1F
100
AcDbEntity
  8
0
  6
Continuous
 62
     7
370
    25
100
AcDbLine
 10
15.8410573149
 20
20.6961812065
 30
0.0
 11
15.8410573149
 21
20.3461812065
 31
0.0
  0
LWPOLYLINE
  5
27C
330
1F
100
AcDbEntity
  8
0
  6
Continuous
 62
     7
370
    25
100
AcDbPolyline
 90
       21
 70
   128
 43
0.0
 10
15.8410573149
 20
20.3461812065
 10
15.8292884505
 20
20.3464124065
 10
15.8175921451
 20
20.347104581
 10
15.8060405103
 20
20.3482534625
 10
15.7947047657
 20
20.3498519678
 10
15.7836548
 20
20.3518902416
 10
15.7729587399
 20
20.3543557172
 10
15.7626825302
 20
20.3572331942
 10
15.752889527
 20
20.360504932
 10
15.7436401076
 20
20.3641507591
 10
15.7349912977
 20
20.3681481979
 10
15.72699642
 20
20.3724726029
 10
15.7197047657
 20
20.3770973126
 10
15.7131612902
 20
20.3819938142
 10
15.7074063362
 20
20.387131919
 10
15.702475385
 20
20.3924799491
 10
15.6983988374
 20
20.398004932
 10
15.6952018268
 20
20.4036728042
 10
15.6929040638
 20
20.4094486217
 10
15.6915197148
 20
20.4152967743
 10
15.6910573149
 20
20.4211812065
  0
LINE
  5
27D
330
1F
100
AcDbEntity
  8
0
  6
Continuous
 62
     7
370
    25
100
AcDbLine
 10
15.6910573149
 20
20.7711812065
 30
0.0
 11
15.6910573149
 21
21.1211812065
 31
0.0
  0
LWPOLYLINE
  5
27E
330
1F
100
AcDbEntity
  8
0
  6
Continuous
 62
     7
370
    25
100
AcDbPolyline
 90
       21
 70
   128
 43
0.0
 10
15.6910573149
 20
21.1211812065
 10
15.6915197148
 20
21.1270656387
 10
15.6929040638
 20
21.1329137914
 10
15.6952018268
 20
21.1386896088
 10
15.6983988374
 20
21.1443574811
 10
15.702475385
 20
21.149882464
 10
15.7074063362
 20
21.155230494
 10
15.7131612902
 20
21.1603685989
 10
15.7197047657
 20
21.1652651005
 10
15.72699642
 20
21.1698898102
 10
15.7349912977
 20
21.1742142151
 10
15.7436401076
 20
21.1782116539
 10
15.752889527
 20
21.1818574811
 10
15.7626825302
 20
21.1851292189
 10
15.7729587399
 20
21.1880066958
 10
15.7836548
 20
21.1904721715
 10
15.7947047657
 20
21.1925104453
 10
15.8060405103
 20
21.1941089506
 10
15.8175921451
 20
21.1952578321
 10
15.8292884505
 20
21.1959500066
 10
15.8410573149
 20
21.1961812065
  0
LINE
  5
27F
330
1F
100
AcDbEntity
  8
0
  6
Continuous
 62
     7
370
    25
100
AcDbLine
 10
15.8410573149
 20
21.1961812065
 30
0.0
 11
15.8410573149
 21
20.8461812065
 31
0.0
  0
LINE
  5
280
330
1F
100
AcDbEntity
  8
0
  6
Continuous
 62
     7
370
    25
100
AcDbLine
 10
16.1310573149
 20
21.1961812065
 30
0.0
 11
15.8410573149
 21
21.1961812065
 31
0.0
  0
LINE
  5
281
330
1F
100
AcDbEntity
  8
0
  6
Continuous
 62
     7
370
    25
100
AcDbLine
 10
16.1310573149
 20
21.1961812065
 30
0.0
 11
16.1310573149
 21
20.8461812065
 31
0.0
  0
LINE
  5
282
330
1F
100
AcDbEntity
  8
0
  6
Continuous
 62
     7
370
    25
100
AcDbLine
 10
15.8410573149
 20
20.3461812065
 30
0.0
 11
16.1310573149
 21
20.3461812065
 31
0.0
  0
LINE
  5
283
330
1F
100
AcDbEntity
  8
0
  6
Continuous
 62
     7
370
    25
100
AcDbLine
 10
16.1310573149
 20
20.6961812065
 30
0.0
 11
16.1310573149
 21
20.3461812065
 31
0.0
  0
LINE
  5
284
330
1F
100
AcDbEntity
  8
0
  6
Continuous
 62
     7
370
    25
100
AcDbLine
 10
16.1510573149
 20
21.2361812065
 30
0.0
 11
16.1510573149
 21
20.3061812065
 31
0.0
  0
LINE
  5
285
330
1F
100
AcDbEntity
  8
0
  6
Continuous
 62
     7
370
    25
100
AcDbLine
 10
16.1760573149
 20
21.1861812065
 30
0.0
 11
16.1760573149
 21
20.3561812065
 31
0.0
  0
LINE
  5
286
330
1F
100
AcDbEntity
  8
0
  6
Continuous
 62
     7
370
    25
100
AcDbLine
 10
16.2010573149
 20
21.2361812065
 30
0.0
 11
16.2010573149
 21
20.3061812065
 31
0.0
  0
LINE
  5
287
330
1F
100
AcDbEntity
  8
0
  6
Continuous
 62
     7
370
    25
100
AcDbLine
 10
16.2260573149
 20
21.1861812065
 30
0.0
 11
16.2260573149
 21
20.3561812065
 31
0.0
  0
LINE
  5
288
330
1F
100
AcDbEntity
  8
0
  6
Continuous
 62
     7
370
    25
100
AcDbLine
 10
16.2760573149
 20
21.1861812065
 30
0.0
 11
16.2760573149
 21
20.3561812065
 31
0.0
  0
LINE
  5
289
330
1F
100
AcDbEntity
  8
0
  6
Continuous
 62
     7
370
    25
100
AcDbLine
 10
16.2510573149
 20
21.2361812065
 30
0.0
 11
16.2510573149
 21
20.3061812065
 31
0.0
  0
LINE
  5
28A
330
1F
100
AcDbEntity
  8
0
  6
Continuous
 62
     7
370
    25
100
AcDbLine
 10
16.3010573149
 20
21.2361812065
 30
0.0
 11
16.3010573149
 21
20.3061812065
 31
0.0
  0
LINE
  5
28B
330
1F
100
AcDbEntity
  8
0
  6
Continuous
 62
     7
370
    25
100
AcDbLine
 10
16.3260573149
 20
21.1861812065
 30
0.0
 11
16.3260573149
 21
20.3561812065
 31
0.0
  0
LINE
  5
28C
330
1F
100
AcDbEntity
  8
0
  6
Continuous
 62
     7
370
    25
100
AcDbLine
 10
16.3760573149
 20
21.1861812065
 30
0.0
 11
16.3760573149
 21
20.3561812065
 31
0.0
  0
LINE
  5
28D
330
1F
100
AcDbEntity
  8
0
  6
Continuous
 62
     7
370
    25
100
AcDbLine
 10
16.3510573149
 20
21.2361812065
 30
0.0
 11
16.3510573149
 21
20.3061812065
 31
0.0
  0
LINE
  5
28E
330
1F
100
AcDbEntity
  8
0
  6
Continuous
 62
     7
370
    25
100
AcDbLine
 10
16.4010573149
 20
21.2361812065
 30
0.0
 11
16.4010573149
 21
20.3061812065
 31
0.0
  0
LINE
  5
28F
330
1F
100
AcDbEntity
  8
0
  6
Continuous
 62
     7
370
    25
100
AcDbLine
 10
16.4260573149
 20
21.1861812065
 30
0.0
 11
16.4260573149
 21
20.3561812065
 31
0.0
  0
LINE
  5
290
330
1F
100
AcDbEntity
  8
0
  6
Continuous
 62
     7
370
    25
100
AcDbLine
 10
16.4510573149
 20
21.2361812065
 30
0.0
 11
16.4510573149
 21
20.3061812065
 31
0.0
  0
LINE
  5
291
330
1F
100
AcDbEntity
  8
0
  6
Continuous
 62
     7
370
    25
100
AcDbLine
 10
16.4760573149
 20
21.1861812065
 30
0.0
 11
16.4760573149
 21
20.3561812065
 31
0.0
  0
ARC
  5
292
330
1F
100
AcDbEntity
  8
0
  6
Continuous
 62
     7
370
    25
100
AcDbCircle
 10
15.8410573149
 20
20.4211812065
 30
0.0
 40
0.1500000000000021
100
AcDbArc
 50
180.0
 51
270.0
  0
LINE
  5
293
330
1F
100
AcDbEntity
  8
0
  6
Continuous
 62
     7
370
    25
100
AcDbLine
 10
15.8410573149
 20
20.2711812065
 30
0.0
 11
15.8410573149
 21
20.3461812065
 31
0.0
  0
LINE
  5
294
330
1F
100
AcDbEntity
  8
0
  6
Continuous
 62
     7
370
    25
100
AcDbLine
 10
16.1310573149
 20
20.2711812065
 30
0.0
 11
15.8410573149
 21
20.2711812065
 31
0.0
  0
LINE
  5
295
330
1F
100
AcDbEntity
  8
0
  6
Continuous
 62
     7
370
    25
100
AcDbLine
 10
16.1310573149
 20
20.3461812065
 30
0.0
 11
16.1310573149
 21
20.2711812065
 31
0.0
  0
ARC
  5
296
330
1F
100
AcDbEntity
  8
0
  6
Continuous
 62
     7
370
    25
100
AcDbCircle
 10
15.8410573149
 20
21.1211812065
 30
0.0
 40
0.1500000000000004
100
AcDbArc
 50
90.0
 51
180.0
  0
LINE
  5
297
330
1F
100
AcDbEntity
  8
0
  6
Continuous
 62
     7
370
    25
100
AcDbLine
 10
15.8410573149
 20
21.1961812065
 30
0.0
 11
15.8410573149
 21
21.2711812065
 31
0.0
  0
LINE
  5
298
330
1F
100
AcDbEntity
  8
0
  6
Continuous
 62
     7
370
    25
100
AcDbLine
 10
15.8410573149
 20
21.2711812065
 30
0.0
 11
16.1310573149
 21
21.2711812065
 31
0.0
  0
LINE
  5
299
330
1F
100
AcDbEntity
  8
0
  6
Continuous
 62
     7
370
    25
100
AcDbLine
 10
16.1310573149
 20
21.2711812065
 30
0.0
 11
16.1310573149
 21
21.1961812065
 31
0.0
  0
LINE
  5
29A
330
1F
100
AcDbEntity
  8
0
  6
Continuous
 62
     7
370
    25
100
AcDbLine
 10
16.5010573149
 20
21.2461812065
 30
0.0
 11
16.5010573149
 21
21.2711812065
 31
0.0
  0
LINE
  5
29B
330
1F
100
AcDbEntity
  8
0
  6
Continuous
 62
     7
370
    25
100
AcDbLine
 10
16.6910573149
 20
20.2711812065
 30
0.0
 11
16.5010573149
 21
20.2711812065
 31
0.0
  0
LINE
  5
29C
330
1F
100
AcDbEntity
  8
0
  6
Continuous
 62
     7
370
    25
100
AcDbLine
 10
16.5010573149
 20
20.2711812065
 30
0.0
 11
16.5010573149
 21
20.2961812065
 31
0.0
  0
LINE
  5
29D
330
1F
100
AcDbEntity
  8
0
  6
Continuous
 62
     7
370
    25
100
AcDbLine
 10
19.0380573149
 20
21.8811812065
 30
0.0
 11
19.0380573149
 21
19.6611812065
 31
0.0
  0
LINE
  5
29E
330
1F
100
AcDbEntity
  8
0
  6
Continuous
 62
     7
370
    25
100
AcDbLine
 10
16.7210573149
 20
20.7711812065
 30
0.0
 11
16.7210573149
 21
19.6611812065
 31
0.0
  0
LINE
  5
29F
330
1F
100
AcDbEntity
  8
0
  6
Continuous
 62
     7
370
    25
100
AcDbLine
 10
16.7210573149
 20
21.8811812065
 30
0.0
 11
16.7210573149
 21
20.7711812065
 31
0.0
  0
LINE
  5
2A0
330
1F
100
AcDbEntity
  8
0
  6
Continuous
 62
     7
370
    25
100
AcDbLine
 10
16.6910573149
 20
20.7711812065
 30
0.0
 11
16.6910573149
 21
21.8511812065
 31
0.0
  0
LINE
  5
2A1
330
1F
100
AcDbEntity
  8
0
  6
Continuous
 62
     7
370
    25
100
AcDbLine
 10
16.6910573149
 20
19.6911812065
 30
0.0
 11
16.6910573149
 21
20.7711812065
 31
0.0
  0
LWPOLYLINE
  5
2A2
330
1F
100
AcDbEntity
  8
0
  6
Continuous
 62
     7
370
    25
100
AcDbPolyline
 90
       53
 70
   128
 43
0.0
 10
19.3498758068
 20
21.3139941008
 10
19.3511213277
 20
21.3205360566
 10
19.3514472333
 20
21.3271603313
 10
19.3508487711
 20
21.3337703283
 10
19.3493346681
 20
21.3402696587
 10
19.3469270033
 20
21.3465635478
 10
19.3436608859
 20
21.3525602164
 10
19.3395839433
 20
21.3581722197
 10
19.3347556263
 20
21.363317722
 10
19.3292463428
 20
21.3679216903
 10
19.3231364306
 20
21.3719169883
 10
19.3165149858
 20
21.3752453556
 10
19.3094785641
 20
21.3778582571
 10
19.3021297724
 20
21.3797175909
 10
19.2945757726
 20
21.3807962437
 10
19.2869267189
 20
21.3810784862
 10
19.2792941519
 20
21.3805602028
 10
19.2717893716
 20
21.3792489511
 10
19.2645218144
 20
21.3771638522
 10
19.2575974579
 20
21.3743353116
 10
19.2511172747
 20
21.3708045757
 10
19.2451757605
 20
21.3666231306
 10
19.2398595558
 20
21.3618519511
 10
19.2352461831
 20
21.3565606119
 10
19.2314029155
 20
21.3508262725
 10
19.2283857967
 20
21.3447325526
 10
19.226238823
 20
21.3383683122
 10
19.2249933021
 20
21.3318263565
 10
19.2246673965
 20
21.3252020817
 10
19.2252658586
 20
21.3185920848
 10
19.2267799616
 20
21.3120927543
 10
19.2291876264
 20
21.3057988653
 10
19.2324537438
 20
21.2998021966
 10
19.2365306865
 20
21.2941901933
 10
19.2413590034
 20
21.2890446911
 10
19.2468682869
 20
21.2844407228
 10
19.2529781992
 20
21.2804454248
 10
19.2595996439
 20
21.2771170575
 10
19.2666360656
 20
21.2745041559
 10
19.2739848573
 20
21.2726448221
 10
19.2815388572
 20
21.2715661694
 10
19.2891879108
 20
21.2712839269
 10
19.2968204778
 20
21.2718022103
 10
19.3043252582
 20
21.2731134619
 10
19.3115928153
 20
21.2751985608
 10
19.3185171718
 20
21.2780271014
 10
19.324997355
 20
21.2815578374
 10
19.3309388693
 20
21.2857392825
 10
19.3362550739
 20
21.290510462
 10
19.3408684467
 20
21.2958018012
 10
19.3447117142
 20
21.3015361406
 10
19.347728833
 20
21.3076298605
 10
19.3498758068
 20
21.3139941008
  0
LWPOLYLINE
  5
2A3
330
1F
100
AcDbEntity
  8
0
  6
Continuous
 62
     7
370
    25
100
AcDbPolyline
 90
       58
 70
   128
 43
0.0
 10
19.2715566169
 20
21.2579370542
 10
19.2636827707
 20
21.2598900714
 10
19.2561047985
 20
21.2625813757
 10
19.2489146865
 20
21.2659782983
 10
19.242199713
 20
21.2700396053
 10
19.2360413887
 20
21.2747159979
 10
19.2305144673
 20
21.279950711
 10
19.2256860381
 20
21.2856802022
 10
19.2216147117
 20
21.2918349233
 10
19.2183499085
 20
21.2983401644
 10
19.2159312588
 20
21.3051169605
 10
19.2143881217
 20
21.3120830507
 10
19.2137392288
 20
21.3191538759
 10
19.2139924568
 20
21.326243606
 10
19.2151447319
 20
21.3332661812
 10
19.2171820669
 20
21.340136357
 10
19.2200797315
 20
21.3467707388
 10
19.2238025518
 20
21.3530887941
 10
19.2283053379
 20
21.3590138303
 10
19.233533432
 20
21.3644739255
 10
19.2394233723
 20
21.3694028016
 10
19.2459036627
 20
21.3737406286
 10
19.2528956413
 20
21.3774347512
 10
19.2603144351
 20
21.3804403278
 10
19.2680699898
 20
21.3827208747
 10
19.2760681636
 20
21.3842487093
 10
19.2842118694
 20
21.3850052856
 10
19.2924022537
 20
21.3849814198
 10
19.3005398963
 20
21.3841774017
 10
19.3085260174
 20
21.3826029909
 10
19.3162636761
 20
21.3802772986
 10
19.3236589478
 20
21.3772285557
 10
19.3306220638
 20
21.3734937696
 10
19.3370685015
 20
21.3691182757
 10
19.3429200098
 20
21.3641551865
 10
19.3481055593
 20
21.3586647473
 10
19.3525622044
 20
21.3527136044
 10
19.3562358476
 20
21.3463739967
 10
19.3590818957
 20
21.3397228785
 10
19.3610658017
 20
21.3328409853
 10
19.3621634835
 20
21.325811854
 10
19.3623616168
 20
21.3187208087
 10
19.3616577965
 20
21.3116539251
 10
19.3600605661
 20
21.3046969855
 10
19.3575893138
 20
21.297934438
 10
19.3542740371
 20
21.2914483704
 10
19.3501549792
 20
21.2853175151
 10
19.3452821398
 20
21.2796162922
 10
19.3397146684
 20
21.2744139068
 10
19.3335201468
 20
21.2697735089
 10
19.326773768
 20
21.2657514266
 10
19.3195574239
 20
21.2623964826
 10
19.3119587112
 20
21.2597494012
 10
19.3040698679
 20
21.2578423146
 10
19.2959866539
 20
21.2566983721
 10
19.2878071884
 20
21.2563314597
 10
19.2796307591
 20
21.2567460312
 10
19.2715566169
 20
21.2579370542
  0
LINE
  5
2A4
330
1F
100
AcDbEntity
  8
0
  6
Continuous
 62
     7
370
    25
100
AcDbLine
 10
19.2747588898
 20
21.3634419623
 30
0.0
 11
19.2441473466
 21
21.3348377656
 31
0.0
  0
LINE
  5
2A5
330
1F
100
AcDbEntity
  8
0
  6
Continuous
 62
     7
370
    25
100
AcDbLine
 10
19.2574457717
 20
21.2975770098
 30
0.0
 11
19.2441473466
 21
21.3348377656
 31
0.0
  0
LINE
  5
2A6
330
1F
100
AcDbEntity
  8
0
  6
Continuous
 62
     7
370
    25
100
AcDbLine
 10
19.30135574
 20
21.2889204508
 30
0.0
 11
19.2574457717
 21
21.2975770098
 31
0.0
  0
LINE
  5
2A7
330
1F
100
AcDbEntity
  8
0
  6
Continuous
 62
     7
370
    25
100
AcDbLine
 10
19.30135574
 20
21.2889204508
 30
0.0
 11
19.3319672831
 21
21.3175246475
 31
0.0
  0
LINE
  5
2A8
330
1F
100
AcDbEntity
  8
0
  6
Continuous
 62
     7
370
    25
100
AcDbLine
 10
19.3186688581
 20
21.3547854032
 30
0.0
 11
19.3319672831
 21
21.3175246475
 31
0.0
  0
LINE
  5
2A9
330
1F
100
AcDbEntity
  8
0
  6
Continuous
 62
     7
370
    25
100
AcDbLine
 10
19.3186688581
 20
21.3547854032
 30
0.0
 11
19.2747588898
 21
21.3634419623
 31
0.0
  0
LINE
  5
2AA
330
1F
100
AcDbEntity
  8
0
  6
Continuous
 62
     7
370
    25
100
AcDbLine
 10
19.3186688581
 20
21.3097854032
 30
0.0
 11
19.319923339
 21
21.3062704828
 31
0.0
  0
LINE
  5
2AB
330
1F
100
AcDbEntity
  8
0
  6
Continuous
 62
     7
370
    25
100
AcDbLine
 10
19.3186688581
 20
21.3097854032
 30
0.0
 11
19.3186688581
 21
21.3547854032
 31
0.0
  0
LINE
  5
2AC
330
1F
100
AcDbEntity
  8
0
  6
Continuous
 62
     7
370
    25
100
AcDbLine
 10
19.2747588898
 20
21.3184419623
 30
0.0
 11
19.2747588898
 21
21.3634419623
 31
0.0
  0
LINE
  5
2AD
330
1F
100
AcDbEntity
  8
0
  6
Continuous
 62
     7
370
    25
100
AcDbLine
 10
19.2747588898
 20
21.3184419623
 30
0.0
 11
19.2561912908
 21
21.3010919303
 31
0.0
  0
LINE
  5
2AE
330
1F
100
AcDbEntity
  8
0
  6
Continuous
 62
     7
370
    25
100
AcDbLine
 10
19.3186688581
 20
21.3097854032
 30
0.0
 11
19.2747588898
 21
21.3184419623
 31
0.0
  0
LINE
  5
2AF
330
1F
100
AcDbEntity
  8
0
  6
Continuous
 62
     7
370
    25
100
AcDbLine
 10
19.3514573149
 20
19.6611812065
 30
0.0
 11
19.2246573149
 21
19.6611812065
 31
0.0
  0
LINE
  5
2B0
330
1F
100
AcDbEntity
  8
0
  6
Continuous
 62
     7
370
    25
100
AcDbLine
 10
20.1120859553
 20
19.6611812065
 30
0.0
 11
20.1120859553
 21
21.8811812065
 31
0.0
  0
SPLINE
  5
2B1
330
1F
100
AcDbEntity
  8
0
  6
Continuous
 62
     7
370
    25
100
AcDbSpline
210
0.0
220
0.0
230
1.0
 70
     8
 71
     3
 72
    21
 73
    17
 74
     0
 42
0.00000001
 43
0.00000001
 40
0.0
 40
0.0
 40
0.0
 40
0.0
 40
0.0625763532083482
 40
0.1265035522581374
 40
0.1987179559887255
 40
0.2729336853926248
 40
0.346804029490181
 40
0.422782178227162
 40
0.4971988772878723
 40
0.5738190519484421
 40
0.6473702073296037
 40
0.7231773256259324
 40
0.7945918410701481
 40
0.8682338625790178
 40
0.937045556813082
 40
1.0
 40
1.0
 40
1.0
 40
1.0
 10
19.22906862121032
 20
19.66275035232641
 30
0.0
 10
19.23217759856557
 20
19.66289771462686
 30
0.0
 10
19.23846266727227
 20
19.66319562036154
 30
0.0
 10
19.24975448611505
 20
19.66361468841281
 30
0.0
 10
19.26255433379444
 20
19.6639651936477
 30
0.0
 10
19.27667955166413
 20
19.66418673236647
 30
0.0
 10
19.29134933291813
 20
19.66423783053968
 30
0.0
 10
19.3059489610839
 20
19.66410673180111
 30
0.0
 10
19.32021434120873
 20
19.66380403010663
 30
0.0
 10
19.33341723487566
 20
19.66336947714467
 30
0.0
 10
19.34537879765495
 20
19.66284878411246
 30
0.0
 10
19.35541455965144
 20
19.66231831211213
 30
0.0
 10
19.36350013534642
 20
19.66182958649082
 30
0.0
 10
19.36912294532923
 20
19.66145741571507
 30
0.0
 10
19.37251282971173
 20
19.66122017052545
 30
0.0
 10
19.37279896222609
 20
19.66119962980807
 30
0.0
 10
19.37293566892078
 20
19.66118981598602
 30
0.0
  0
SPLINE
  5
2B2
330
1F
100
AcDbEntity
  8
0
  6
Continuous
 62
     7
370
    25
100
AcDbSpline
210
0.0
220
0.0
230
1.0
 70
     8
 71
     3
 72
    13
 73
     9
 74
     0
 42
0.00000001
 43
0.00000001
 40
0.0
 40
0.0
 40
0.0
 40
0.0
 40
0.0931735833769786
 40
0.2982980077228024
 40
0.4959724107544345
 40
0.699183919954865
 40
0.8484928612263118
 40
1.0
 40
1.0
 40
1.0
 40
1.0
 10
19.20333280426403
 20
19.66120077004301
 30
0.0
 10
19.20327425637002
 20
19.66119661837388
 30
0.0
 10
19.20308681354015
 20
19.66118332668124
 30
0.0
 10
19.20519688486085
 20
19.6613329595391
 30
0.0
 10
19.20948608050631
 20
19.66162543077827
 30
0.0
 10
19.21536346440641
 20
19.66199873757193
 30
0.0
 10
19.22198379819176
 20
19.66238668198073
 30
0.0
 10
19.22669553661152
 20
19.6626285397569
 30
0.0
 10
19.22906862121032
 20
19.66275035232641
 30
0.0
  0
SPLINE
  5
2B3
330
1F
100
AcDbEntity
  8
0
  6
Continuous
 62
     7
370
    25
100
AcDbSpline
210
0.0
220
0.0
230
1.0
 70
    11
 71
     3
 72
    45
 73
    41
 74
     0
 42
0.00000001
 43
0.00000001
 40
0.0
 40
0.0
 40
0.0
 40
0.0
 40
0.024108283257882
 40
0.0482188899796314
 40
0.0738454176449427
 40
0.0994759773969331
 40
0.1258909503469073
 40
0.1523094731858095
 40
0.1796529962458247
 40
0.2069984091338386
 40
0.2350092503307526
 40
0.2630196752528091
 40
0.291225937490761
 40
0.3194291371889634
 40
0.3472945027467503
 40
0.3751547349970749
 40
0.4021959954177196
 40
0.4292325688917463
 40
0.4552801931632672
 40
0.4813263356663441
 40
0.506731979345077
 40
0.53213960628193
 40
0.5575936281237321
 40
0.5830514827549634
 40
0.6091771677778239
 40
0.6353067113275677
 40
0.6623680059530221
 40
0.6894318084863292
 40
0.717275728880563
 40
0.7451200155648634
 40
0.7733210565283059
 40
0.8015198844911136
 40
0.8295519839817258
 40
0.8575794303070489
 40
0.8849223608802694
 40
0.9122601029120545
 40
0.9386104409843273
 40
0.9649581106329316
 40
0.9824790027327756
 40
1.0
 40
1.0
 40
1.0
 40
1.0
 10
19.20408616389702
 20
21.33714999532611
 30
0.0
 10
19.20496006740135
 20
21.34069460860144
 30
0.0
 10
19.20670795863348
 20
21.34778417676833
 30
0.0
 10
19.2118473024609
 20
21.35793338023577
 30
0.0
 10
19.21886764019431
 20
21.36740548168233
 30
0.0
 10
19.22788890891336
 20
21.37599980584312
 30
0.0
 10
19.23857369194835
 20
21.38325961858688
 30
0.0
 10
19.2507632411404
 20
21.38910345846239
 30
0.0
 10
19.26410292242537
 20
21.39322172662918
 30
0.0
 10
19.27833967372497
 20
21.39554755970233
 30
0.0
 10
19.2929669013699
 20
21.39586741385678
 30
0.0
 10
19.30761024256172
 20
21.39418821627782
 30
0.0
 10
19.32172394866914
 20
21.3904470623548
 30
0.0
 10
19.33486789696376
 20
21.38479991107732
 30
0.0
 10
19.34657436106432
 20
21.37732636104993
 30
0.0
 10
19.35646072667287
 20
21.36837649134927
 30
0.0
 10
19.36421825329896
 20
21.35812967969277
 30
0.0
 10
19.36967710119763
 20
21.34708452544854
 30
0.0
 10
19.37270638328605
 20
21.33545017947094
 30
0.0
 10
19.37339986372167
 20
21.32370672877345
 30
0.0
 10
19.37173201024357
 20
21.3120529692635
 30
0.0
 10
19.36792580319629
 20
21.30081017998804
 30
0.0
 10
19.3620011548529
 20
21.2902196219687
 30
0.0
 10
19.3541599202798
 20
21.28046041399802
 30
0.0
 10
19.34451760547655
 20
21.27186956535515
 30
0.0
 10
19.33324129593683
 20
21.26457624053905
 30
0.0
 10
19.32062220318747
 20
21.25896396550754
 30
0.0
 10
19.30688001188875
 20
21.25514566103834
 30
0.0
 10
19.2924820485858
 20
21.25342733094867
 30
0.0
 10
19.27776643340705
 20
21.25384272663326
 30
0.0
 10
19.26328038075868
 20
21.2565178291196
 30
0.0
 10
19.24945366394716
 20
21.26131535743621
 30
0.0
 10
19.23678936539772
 20
21.26816351609263
 30
0.0
 10
19.22570546744754
 20
21.27670635759983
 30
0.0
 10
19.21656622143084
 20
21.28672822538803
 30
0.0
 10
19.20962714195226
 20
21.29770022513512
 30
0.0
 10
19.2050575362151
 20
21.30936304238771
 30
0.0
 10
19.2031134883433
 20
21.31997172460943
 30
0.0
 10
19.20291744703135
 20
21.32929471115822
 30
0.0
 10
19.20369659082901
 20
21.33453156203122
 30
0.0
 10
19.20408616389702
 20
21.33714999532611
 30
0.0
  0
LINE
  5
2B4
330
1F
100
AcDbEntity
  8
0
  6
Continuous
 62
     7
370
    25
100
AcDbLine
 10
20.2015286744
 20
19.6611812065
 30
0.0
 11
20.2015286744
 21
21.8811812065
 31
0.0
  0
POINT
  5
2B5
330
1F
100
AcDbEntity
  8
VP
100
AcDbPoint
 10
21.8080573149
 20
20.7711812065
 30
0.0
  0
DIMENSION
  5
2B6
330
1F
100
AcDbEntity
  8
0
  6
Continuous
 62
     7
370
    18
100
AcDbDimension
  2
_D_2
 10
9.8847463241
 20
19.6611812065
 30
0.0
 11
9.8847463241
 21
20.7711812065
 31
0.0
 70
   160
  1
%%c<>
 71
     2
 42
-1.0
  3
SLDDIMSTYLE0
100
AcDbAlignedDimension
 13
16.7210573149
 23
21.8811812065
 33
0.0
 14
16.7210573149
 24
19.6611812065
 34
0.0
 50
90.0
100
AcDbRotatedDimension
  0
DIMENSION
  5
2C9
330
1F
100
AcDbEntity
  8
0
  6
Continuous
 62
     7
370
    18
100
AcDbDimension
  2
_D_3
 10
20.5380573149
 20
25.4058780608
 30
0.0
 11
23.7652706988
 21
25.4058780608
 31
0.0
 70
   160
  1
<>
 71
     2
 42
-1.0
  3
SLDDIMSTYLE0
100
AcDbAlignedDimension
 13
20.9180573149
 23
22.3961812065
 33
0.0
 14
20.5380573149
 24
22.3961812065
 34
0.0
 50
0.0
100
AcDbRotatedDimension
  0
DIMENSION
  5
2DD
330
1F
100
AcDbEntity
  8
0
  6
Continuous
 62
     7
370
    18
100
AcDbDimension
  2
_D_4
 10
16.6910573149
 20
25.4058780608
 30
0.0
 11
9.8847463241
 21
25.4058780608
 31
0.0
 70
   160
  1
<>
 71
     2
 42
-1.0
  3
SLDDIMSTYLE2
100
AcDbAlignedDimension
 13
20.5380573149
 23
22.3961812065
 33
0.0
 14
16.6910573149
 24
21.8511812065
 34
0.0
 50
0.0
100
AcDbRotatedDimension
  0
LINE
  5
2F2
330
1F
100
AcDbEntity
  8
0
  6
Continuous
 62
     7
370
    25
100
AcDbLine
 10
29.1704807273
 20
6.3298678007
 30
0.0
 11
29.2904807273
 21
6.3298678007
 31
0.0
  0
LINE
  5
2F3
330
1F
100
AcDbEntity
  8
0
  6
Continuous
 62
     7
370
    25
100
AcDbLine
 10
29.2904807273
 20
8.7798678007
 30
0.0
 11
29.1704807273
 21
8.7798678007
 31
0.0
  0
LINE
  5
2F4
330
1F
100
AcDbEntity
  8
0
  6
Continuous
 62
     7
370
    25
100
AcDbLine
 10
27.7904807273
 20
6.4448678007
 30
0.0
 11
28.8645093677
 21
6.4448678007
 31
0.0
  0
LINE
  5
2F5
330
1F
100
AcDbEntity
  8
0
  6
Continuous
 62
     7
370
    25
100
AcDbLine
 10
27.9557562167
 20
8.6648678007
 30
0.0
 11
27.7904807273
 21
8.6648678007
 31
0.0
  0
LINE
  5
2F6
330
1F
100
AcDbEntity
  8
0
  6
Continuous
 62
     7
370
    25
100
AcDbLine
 10
28.8645093677
 20
8.6648678007
 30
0.0
 11
28.1254274644
 21
8.6648678007
 31
0.0
  0
ARC
  5
2F7
330
1F
100
AcDbEntity
  8
0
  6
Continuous
 62
     7
370
    25
100
AcDbCircle
 10
28.9092307273
 20
6.4048678007
 30
0.0
 40
0.0600000000000004
100
AcDbArc
 50
41.8103148958
 51
138.1896851042
  0
ARC
  5
2F8
330
1F
100
AcDbEntity
  8
0
  6
Continuous
 62
     7
370
    25
100
AcDbCircle
 10
28.9092307273
 20
8.7048678007
 30
0.0
 40
0.0600000000000004
100
AcDbArc
 50
221.8103148958
 51
318.1896851042
  0
LINE
  5
2F9
330
1F
100
AcDbEntity
  8
0
  6
Continuous
 62
     7
370
    25
100
AcDbLine
 10
28.9539520868
 20
6.4448678007
 30
0.0
 11
29.1704807273
 21
6.4448678007
 31
0.0
  0
LINE
  5
2FA
330
1F
100
AcDbEntity
  8
0
  6
Continuous
 62
     7
370
    25
100
AcDbLine
 10
29.1704807273
 20
8.6648678007
 30
0.0
 11
28.9539520868
 21
8.6648678007
 31
0.0
  0
LINE
  5
2FB
330
1F
100
AcDbEntity
  8
0
  6
Continuous
 62
     7
370
    25
100
AcDbLine
 10
29.2904807273
 20
9.1798678007
 30
0.0
 11
29.6704807273
 21
9.1798678007
 31
0.0
  0
LINE
  5
2FC
330
1F
100
AcDbEntity
  8
0
  6
Continuous
 62
     7
370
    25
100
AcDbLine
 10
29.6704807273
 20
9.1798678007
 30
0.0
 11
29.6704807273
 21
9.1498678007
 31
0.0
  0
LINE
  5
2FD
330
1F
100
AcDbEntity
  8
0
  6
Continuous
 62
     7
370
    25
100
AcDbLine
 10
29.6704807273
 20
9.1498678007
 30
0.0
 11
29.2904807273
 21
9.1498678007
 31
0.0
  0
LINE
  5
2FE
330
1F
100
AcDbEntity
  8
0
  6
Continuous
 62
     7
370
    25
100
AcDbLine
 10
29.2904807273
 20
9.1498678007
 30
0.0
 11
29.2904807273
 21
9.1798678007
 31
0.0
  0
LINE
  5
2FF
330
1F
100
AcDbEntity
  8
0
  6
Continuous
 62
     7
370
    25
100
AcDbLine
 10
29.2904807273
 20
5.9598678007
 30
0.0
 11
29.6704807273
 21
5.9598678007
 31
0.0
  0
LINE
  5
300
330
1F
100
AcDbEntity
  8
0
  6
Continuous
 62
     7
370
    25
100
AcDbLine
 10
29.6704807273
 20
5.9598678007
 30
0.0
 11
29.6704807273
 21
5.9298678007
 31
0.0
  0
LINE
  5
301
330
1F
100
AcDbEntity
  8
0
  6
Continuous
 62
     7
370
    25
100
AcDbLine
 10
29.6704807273
 20
5.9298678007
 30
0.0
 11
29.2904807273
 21
5.9298678007
 31
0.0
  0
LINE
  5
302
330
1F
100
AcDbEntity
  8
0
  6
Continuous
 62
     7
370
    25
100
AcDbLine
 10
29.2904807273
 20
5.9298678007
 30
0.0
 11
29.2904807273
 21
5.9598678007
 31
0.0
  0
LINE
  5
303
330
1F
100
AcDbEntity
  8
0
  6
Continuous
 62
     7
370
    25
100
AcDbLine
 10
29.6704807273
 20
5.9598678007
 30
0.0
 11
29.6704807273
 21
9.1498678007
 31
0.0
  0
LINE
  5
304
330
1F
100
AcDbEntity
  8
0
  6
Continuous
 62
     7
370
    25
100
AcDbLine
 10
29.2904807273
 20
5.9598678007
 30
0.0
 11
29.2904807273
 21
9.1498678007
 31
0.0
  0
LINE
  5
305
330
1F
100
AcDbEntity
  8
0
  6
Continuous
 62
     7
370
    25
100
AcDbLine
 10
29.1704807273
 20
7.5548678007
 30
0.0
 11
29.1704807273
 21
8.7798678007
 31
0.0
  0
LINE
  5
306
330
1F
100
AcDbEntity
  8
0
  6
Continuous
 62
     7
370
    25
100
AcDbLine
 10
29.1704807273
 20
6.3298678007
 30
0.0
 11
29.1704807273
 21
7.5548678007
 31
0.0
  0
LINE
  5
307
330
1F
100
AcDbEntity
  8
0
  6
Continuous
 62
     7
370
    25
100
AcDbLine
 10
28.8645093677
 20
7.5548678007
 30
0.0
 11
28.8645093677
 21
8.6648678007
 31
0.0
  0
LINE
  5
308
330
1F
100
AcDbEntity
  8
0
  6
Continuous
 62
     7
370
    25
100
AcDbLine
 10
28.8645093677
 20
6.4448678007
 30
0.0
 11
28.8645093677
 21
7.5548678007
 31
0.0
  0
SPLINE
  5
309
330
1F
100
AcDbEntity
  8
0
  6
Continuous
 62
     7
370
    25
100
AcDbSpline
210
0.0
220
0.0
230
1.0
 70
     8
 71
     3
 72
    33
 73
    29
 74
     0
 42
0.00000001
 43
0.00000001
 40
0.0
 40
0.0
 40
0.0
 40
0.0
 40
0.0059316875237966
 40
0.0560387309636024
 40
0.1075997607607651
 40
0.1577625733883975
 40
0.2093121884654056
 40
0.2607635116008464
 40
0.3136086160175071
 40
0.3668906146373611
 40
0.4216319201254672
 40
0.4764659010408915
 40
0.5046815176847967
 40
0.5328971205298795
 40
0.588455554854738
 40
0.6170743441110069
 40
0.6456927687723024
 40
0.6733423728277247
 40
0.7009915056677333
 40
0.7294830501144505
 40
0.7579739129318243
 40
0.8118936293999826
 40
0.8397211183361784
 40
0.8675479167510117
 40
0.9195330397795602
 40
0.9463547672454589
 40
0.973176219665036
 40
1.0
 40
1.0
 40
1.0
 40
1.0
 10
28.12542746441544
 20
8.664864006905551
 30
0.0
 10
28.12544299443682
 20
8.664865114042763
 30
0.0
 10
28.1255897119917
 20
8.664875573556028
 30
0.0
 10
28.12439236043204
 20
8.66479008508976
 30
0.0
 10
28.1209061639602
 20
8.664548221274105
 30
0.0
 10
28.11517747548992
 20
8.664172874199187
 30
0.0
 10
28.10756830338301
 20
8.663716716678886
 30
0.0
 10
28.09808973679138
 20
8.663216482552196
 30
0.0
 10
28.087019505729
 20
8.662727720700033
 30
0.0
 10
28.07449625642329
 20
8.662299463190877
 30
0.0
 10
28.06091210214577
 20
8.6619849812912
 30
0.0
 10
28.04895282851598
 20
8.661849979403328
 30
0.0
 10
28.03922412403896
 20
8.661830239071735
 30
0.0
 10
28.02944487792153
 20
8.661870756267959
 30
0.0
 10
28.019732354386
 20
8.662001629374252
 30
0.0
 10
28.01033245527809
 20
8.662212401590926
 30
0.0
 10
28.00347513358597
 20
8.662406408164292
 30
0.0
 10
27.99696405599616
 20
8.662627529521702
 30
0.0
 10
27.99076978265226
 20
8.66287027596258
 30
0.0
 10
27.98487925871947
 20
8.663131282935776
 30
0.0
 10
27.97770942827265
 20
8.663483174083602
 30
0.0
 10
27.97145116822439
 20
8.663832340969753
 30
0.0
 10
27.9662659633823
 20
8.6641470120617
 30
0.0
 10
27.96190123364683
 20
8.664425275069751
 30
0.0
 10
27.95865034583236
 20
8.664645648576426
 30
0.0
 10
27.95665651590987
 20
8.6647844441924
 30
0.0
 10
27.95558839292394
 20
8.664860126376418
 30
0.0
 10
27.95570027379833
 20
8.66485220037448
 30
0.0
 10
27.95575621666304
 20
8.664848237201536
 30
0.0
  0
SPLINE
  5
30A
330
1F
100
AcDbEntity
  8
0
  6
Continuous
 62
     7
370
    25
100
AcDbSpline
210
0.0
220
0.0
230
1.0
 70
    11
 71
     3
 72
    52
 73
    48
 74
     0
 42
0.00000001
 43
0.00000001
 40
0.0
 40
0.0
 40
0.0
 40
0.0
 40
0.0237113043591142
 40
0.0474196569851934
 40
0.0649663506615612
 40
0.0825714738612483
 40
0.1001161918992215
 40
0.1256868297070698
 40
0.1512582653556893
 40
0.1766011815079126
 40
0.2019474523507636
 40
0.2277558052539027
 40
0.253568198992221
 40
0.2802628270256466
 40
0.3069605998992157
 40
0.3345388226294092
 40
0.3621182907410004
 40
0.380855088983194
 40
0.3996511449992748
 40
0.4183871168902402
 40
0.4371478638520134
 40
0.455969489136118
 40
0.474727589143783
 40
0.4931544637838152
 40
0.5116426130088083
 40
0.5300657939248136
 40
0.5478777424992162
 40
0.5657494995950457
 40
0.58355873358376
 40
0.6093460376778289
 40
0.6351330030540432
 40
0.6604688581483045
 40
0.6858074556277814
 40
0.7114040836696924
 40
0.7370047289956873
 40
0.7633976448659419
 40
0.789794128483395
 40
0.8171164667764139
 40
0.8444407272789601
 40
0.8630971749447024
 40
0.8818121687717798
 40
0.900468356703494
 40
0.9192602840682897
 40
0.9381126859956248
 40
0.9569025250618695
 40
0.9784521476384614
 40
1.0
 40
1.0
 40
1.0
 40
1.0
 10
27.97691022792768
 20
6.953426848181091
 30
0.0
 10
27.97423808155644
 20
6.956100624686257
 30
0.0
 10
27.96889412145964
 20
6.96144784484799
 30
0.0
 10
27.9633234629784
 20
6.969900884248008
 30
0.0
 10
27.95947508810745
 20
6.978044702144522
 30
0.0
 10
27.95704200755432
 20
6.98567082859662
 30
0.0
 10
27.95542393145368
 20
6.994713701407853
 30
0.0
 10
27.95535307619429
 20
7.005159460124849
 30
0.0
 10
27.95749564730152
 20
7.01671492761645
 30
0.0
 10
27.9618590552284
 20
7.027822891941943
 30
0.0
 10
27.96822329928649
 20
7.038258866106511
 30
0.0
 10
27.97652011773027
 20
7.047723011636695
 30
0.0
 10
27.98657646683039
 20
7.05607636498498
 30
0.0
 10
27.99817386316286
 20
7.06294070160042
 30
0.0
 10
28.01112461923781
 20
7.068194097843232
 30
0.0
 10
28.02502007241291
 20
7.071485457721294
 30
0.0
 10
28.03793531529065
 20
7.072598682235029
 30
0.0
 10
28.04932401953293
 20
7.07212706105446
 30
0.0
 10
28.05905607078218
 20
7.070741866724484
 30
0.0
 10
28.06856233061596
 20
7.068394363949266
 30
0.0
 10
28.07770808889431
 20
7.065077239815134
 30
0.0
 10
28.08638297090178
 20
7.060864298402585
 30
0.0
 10
28.09442256673999
 20
7.055837003846953
 30
0.0
 10
28.10169965596532
 20
7.050048105857827
 30
0.0
 10
28.10814997835186
 20
7.043617058446003
 30
0.0
 10
28.11366249563736
 20
7.036668260101008
 30
0.0
 10
28.11814741712197
 20
7.029300895005883
 30
0.0
 10
28.12161007960015
 20
7.021649405448936
 30
0.0
 10
28.12440982692768
 20
7.012551614278252
 30
0.0
 10
28.12581131923341
 20
7.002018530313297
 30
0.0
 10
28.12510479144697
 20
6.990363263392659
 30
0.0
 10
28.12210029522895
 20
6.979139648636087
 30
0.0
 10
28.11702506275977
 20
6.968582895332352
 30
0.0
 10
28.10991855047153
 20
6.958934887193509
 30
0.0
 10
28.10096686043193
 20
6.950304564280677
 30
0.0
 10
28.09033229607273
 20
6.943002279208757
 30
0.0
 10
28.07818680239497
 20
6.937107537473035
 30
0.0
 10
28.06488108320212
 20
6.932933012813094
 30
0.0
 10
28.05226915281479
 20
6.930814889947871
 30
0.0
 10
28.04096195045021
 20
6.930252499760095
 30
0.0
 10
28.03116399092188
 20
6.930660411941132
 30
0.0
 10
28.02145541247529
 20
6.931962437831956
 30
0.0
 10
28.01196912295494
 20
6.934185780696565
 30
0.0
 10
28.00281689868569
 20
6.937283691033968
 30
0.0
 10
27.99373896035491
 20
6.941437133726137
 30
0.0
 10
27.98489054881526
 20
6.946697191810179
 30
0.0
 10
27.97957026204718
 20
6.951183690817959
 30
0.0
 10
27.97691022792768
 20
6.953426848181091
 30
0.0
  0
LINE
  5
30B
330
1F
100
AcDbEntity
  8
0
  6
Continuous
 62
     7
370
    25
100
AcDbLine
 10
27.7904807273
 20
7.5548678007
 30
0.0
 11
27.7904807273
 21
8.6648678007
 31
0.0
  0
LINE
  5
30C
330
1F
100
AcDbEntity
  8
0
  6
Continuous
 62
     7
370
    25
100
AcDbLine
 10
27.7904807273
 20
6.4448678007
 30
0.0
 11
27.7904807273
 21
7.5548678007
 31
0.0
  0
LINE
  5
30D
330
1F
100
AcDbEntity
  8
0
  6
Continuous
 62
     7
370
    25
100
AcDbLine
 10
28.9539520868
 20
7.5548678007
 30
0.0
 11
28.9539520868
 21
8.6648678007
 31
0.0
  0
LINE
  5
30E
330
1F
100
AcDbEntity
  8
0
  6
Continuous
 62
     7
370
    25
100
AcDbLine
 10
28.9539520868
 20
6.4448678007
 30
0.0
 11
28.9539520868
 21
7.5548678007
 31
0.0
  0
SPLINE
  5
30F
330
1F
100
AcDbEntity
  8
0
  6
Continuous
 62
     7
370
    25
100
AcDbSpline
210
0.0
220
0.0
230
1.0
 70
     8
 71
     3
 72
    15
 73
    11
 74
     0
 42
0.00000001
 43
0.00000001
 40
0.0
 40
0.0
 40
0.0
 40
0.0
 40
0.1279827199796317
 40
0.2559662300151392
 40
0.3839403728048967
 40
0.5119156479364079
 40
0.6400647317386444
 40
0.7682135281110215
 40
0.8964788780569102
 40
1.0
 40
1.0
 40
1.0
 40
1.0
 10
28.04048072727276
 20
6.979596189378158
 30
0.0
 10
28.04429889070294
 20
6.979754367436937
 30
0.0
 10
28.05193524113338
 20
6.980070724530951
 30
0.0
 10
28.06307024331954
 20
6.982544706578032
 30
0.0
 10
28.07355144733573
 20
6.986461072430062
 30
0.0
 10
28.08311458152915
 20
6.991813458468027
 30
0.0
 10
28.09146380718946
 20
6.99847758893654
 30
0.0
 10
28.09834720208542
 20
7.006265740979952
 30
0.0
 10
28.10341630520402
 20
7.014382712117591
 30
0.0
 10
28.10529917972514
 20
7.020090216063894
 30
0.0
 10
28.1061401144066
 20
7.022639317429477
 30
0.0
  0
SPLINE
  5
310
330
1F
100
AcDbEntity
  8
0
  6
Continuous
 62
     7
370
    25
100
AcDbSpline
210
0.0
220
0.0
230
1.0
 70
     8
 71
     3
 72
    16
 73
    12
 74
     0
 42
0.00000001
 43
0.00000001
 40
0.0
 40
0.0
 40
0.0
 40
0.0
 40
0.0696100910505531
 40
0.1972710192792779
 40
0.3249330577582197
 40
0.4528343212423402
 40
0.5807352681319202
 40
0.7087469013804223
 40
0.8367572654109736
 40
0.9183786779000828
 40
1.0
 40
1.0
 40
1.0
 40
1.0
 10
27.97486865897058
 20
7.022795433771227
 30
0.0
 10
27.97535023848
 20
7.021056765389699
 30
0.0
 10
27.97671500728369
 20
7.016129478574867
 30
0.0
 10
27.98100382145449
 20
7.008639084328058
 30
0.0
 10
27.98737311640096
 20
7.0005549112321
 30
0.0
 10
27.99537071149564
 20
6.993579358280384
 30
0.0
 10
28.00460573734335
 20
6.987819377143389
 30
0.0
 10
28.01489008238288
 20
6.983481341828477
 30
0.0
 10
28.0245651560835
 20
6.980991768357409
 30
0.0
 10
28.03316525066396
 20
6.979787927091617
 30
0.0
 10
28.03804223596998
 20
6.979660101925719
 30
0.0
 10
28.04048072727276
 20
6.979596189378158
 30
0.0
  0
LWPOLYLINE
  5
311
330
1F
100
AcDbEntity
  8
0
  6
Continuous
 62
     7
370
    25
100
AcDbPolyline
 90
       67
 70
   128
 43
0.0
 10
28.0404807273
 20
6.9494780733
 10
28.0469445382
 20
6.9497447305
 10
28.0533498119
 20
6.9505422874
 10
28.0596385411
 20
6.951863521
 10
28.0657537743
 20
6.9536964662
 10
28.0716401308
 20
6.9560245234
 10
28.0772443029
 20
6.9588266094
 10
28.0825155383
 20
6.9620773482
 10
28.0874061001
 20
6.9657473005
 10
28.0918716983
 20
6.9698032306
 10
28.095871892
 20
6.9742084074
 10
28.0993704547
 20
6.978922937
 10
28.102335703
 20
6.9839041238
 10
28.1047407829
 20
6.9891068575
 10
28.1065639139
 20
6.9944840213
 10
28.1077885853
 20
6.9999869187
 10
28.1084037063
 20
7.0055657147
 10
28.1084037063
 20
7.0111698868
 10
28.1077885853
 20
7.0167486828
 10
28.1065639139
 20
7.0222515802
 10
28.1047407829
 20
7.0276287439
 10
28.102335703
 20
7.0328314776
 10
28.0993704547
 20
7.0378126644
 10
28.095871892
 20
7.042527194
 10
28.0918716983
 20
7.0469323709
 10
28.0874061001
 20
7.050988301
 10
28.0825155383
 20
7.0546582532
 10
28.0772443029
 20
7.057908992
 10
28.0716401308
 20
7.060711078
 10
28.0657537743
 20
7.0630391353
 10
28.0596385411
 20
7.0648720804
 10
28.0533498119
 20
7.0661933141
 10
28.0469445382
 20
7.0669908709
 10
28.0404807273
 20
7.0672575282
 10
28.0340169163
 20
7.0669908709
 10
28.0276116427
 20
7.0661933141
 10
28.0213229134
 20
7.0648720804
 10
28.0152076803
 20
7.0630391353
 10
28.0093213238
 20
7.060711078
 10
28.0037171517
 20
7.057908992
 10
27.9984459162
 20
7.0546582532
 10
27.9935553545
 20
7.050988301
 10
27.9890897562
 20
7.0469323709
 10
27.9850895625
 20
7.042527194
 10
27.9815909998
 20
7.0378126644
 10
27.9786257516
 20
7.0328314776
 10
27.9762206716
 20
7.0276287439
 10
27.9743975406
 20
7.0222515802
 10
27.9731728692
 20
7.0167486828
 10
27.9725577482
 20
7.0111698868
 10
27.9725577482
 20
7.0055657147
 10
27.9731728692
 20
6.9999869187
 10
27.9743975406
 20
6.9944840213
 10
27.9762206716
 20
6.9891068575
 10
27.9786257516
 20
6.9839041238
 10
27.9815909998
 20
6.978922937
 10
27.9850895625
 20
6.9742084074
 10
27.9890897562
 20
6.9698032306
 10
27.9935553545
 20
6.9657473005
 10
27.9984459162
 20
6.9620773482
 10
28.0037171517
 20
6.9588266094
 10
28.0093213238
 20
6.9560245234
 10
28.0152076803
 20
6.9536964662
 10
28.0213229134
 20
6.951863521
 10
28.0276116427
 20
6.9505422874
 10
28.0340169163
 20
6.9497447305
 10
28.0404807273
 20
6.9494780733
  0
DIMENSION
  5
312
330
1F
100
AcDbEntity
  8
0
  6
Continuous
 62
     7
370
    18
100
AcDbDimension
  2
_D_5
 10
29.2904807273
 20
11.5155180896
 30
0.0
 11
31.9448379788
 21
11.5155180896
 31
0.0
 70
   160
  1
<>
 71
     2
 42
-1.0
  3
SLDDIMSTYLE0
100
AcDbAlignedDimension
 13
29.6704807273
 23
9.1798678007
 33
0.0
 14
29.2904807273
 24
9.1798678007
 34
0.0
100
AcDbRotatedDimension
  0
ENDSEC
  0
SECTION
  2
OBJECTS
  0
DICTIONARY
  5
C
330
0
100
AcDbDictionary
281
     1
  3
ACAD_GROUP
350
D
  3
ACAD_LAYOUT
350
1A
  3
ACAD_MLINESTYLE
350
17
  3
ACAD_PLOTSETTINGS
350
19
  3
ACAD_PLOTSTYLENAME
350
E
  3
ACAD_SCALELIST
350
47
  3
DWGPROPS
350
326
  0
DICTIONARY
  5
D
102
{ACAD_REACTORS
330
C
102
}
330
C
100
AcDbDictionary
281
     1
  0
DICTIONARY
  5
1A
102
{ACAD_REACTORS
330
C
102
}
330
C
100
AcDbDictionary
281
     1
  3
Layout1
350
1E
  3
Layout2
350
26
  3
Model
350
22
  0
DICTIONARY
  5
17
102
{ACAD_REACTORS
330
C
102
}
330
C
100
AcDbDictionary
281
     1
  3
Standard
350
18
  0
DICTIONARY
  5
19
102
{ACAD_REACTORS
330
C
102
}
330
C
100
AcDbDictionary
281
     1
  0
ACDBDICTIONARYWDFLT
  5
E
102
{ACAD_REACTORS
330
C
102
}
330
C
100
AcDbDictionary
281
     1
  3
Normal
350
F
100
AcDbDictionaryWithDefault
340
F
  0
DICTIONARY
  5
47
102
{ACAD_REACTORS
330
C
102
}
330
C
100
AcDbDictionary
281
     1
  3
A0
350
48
  3
A1
350
49
  3
A2
350
4A
  3
A3
350
4B
  3
A4
350
4C
  3
A5
350
4D
  3
A6
350
4E
  3
A7
350
4F
  3
A8
350
50
  3
A9
350
51
  3
B1
350
52
  3
B2
350
53
  3
B3
350
54
  3
B4
350
55
  3
B5
350
56
  3
B6
350
57
  3
B7
350
58
  0
XRECORD
  5
326
102
{ACAD_REACTORS
330
C
102
}
330
C
100
AcDbXrecord
280
     1
  1
DWGPROPS COOKIE
  2

  3

  4

  6

  7

  8
gurisher.rai
  9

300
=
301
=
302
=
303
=
304
=
305
=
306
=
307
=
308
=
309
=
 40
0.0
 41
2460537.006874156
 42
2460537.006879005
  1

 90
        0
  0
LAYOUT
  5
1E
102
{ACAD_REACTORS
330
1A
102
}
330
1A
100
AcDbPlotSettings
  1

  2
none_device
  4

  6

 40
0.0
 41
0.0
 42
0.0
 43
0.0
 44
0.0
 45
0.0
 46
0.0
 47
0.0
 48
0.0
 49
0.0
140
0.0
141
0.0
142
1.0
143
1.0
 70
   688
 72
     0
 73
     0
 74
     5
  7

 75
    16
147
1.0
148
0.0
149
0.0
100
AcDbLayout
  1
Layout1
 70
     1
 71
     1
 10
0.0
 20
0.0
 11
12.0
 21
9.0
 12
0.0
 22
0.0
 32
0.0
 14
1.0000000000E+20
 24
1.0000000000E+20
 34
1.0000000000E+20
 15
-1.0000000000E+20
 25
-1.0000000000E+20
 35
-1.0000000000E+20
146
0.0
 13
0.0
 23
0.0
 33
0.0
 16
1.0
 26
0.0
 36
0.0
 17
0.0
 27
1.0
 37
0.0
 76
     0
330
1B
  0
LAYOUT
  5
26
102
{ACAD_REACTORS
330
1A
102
}
330
1A
100
AcDbPlotSettings
  1

  2
none_device
  4

  6

 40
0.0
 41
0.0
 42
0.0
 43
0.0
 44
0.0
 45
0.0
 46
0.0
 47
0.0
 48
0.0
 49
0.0
140
0.0
141
0.0
142
1.0
143
1.0
 70
   688
 72
     0
 73
     0
 74
     5
  7

 75
    16
147
1.0
148
0.0
149
0.0
100
AcDbLayout
  1
Layout2
 70
     1
 71
     2
 10
0.0
 20
0.0
 11
0.0
 21
0.0
 12
0.0
 22
0.0
 32
0.0
 14
0.0
 24
0.0
 34
0.0
 15
0.0
 25
0.0
 35
0.0
146
0.0
 13
0.0
 23
0.0
 33
0.0
 16
1.0
 26
0.0
 36
0.0
 17
0.0
 27
1.0
 37
0.0
 76
     0
330
23
  0
LAYOUT
  5
22
102
{ACAD_REACTORS
330
1A
102
}
330
1A
100
AcDbPlotSettings
  1

  2
none_device
  4
Letter_(8.50_x_11.00_Inches)
  6

 40
6.35
 41
6.35
 42
6.35000508
 43
6.35000508
 44
215.9
 45
279.4
 46
0.0
 47
0.0
 48
0.0
 49
0.0
140
0.0
141
0.0
142
1.0
143
1.0
 70
  1712
 72
     0
 73
     0
 74
     0
  7

 75
     0
147
1.0
148
0.0
149
0.0
100
AcDbLayout
  1
Model
 70
     1
 71
     0
 10
0.0
 20
0.0
 11
44.0
 21
34.0
 12
0.0
 22
0.0
 32
0.0
 14
0.0
 24
0.0
 34
0.0
 15
44.0
 25
34.0
 35
0.0
146
0.0
 13
0.0
 23
0.0
 33
0.0
 16
1.0
 26
0.0
 36
0.0
 17
0.0
 27
1.0
 37
0.0
 76
     0
330
1F
331
29
  0
MLINESTYLE
  5
18
102
{ACAD_REACTORS
330
17
102
}
330
17
100
AcDbMlineStyle
  2
Standard
 70
     0
  3

 62
   256
 51
90.0
 52
90.0
 71
     2
 49
0.5
 62
   256
  6
BYLAYER
 49
-0.5
 62
   256
  6
BYLAYER
  0
ACDBPLACEHOLDER
  5
F
102
{ACAD_REACTORS
330
E
102
}
330
E
  0
SCALE
  5
48
102
{ACAD_REACTORS
330
47
102
}
330
47
100
AcDbScale
 70
     0
300
1:1
140
1.0
141
1.0
290
     1
  0
SCALE
  5
49
102
{ACAD_REACTORS
330
47
102
}
330
47
100
AcDbScale
 70
     0
300
1/128" = 1'-0"
140
0.0078125
141
12.0
290
     0
  0
SCALE
  5
4A
102
{ACAD_REACTORS
330
47
102
}
330
47
100
AcDbScale
 70
     0
300
1/64" = 1'-0"
140
0.015625
141
12.0
290
     0
  0
SCALE
  5
4B
102
{ACAD_REACTORS
330
47
102
}
330
47
100
AcDbScale
 70
     0
300
1/32" = 1'-0"
140
0.03125
141
12.0
290
     0
  0
SCALE
  5
4C
102
{ACAD_REACTORS
330
47
102
}
330
47
100
AcDbScale
 70
     0
300
1/16" = 1'-0"
140
0.0625
141
12.0
290
     0
  0
SCALE
  5
4D
102
{ACAD_REACTORS
330
47
102
}
330
47
100
AcDbScale
 70
     0
300
3/32" = 1'-0"
140
0.09375
141
12.0
290
     0
  0
SCALE
  5
4E
102
{ACAD_REACTORS
330
47
102
}
330
47
100
AcDbScale
 70
     0
300
1/8" = 1'-0"
140
0.125
141
12.0
290
     0
  0
SCALE
  5
4F
102
{ACAD_REACTORS
330
47
102
}
330
47
100
AcDbScale
 70
     0
300
3/16" = 1'-0"
140
0.1875
141
12.0
290
     0
  0
SCALE
  5
50
102
{ACAD_REACTORS
330
47
102
}
330
47
100
AcDbScale
 70
     0
300
1/4" = 1'-0"
140
0.25
141
12.0
290
     0
  0
SCALE
  5
51
102
{ACAD_REACTORS
330
47
102
}
330
47
100
AcDbScale
 70
     0
300
3/8" = 1'-0"
140
0.375
141
12.0
290
     0
  0
SCALE
  5
52
102
{ACAD_REACTORS
330
47
102
}
330
47
100
AcDbScale
 70
     0
300
1/2" = 1'-0"
140
0.5
141
12.0
290
     0
  0
SCALE
  5
53
102
{ACAD_REACTORS
330
47
102
}
330
47
100
AcDbScale
 70
     0
300
3/4" = 1'-0"
140
0.75
141
12.0
290
     0
  0
SCALE
  5
54
102
{ACAD_REACTORS
330
47
102
}
330
47
100
AcDbScale
 70
     0
300
1" = 1'-0"
140
1.0
141
12.0
290
     0
  0
SCALE
  5
55
102
{ACAD_REACTORS
330
47
102
}
330
47
100
AcDbScale
 70
     0
300
1-1/2" = 1'-0"
140
1.5
141
12.0
290
     0
  0
SCALE
  5
56
102
{ACAD_REACTORS
330
47
102
}
330
47
100
AcDbScale
 70
     0
300
3" = 1'-0"
140
3.0
141
12.0
290
     0
  0
SCALE
  5
57
102
{ACAD_REACTORS
330
47
102
}
330
47
100
AcDbScale
 70
     0
300
6" = 1'-0"
140
6.0
141
12.0
290
     0
  0
SCALE
  5
58
102
{ACAD_REACTORS
330
47
102
}
330
47
100
AcDbScale
 70
     0
300
1'-0" = 1'-0"
140
12.0
141
12.0
290
     0
  0
ENDSEC
  0
EOF
