  0
SECTION
  2
HEADER
  9
$ACADVER
  1
AC1015
  9
$ACADMAINTVER
 70
     6
  9
$DWGCODEPAGE
  3
ANSI_1252
  9
$INSBASE
 10
0.0
 20
0.0
 30
0.0
  9
$EXTMIN
 10
0.0
 20
0.0
 30
0.0
  9
$EXTMAX
 10
44.0
 20
34.0
 30
0.0
  9
$LIMMIN
 10
0.0
 20
0.0
  9
$LIMMAX
 10
44.0
 20
34.0
  9
$ORTHOMODE
 70
     0
  9
$REGENMODE
 70
     1
  9
$FILLMODE
 70
     1
  9
$QTEXTMODE
 70
     0
  9
$MIRRTEXT
 70
     1
  9
$LTSCALE
 40
4.0
  9
$ATTMODE
 70
     1
  9
$TEXTSIZE
 40
0.5
  9
$TRACEWID
 40
0.05
  9
$TEXTSTYLE
  7
Standard
  9
$CLAYER
  8
0
  9
$CELTYPE
  6
ByLayer
  9
$CECOLOR
 62
   256
  9
$CELTSCALE
 40
1.0
  9
$DISPSILH
 70
     0
  9
$DIMSCALE
 40
1.0
  9
$DIMASZ
 40
0.52
  9
$DIMEXO
 40
0.2
  9
$DIMDLI
 40
0.38
  9
$DIMRND
 40
0.0
  9
$DIMDLE
 40
0.0
  9
$DIMEXE
 40
0.5
  9
$DIMTP
 40
0.0
  9
$DIMTM
 40
0.0
  9
$DIMTXT
 40
0.5
  9
$DIMCEN
 40
0.09
  9
$DIMTSZ
 40
0.0
  9
$DIMTOL
 70
     0
  9
$DIMLIM
 70
     0
  9
$DIMTIH
 70
     1
  9
$DIMTOH
 70
     1
  9
$DIMSE1
 70
     0
  9
$DIMSE2
 70
     0
  9
$DIMTAD
 70
     0
  9
$DIMZIN
 70
     1
  9
$DIMBLK
  1

  9
$DIMASO
 70
     1
  9
$DIMSHO
 70
     1
  9
$DIMPOST
  1

  9
$DIMAPOST
  1

  9
$DIMALT
 70
     0
  9
$DIMALTD
 70
     2
  9
$DIMALTF
 40
25.4
  9
$DIMLFAC
 40
1.0
  9
$DIMTOFL
 70
     0
  9
$DIMTVP
 40
0.0
  9
$DIMTIX
 70
     0
  9
$DIMSOXD
 70
     0
  9
$DIMSAH
 70
     0
  9
$DIMBLK1
  1

  9
$DIMBLK2
  1

  9
$DIMSTYLE
  2
Standard
  9
$DIMCLRD
 70
     0
  9
$DIMCLRE
 70
     0
  9
$DIMCLRT
 70
     0
  9
$DIMTFAC
 40
1.0
  9
$DIMGAP
 40
0.24
  9
$DIMJUST
 70
     0
  9
$DIMSD1
 70
     0
  9
$DIMSD2
 70
     0
  9
$DIMTOLJ
 70
     1
  9
$DIMTZIN
 70
     1
  9
$DIMALTZ
 70
     0
  9
$DIMALTTZ
 70
     0
  9
$DIMUPT
 70
     0
  9
$DIMDEC
 70
     0
  9
$DIMTDEC
 70
     0
  9
$DIMALTU
 70
     2
  9
$DIMALTTD
 70
     2
  9
$DIMTXSTY
  7
Standard
  9
$DIMAUNIT
 70
     0
  9
$DIMADEC
 70
     0
  9
$DIMALTRND
 40
0.0
  9
$DIMAZIN
 70
     0
  9
$DIMDSEP
 70
    46
  9
$DIMATFIT
 70
     3
  9
$DIMFRAC
 70
     0
  9
$DIMLDRBLK
  1

  9
$DIMLUNIT
 70
     2
  9
$DIMLWD
 70
    -2
  9
$DIMLWE
 70
    -2
  9
$DIMTMOVE
 70
     0
  9
$LUNITS
 70
     2
  9
$LUPREC
 70
     6
  9
$SKETCHINC
 40
0.1
  9
$FILLETRAD
 40
0.0
  9
$AUNITS
 70
     0
  9
$AUPREC
 70
     2
  9
$MENU
  1
.
  9
$ELEVATION
 40
0.0
  9
$PELEVATION
 40
0.0
  9
$THICKNESS
 40
0.0
  9
$LIMCHECK
 70
     0
  9
$CHAMFERA
 40
0.0
  9
$CHAMFERB
 40
0.0
  9
$CHAMFERC
 40
0.0
  9
$CHAMFERD
 40
0.0
  9
$SKPOLY
 70
     0
  9
$TDCREATE
 40
2460536.718768276
  9
$TDUCREATE
 40
2460537.010434943
  9
$TDUPDATE
 40
2460536.718773195
  9
$TDUUPDATE
 40
2460537.010439861
  9
$TDINDWG
 40
0.0000000116
  9
$TDUSRTIMER
 40
0.0000000116
  9
$USRTIMER
 70
     1
  9
$ANGBASE
 50
0.0
  9
$ANGDIR
 70
     0
  9
$PDMODE
 70
     0
  9
$PDSIZE
 40
-1.0
  9
$PLINEWID
 40
0.0
  9
$SPLFRAME
 70
     0
  9
$SPLINETYPE
 70
     6
  9
$SPLINESEGS
 70
     8
  9
$HANDSEED
  5
2C8
  9
$SURFTAB1
 70
     6
  9
$SURFTAB2
 70
     6
  9
$SURFTYPE
 70
     6
  9
$SURFU
 70
     6
  9
$SURFV
 70
     6
  9
$UCSBASE
  2

  9
$UCSNAME
  2

  9
$UCSORG
 10
0.0
 20
0.0
 30
0.0
  9
$UCSXDIR
 10
1.0
 20
0.0
 30
0.0
  9
$UCSYDIR
 10
0.0
 20
1.0
 30
0.0
  9
$UCSORTHOREF
  2

  9
$UCSORTHOVIEW
 70
     0
  9
$UCSORGTOP
 10
0.0
 20
0.0
 30
0.0
  9
$UCSORGBOTTOM
 10
0.0
 20
0.0
 30
0.0
  9
$UCSORGLEFT
 10
0.0
 20
0.0
 30
0.0
  9
$UCSORGRIGHT
 10
0.0
 20
0.0
 30
0.0
  9
$UCSORGFRONT
 10
0.0
 20
0.0
 30
0.0
  9
$UCSORGBACK
 10
0.0
 20
0.0
 30
0.0
  9
$PUCSBASE
  2

  9
$PUCSNAME
  2

  9
$PUCSORG
 10
0.0
 20
0.0
 30
0.0
  9
$PUCSXDIR
 10
1.0
 20
0.0
 30
0.0
  9
$PUCSYDIR
 10
0.0
 20
1.0
 30
0.0
  9
$PUCSORTHOREF
  2

  9
$PUCSORTHOVIEW
 70
     0
  9
$PUCSORGTOP
 10
0.0
 20
0.0
 30
0.0
  9
$PUCSORGBOTTOM
 10
0.0
 20
0.0
 30
0.0
  9
$PUCSORGLEFT
 10
0.0
 20
0.0
 30
0.0
  9
$PUCSORGRIGHT
 10
0.0
 20
0.0
 30
0.0
  9
$PUCSORGFRONT
 10
0.0
 20
0.0
 30
0.0
  9
$PUCSORGBACK
 10
0.0
 20
0.0
 30
0.0
  9
$USERI1
 70
     0
  9
$USERI2
 70
     0
  9
$USERI3
 70
     0
  9
$USERI4
 70
     0
  9
$USERI5
 70
     0
  9
$USERR1
 40
0.0
  9
$USERR2
 40
0.0
  9
$USERR3
 40
0.0
  9
$USERR4
 40
0.0
  9
$USERR5
 40
0.0
  9
$WORLDVIEW
 70
     1
  9
$SHADEDGE
 70
     3
  9
$SHADEDIF
 70
    70
  9
$TILEMODE
 70
     1
  9
$MAXACTVP
 70
    64
  9
$PINSBASE
 10
0.0
 20
0.0
 30
0.0
  9
$PLIMCHECK
 70
     0
  9
$PEXTMIN
 10
1.0000000000E+20
 20
1.0000000000E+20
 30
1.0000000000E+20
  9
$PEXTMAX
 10
-1.0000000000E+20
 20
-1.0000000000E+20
 30
-1.0000000000E+20
  9
$PLIMMIN
 10
0.0
 20
0.0
  9
$PLIMMAX
 10
12.0
 20
9.0
  9
$UNITMODE
 70
     0
  9
$VISRETAIN
 70
     1
  9
$PLINEGEN
 70
     0
  9
$PSLTSCALE
 70
     1
  9
$TREEDEPTH
 70
  3020
  9
$CMLSTYLE
  2
Standard
  9
$CMLJUST
 70
     0
  9
$CMLSCALE
 40
1.0
  9
$PROXYGRAPHICS
 70
     1
  9
$MEASUREMENT
 70
     0
  9
$CELWEIGHT
370
    -1
  9
$ENDCAPS
280
     0
  9
$JOINSTYLE
280
     0
  9
$LWDISPLAY
290
     1
  9
$INSUNITS
 70
     1
  9
$HYPERLINKBASE
  1

  9
$STYLESHEET
  1

  9
$XEDIT
290
     1
  9
$CEPSNTYPE
380
     0
  9
$PSTYLEMODE
290
     1
  9
$FINGERPRINTGUID
  2
{d1744f7e-03b0-4962-9e66-97838c937878}
  9
$VERSIONGUID
  2
{FAEB1C32-E019-11D5-929B-00C0DF256EC4}
  9
$EXTNAMES
290
     1
  9
$PSVPSCALE
 40
0.0
  9
$OLESTARTUP
290
     0
  0
ENDSEC
  0
SECTION
  2
CLASSES
  0
CLASS
  1
ACDBDICTIONARYWDFLT
  2
AcDbDictionaryWithDefault
  3
ObjectDBX Classes
 90
        0
280
     0
281
     0
  0
CLASS
  1
VISUALSTYLE
  2
AcDbVisualStyle
  3
ObjectDBX Classes
 90
     4095
280
     0
281
     0
  0
CLASS
  1
MATERIAL
  2
AcDbMaterial
  3
ObjectDBX Classes
 90
     1153
280
     0
281
     0
  0
CLASS
  1
SCALE
  2
AcDbScale
  3
ObjectDBX Classes
 90
     1153
280
     0
281
     0
  0
CLASS
  1
TABLESTYLE
  2
AcDbTableStyle
  3
ObjectDBX Classes
 90
     4095
280
     0
281
     0
  0
CLASS
  1
MLEADERSTYLE
  2
AcDbMLeaderStyle
  3
ACDB_MLEADERSTYLE_CLASS
 90
     4095
280
     0
281
     0
  0
CLASS
  1
SUN
  2
AcDbSun
  3
SCENEOE
 90
     1153
280
     0
281
     0
  0
CLASS
  1
ACDBPLACEHOLDER
  2
AcDbPlaceHolder
  3
ObjectDBX Classes
 90
        0
280
     0
281
     0
  0
CLASS
  1
LAYOUT
  2
AcDbLayout
  3
ObjectDBX Classes
 90
        0
280
     0
281
     0
  0
ENDSEC
  0
SECTION
  2
TABLES
  0
TABLE
  2
VPORT
  5
8
330
0
100
AcDbSymbolTable
 70
     1
  0
VPORT
  5
29
330
8
100
AcDbSymbolTableRecord
100
AcDbViewportTableRecord
  2
*Active
 70
     0
 10
0.0
 20
0.0
 11
1.0
 21
1.0
 12
22.0
 22
17.0
 13
0.0
 23
0.0
 14
0.5
 24
0.5
 15
0.5
 25
0.5
 16
0.0
 26
0.0
 36
1.0
 17
0.0
 27
0.0
 37
0.0
 40
34.0
 41
1.2941176471
 42
50.0
 43
0.0
 44
0.0
 50
0.0
 51
0.0
 71
     0
 72
  2000
 73
     1
 74
     3
 75
     0
 76
     0
 77
     0
 78
     0
281
     0
 65
     1
110
0.0
120
0.0
130
0.0
111
1.0
121
0.0
131
0.0
112
0.0
122
1.0
132
0.0
 79
     0
146
0.0
  0
ENDTAB
  0
TABLE
  2
LTYPE
  5
5
330
0
100
AcDbSymbolTable
 70
     6
  0
LTYPE
  5
14
330
5
100
AcDbSymbolTableRecord
100
AcDbLinetypeTableRecord
  2
ByBlock
 70
     0
  3

 72
    65
 73
     0
 40
0.0
  0
LTYPE
  5
15
330
5
100
AcDbSymbolTableRecord
100
AcDbLinetypeTableRecord
  2
ByLayer
 70
     0
  3

 72
    65
 73
     0
 40
0.0
  0
LTYPE
  5
16
330
5
100
AcDbSymbolTableRecord
100
AcDbLinetypeTableRecord
  2
Continuous
 70
     0
  3
Solid line
 72
    65
 73
     0
 40
0.0
  0
LTYPE
  5
5E
330
5
100
AcDbSymbolTableRecord
100
AcDbLinetypeTableRecord
  2
HIDDEN
 70
     0
  3
Hidden __ __ __ __ __ __ __ __ __ __ __ __ __ __
 72
    65
 73
     2
 40
0.075
 49
0.05
 74
     0
 49
-0.025
 74
     0
  0
LTYPE
  5
5F
330
5
100
AcDbSymbolTableRecord
100
AcDbLinetypeTableRecord
  2
PHANTOM
 70
     0
  3
Phantom ______  __  __  ______  __  __  ______
 72
    65
 73
     6
 40
0.5
 49
0.25
 74
     0
 49
-0.05
 74
     0
 49
0.05
 74
     0
 49
-0.05
 74
     0
 49
0.05
 74
     0
 49
-0.05
 74
     0
  0
LTYPE
  5
60
330
5
100
AcDbSymbolTableRecord
100
AcDbLinetypeTableRecord
  2
CENTER
 70
     0
  3
Center ____ _ ____ _ ____ _ ____ _ ____ _ ____
 72
    65
 73
     4
 40
0.4
 49
0.25
 74
     0
 49
-0.05
 74
     0
 49
0.05
 74
     0
 49
-0.05
 74
     0
  0
LTYPE
  5
61
330
5
100
AcDbSymbolTableRecord
100
AcDbLinetypeTableRecord
  2
CENTERX2
 70
     0
  3
Center (2x) ________  __  ________  __  _____
 72
    65
 73
     4
 40
0.8
 49
0.5
 74
     0
 49
-0.1
 74
     0
 49
0.1
 74
     0
 49
-0.1
 74
     0
  0
LTYPE
  5
62
330
5
100
AcDbSymbolTableRecord
100
AcDbLinetypeTableRecord
  2
DOT2
 70
     0
  3
Dot (.5x) ........................................
 72
    65
 73
     2
 40
0.025
 49
0.0
 74
     0
 49
-0.025
 74
     0
  0
ENDTAB
  0
TABLE
  2
LAYER
  5
2
330
0
100
AcDbSymbolTable
 70
    12
  0
LAYER
  5
10
330
2
100
AcDbSymbolTableRecord
100
AcDbLayerTableRecord
  2
0
 70
     0
 62
     7
  6
Continuous
370
    -3
390
F
  0
LAYER
  5
63
330
2
100
AcDbSymbolTableRecord
100
AcDbLayerTableRecord
  2
SLD-0
 70
     0
 62
     7
  6
Continuous
370
    -3
390
F
  0
LAYER
  5
64
330
2
100
AcDbSymbolTableRecord
100
AcDbLayerTableRecord
  2
DIM
 70
     0
 62
     7
  6
Continuous
370
    -3
390
F
  0
LAYER
  5
65
330
2
100
AcDbSymbolTableRecord
100
AcDbLayerTableRecord
  2
CEN
 70
     0
 62
     1
  6
CENTER
370
    -3
390
F
  0
LAYER
  5
66
330
2
100
AcDbSymbolTableRecord
100
AcDbLayerTableRecord
  2
HAT
 70
     0
 62
     4
  6
Continuous
370
    -3
390
F
  0
LAYER
  5
67
330
2
100
AcDbSymbolTableRecord
100
AcDbLayerTableRecord
  2
OBJ
 70
     0
 62
     5
  6
Continuous
370
    -3
390
F
  0
LAYER
  5
68
330
2
100
AcDbSymbolTableRecord
100
AcDbLayerTableRecord
  2
SLD-DEFPOINTS
 70
     0
 62
     7
  6
Continuous
370
    -3
390
F
  0
LAYER
  5
69
330
2
100
AcDbSymbolTableRecord
100
AcDbLayerTableRecord
  2
HID
 70
     0
 62
     4
  6
HIDDEN
370
    -3
390
F
  0
LAYER
  5
6A
330
2
100
AcDbSymbolTableRecord
100
AcDbLayerTableRecord
  2
NOTE
 70
     0
 62
     7
  6
Continuous
370
    -3
390
F
  0
LAYER
  5
6B
330
2
100
AcDbSymbolTableRecord
100
AcDbLayerTableRecord
  2
VP
 70
     0
 62
    -5
  6
Continuous
290
     0
370
    -3
390
F
  0
LAYER
  5
6C
330
2
100
AcDbSymbolTableRecord
100
AcDbLayerTableRecord
  2
TITLE
 70
     0
 62
     7
  6
Continuous
370
    -3
390
F
  0
LAYER
  5
6D
330
2
100
AcDbSymbolTableRecord
100
AcDbLayerTableRecord
  2
THICK_TITLE
 70
     0
 62
     7
  6
Continuous
370
   100
390
F
  0
ENDTAB
  0
TABLE
  2
STYLE
  5
3
330
0
100
AcDbSymbolTable
 70
     2
  0
STYLE
  5
11
330
3
100
AcDbSymbolTableRecord
100
AcDbTextStyleTableRecord
  2
Standard
 70
     0
 40
0.0
 41
1.0
 50
0.0
 71
     0
 42
0.5
  3
txt
  4

  0
STYLE
  5
74
330
3
100
AcDbSymbolTableRecord
100
AcDbTextStyleTableRecord
  2
SLDTEXTSTYLE0
 70
     0
 40
0.0
 41
0.75
 50
0.0
 71
     0
 42
0.5
  3
TXT
  4

  0
ENDTAB
  0
TABLE
  2
VIEW
  5
6
330
0
100
AcDbSymbolTable
 70
     0
  0
ENDTAB
  0
TABLE
  2
UCS
  5
7
330
0
100
AcDbSymbolTable
 70
     0
  0
ENDTAB
  0
TABLE
  2
APPID
  5
9
330
0
100
AcDbSymbolTable
 70
     1
  0
APPID
  5
12
330
9
100
AcDbSymbolTableRecord
100
AcDbRegAppTableRecord
  2
ACAD
 70
     0
  0
ENDTAB
  0
TABLE
  2
DIMSTYLE
  5
A
330
0
100
AcDbSymbolTable
 70
     4
100
AcDbDimStyleTable
  0
DIMSTYLE
105
27
330
A
100
AcDbSymbolTableRecord
100
AcDbDimStyleTableRecord
  2
Standard
 70
     0
178
     0
340
11
  0
DIMSTYLE
105
16B
102
{ACAD_REACTORS
330
16A
330
242
330
26A
102
}
330
A
100
AcDbSymbolTableRecord
100
AcDbDimStyleTableRecord
  2
SLDDIMSTYLE0
 70
     0
 41
0.52
 44
0.0
 45
0.000000001
 78
    12
 79
     3
140
0.5
147
0.125
148
0.000000001
170
     1
172
     1
173
     1
178
     0
271
     6
272
     0
276
     2
277
     5
284
    12
289
     0
340
74
  0
DIMSTYLE
105
180
102
{ACAD_REACTORS
330
17F
102
}
330
A
100
AcDbSymbolTableRecord
100
AcDbDimStyleTableRecord
  2
SLDDIMSTYLE1
 70
     0
 41
0.52
 44
0.0
 45
0.000000001
 78
    12
 79
     3
140
0.5
147
0.125
148
0.000000001
170
     1
172
     1
173
     1
178
     0
271
     0
272
     0
276
     2
277
     5
284
    12
289
     0
340
74
  0
DIMSTYLE
105
256
102
{ACAD_REACTORS
330
255
330
2B3
102
}
330
A
100
AcDbSymbolTableRecord
100
AcDbDimStyleTableRecord
  2
SLDDIMSTYLE2
 70
     0
 41
0.52
 44
0.0
 45
0.000000001
 78
    12
 79
     3
140
0.5
147
0.125
148
0.000000001
170
     1
173
     1
178
     0
271
     6
272
     0
276
     2
277
     5
284
    12
340
74
  0
ENDTAB
  0
TABLE
  2
BLOCK_RECORD
  5
1
330
0
100
AcDbSymbolTable
 70
     9
  0
BLOCK_RECORD
  5
1F
330
1
100
AcDbSymbolTableRecord
100
AcDbBlockTableRecord
  2
*Model_Space
340
22
  0
BLOCK_RECORD
  5
1B
330
1
100
AcDbSymbolTableRecord
100
AcDbBlockTableRecord
  2
*Paper_Space
340
1E
  0
BLOCK_RECORD
  5
23
330
1
100
AcDbSymbolTableRecord
100
AcDbBlockTableRecord
  2
*Paper_Space0
340
26
  0
BLOCK_RECORD
  5
6E
330
1
100
AcDbSymbolTableRecord
100
AcDbBlockTableRecord
  2
Block1
340
0
  0
BLOCK_RECORD
  5
71
330
1
100
AcDbSymbolTableRecord
100
AcDbBlockTableRecord
  2
SW_NOTE_0
340
0
102
{BLKREFS
331
76
102
}
  0
BLOCK_RECORD
  5
16C
330
1
100
AcDbSymbolTableRecord
100
AcDbBlockTableRecord
  2
_D
340
0
  0
BLOCK_RECORD
  5
181
330
1
100
AcDbSymbolTableRecord
100
AcDbBlockTableRecord
  2
_D_1
340
0
  0
BLOCK_RECORD
  5
243
330
1
100
AcDbSymbolTableRecord
100
AcDbBlockTableRecord
  2
_D_2
340
0
  0
BLOCK_RECORD
  5
257
330
1
100
AcDbSymbolTableRecord
100
AcDbBlockTableRecord
  2
_D_3
340
0
  0
BLOCK_RECORD
  5
26B
330
1
100
AcDbSymbolTableRecord
100
AcDbBlockTableRecord
  2
_D_4
340
0
  0
BLOCK_RECORD
  5
2B4
330
1
100
AcDbSymbolTableRecord
100
AcDbBlockTableRecord
  2
_D_5
340
0
  0
ENDTAB
  0
ENDSEC
  0
SECTION
  2
BLOCKS
  0
BLOCK
  5
20
330
1F
100
AcDbEntity
  8
0
100
AcDbBlockBegin
  2
*Model_Space
 70
     0
 10
0.0
 20
0.0
 30
0.0
  3
*Model_Space
  1

  0
ENDBLK
  5
21
330
1F
100
AcDbEntity
  8
0
100
AcDbBlockEnd
  0
BLOCK
  5
1C
330
1B
100
AcDbEntity
 67
     1
  8
0
100
AcDbBlockBegin
  2
*Paper_Space
 70
     0
 10
0.0
 20
0.0
 30
0.0
  3
*Paper_Space
  1

  0
ENDBLK
  5
1D
330
1B
100
AcDbEntity
 67
     1
  8
0
100
AcDbBlockEnd
  0
BLOCK
  5
24
330
23
100
AcDbEntity
  8
0
100
AcDbBlockBegin
  2
*Paper_Space0
 70
     0
 10
0.0
 20
0.0
 30
0.0
  3
*Paper_Space0
  1

  0
ENDBLK
  5
25
330
23
100
AcDbEntity
  8
0
100
AcDbBlockEnd
  0
BLOCK
  5
6F
330
6E
100
AcDbEntity
  8
0
100
AcDbBlockBegin
  2
Block1
 70
     0
 10
0.0
 20
0.0
 30
0.0
  3
Block1
  1

  0
INSERT
  5
76
330
6E
100
AcDbEntity
  8
0
  6
Continuous
 62
     7
370
     0
100
AcDbBlockReference
  2
SW_NOTE_0
 10
-1.7593519105
 20
-0.069528387
 30
0.0
  0
ENDBLK
  5
70
330
6E
100
AcDbEntity
  8
0
100
AcDbBlockEnd
  0
BLOCK
  5
72
330
71
100
AcDbEntity
  8
0
100
AcDbBlockBegin
  2
SW_NOTE_0
 70
     0
 10
0.0
 20
0.0
 30
0.0
  3
SW_NOTE_0
  1

  0
MTEXT
  5
75
330
71
100
AcDbEntity
  8
0
  6
Continuous
 62
     0
370
     0
100
AcDbMText
 10
4.0625
 20
1.0742231165
 30
0.0
 40
0.8333333333
 41
0.0
 71
     2
 72
     1
  1
FACEPLATE BQL
  7
SLDTEXTSTYLE0
 73
     1
 44
1.0
  0
ENDBLK
  5
73
330
71
100
AcDbEntity
  8
0
100
AcDbBlockEnd
  0
BLOCK
  5
16D
330
16C
100
AcDbEntity
  8
0
100
AcDbBlockBegin
  2
_D
 70
     0
 10
0.0
 20
0.0
 30
0.0
  3
_D
  1

  0
SOLID
  5
16F
330
16C
100
AcDbEntity
  8
0
  6
Continuous
 62
     7
370
    18
100
AcDbTrace
 10
16.8082055669
 20
11.6429408427
 30
0.0
 11
16.2882055669
 21
11.7229408427
 31
0.0
 12
16.2882055669
 22
11.5629408427
 32
0.0
 13
16.2882055669
 23
11.5629408427
 33
0.0
  0
SOLID
  5
170
330
16C
100
AcDbEntity
  8
0
  6
Continuous
 62
     7
370
    18
100
AcDbTrace
 10
20.1182055669
 20
11.6429408427
 30
0.0
 11
20.6382055669
 21
11.5629408427
 31
0.0
 12
20.6382055669
 22
11.7229408427
 32
0.0
 13
20.6382055669
 23
11.7229408427
 33
0.0
  0
LINE
  5
171
330
16C
100
AcDbEntity
  8
0
  6
Continuous
 62
     7
370
     0
100
AcDbLine
 10
17.4687611748
 20
11.6391213202
 30
0.0
 11
17.3164174264
 21
11.6391213202
 31
0.0
  0
LINE
  5
172
330
16C
100
AcDbEntity
  8
0
  6
Continuous
 62
     7
370
     0
100
AcDbLine
 10
17.3164174264
 20
11.6391213202
 30
0.0
 11
17.3164174264
 21
10.8453712963
 31
0.0
  0
LINE
  5
173
330
16C
100
AcDbEntity
  8
0
  6
Continuous
 62
     7
370
     0
100
AcDbLine
 10
17.3164174264
 20
10.8453712963
 30
0.0
 11
17.4687611748
 21
10.8453712963
 31
0.0
  0
LINE
  5
174
330
16C
100
AcDbEntity
  8
0
  6
Continuous
 62
     7
370
     0
100
AcDbLine
 10
19.4576501057
 20
11.6391213202
 30
0.0
 11
19.6099938541
 21
11.6391213202
 31
0.0
  0
LINE
  5
175
330
16C
100
AcDbEntity
  8
0
  6
Continuous
 62
     7
370
     0
100
AcDbLine
 10
19.6099938541
 20
11.6391213202
 30
0.0
 11
19.6099938541
 21
10.8453712963
 31
0.0
  0
LINE
  5
176
330
16C
100
AcDbEntity
  8
0
  6
Continuous
 62
     7
370
     0
100
AcDbLine
 10
19.6099938541
 20
10.8453712963
 30
0.0
 11
19.4576501057
 21
10.8453712963
 31
0.0
  0
LINE
  5
177
330
16C
100
AcDbEntity
  8
0
  6
Continuous
 62
     7
370
     0
100
AcDbLine
 10
16.8082055669
 20
7.7548678007
 30
0.0
 11
16.8082055669
 21
12.1429408427
 31
0.0
  0
LINE
  5
178
330
16C
100
AcDbEntity
  8
0
  6
Continuous
 62
     7
370
     0
100
AcDbLine
 10
20.1182055669
 20
7.7548678007
 30
0.0
 11
20.1182055669
 21
12.1429408427
 31
0.0
  0
LINE
  5
179
330
16C
100
AcDbEntity
  8
0
  6
Continuous
 62
     7
370
     0
100
AcDbLine
 10
16.8082055669
 20
11.6429408427
 30
0.0
 11
15.8082055669
 21
11.6429408427
 31
0.0
  0
LINE
  5
17A
330
16C
100
AcDbEntity
  8
0
  6
Continuous
 62
     7
370
     0
100
AcDbLine
 10
20.1182055669
 20
11.6429408427
 30
0.0
 11
21.1182055669
 21
11.6429408427
 31
0.0
  0
MTEXT
  5
17B
330
16C
100
AcDbEntity
  8
0
  6
Continuous
 62
     7
370
    18
100
AcDbMText
 10
17.1668514552
 20
12.3928566302
 30
0.0
 40
0.5
 41
0.0
 71
     1
 72
     1
  1

  7
SLDTEXTSTYLE0
 73
     1
 44
1.0
  0
MTEXT
  5
17C
330
16C
100
AcDbEntity
  8
0
  6
Continuous
 62
     7
370
    18
100
AcDbMText
 10
17.3829972556
 20
12.3852177043
 30
0.0
 40
0.5
 41
0.0
 71
     1
 72
     1
  1
3 5/16"
  7
SLDTEXTSTYLE0
 73
     1
 44
1.0
  0
MTEXT
  5
17D
330
16C
100
AcDbEntity
  8
0
  6
Continuous
 62
     7
370
    18
100
AcDbMText
 10
17.4687611748
 20
11.4899052212
 30
0.0
 40
0.5
 41
0.0
 71
     1
 72
     1
  1
84mm
  7
SLDTEXTSTYLE0
 73
     1
 44
1.0
  0
MTEXT
  5
17E
330
16C
100
AcDbEntity
  8
0
  6
Continuous
 62
     7
370
    18
100
AcDbMText
 10
19.9498374926
 20
12.3928566302
 30
0.0
 40
0.5
 41
0.0
 71
     1
 72
     1
  1

  7
SLDTEXTSTYLE0
 73
     1
 44
1.0
  0
ENDBLK
  5
16E
330
16C
100
AcDbEntity
  8
0
100
AcDbBlockEnd
  0
BLOCK
  5
182
330
181
100
AcDbEntity
  8
0
100
AcDbBlockBegin
  2
_D_1
 70
     0
 10
0.0
 20
0.0
 30
0.0
  3
_D_1
  1

  0
SOLID
  5
184
330
181
100
AcDbEntity
  8
0
  6
Continuous
 62
     7
370
    18
100
AcDbTrace
 10
15.9621945054
 20
14.0848923696
 30
0.0
 11
15.4421945054
 21
14.1648923696
 31
0.0
 12
15.4421945054
 22
14.0048923696
 32
0.0
 13
15.4421945054
 23
14.0048923696
 33
0.0
  0
SOLID
  5
185
330
181
100
AcDbEntity
  8
0
  6
Continuous
 62
     7
370
    18
100
AcDbTrace
 10
20.9642166285
 20
14.0848923696
 30
0.0
 11
21.4842166285
 21
14.0048923696
 31
0.0
 12
21.4842166285
 22
14.1648923696
 32
0.0
 13
21.4842166285
 23
14.1648923696
 33
0.0
  0
LINE
  5
186
330
181
100
AcDbEntity
  8
0
  6
Continuous
 62
     7
370
     0
100
AcDbLine
 10
17.2840389888
 20
14.0810728471
 30
0.0
 11
17.1316952403
 21
14.0810728471
 31
0.0
  0
LINE
  5
187
330
181
100
AcDbEntity
  8
0
  6
Continuous
 62
     7
370
     0
100
AcDbLine
 10
17.1316952403
 20
14.0810728471
 30
0.0
 11
17.1316952403
 21
13.2873228232
 31
0.0
  0
LINE
  5
188
330
181
100
AcDbEntity
  8
0
  6
Continuous
 62
     7
370
     0
100
AcDbLine
 10
17.1316952403
 20
13.2873228232
 30
0.0
 11
17.2840389888
 21
13.2873228232
 31
0.0
  0
LINE
  5
189
330
181
100
AcDbEntity
  8
0
  6
Continuous
 62
     7
370
     0
100
AcDbLine
 10
19.6423722918
 20
14.0810728471
 30
0.0
 11
19.7947160402
 21
14.0810728471
 31
0.0
  0
LINE
  5
18A
330
181
100
AcDbEntity
  8
0
  6
Continuous
 62
     7
370
     0
100
AcDbLine
 10
19.7947160402
 20
14.0810728471
 30
0.0
 11
19.7947160402
 21
13.2873228232
 31
0.0
  0
LINE
  5
18B
330
181
100
AcDbEntity
  8
0
  6
Continuous
 62
     7
370
     0
100
AcDbLine
 10
19.7947160402
 20
13.2873228232
 30
0.0
 11
19.6423722918
 21
13.2873228232
 31
0.0
  0
LINE
  5
18C
330
181
100
AcDbEntity
  8
0
  6
Continuous
 62
     7
370
     0
100
AcDbLine
 10
15.9621945054
 20
10.2258971375
 30
0.0
 11
15.9621945054
 21
14.5848923696
 31
0.0
  0
LINE
  5
18D
330
181
100
AcDbEntity
  8
0
  6
Continuous
 62
     7
370
     0
100
AcDbLine
 10
20.9642166285
 20
10.2258971375
 30
0.0
 11
20.9642166285
 21
14.5848923696
 31
0.0
  0
LINE
  5
18E
330
181
100
AcDbEntity
  8
0
  6
Continuous
 62
     7
370
     0
100
AcDbLine
 10
15.9621945054
 20
14.0848923696
 30
0.0
 11
14.9621945054
 21
14.0848923696
 31
0.0
  0
LINE
  5
18F
330
181
100
AcDbEntity
  8
0
  6
Continuous
 62
     7
370
     0
100
AcDbLine
 10
20.9642166285
 20
14.0848923696
 30
0.0
 11
21.9642166285
 21
14.0848923696
 31
0.0
  0
MTEXT
  5
190
330
181
100
AcDbEntity
  8
0
  6
Continuous
 62
     7
370
    18
100
AcDbMText
 10
16.9821292691
 20
14.8348081571
 30
0.0
 40
0.5
 41
0.0
 71
     1
 72
     1
  1

  7
SLDTEXTSTYLE0
 73
     1
 44
1.0
  0
MTEXT
  5
191
330
181
100
AcDbEntity
  8
0
  6
Continuous
 62
     7
370
    18
100
AcDbMText
 10
18.1753583805
 20
14.8271692312
 30
0.0
 40
0.5
 41
0.0
 71
     1
 72
     1
  1
5"
  7
SLDTEXTSTYLE0
 73
     1
 44
1.0
  0
MTEXT
  5
192
330
181
100
AcDbEntity
  8
0
  6
Continuous
 62
     7
370
    18
100
AcDbMText
 10
17.2840389888
 20
13.9318567481
 30
0.0
 40
0.5
 41
0.0
 71
     1
 72
     1
  1
127mm
  7
SLDTEXTSTYLE0
 73
     1
 44
1.0
  0
MTEXT
  5
193
330
181
100
AcDbEntity
  8
0
  6
Continuous
 62
     7
370
    18
100
AcDbMText
 10
20.1345596787
 20
14.8348081571
 30
0.0
 40
0.5
 41
0.0
 71
     1
 72
     1
  1

  7
SLDTEXTSTYLE0
 73
     1
 44
1.0
  0
ENDBLK
  5
183
330
181
100
AcDbEntity
  8
0
100
AcDbBlockEnd
  0
BLOCK
  5
244
330
243
100
AcDbEntity
  8
0
100
AcDbBlockBegin
  2
_D_2
 70
     0
 10
0.0
 20
0.0
 30
0.0
  3
_D_2
  1

  0
SOLID
  5
246
330
243
100
AcDbEntity
  8
0
  6
Continuous
 62
     7
370
    18
100
AcDbTrace
 10
9.8847463241
 20
21.8811812065
 30
0.0
 11
9.9647463241
 21
22.4011812065
 31
0.0
 12
9.8047463241
 22
22.4011812065
 32
0.0
 13
9.8047463241
 23
22.4011812065
 33
0.0
  0
SOLID
  5
247
330
243
100
AcDbEntity
  8
0
  6
Continuous
 62
     7
370
    18
100
AcDbTrace
 10
9.8847463241
 20
19.6611812065
 30
0.0
 11
9.8047463241
 21
19.1411812065
 31
0.0
 12
9.9647463241
 22
19.1411812065
 32
0.0
 13
9.9647463241
 23
19.1411812065
 33
0.0
  0
LINE
  5
248
330
243
100
AcDbEntity
  8
0
  6
Continuous
 62
     7
370
     0
100
AcDbLine
 10
8.8903018954
 20
20.7711811332
 30
0.0
 11
8.7379581469
 21
20.7711811332
 31
0.0
  0
LINE
  5
249
330
243
100
AcDbEntity
  8
0
  6
Continuous
 62
     7
370
     0
100
AcDbLine
 10
8.7379581469
 20
20.7711811332
 30
0.0
 11
8.7379581469
 21
19.9774311093
 31
0.0
  0
LINE
  5
24A
330
243
100
AcDbEntity
  8
0
  6
Continuous
 62
     7
370
     0
100
AcDbLine
 10
8.7379581469
 20
19.9774311093
 30
0.0
 11
8.8903018954
 21
19.9774311093
 31
0.0
  0
LINE
  5
24B
330
243
100
AcDbEntity
  8
0
  6
Continuous
 62
     7
370
     0
100
AcDbLine
 10
10.8791908262
 20
20.7711811332
 30
0.0
 11
11.0315345747
 21
20.7711811332
 31
0.0
  0
LINE
  5
24C
330
243
100
AcDbEntity
  8
0
  6
Continuous
 62
     7
370
     0
100
AcDbLine
 10
11.0315345747
 20
20.7711811332
 30
0.0
 11
11.0315345747
 21
19.9774311093
 31
0.0
  0
LINE
  5
24D
330
243
100
AcDbEntity
  8
0
  6
Continuous
 62
     7
370
     0
100
AcDbLine
 10
11.0315345747
 20
19.9774311093
 30
0.0
 11
10.8791908262
 21
19.9774311093
 31
0.0
  0
LINE
  5
24E
330
243
100
AcDbEntity
  8
0
  6
Continuous
 62
     7
370
     0
100
AcDbLine
 10
16.5210573149
 20
21.8811812065
 30
0.0
 11
9.3847463241
 21
21.8811812065
 31
0.0
  0
LINE
  5
24F
330
243
100
AcDbEntity
  8
0
  6
Continuous
 62
     7
370
     0
100
AcDbLine
 10
16.5210573149
 20
19.6611812065
 30
0.0
 11
9.3847463241
 21
19.6611812065
 31
0.0
  0
LINE
  5
250
330
243
100
AcDbEntity
  8
0
  6
Continuous
 62
     7
370
     0
100
AcDbLine
 10
9.8847463241
 20
21.8811812065
 30
0.0
 11
9.8847463241
 21
22.8811812065
 31
0.0
  0
LINE
  5
251
330
243
100
AcDbEntity
  8
0
  6
Continuous
 62
     7
370
     0
100
AcDbLine
 10
9.8847463241
 20
19.6611812065
 30
0.0
 11
9.8847463241
 21
18.6611812065
 31
0.0
  0
MTEXT
  5
252
330
243
100
AcDbEntity
  8
0
  6
Continuous
 62
     7
370
    18
100
AcDbMText
 10
8.6122289577
 20
21.517277554
 30
0.0
 40
0.5
 41
0.0
 71
     1
 72
     1
  1
%%c
  7
SLDTEXTSTYLE0
 73
     1
 44
1.0
  0
MTEXT
  5
253
330
243
100
AcDbEntity
  8
0
  6
Continuous
 62
     7
370
    18
100
AcDbMText
 10
9.36629144
 20
21.517277554
 30
0.0
 40
0.5
 41
0.0
 71
     1
 72
     1
  1
2 1/4"
  7
SLDTEXTSTYLE0
 73
     1
 44
1.0
  0
MTEXT
  5
254
330
243
100
AcDbEntity
  8
0
  6
Continuous
 62
     7
370
    18
100
AcDbMText
 10
8.8903018954
 20
20.6219650342
 30
0.0
 40
0.5
 41
0.0
 71
     1
 72
     1
  1
56mm
  7
SLDTEXTSTYLE0
 73
     1
 44
1.0
  0
ENDBLK
  5
245
330
243
100
AcDbEntity
  8
0
100
AcDbBlockEnd
  0
BLOCK
  5
258
330
257
100
AcDbEntity
  8
0
100
AcDbBlockBegin
  2
_D_3
 70
     0
 10
0.0
 20
0.0
 30
0.0
  3
_D_3
  1

  0
SOLID
  5
25A
330
257
100
AcDbEntity
  8
0
  6
Continuous
 62
     7
370
    18
100
AcDbTrace
 10
20.4280573149
 20
24.5949934777
 30
0.0
 11
19.9080573149
 21
24.6749934777
 31
0.0
 12
19.9080573149
 22
24.5149934777
 32
0.0
 13
19.9080573149
 23
24.5149934777
 33
0.0
  0
SOLID
  5
25B
330
257
100
AcDbEntity
  8
0
  6
Continuous
 62
     7
370
    18
100
AcDbTrace
 10
15.6910573149
 20
24.5949934777
 30
0.0
 11
16.2110573149
 21
24.5149934777
 31
0.0
 12
16.2110573149
 22
24.6749934777
 32
0.0
 13
16.2110573149
 23
24.6749934777
 33
0.0
  0
LINE
  5
25C
330
257
100
AcDbEntity
  8
0
  6
Continuous
 62
     7
370
     0
100
AcDbLine
 10
8.705579746
 20
24.5911739552
 30
0.0
 11
8.5532359975
 21
24.5911739552
 31
0.0
  0
LINE
  5
25D
330
257
100
AcDbEntity
  8
0
  6
Continuous
 62
     7
370
     0
100
AcDbLine
 10
8.5532359975
 20
24.5911739552
 30
0.0
 11
8.5532359975
 21
23.7974239313
 31
0.0
  0
LINE
  5
25E
330
257
100
AcDbEntity
  8
0
  6
Continuous
 62
     7
370
     0
100
AcDbLine
 10
8.5532359975
 20
23.7974239313
 30
0.0
 11
8.705579746
 21
23.7974239313
 31
0.0
  0
LINE
  5
25F
330
257
100
AcDbEntity
  8
0
  6
Continuous
 62
     7
370
     0
100
AcDbLine
 10
11.063913049
 20
24.5911739552
 30
0.0
 11
11.2162567974
 21
24.5911739552
 31
0.0
  0
LINE
  5
260
330
257
100
AcDbEntity
  8
0
  6
Continuous
 62
     7
370
     0
100
AcDbLine
 10
11.2162567974
 20
24.5911739552
 30
0.0
 11
11.2162567974
 21
23.7974239313
 31
0.0
  0
LINE
  5
261
330
257
100
AcDbEntity
  8
0
  6
Continuous
 62
     7
370
     0
100
AcDbLine
 10
11.2162567974
 20
23.7974239313
 30
0.0
 11
11.063913049
 21
23.7974239313
 31
0.0
  0
LINE
  5
262
330
257
100
AcDbEntity
  8
0
  6
Continuous
 62
     7
370
     0
100
AcDbLine
 10
20.4280573149
 20
23.4544693741
 30
0.0
 11
20.4280573149
 21
25.0949934777
 31
0.0
  0
LINE
  5
263
330
257
100
AcDbEntity
  8
0
  6
Continuous
 62
     7
370
     0
100
AcDbLine
 10
15.6910573149
 20
21.3211812065
 30
0.0
 11
15.6910573149
 21
25.0949934777
 31
0.0
  0
LINE
  5
264
330
257
100
AcDbEntity
  8
0
  6
Continuous
 62
     7
370
     0
100
AcDbLine
 10
20.4280573149
 20
24.5949934777
 30
0.0
 11
15.6910573149
 21
24.5949934777
 31
0.0
  0
LINE
  5
265
330
257
100
AcDbEntity
  8
0
  6
Continuous
 62
     7
370
     0
100
AcDbLine
 10
15.6910573149
 20
24.5949934777
 30
0.0
 11
11.6547832411
 21
24.5949934777
 31
0.0
  0
MTEXT
  5
266
330
257
100
AcDbEntity
  8
0
  6
Continuous
 62
     7
370
    18
100
AcDbMText
 10
8.4036700263
 20
25.3449092652
 30
0.0
 40
0.5
 41
0.0
 71
     1
 72
     1
  1

  7
SLDTEXTSTYLE0
 73
     1
 44
1.0
  0
MTEXT
  5
267
330
257
100
AcDbEntity
  8
0
  6
Continuous
 62
     7
370
    18
100
AcDbMText
 10
8.9892602722
 20
25.3372703393
 30
0.0
 40
0.5
 41
0.0
 71
     1
 72
     1
  1
4 3/4"
  7
SLDTEXTSTYLE0
 73
     1
 44
1.0
  0
MTEXT
  5
268
330
257
100
AcDbEntity
  8
0
  6
Continuous
 62
     7
370
    18
100
AcDbMText
 10
8.705579746
 20
24.4419578562
 30
0.0
 40
0.5
 41
0.0
 71
     1
 72
     1
  1
120mm
  7
SLDTEXTSTYLE0
 73
     1
 44
1.0
  0
MTEXT
  5
269
330
257
100
AcDbEntity
  8
0
  6
Continuous
 62
     7
370
    18
100
AcDbMText
 10
11.5561004359
 20
25.3449092652
 30
0.0
 40
0.5
 41
0.0
 71
     1
 72
     1
  1

  7
SLDTEXTSTYLE0
 73
     1
 44
1.0
  0
ENDBLK
  5
259
330
257
100
AcDbEntity
  8
0
100
AcDbBlockEnd
  0
BLOCK
  5
26C
330
26B
100
AcDbEntity
  8
0
100
AcDbBlockBegin
  2
_D_4
 70
     0
 10
0.0
 20
0.0
 30
0.0
  3
_D_4
  1

  0
SOLID
  5
26E
330
26B
100
AcDbEntity
  8
0
  6
Continuous
 62
     7
370
    18
100
AcDbTrace
 10
20.4280573149
 20
24.5949934777
 30
0.0
 11
19.9080573149
 21
24.6749934777
 31
0.0
 12
19.9080573149
 22
24.5149934777
 32
0.0
 13
19.9080573149
 23
24.5149934777
 33
0.0
  0
SOLID
  5
26F
330
26B
100
AcDbEntity
  8
0
  6
Continuous
 62
     7
370
    18
100
AcDbTrace
 10
20.8080573149
 20
24.5949934777
 30
0.0
 11
21.3280573149
 21
24.5149934777
 31
0.0
 12
21.3280573149
 22
24.6749934777
 32
0.0
 13
21.3280573149
 23
24.6749934777
 33
0.0
  0
LINE
  5
270
330
26B
100
AcDbEntity
  8
0
  6
Continuous
 62
     7
370
     0
100
AcDbLine
 10
24.2427249124
 20
24.5911739552
 30
0.0
 11
24.090381164
 21
24.5911739552
 31
0.0
  0
LINE
  5
271
330
26B
100
AcDbEntity
  8
0
  6
Continuous
 62
     7
370
     0
100
AcDbLine
 10
24.090381164
 20
24.5911739552
 30
0.0
 11
24.090381164
 21
23.7974239313
 31
0.0
  0
LINE
  5
272
330
26B
100
AcDbEntity
  8
0
  6
Continuous
 62
     7
370
     0
100
AcDbLine
 10
24.090381164
 20
23.7974239313
 30
0.0
 11
24.2427249124
 21
23.7974239313
 31
0.0
  0
LINE
  5
273
330
26B
100
AcDbEntity
  8
0
  6
Continuous
 62
     7
370
     0
100
AcDbLine
 10
26.2316138433
 20
24.5911739552
 30
0.0
 11
26.3839575917
 21
24.5911739552
 31
0.0
  0
LINE
  5
274
330
26B
100
AcDbEntity
  8
0
  6
Continuous
 62
     7
370
     0
100
AcDbLine
 10
26.3839575917
 20
24.5911739552
 30
0.0
 11
26.3839575917
 21
23.7974239313
 31
0.0
  0
LINE
  5
275
330
26B
100
AcDbEntity
  8
0
  6
Continuous
 62
     7
370
     0
100
AcDbLine
 10
26.3839575917
 20
23.7974239313
 30
0.0
 11
26.2316138433
 21
23.7974239313
 31
0.0
  0
LINE
  5
276
330
26B
100
AcDbEntity
  8
0
  6
Continuous
 62
     7
370
     0
100
AcDbLine
 10
20.4280573149
 20
23.4544693741
 30
0.0
 11
20.4280573149
 21
25.0949934777
 31
0.0
  0
LINE
  5
277
330
26B
100
AcDbEntity
  8
0
  6
Continuous
 62
     7
370
     0
100
AcDbLine
 10
20.8080573149
 20
23.4422105433
 30
0.0
 11
20.8080573149
 21
25.0949934777
 31
0.0
  0
LINE
  5
278
330
26B
100
AcDbEntity
  8
0
  6
Continuous
 62
     7
370
     0
100
AcDbLine
 10
20.4280573149
 20
24.5949934777
 30
0.0
 11
19.4280573149
 21
24.5949934777
 31
0.0
  0
LINE
  5
279
330
26B
100
AcDbEntity
  8
0
  6
Continuous
 62
     7
370
     0
100
AcDbLine
 10
20.8080573149
 20
24.5949934777
 30
0.0
 11
23.6518545736
 21
24.5949934777
 31
0.0
  0
MTEXT
  5
27A
330
26B
100
AcDbEntity
  8
0
  6
Continuous
 62
     7
370
    18
100
AcDbMText
 10
23.9408151928
 20
25.3449092652
 30
0.0
 40
0.5
 41
0.0
 71
     1
 72
     1
  1

  7
SLDTEXTSTYLE0
 73
     1
 44
1.0
  0
MTEXT
  5
27B
330
26B
100
AcDbEntity
  8
0
  6
Continuous
 62
     7
370
    18
100
AcDbMText
 10
24.6187665317
 20
25.3372703393
 30
0.0
 40
0.5
 41
0.0
 71
     1
 72
     1
  1
3/8"
  7
SLDTEXTSTYLE0
 73
     1
 44
1.0
  0
MTEXT
  5
27C
330
26B
100
AcDbEntity
  8
0
  6
Continuous
 62
     7
370
    18
100
AcDbMText
 10
24.2427249124
 20
24.4419578562
 30
0.0
 40
0.5
 41
0.0
 71
     1
 72
     1
  1
10mm
  7
SLDTEXTSTYLE0
 73
     1
 44
1.0
  0
MTEXT
  5
27D
330
26B
100
AcDbEntity
  8
0
  6
Continuous
 62
     7
370
    18
100
AcDbMText
 10
26.7238012301
 20
25.3449092652
 30
0.0
 40
0.5
 41
0.0
 71
     1
 72
     1
  1

  7
SLDTEXTSTYLE0
 73
     1
 44
1.0
  0
ENDBLK
  5
26D
330
26B
100
AcDbEntity
  8
0
100
AcDbBlockEnd
  0
BLOCK
  5
2B5
330
2B4
100
AcDbEntity
  8
0
100
AcDbBlockBegin
  2
_D_5
 70
     0
 10
0.0
 20
0.0
 30
0.0
  3
_D_5
  1

  0
SOLID
  5
2B7
330
2B4
100
AcDbEntity
  8
0
  6
Continuous
 62
     7
370
    18
100
AcDbTrace
 10
30.9904807273
 20
13.7285624985
 30
0.0
 11
30.4704807273
 21
13.8085624985
 31
0.0
 12
30.4704807273
 22
13.6485624985
 32
0.0
 13
30.4704807273
 23
13.6485624985
 33
0.0
  0
SOLID
  5
2B8
330
2B4
100
AcDbEntity
  8
0
  6
Continuous
 62
     7
370
    18
100
AcDbTrace
 10
29.6704807273
 20
13.7285624985
 30
0.0
 11
30.1904807273
 21
13.6485624985
 31
0.0
 12
30.1904807273
 22
13.8085624985
 32
0.0
 13
30.1904807273
 23
13.8085624985
 33
0.0
  0
LINE
  5
2B9
330
2B4
100
AcDbEntity
  8
0
  6
Continuous
 62
     7
370
     0
100
AcDbLine
 10
33.4606032643
 20
13.724742976
 30
0.0
 11
33.3082595159
 21
13.724742976
 31
0.0
  0
LINE
  5
2BA
330
2B4
100
AcDbEntity
  8
0
  6
Continuous
 62
     7
370
     0
100
AcDbLine
 10
33.3082595159
 20
13.724742976
 30
0.0
 11
33.3082595159
 21
12.9309929521
 31
0.0
  0
LINE
  5
2BB
330
2B4
100
AcDbEntity
  8
0
  6
Continuous
 62
     7
370
     0
100
AcDbLine
 10
33.3082595159
 20
12.9309929521
 30
0.0
 11
33.4606032643
 21
12.9309929521
 31
0.0
  0
LINE
  5
2BC
330
2B4
100
AcDbEntity
  8
0
  6
Continuous
 62
     7
370
     0
100
AcDbLine
 10
35.4494921952
 20
13.724742976
 30
0.0
 11
35.6018359436
 21
13.724742976
 31
0.0
  0
LINE
  5
2BD
330
2B4
100
AcDbEntity
  8
0
  6
Continuous
 62
     7
370
     0
100
AcDbLine
 10
35.6018359436
 20
13.724742976
 30
0.0
 11
35.6018359436
 21
12.9309929521
 31
0.0
  0
LINE
  5
2BE
330
2B4
100
AcDbEntity
  8
0
  6
Continuous
 62
     7
370
     0
100
AcDbLine
 10
35.6018359436
 20
12.9309929521
 30
0.0
 11
35.4494921952
 21
12.9309929521
 31
0.0
  0
LINE
  5
2BF
330
2B4
100
AcDbEntity
  8
0
  6
Continuous
 62
     7
370
     0
100
AcDbLine
 10
30.9904807273
 20
7.2848678007
 30
0.0
 11
30.9904807273
 21
14.2285624985
 31
0.0
  0
LINE
  5
2C0
330
2B4
100
AcDbEntity
  8
0
  6
Continuous
 62
     7
370
     0
100
AcDbLine
 10
29.6704807273
 20
10.2258971375
 30
0.0
 11
29.6704807273
 21
14.2285624985
 31
0.0
  0
LINE
  5
2C1
330
2B4
100
AcDbEntity
  8
0
  6
Continuous
 62
     7
370
     0
100
AcDbLine
 10
30.9904807273
 20
13.7285624985
 30
0.0
 11
32.8697329255
 21
13.7285624985
 31
0.0
  0
LINE
  5
2C2
330
2B4
100
AcDbEntity
  8
0
  6
Continuous
 62
     7
370
     0
100
AcDbLine
 10
29.6704807273
 20
13.7285624985
 30
0.0
 11
30.9904807273
 21
13.7285624985
 31
0.0
  0
MTEXT
  5
2C3
330
2B4
100
AcDbEntity
  8
0
  6
Continuous
 62
     7
370
    18
100
AcDbMText
 10
33.1586935447
 20
14.4784782861
 30
0.0
 40
0.5
 41
0.0
 71
     1
 72
     1
  1

  7
SLDTEXTSTYLE0
 73
     1
 44
1.0
  0
MTEXT
  5
2C4
330
2B4
100
AcDbEntity
  8
0
  6
Continuous
 62
     7
370
    18
100
AcDbMText
 10
33.3748393451
 20
14.4708393601
 30
0.0
 40
0.5
 41
0.0
 71
     1
 72
     1
  1
1 5/16"
  7
SLDTEXTSTYLE0
 73
     1
 44
1.0
  0
MTEXT
  5
2C5
330
2B4
100
AcDbEntity
  8
0
  6
Continuous
 62
     7
370
    18
100
AcDbMText
 10
33.4606032643
 20
13.575526877
 30
0.0
 40
0.5
 41
0.0
 71
     1
 72
     1
  1
34mm
  7
SLDTEXTSTYLE0
 73
     1
 44
1.0
  0
MTEXT
  5
2C6
330
2B4
100
AcDbEntity
  8
0
  6
Continuous
 62
     7
370
    18
100
AcDbMText
 10
35.9416795821
 20
14.4784782861
 30
0.0
 40
0.5
 41
0.0
 71
     1
 72
     1
  1

  7
SLDTEXTSTYLE0
 73
     1
 44
1.0
  0
ENDBLK
  5
2B6
330
2B4
100
AcDbEntity
  8
0
100
AcDbBlockEnd
  0
ENDSEC
  0
SECTION
  2
ENTITIES
  0
LINE
  5
77
330
1F
100
AcDbEntity
  8
0
  6
Continuous
 62
     7
370
    25
100
AcDbLine
 10
36.5208620221
 20
23.4778183176
 30
0.0
 11
36.0315921349
 21
23.1953688238
 31
0.0
  0
LINE
  5
78
330
1F
100
AcDbEntity
  8
0
  6
Continuous
 62
     7
370
    25
100
AcDbLine
 10
36.1285722272
 20
22.9626869241
 30
0.0
 11
36.6458518637
 21
23.261306102
 31
0.0
  0
LINE
  5
79
330
1F
100
AcDbEntity
  8
0
  6
Continuous
 62
     7
370
    25
100
AcDbLine
 10
36.9522786389
 20
23.6251297978
 30
0.0
 11
36.6246357598
 21
23.4359855898
 31
0.0
  0
LINE
  5
7A
330
1F
100
AcDbEntity
  8
0
  6
Continuous
 62
     7
370
    25
100
AcDbLine
 10
36.6706083376
 20
23.3355113753
 30
0.0
 11
37.0072741691
 21
23.529864423
 31
0.0
  0
LINE
  5
7B
330
1F
100
AcDbEntity
  8
0
  6
Continuous
 62
     7
370
    25
100
AcDbLine
 10
36.8665464979
 20
23.6746219093
 30
0.0
 11
36.5342111825
 21
23.4827688155
 31
0.0
  0
LINE
  5
7C
330
1F
100
AcDbEntity
  8
0
  6
Continuous
 62
     7
370
    25
100
AcDbLine
 10
36.6699006817
 20
23.2988581805
 30
0.0
 11
36.9644080987
 21
23.4688736935
 31
0.0
  0
LINE
  5
7D
330
1F
100
AcDbEntity
  8
0
  6
Continuous
 62
     7
370
    25
100
AcDbLine
 10
37.1378046231
 20
23.7120249567
 30
0.0
 11
36.9811464086
 21
23.6215880945
 31
0.0
  0
LINE
  5
7E
330
1F
100
AcDbEntity
  8
0
  6
Continuous
 62
     7
370
    25
100
AcDbLine
 10
37.0186433611
 20
23.5566344298
 30
0.0
 11
37.1753015755
 21
23.647071292
 31
0.0
  0
LINE
  5
7F
330
1F
100
AcDbEntity
  8
0
  6
Continuous
 62
     7
370
    25
100
AcDbLine
 10
37.0520724821
 20
23.7615170682
 30
0.0
 11
36.8954142677
 21
23.6710802061
 31
0.0
  0
LINE
  5
80
330
1F
100
AcDbEntity
  8
0
  6
Continuous
 62
     7
370
    25
100
AcDbLine
 10
36.9688893
 20
23.6268962448
 30
0.0
 11
37.0895694345
 21
23.6965634036
 31
0.0
  0
LINE
  5
81
330
1F
100
AcDbEntity
  8
0
  6
Continuous
 62
     7
370
    25
100
AcDbLine
 10
36.9757772906
 20
23.4956437004
 30
0.0
 11
37.132435505
 21
23.5860805625
 31
0.0
  0
LINE
  5
82
330
1F
100
AcDbEntity
  8
0
  6
Continuous
 62
     7
370
    25
100
AcDbLine
 10
36.1958011401
 20
22.7894113892
 30
0.0
 11
36.0529142384
 21
23.1576875259
 31
0.0
  0
ARC
  5
83
330
1F
100
AcDbEntity
  8
0
  6
Continuous
 62
     7
370
    25
100
AcDbCircle
 10
35.9130710462
 20
23.1034299771
 30
0.0
 40
0.1500000000000044
100
AcDbArc
 50
21.2056798701
 51
60.0026882664
  0
LINE
  5
84
330
1F
100
AcDbEntity
  8
0
  6
Continuous
 62
     7
370
    25
100
AcDbLine
 10
35.9880649512
 20
23.2333373064
 30
0.0
 11
35.7022911478
 21
23.3983110115
 31
0.0
  0
ARC
  5
85
330
1F
100
AcDbEntity
  8
0
  6
Continuous
 62
     7
370
    25
100
AcDbCircle
 10
36.0559579479
 20
22.7351538404
 30
0.0
 40
0.1500000000000057
100
AcDbArc
 50
324.8993285036
 51
0.0
  0
ARC
  5
86
330
1F
100
AcDbEntity
  8
0
  6
Continuous
 62
     7
370
    25
100
AcDbCircle
 10
36.0559579479
 20
22.7351538404
 30
0.0
 40
0.150000000000007
100
AcDbArc
 50
0.0
 51
21.2056798701
  0
LINE
  5
87
330
1F
100
AcDbEntity
  8
0
  6
Continuous
 62
     7
370
    25
100
AcDbLine
 10
35.5523033379
 20
23.3983110115
 30
0.0
 11
35.3665551126
 21
23.2910808435
 31
0.0
  0
LINE
  5
88
330
1F
100
AcDbEntity
  8
0
  6
Continuous
 62
     7
370
    25
100
AcDbLine
 10
36.035792493
 20
22.4455991827
 30
0.0
 11
36.1786793946
 21
22.6489016143
 31
0.0
  0
ARC
  5
89
330
1F
100
AcDbEntity
  8
0
  6
Continuous
 62
     7
370
    25
100
AcDbCircle
 10
35.6272972429
 20
23.2684036822
 30
0.0
 40
0.1500000000000003
100
AcDbArc
 50
60.0026882663
 51
119.9973117337
  0
LINE
  5
8A
330
1F
100
AcDbEntity
  8
0
  6
Continuous
 62
     7
370
    25
100
AcDbLine
 10
35.9068939712
 20
22.3550850701
 30
0.0
 11
35.9880649512
 21
22.4019440794
 31
0.0
  0
ARC
  5
8B
330
1F
100
AcDbEntity
  8
0
  6
Continuous
 62
     7
370
    25
100
AcDbCircle
 10
35.9130710462
 20
22.5318514088
 30
0.0
 40
0.1500000000000014
100
AcDbArc
 50
299.9973117337
 51
324.8993285036
  0
LINE
  5
8C
330
1F
100
AcDbEntity
  8
0
  6
Continuous
 62
     7
370
    25
100
AcDbLine
 10
34.3038355231
 20
20.7719396249
 30
0.0
 11
35.7028850737
 21
21.579593739
 31
0.0
  0
LINE
  5
8D
330
1F
100
AcDbEntity
  8
0
  6
Continuous
 62
     7
370
    25
100
AcDbLine
 10
34.5929752805
 20
23.5022222135
 30
0.0
 11
33.1940341694
 21
22.6946307001
 31
0.0
  0
LINE
  5
8E
330
1F
100
AcDbEntity
  8
0
  6
Continuous
 62
     7
370
    25
100
AcDbLine
 10
35.9328187042
 20
22.0878014742
 30
0.0
 11
35.9328187042
 21
22.1122937176
 31
0.0
  0
LINE
  5
8F
330
1F
100
AcDbEntity
  8
0
  6
Continuous
 62
     7
370
    25
100
AcDbLine
 10
35.1692674993
 20
23.4349465109
 30
0.0
 11
35.1480577436
 21
23.447194623
 31
0.0
  0
LINE
  5
90
330
1F
100
AcDbEntity
  8
0
  6
Continuous
 62
     7
370
    25
100
AcDbLine
 10
31.486274504
 20
21.9630444251
 30
0.0
 11
30.760723573
 21
20.3509446078
 31
0.0
  0
ARC
  5
91
330
1F
100
AcDbEntity
  8
0
  6
Continuous
 62
     7
370
    25
100
AcDbCircle
 10
34.0264795664
 20
17.8584436231
 30
0.0
 40
0.0300000000000023
100
AcDbArc
 50
240.0026882664
 51
296.5359355438
  0
ARC
  5
92
330
1F
100
AcDbEntity
  8
0
  6
Continuous
 62
     7
370
    25
100
AcDbCircle
 10
30.5319163653
 20
23.9112046198
 30
0.0
 40
0.0300000000000033
100
AcDbArc
 50
123.4587075228
 51
180.0
  0
LINE
  5
93
330
1F
100
AcDbEntity
  8
0
  6
Continuous
 62
     7
370
    25
100
AcDbLine
 10
34.039882337
 20
17.8316039931
 30
0.0
 11
34.2970943859
 21
17.9600466767
 31
0.0
  0
LINE
  5
94
330
1F
100
AcDbEntity
  8
0
  6
Continuous
 62
     7
370
    25
100
AcDbLine
 10
30.7552304108
 20
24.0947406304
 30
0.0
 11
30.5153762892
 21
23.9362331212
 31
0.0
  0
LINE
  5
95
330
1F
100
AcDbEntity
  8
0
  6
Continuous
 62
     7
370
    25
100
AcDbLine
 10
30.5169175843
 20
19.8498305523
 30
0.0
 11
34.0114807854
 21
17.8324621572
 31
0.0
  0
LINE
  5
96
330
1F
100
AcDbEntity
  8
0
  6
Continuous
 62
     7
370
    25
100
AcDbLine
 10
30.5019163653
 20
23.9112046198
 30
0.0
 11
30.5019163653
 21
19.8758120182
 31
0.0
  0
ARC
  5
97
330
1F
100
AcDbEntity
  8
0
  6
Continuous
 62
     7
370
    25
100
AcDbCircle
 10
30.5319163653
 20
19.8758120182
 30
0.0
 40
0.0300000000000011
100
AcDbArc
 50
180.0
 51
240.0026882664
  0
LINE
  5
98
330
1F
100
AcDbEntity
  8
0
  6
Continuous
 62
     7
370
    25
100
AcDbLine
 10
33.449213733
 20
20.278576967
 30
0.0
 11
33.4961595234
 21
20.3056781949
 31
0.0
  0
LINE
  5
99
330
1F
100
AcDbEntity
  8
0
  6
Continuous
 62
     7
370
    25
100
AcDbLine
 10
35.6069120783
 20
23.023024464
 30
0.0
 11
35.7878618141
 21
22.918564405
 31
0.0
  0
LINE
  5
9A
330
1F
100
AcDbEntity
  8
0
  6
Continuous
 62
     7
370
    25
100
AcDbLine
 10
35.7878618141
 20
22.918564405
 30
0.0
 11
35.7056112327
 21
22.8710821551
 31
0.0
  0
LINE
  5
9B
330
1F
100
AcDbEntity
  8
0
  6
Continuous
 62
     7
370
    25
100
AcDbLine
 10
35.7878618141
 20
22.9103989969
 30
0.0
 11
35.7878618141
 21
22.918564405
 31
0.0
  0
LINE
  5
9C
330
1F
100
AcDbEntity
  8
0
  6
Continuous
 62
     7
370
    25
100
AcDbLine
 10
35.7878618141
 20
22.9103989969
 30
0.0
 11
35.7091585317
 21
22.8649645591
 31
0.0
  0
LWPOLYLINE
  5
9D
330
1F
100
AcDbEntity
  8
0
  6
Continuous
 62
     7
370
    25
100
AcDbPolyline
 90
       13
 70
   128
 43
0.0
 10
36.6458518637
 20
23.261306102
 10
36.6476482972
 20
23.2624045629
 10
36.6542552865
 20
23.267682922
 10
36.6599034974
 20
23.2743390237
 10
36.6645165474
 20
23.2822828557
 10
36.668032053
 20
23.2914069912
 10
36.6704024729
 20
23.3015880419
 10
36.6715957515
 20
23.3126883266
 10
36.6715957515
 20
23.3245577331
 10
36.6704024729
 20
23.3370357479
 10
36.668032053
 20
23.3499536273
 10
36.6645165474
 20
23.3631366791
 10
36.6599034974
 20
23.3764066252
  0
LWPOLYLINE
  5
9E
330
1F
100
AcDbEntity
  8
0
  6
Continuous
 62
     7
370
    25
100
AcDbPolyline
 90
       17
 70
   128
 43
0.0
 10
36.6599034974
 20
23.3764066252
 10
36.6542552865
 20
23.3895840124
 10
36.6476482972
 20
23.402490639
 10
36.6401718776
 20
23.414951965
 10
36.6319271335
 20
23.4267994726
 10
36.6230255609
 20
23.4378729443
 10
36.6135875382
 20
23.4480226305
 10
36.6037406987
 20
23.4571112741
 10
36.5936182038
 20
23.4650159669
 10
36.5833569429
 20
23.4716298113
 10
36.5730956821
 20
23.4768633665
 10
36.5629731872
 20
23.4806458576
 10
36.5531263476
 20
23.4829261329
 10
36.5436883249
 20
23.4836733557
 10
36.5347867523
 20
23.482877421
 10
36.5265420082
 20
23.4805490924
 10
36.5208620221
 20
23.4778183176
  0
LWPOLYLINE
  5
9F
330
1F
100
AcDbEntity
  8
0
  6
Continuous
 62
     7
370
    25
100
AcDbPolyline
 90
       15
 70
   128
 43
0.0
 10
37.018667277
 20
23.5550458873
 10
37.0180764372
 20
23.5631854672
 10
37.0163218703
 20
23.571759899
 10
37.013456888
 20
23.5805086532
 10
37.0095685411
 20
23.5891659031
 10
37.0047749753
 20
23.5974686027
 10
36.9992218405
 20
23.6051644786
 10
36.9930778659
 20
23.6120196955
 10
36.9865297332
 20
23.6178259611
 10
36.979776404
 20
23.622406855
 10
36.9730230748
 20
23.6256231891
 10
36.9664749421
 20
23.6273772366
 10
36.9603309675
 20
23.6276157017
 10
36.9547778327
 20
23.6263313387
 10
36.9522786389
 20
23.6251297978
  0
ARC
  5
A0
330
1F
100
AcDbEntity
  8
0
  6
Continuous
 62
     7
370
    25
100
AcDbCircle
 10
36.9911685014
 20
23.5523193575
 30
0.0
 40
0.0276336139490456
100
AcDbArc
 50
305.6497565293
 51
5.6624238641
  0
LWPOLYLINE
  5
A1
330
1F
100
AcDbEntity
  8
0
  6
Continuous
 62
     7
370
    25
100
AcDbPolyline
 90
       14
 70
   128
 43
0.0
 10
36.9322162454
 20
23.6135480246
 10
36.9305897293
 20
23.6212520106
 10
36.927724747
 20
23.6300007647
 10
36.9238364001
 20
23.6386580147
 10
36.9190428343
 20
23.6469607142
 10
36.9134896995
 20
23.6546565901
 10
36.9073457249
 20
23.661511807
 10
36.9007975922
 20
23.6673180727
 10
36.894044263
 20
23.6718989666
 10
36.8872909338
 20
23.6751153006
 10
36.8807428011
 20
23.6768693481
 10
36.8745988265
 20
23.6771078132
 10
36.8690456917
 20
23.6758234503
 10
36.8665464979
 20
23.6746219093
  0
LWPOLYLINE
  5
A2
330
1F
100
AcDbEntity
  8
0
  6
Continuous
 62
     7
370
    25
100
AcDbPolyline
 90
        3
 70
   128
 43
0.0
 10
36.9758012065
 20
23.4940551578
 10
36.9752103667
 20
23.5021947377
 10
36.9735537922
 20
23.5103980637
  0
ARC
  5
A3
330
1F
100
AcDbEntity
  8
0
  6
Continuous
 62
     7
370
    25
100
AcDbCircle
 10
36.9483024309
 20
23.4913286281
 30
0.0
 40
0.0276336139490669
100
AcDbArc
 50
305.6497565293
 51
5.6624238641
  0
LWPOLYLINE
  5
A4
330
1F
100
AcDbEntity
  8
0
  6
Continuous
 62
     7
370
    25
100
AcDbPolyline
 90
       13
 70
   128
 43
0.0
 10
37.1830696036
 20
23.6642404723
 10
37.1824901544
 20
23.6709412955
 10
37.1807771313
 20
23.6780182784
 10
37.1780054019
 20
23.6851621229
 10
37.1742961039
 20
23.6920606088
 10
37.1698113514
 20
23.6984122391
 10
37.1647471498
 20
23.703939417
 10
37.1593248287
 20
23.7084005784
 10
37.1537813699
 20
23.7116007491
 10
37.1483590488
 20
23.7134000663
 10
37.1432948472
 20
23.7137198911
 10
37.1388100947
 20
23.7125462459
 10
37.1378046231
 20
23.7120249567
  0
ARC
  5
A5
330
1F
100
AcDbEntity
  8
0
  6
Continuous
 62
     7
370
    25
100
AcDbCircle
 10
37.1645126031
 20
23.6622945317
 30
0.0
 40
0.0186587499723517
100
AcDbArc
 50
305.3258580115
 51
5.9863223819
  0
LWPOLYLINE
  5
A6
330
1F
100
AcDbEntity
  8
0
  6
Continuous
 62
     7
370
    25
100
AcDbPolyline
 90
       13
 70
   128
 43
0.0
 10
37.0973374626
 20
23.7137325838
 10
37.0967580134
 20
23.720433407
 10
37.0950449904
 20
23.7275103899
 10
37.0922732609
 20
23.7346542345
 10
37.0885639629
 20
23.7415527203
 10
37.0840792104
 20
23.7479043506
 10
37.0790150088
 20
23.7534315285
 10
37.0735926877
 20
23.7578926899
 10
37.0680492289
 20
23.7610928606
 10
37.0626269078
 20
23.7628921778
 10
37.0575627062
 20
23.7632120027
 10
37.0530779537
 20
23.7620383574
 10
37.0520724821
 20
23.7615170682
  0
ARC
  5
A7
330
1F
100
AcDbEntity
  8
0
  6
Continuous
 62
     7
370
    25
100
AcDbCircle
 10
37.0787804621
 20
23.7117866432
 30
0.0
 40
0.0186587499723454
100
AcDbArc
 50
305.3258580115
 51
5.9863223819
  0
ARC
  5
A8
330
1F
100
AcDbEntity
  8
0
  6
Continuous
 62
     7
370
    25
100
AcDbCircle
 10
37.0891592922
 20
23.601957533
 30
0.0
 40
0.0510605946878663
100
AcDbArc
 50
1.4501607849
 51
25.5077192504
  0
ARC
  5
A9
330
1F
100
AcDbEntity
  8
0
  6
Continuous
 62
     7
370
    25
100
AcDbCircle
 10
37.1216465326
 20
23.6013038022
 30
0.0
 40
0.0186587499723785
100
AcDbArc
 50
305.3258580116
 51
5.9863223818
  0
ARC
  5
AA
330
1F
100
AcDbEntity
  8
0
  6
Continuous
 62
     7
370
    25
100
AcDbCircle
 10
35.0258706614
 20
22.4700729849
 30
0.0
 40
0.7933496275774545
100
AcDbArc
 50
22.2489832132
 51
30.0246996124
  0
ARC
  5
AB
330
1F
100
AcDbEntity
  8
0
  6
Continuous
 62
     7
370
    25
100
AcDbCircle
 10
35.3727508978
 20
23.1944736108
 30
0.0
 40
0.0924002076008872
100
AcDbArc
 50
57.6184527742
 51
90.9037276251
  0
LINE
  5
AC
330
1F
100
AcDbEntity
  8
0
  6
Continuous
 62
     7
370
    25
100
AcDbLine
 10
35.7080100797
 20
23.1075319227
 30
0.0
 11
35.4222362763
 21
23.2725056278
 31
0.0
  0
ARC
  5
AD
330
1F
100
AcDbEntity
  8
0
  6
Continuous
 62
     7
370
    25
100
AcDbCircle
 10
35.5844147683
 20
22.9141242654
 30
0.0
 40
0.2295263010142334
100
AcDbArc
 50
20.1693655555
 51
57.4197776411
  0
LINE
  5
AE
330
1F
100
AcDbEntity
  8
0
  6
Continuous
 62
     7
370
    25
100
AcDbLine
 10
35.9427528467
 20
22.6249879627
 30
0.0
 11
35.799865945
 21
22.9932640994
 31
0.0
  0
ARC
  5
AF
330
1F
100
AcDbEntity
  8
0
  6
Continuous
 62
     7
370
    25
100
AcDbCircle
 10
35.8202639252
 20
22.5637474018
 30
0.0
 40
0.1369450333984931
100
AcDbArc
 50
333.4364081968
 51
26.5635918032
  0
LINE
  5
B0
330
1F
100
AcDbEntity
  8
0
  6
Continuous
 62
     7
370
    25
100
AcDbLine
 10
35.8901329305
 20
22.4276381386
 30
0.0
 11
35.9427528467
 21
22.5025068409
 31
0.0
  0
LWPOLYLINE
  5
B1
330
1F
100
AcDbEntity
  8
0
  6
Continuous
 62
     7
370
    25
100
AcDbPolyline
 90
       34
 70
   128
 43
0.0
 10
35.8939278313
 20
22.5919334833
 10
35.8933503621
 20
22.6147600107
 10
35.891619983
 20
22.6381730907
 10
35.8887427719
 20
22.6620904842
 10
35.8847288352
 20
22.6864281804
 10
35.879592272
 20
22.7111006922
 10
35.8733511246
 20
22.7360213566
 10
35.8660273154
 20
22.7611026387
 10
35.8576465693
 20
22.7862564398
 10
35.8482383242
 20
22.8113944061
 10
35.8378356268
 20
22.8364282396
 10
35.826475017
 20
22.861270008
 10
35.8141963993
 20
22.8858324538
 10
35.8010429029
 20
22.9100293005
 10
35.7870607298
 20
22.9337755557
 10
35.7722989929
 20
22.9569878098
 10
35.7568095435
 20
22.9795845291
 10
35.7406467887
 20
23.0014863416
 10
35.7238675008
 20
23.0226163165
 10
35.7065306177
 20
23.0429002339
 10
35.6886970358
 20
23.0622668459
 10
35.6704293962
 20
23.0806481265
 10
35.6517918647
 20
23.0979795108
 10
35.6328499063
 20
23.1142001216
 10
35.6136700553
 20
23.1292529836
 10
35.5943196816
 20
23.143085223
 10
35.5748667541
 20
23.1556482534
 10
35.5553796019
 20
23.1668979469
 10
35.5359266744
 20
23.1767947884
 10
35.5165763007
 20
23.185304015
 10
35.4973964497
 20
23.1923957377
 10
35.4784544913
 20
23.1980450465
 10
35.4598169598
 20
23.2022320981
 10
35.4582095606
 20
23.2025271558
  0
ARC
  5
B2
330
1F
100
AcDbEntity
  8
0
  6
Continuous
 62
     7
370
    25
100
AcDbCircle
 10
35.5605212771
 20
22.5866025639
 30
0.0
 40
0.3334491701039876
100
AcDbArc
 50
341.1267541047
 51
0.9160382528
  0
ARC
  5
B3
330
1F
100
AcDbEntity
  8
0
  6
Continuous
 62
     7
370
    25
100
AcDbCircle
 10
35.1649039701
 20
22.5368977873
 30
0.0
 40
0.6804600489848165
100
AcDbArc
 50
3.2615672627
 51
31.0091879538
  0
ARC
  5
B4
330
1F
100
AcDbEntity
  8
0
  6
Continuous
 62
     7
370
    25
100
AcDbCircle
 10
35.1906929472
 20
22.6012186876
 30
0.0
 40
0.6233406875175872
100
AcDbArc
 50
36.9108663677
 51
57.4354610427
  0
ARC
  5
B5
330
1F
100
AcDbEntity
  8
0
  6
Continuous
 62
     7
370
    25
100
AcDbCircle
 10
35.2065487948
 20
22.5600557948
 30
0.0
 40
0.6736544068554544
100
AcDbArc
 50
2.0173108961
 51
31.0844666133
  0
ARC
  5
B6
330
1F
100
AcDbEntity
  8
0
  6
Continuous
 62
     7
370
    25
100
AcDbCircle
 10
35.2686166665
 20
22.6508386965
 30
0.0
 40
0.5741573300288594
100
AcDbArc
 50
28.8704393767
 51
69.2378592499
  0
ARC
  5
B7
330
1F
100
AcDbEntity
  8
0
  6
Continuous
 62
     7
370
    25
100
AcDbCircle
 10
35.5215023194
 20
22.5806732334
 30
0.0
 40
0.358296754060181
100
AcDbArc
 50
346.6956959413
 51
0.4951192139
  0
LINE
  5
B8
330
1F
100
AcDbEntity
  8
0
  6
Continuous
 62
     7
370
    25
100
AcDbLine
 10
36.0049269116
 20
23.1116432756
 30
0.0
 11
35.799865945
 21
22.9932640994
 31
0.0
  0
LINE
  5
B9
330
1F
100
AcDbEntity
  8
0
  6
Continuous
 62
     7
370
    25
100
AcDbLine
 10
36.1478138132
 20
22.7433671389
 30
0.0
 11
36.0049269116
 21
23.1116432756
 31
0.0
  0
LINE
  5
BA
330
1F
100
AcDbEntity
  8
0
  6
Continuous
 62
     7
370
    25
100
AcDbLine
 10
35.9427528467
 20
22.6249879627
 30
0.0
 11
36.1478138132
 21
22.7433671389
 31
0.0
  0
LINE
  5
BB
330
1F
100
AcDbEntity
  8
0
  6
Continuous
 62
     7
370
    25
100
AcDbLine
 10
35.7080100797
 20
23.1075319227
 30
0.0
 11
35.9130710462
 21
23.2259110989
 31
0.0
  0
ARC
  5
BC
330
1F
100
AcDbEntity
  8
0
  6
Continuous
 62
     7
370
    25
100
AcDbCircle
 10
35.7894757349
 20
23.0325034416
 30
0.0
 40
0.229526301014722
100
AcDbArc
 50
20.1693655555
 51
57.419777641
  0
LINE
  5
BD
330
1F
100
AcDbEntity
  8
0
  6
Continuous
 62
     7
370
    25
100
AcDbLine
 10
35.6272972429
 20
23.390884804
 30
0.0
 11
35.4222362763
 21
23.2725056278
 31
0.0
  0
LINE
  5
BE
330
1F
100
AcDbEntity
  8
0
  6
Continuous
 62
     7
370
    25
100
AcDbLine
 10
35.9130710462
 20
23.2259110989
 30
0.0
 11
35.6272972429
 21
23.390884804
 31
0.0
  0
ARC
  5
BF
330
1F
100
AcDbEntity
  8
0
  6
Continuous
 62
     7
370
    25
100
AcDbCircle
 10
36.0253248918
 20
22.682126578
 30
0.0
 40
0.1369450333985678
100
AcDbArc
 50
333.4364081968
 51
26.5635918032
  0
LINE
  5
C0
330
1F
100
AcDbEntity
  8
0
  6
Continuous
 62
     7
370
    25
100
AcDbLine
 10
36.1478138132
 20
22.6208860171
 30
0.0
 11
35.9427528467
 21
22.5025068409
 31
0.0
  0
LINE
  5
C1
330
1F
100
AcDbEntity
  8
0
  6
Continuous
 62
     7
370
    25
100
AcDbLine
 10
36.0049269116
 20
22.4175835855
 30
0.0
 11
36.1478138132
 21
22.6208860171
 31
0.0
  0
LWPOLYLINE
  5
C2
330
1F
100
AcDbEntity
  8
0
  6
Continuous
 62
     7
370
    25
100
AcDbPolyline
 90
       84
 70
   128
 43
0.0
 10
35.7028850737
 20
21.579593739
 10
35.7134593095
 20
21.5859352671
 10
35.7338912356
 20
21.5996150554
 10
35.7534631831
 20
21.614676321
 10
35.7721464275
 20
21.6310969592
 10
35.7899135484
 20
21.6488528705
 10
35.8067384701
 20
21.6679179958
 10
35.8225964999
 20
21.6882643542
 10
35.8374643638
 20
21.7098620847
 10
35.8513202412
 20
21.7326794896
 10
35.8641437966
 20
21.7566830813
 10
35.8759162098
 20
21.7818376312
 10
35.8866202032
 20
21.8081062215
 10
35.896240067
 20
21.8354502994
 10
35.9047616829
 20
21.8638297337
 10
35.9121725442
 20
21.8932028737
 10
35.9184617744
 20
21.9235266103
 10
35.9236201433
 20
21.9547564392
 10
35.9276400802
 20
21.9868465263
 10
35.9305156852
 20
22.0197497749
 10
35.9322427381
 20
22.0534178951
 10
35.9328187042
 20
22.0878014742
 10
35.9322427381
 20
22.1228500496
 10
35.9305156852
 20
22.1585121826
 10
35.9276400802
 20
22.1947355342
 10
35.9236201433
 20
22.2314669416
 10
35.9184617744
 20
22.2686524964
 10
35.9121725442
 20
22.3062376236
 10
35.9047616829
 20
22.344167162
 10
35.896240067
 20
22.3823854446
 10
35.8866202032
 20
22.4208363809
 10
35.8759162098
 20
22.4594635388
 10
35.8641437966
 20
22.4982102277
 10
35.8513202412
 20
22.5370195814
 10
35.8374643638
 20
22.5758346418
 10
35.8225964999
 20
22.6145984426
 10
35.8067384701
 20
22.6532540924
 10
35.7899135484
 20
22.6917448588
 10
35.7721464275
 20
22.7300142513
 10
35.7534631831
 20
22.7680061043
 10
35.7338912356
 20
22.8056646594
 10
35.7134593095
 20
22.8429346476
 10
35.6921973913
 20
22.87976137
 10
35.670136686
 20
22.9160907783
 10
35.6473095705
 20
22.9518695542
 10
35.623749547
 20
22.9870451872
 10
35.5994911929
 20
23.0215660524
 10
35.5745701108
 20
23.0553814855
 10
35.5490228757
 20
23.0884418578
 10
35.5228869818
 20
23.1206986487
 10
35.4962007871
 20
23.1521045168
 10
35.4690034572
 20
23.1826133697
 10
35.441334908
 20
23.2121804314
 10
35.4132357469
 20
23.2407623082
 10
35.3847472133
 20
23.2683170523
 10
35.3559111181
 20
23.2948042233
 10
35.3267697821
 20
23.3201849475
 10
35.2973659743
 20
23.3444219754
 10
35.267742849
 20
23.3674797356
 10
35.2379438819
 20
23.3893243878
 10
35.2080128074
 20
23.409923872
 10
35.1779935533
 20
23.4292479554
 10
35.1479301771
 20
23.4472682775
 10
35.1178668009
 20
23.4639583908
 10
35.0878475468
 20
23.4792938003
 10
35.0579164723
 20
23.4932519993
 10
35.0281175052
 20
23.5058125021
 10
34.9984943799
 20
23.5169568744
 10
34.9690905721
 20
23.5266687603
 10
34.9399492361
 20
23.5349339064
 10
34.9111131409
 20
23.5417401824
 10
34.8826246073
 20
23.547077599
 10
34.8545254462
 20
23.550938323
 10
34.826856897
 20
23.5533166882
 10
34.7996595671
 20
23.554209204
 10
34.7729733724
 20
23.5536145605
 10
34.7468374785
 20
23.5515336305
 10
34.7212902434
 20
23.5479694679
 10
34.6963691613
 20
23.5429273038
 10
34.6721108072
 20
23.536414538
 10
34.6485507837
 20
23.5284407292
 10
34.6257236682
 20
23.5190175798
 10
34.6036629629
 20
23.5081589197
 10
34.5929752805
 20
23.5022222135
  0
ARC
  5
C3
330
1F
100
AcDbEntity
  8
0
  6
Continuous
 62
     7
370
    25
100
AcDbCircle
 10
34.2772080853
 20
22.038250812
 30
0.0
 40
1.657265480637044
100
AcDbArc
 50
2.5606993374
 51
57.4339241299
  0
ARC
  5
C4
330
1F
100
AcDbEntity
  8
0
  6
Continuous
 62
     7
370
    25
100
AcDbCircle
 10
34.0265199794
 20
21.9227670788
 30
0.0
 40
0.0463385319619254
100
AcDbArc
 50
242.6993467637
 51
296.1459996425
  0
ARC
  5
C5
330
1F
100
AcDbEntity
  8
0
  6
Continuous
 62
     7
370
    25
100
AcDbCircle
 10
34.051547181
 20
21.8794114388
 30
0.0
 40
0.0463320698909502
100
AcDbArc
 50
123.8500425738
 51
177.3047974538
  0
ARC
  5
C6
330
1F
100
AcDbEntity
  8
0
  6
Continuous
 62
     7
370
    25
100
AcDbCircle
 10
33.9978991097
 20
21.8773366628
 30
0.0
 40
0.0491900133593918
100
AcDbArc
 50
4.4697543709
 51
55.5302457747
  0
ELLIPSE
  5
C7
330
1F
100
AcDbEntity
  8
0
  6
Continuous
 62
     7
370
    25
100
AcDbEllipse
 10
34.2826093893
 20
22.0416984461
 30
0.0
 11
-0.01499877652418746
 21
0.02598146844949412
 31
0.0
210
0.0
220
0.0
230
1.0
 40
0.5780852102
 41
3.927681267029488
 42
5.497259618652721
  0
LINE
  5
C8
330
1F
100
AcDbEntity
  8
0
  6
Continuous
 62
     7
370
    25
100
AcDbLine
 10
34.3038355231
 20
22.0294747138
 30
0.0
 11
34.0469395172
 21
21.8811701796
 31
0.0
  0
LINE
  5
C9
330
1F
100
AcDbEntity
  8
0
  6
Continuous
 62
     7
370
    25
100
AcDbLine
 10
34.0257392362
 20
21.9178901432
 30
0.0
 11
34.2826352422
 21
22.0661946774
 31
0.0
  0
LINE
  5
CA
330
1F
100
AcDbEntity
  8
0
  6
Continuous
 62
     7
370
    25
100
AcDbLine
 10
34.0469395172
 20
21.8811701796
 30
0.0
 11
34.0469395172
 21
17.8457775779
 31
0.0
  0
ARC
  5
CB
330
1F
100
AcDbEntity
  8
0
  6
Continuous
 62
     7
370
    25
100
AcDbCircle
 10
34.0265199794
 20
17.8873744771
 30
0.0
 40
0.0463385319619716
100
AcDbArc
 50
242.6993467637
 51
296.1459996425
  0
LINE
  5
CC
330
1F
100
AcDbEntity
  8
0
  6
Continuous
 62
     7
370
    25
100
AcDbLine
 10
34.0052663629
 20
17.8461975014
 30
0.0
 11
34.0052663629
 21
21.8815901031
 31
0.0
  0
LINE
  5
CD
330
1F
100
AcDbEntity
  8
0
  6
Continuous
 62
     7
370
    25
100
AcDbLine
 10
30.5311760352
 20
23.9352585382
 30
0.0
 11
34.0257392362
 21
21.9178901432
 31
0.0
  0
LINE
  5
CE
330
1F
100
AcDbEntity
  8
0
  6
Continuous
 62
     7
370
    25
100
AcDbLine
 10
34.0052663629
 20
21.8815901031
 30
0.0
 11
30.5107031619
 21
23.8989584981
 31
0.0
  0
ARC
  5
CF
330
1F
100
AcDbEntity
  8
0
  6
Continuous
 62
     7
370
    25
100
AcDbCircle
 10
30.5569839799
 20
23.8967798339
 30
0.0
 40
0.0463320698909724
100
AcDbArc
 50
123.8500425738
 51
177.3047974538
  0
LINE
  5
D0
330
1F
100
AcDbEntity
  8
0
  6
Continuous
 62
     7
370
    25
100
AcDbLine
 10
34.3038355231
 20
22.0294747138
 30
0.0
 11
34.3038355231
 21
17.9740624408
 31
0.0
  0
LINE
  5
D1
330
1F
100
AcDbEntity
  8
0
  6
Continuous
 62
     7
370
    25
100
AcDbLine
 10
34.0469395172
 20
17.8457775779
 30
0.0
 11
34.3038355231
 21
17.9740624408
 31
0.0
  0
LINE
  5
D2
330
1F
100
AcDbEntity
  8
0
  6
Continuous
 62
     7
370
    25
100
AcDbLine
 10
30.7707354363
 20
24.0935712815
 30
0.0
 11
34.2826352422
 21
22.0661946774
 31
0.0
  0
LINE
  5
D3
330
1F
100
AcDbEntity
  8
0
  6
Continuous
 62
     7
370
    25
100
AcDbLine
 10
30.7707354363
 20
24.0935712815
 30
0.0
 11
30.5311760352
 21
23.9352585382
 31
0.0
  0
LWPOLYLINE
  5
D4
330
1F
100
AcDbEntity
  8
0
  6
Continuous
 62
     7
370
    25
100
AcDbPolyline
 90
       71
 70
   128
 43
0.0
 10
31.2326799297
 20
21.4644738808
 10
31.2320963758
 20
21.4798155609
 10
31.2303504128
 20
21.4957074756
 10
31.227456098
 20
21.5120216727
 10
31.2234367348
 20
21.5286267999
 10
31.2183246847
 20
21.5453891624
 10
31.212161107
 20
21.5621737995
 10
31.2049956271
 20
21.5788455712
 10
31.1968859373
 20
21.5952702462
 10
31.187897332
 20
21.6113155827
 10
31.1781021822
 20
21.626852393
 10
31.1675793527
 20
21.641755584
 10
31.1564135672
 20
21.6559051638
 10
31.1446947259
 20
21.6691872084
 10
31.132517182
 20
21.6814947786
 10
31.1199789821
 20
21.6927287809
 10
31.1071810763
 20
21.702798766
 10
31.0942265058
 20
21.7116236561
 10
31.0812195732
 20
21.7191323984
 10
31.0682650028
 20
21.725264537
 10
31.0554670969
 20
21.7299706995
 10
31.042928897
 20
21.7332129946
 10
31.0307513532
 20
21.7349653173
 10
31.0190325119
 20
21.7352135589
 10
31.0078667263
 20
21.7339557207
 10
30.9973438968
 20
21.7312019301
 10
30.987548747
 20
21.7269743589
 10
30.9785601418
 20
21.7213070452
 10
30.9704504519
 20
21.7142456187
 10
30.9632849721
 20
21.705846934
 10
30.9571213943
 20
21.6961786123
 10
30.9520093442
 20
21.6853184972
 10
30.947989981
 20
21.673354028
 10
30.9450956662
 20
21.6603815356
 10
30.9433497032
 20
21.6465054669
 10
30.9427661494
 20
21.6318375438
 10
30.9433497032
 20
21.6164958637
 10
30.9450956662
 20
21.600603949
 10
30.947989981
 20
21.5842897519
 10
30.9520093442
 20
21.5676846247
 10
30.9571213943
 20
21.5509222622
 10
30.9632849721
 20
21.5341376251
 10
30.9704504519
 20
21.5174658534
 10
30.9785601418
 20
21.5010411784
 10
30.987548747
 20
21.4849958419
 10
30.9973438968
 20
21.4694590316
 10
31.0078667263
 20
21.4545558406
 10
31.0190325119
 20
21.4404062608
 10
31.0307513532
 20
21.4271242162
 10
31.042928897
 20
21.4148166461
 10
31.0554670969
 20
21.4035826437
 10
31.0682650028
 20
21.3935126586
 10
31.0812195732
 20
21.3846877685
 10
31.0942265058
 20
21.3771790262
 10
31.1071810763
 20
21.3710468876
 10
31.1199789821
 20
21.3663407251
 10
31.132517182
 20
21.36309843
 10
31.1446947259
 20
21.3613461073
 10
31.1564135672
 20
21.3610978657
 10
31.1675793527
 20
21.3623557039
 10
31.1781021822
 20
21.3651094945
 10
31.187897332
 20
21.3693370657
 10
31.1968859373
 20
21.3750043794
 10
31.2049956271
 20
21.3820658059
 10
31.212161107
 20
21.3904644906
 10
31.2183246847
 20
21.4001328123
 10
31.2234367348
 20
21.4109929274
 10
31.227456098
 20
21.4229573966
 10
31.2303504128
 20
21.435929889
 10
31.2320963758
 20
21.4498059577
 10
31.2326799297
 20
21.4644738808
  0
ELLIPSE
  5
D5
330
1F
100
AcDbEntity
  8
0
  6
Continuous
 62
     7
370
    25
100
AcDbEllipse
 10
32.8416163142
 20
21.0321877223
 30
0.0
 11
-0.08840013007984737
 21
0.493113301560193
 31
0.0
210
0.0
220
0.0
230
1.0
 40
0.5091526124
 41
4.373850200410336
 42
5.877366168597191
  0
LINE
  5
D6
330
1F
100
AcDbEntity
  8
0
  6
Continuous
 62
     7
370
    25
100
AcDbLine
 10
31.6564581718
 20
22.1975261835
 30
0.0
 11
32.859511353
 21
21.5030183651
 31
0.0
  0
ELLIPSE
  5
D7
330
1F
100
AcDbEntity
  8
0
  6
Continuous
 62
     7
370
    25
100
AcDbEllipse
 10
31.6743532105
 20
21.7060343689
 30
0.0
 11
-0.1229227706222496
 21
0.5117155364485592
 31
0.0
210
0.0
220
0.0
230
1.0
 40
0.4613786991
 41
5.870434553913099
 42
7.373950522099929
  0
LINE
  5
D8
330
1F
100
AcDbEntity
  8
0
  6
Continuous
 62
     7
370
    25
100
AcDbLine
 10
33.1077942446
 20
20.9108747562
 30
0.0
 11
33.1077942446
 21
19.895240269
 31
0.0
  0
LINE
  5
D9
330
1F
100
AcDbEntity
  8
0
  6
Continuous
 62
     7
370
    25
100
AcDbLine
 10
30.5107031619
 20
23.8989584981
 30
0.0
 11
30.5107031619
 21
19.8635658965
 31
0.0
  0
LINE
  5
DA
330
1F
100
AcDbEntity
  8
0
  6
Continuous
 62
     7
370
    25
100
AcDbLine
 10
30.5107031619
 20
19.8635658965
 30
0.0
 11
34.0052663629
 21
17.8461975014
 31
0.0
  0
LWPOLYLINE
  5
DB
330
1F
100
AcDbEntity
  8
0
  6
Continuous
 62
     7
370
    25
100
AcDbPolyline
 90
       71
 70
   128
 43
0.0
 10
33.5732033754
 20
20.1133184558
 10
33.5726198216
 20
20.1286601358
 10
33.5708738585
 20
20.1445520506
 10
33.5679795438
 20
20.1608662477
 10
33.5639601805
 20
20.1774713748
 10
33.5588481305
 20
20.1942337373
 10
33.5526845527
 20
20.2110183744
 10
33.5455190728
 20
20.2276901461
 10
33.537409383
 20
20.2441148211
 10
33.5284207777
 20
20.2601601576
 10
33.518625628
 20
20.275696968
 10
33.5081027985
 20
20.2906001589
 10
33.4969370129
 20
20.3047497387
 10
33.4852181716
 20
20.3180317833
 10
33.4730406278
 20
20.3303393535
 10
33.4605024278
 20
20.3415733559
 10
33.447704522
 20
20.3516433409
 10
33.4347499515
 20
20.360468231
 10
33.421743019
 20
20.3679769734
 10
33.4087884485
 20
20.374109112
 10
33.3959905427
 20
20.3788152745
 10
33.3834523427
 20
20.3820575696
 10
33.3712747989
 20
20.3838098923
 10
33.3595559576
 20
20.3840581338
 10
33.348390172
 20
20.3828002956
 10
33.3378673425
 20
20.380046505
 10
33.3280721928
 20
20.3758189339
 10
33.3190835875
 20
20.3701516201
 10
33.3109738977
 20
20.3630901937
 10
33.3038084178
 20
20.3546915089
 10
33.29764484
 20
20.3450231872
 10
33.29253279
 20
20.3341630721
 10
33.2885134268
 20
20.322198603
 10
33.285619112
 20
20.3092261106
 10
33.2838731489
 20
20.2953500418
 10
33.2832895951
 20
20.2806821187
 10
33.2838731489
 20
20.2653404387
 10
33.285619112
 20
20.2494485239
 10
33.2885134268
 20
20.2331343268
 10
33.29253279
 20
20.2165291996
 10
33.29764484
 20
20.1997668372
 10
33.3038084178
 20
20.1829822001
 10
33.3109738977
 20
20.1663104283
 10
33.3190835875
 20
20.1498857533
 10
33.3280721928
 20
20.1338404168
 10
33.3378673425
 20
20.1183036065
 10
33.348390172
 20
20.1034004155
 10
33.3595559576
 20
20.0892508357
 10
33.3712747989
 20
20.0759687911
 10
33.3834523427
 20
20.063661221
 10
33.3959905427
 20
20.0524272186
 10
33.4087884485
 20
20.0423572335
 10
33.421743019
 20
20.0335323434
 10
33.4347499515
 20
20.0260236011
 10
33.447704522
 20
20.0198914625
 10
33.4605024278
 20
20.0151853
 10
33.4730406278
 20
20.0119430049
 10
33.4852181716
 20
20.0101906822
 10
33.4969370129
 20
20.0099424406
 10
33.5081027985
 20
20.0112002788
 10
33.518625628
 20
20.0139540695
 10
33.5284207777
 20
20.0181816406
 10
33.537409383
 20
20.0238489543
 10
33.5455190728
 20
20.0309103808
 10
33.5526845527
 20
20.0393090655
 10
33.5588481305
 20
20.0489773873
 10
33.5639601805
 20
20.0598375023
 10
33.5679795438
 20
20.0718019715
 10
33.5708738585
 20
20.0847744639
 10
33.5726198216
 20
20.0986505326
 10
33.5732033754
 20
20.1133184558
  0
LINE
  5
DC
330
1F
100
AcDbEntity
  8
0
  6
Continuous
 62
     7
370
    25
100
AcDbLine
 10
31.8471220981
 20
19.648331078
 30
0.0
 11
32.8291994458
 21
21.3880885508
 31
0.0
  0
ELLIPSE
  5
DD
330
1F
100
AcDbEntity
  8
0
  6
Continuous
 62
     7
370
    25
100
AcDbEllipse
 10
32.7090337928
 20
20.9556494618
 30
0.0
 11
0.1101140289543778
 21
0.4361383188991609
 31
0.0
210
0.0
220
0.0
230
1.0
 40
0.3348498656
 41
4.708895207425694
 42
6.212411175612593
  0
LINE
  5
DE
330
1F
100
AcDbEntity
  8
0
  6
Continuous
 62
     7
370
    25
100
AcDbLine
 10
32.8546890463
 20
20.9172542539
 30
0.0
 11
32.1383873947
 21
19.6483204433
 31
0.0
  0
ELLIPSE
  5
DF
330
1F
100
AcDbEntity
  8
0
  6
Continuous
 62
     7
370
    25
100
AcDbEllipse
 10
32.0173439143
 20
19.730315594
 30
0.0
 11
0.2155532466428838
 21
0.0236466811002316
 31
0.0
210
0.0
220
0.0
230
1.0
 40
0.5090174845
 41
3.748290699989811
 42
5.251806668176678
  0
LINE
  5
E0
330
1F
100
AcDbEntity
  8
0
  6
Continuous
 62
     7
370
    25
100
AcDbLine
 10
31.6261462646
 20
22.0825963692
 30
0.0
 11
30.8020855244
 21
20.2516178507
 31
0.0
  0
LINE
  5
E1
330
1F
100
AcDbEntity
  8
0
  6
Continuous
 62
     7
370
    25
100
AcDbLine
 10
32.8291994458
 20
21.3880885508
 30
0.0
 11
31.6261462646
 21
22.0825963692
 31
0.0
  0
LINE
  5
E2
330
1F
100
AcDbEntity
  8
0
  6
Continuous
 62
     7
370
    25
100
AcDbLine
 10
30.8020855244
 20
20.2516178507
 30
0.0
 11
31.8471220981
 21
19.648331078
 31
0.0
  0
LINE
  5
E3
330
1F
100
AcDbEntity
  8
0
  6
Continuous
 62
     7
370
    25
100
AcDbLine
 10
32.8546890463
 20
19.9554362572
 30
0.0
 11
32.1383873947
 21
19.6483204433
 31
0.0
  0
LINE
  5
E4
330
1F
100
AcDbEntity
  8
0
  6
Continuous
 62
     7
370
    25
100
AcDbLine
 10
32.8546890463
 20
19.9554362572
 30
0.0
 11
32.8546890463
 21
20.9172542539
 31
0.0
  0
ARC
  5
E5
330
1F
100
AcDbEntity
  8
0
  6
Continuous
 62
     7
370
    25
100
AcDbCircle
 10
32.9746599322
 20
20.6529364498
 30
0.0
 40
0.2902704171082547
100
AcDbArc
 50
62.6995746389
 51
114.4127650095
  0
ARC
  5
E6
330
1F
100
AcDbEntity
  8
0
  6
Continuous
 62
     7
370
    25
100
AcDbCircle
 10
32.5978267384
 20
21.5105736091
 30
0.0
 40
0.2617936576763858
100
AcDbArc
 50
332.1039620548
 51
358.3462406651
  0
ARC
  5
E7
330
1F
100
AcDbEntity
  8
0
  6
Continuous
 62
     7
370
    25
100
AcDbCircle
 10
31.3947735573
 20
22.2050814275
 30
0.0
 40
0.2617936576762634
100
AcDbArc
 50
332.1039620547
 51
358.3462406651
  0
LWPOLYLINE
  5
E8
330
1F
100
AcDbEntity
  8
0
  6
Continuous
 62
     7
370
    25
100
AcDbPolyline
 90
       28
 70
   128
 43
0.0
 10
33.4669512389
 20
20.3359701011
 10
33.4641848973
 20
20.3348110093
 10
33.4577868365
 20
20.3308755621
 10
33.4522861271
 20
20.3255399311
 10
33.4477730906
 20
20.3188917269
 10
33.4443218309
 20
20.3110401131
 10
33.4419890177
 20
20.3021140128
 10
33.4408129556
 20
20.2922599925
 10
33.4408129556
 20
20.2816398547
 10
33.4419890177
 20
20.270427982
 10
33.4443218309
 20
20.2588084729
 10
33.4477730906
 20
20.2469721195
 10
33.4522861271
 20
20.2351132743
 10
33.4577868365
 20
20.2234266593
 10
33.4641848973
 20
20.2121041683
 10
33.4713752536
 20
20.2013317165
 10
33.4792398399
 20
20.191286187
 10
33.4876495198
 20
20.1821325272
 10
33.4964662067
 20
20.17402104
 10
33.5055451309
 20
20.1670849158
 10
33.5147372166
 20
20.1614380455
 10
33.52389153
 20
20.1571731506
 10
33.5328577576
 20
20.1543602606
 10
33.5414886742
 20
20.1530455629
 10
33.5496425604
 20
20.153250645
 10
33.5571855295
 20
20.1549721394
 10
33.5639937262
 20
20.1581817791
 10
33.5679468757
 20
20.1610215709
  0
SPLINE
  5
E9
330
1F
100
AcDbEntity
  8
0
  6
Continuous
 62
     7
370
    25
100
AcDbSpline
210
0.0
220
0.0
230
1.0
 70
     8
 71
     3
 72
    14
 73
    10
 74
     0
 42
0.00000001
 43
0.00000001
 40
0.0
 40
0.0
 40
0.0
 40
0.0
 40
0.1214924034792118
 40
0.2431920092697044
 40
0.4226530611739729
 40
0.602398910922024
 40
0.799490533737177
 40
0.9966625772531604
 40
1.0
 40
1.0
 40
1.0
 40
1.0
 10
32.97248463846952
 20
19.97585731142712
 30
0.0
 10
32.97906993758077
 20
19.97533328842073
 30
0.0
 10
32.99225176686923
 20
19.97428434869959
 30
0.0
 10
33.01435856636867
 20
19.96770327245911
 30
0.0
 10
33.03810908744678
 20
19.95662616287251
 30
0.0
 10
33.06325694078162
 20
19.93979025001854
 30
0.0
 10
33.08666090421431
 20
19.91938806837658
 30
0.0
 10
33.10097957321494
 20
19.90361552444744
 30
0.0
 10
33.10768267338247
 20
19.89537739037706
 30
0.0
 10
33.10779424456856
 20
19.89524026899047
 30
0.0
  0
ELLIPSE
  5
EA
330
1F
100
AcDbEntity
  8
0
  6
Continuous
 62
     7
370
    25
100
AcDbEllipse
 10
32.9752117231
 20
19.8732178109
 30
0.0
 11
0.1874479079146738
 21
-0.008089621709412855
 31
0.0
210
0.0
220
0.0
230
1.0
 40
0.5463150007
 41
1.608914043060475
 42
2.292500779676299
  0
ARC
  5
EB
330
1F
100
AcDbEntity
  8
0
  6
Continuous
 62
     7
370
    25
100
AcDbCircle
 10
33.5015404799
 20
20.2959864701
 30
0.0
 40
0.053330540245202
100
AcDbArc
 50
132.2174730105
 51
184.8262630883
  0
LWPOLYLINE
  5
EC
330
1F
100
AcDbEntity
  8
0
  6
Continuous
 62
     7
370
    25
100
AcDbPolyline
 90
       19
 70
   128
 43
0.0
 10
33.5669019874
 20
20.1601861015
 10
33.5612319452
 20
20.1583875018
 10
33.5533673589
 20
20.1574222304
 10
33.544957679
 20
20.1579781804
 10
33.536140992
 20
20.1600462233
 10
33.5270620679
 20
20.1635924018
 10
33.5178699822
 20
20.1685584877
 10
33.5087156688
 20
20.1748629381
 10
33.4997494411
 20
20.1824022341
 10
33.4911185246
 20
20.1910525807
 10
33.4829646384
 20
20.2006719393
 10
33.4754216693
 20
20.2111023604
 10
33.4686134726
 20
20.2221725767
 10
33.4626518386
 20
20.2337008157
 10
33.4576346573
 20
20.245497784
 10
33.4536443107
 20
20.2573697755
 10
33.45074632
 20
20.2691218527
 10
33.4489882702
 20
20.2805610467
 10
33.4483990285
 20
20.2914995262
  0
ELLIPSE
  5
ED
330
1F
100
AcDbEntity
  8
0
  6
Continuous
 62
     7
370
    25
100
AcDbEllipse
 10
30.9613739671
 20
20.3399140688
 30
0.0
 11
0.206847511855532
 21
0.026934684360846
 31
0.0
210
0.0
220
0.0
230
1.0
 40
0.5500908635
 41
2.814679850955498
 42
3.76499879783989
  0
ELLIPSE
  5
EE
330
1F
100
AcDbEntity
  8
0
  6
Continuous
 62
     7
370
    25
100
AcDbEllipse
 10
34.2826093893
 20
17.986345881
 30
0.0
 11
-0.01501706471556474
 21
0.02601312737003525
 31
0.0
210
0.0
220
0.0
230
1.0
 40
0.5766787367
 41
3.106725692913753
 42
3.926462895913512
  0
ELLIPSE
  5
EF
330
1F
100
AcDbEntity
  8
0
  6
Continuous
 62
     7
370
    25
100
AcDbEllipse
 10
30.7707612892
 20
24.069045201
 30
0.0
 11
-0.01501706471556119
 21
0.0260131273700317
 31
0.0
210
0.0
220
0.0
230
1.0
 40
0.5766787367
 41
5.498477197879469
 42
6.3180522678554
  0
LWPOLYLINE
  5
F0
330
1F
100
AcDbEntity
  8
0
  6
Continuous
 62
     7
370
    25
100
AcDbPolyline
 90
       28
 70
   128
 43
0.0
 10
31.1264277932
 20
21.6871255262
 10
31.1236614516
 20
21.6859664344
 10
31.1172633908
 20
21.6820309872
 10
31.1117626814
 20
21.6766953561
 10
31.1072496448
 20
21.670047152
 10
31.1037983852
 20
21.6621955382
 10
31.1014655719
 20
21.6532694379
 10
31.1002895099
 20
21.6434154175
 10
31.1002895099
 20
21.6327952798
 10
31.1014655719
 20
21.6215834071
 10
31.1037983852
 20
21.609963898
 10
31.1072496448
 20
21.5981275445
 10
31.1117626814
 20
21.5862686994
 10
31.1172633908
 20
21.5745820844
 10
31.1236614516
 20
21.5632595934
 10
31.1308518079
 20
21.5524871415
 10
31.1387163941
 20
21.542441612
 10
31.1471260741
 20
21.5332879523
 10
31.155942761
 20
21.5251764651
 10
31.1650216852
 20
21.5182403409
 10
31.1742137709
 20
21.5125934706
 10
31.1833680843
 20
21.5083285757
 10
31.1923343119
 20
21.5055156856
 10
31.2009652285
 20
21.504200988
 10
31.2091191146
 20
21.5044060701
 10
31.2166620837
 20
21.5061275644
 10
31.2234702805
 20
21.5093372042
 10
31.22742343
 20
21.5121769959
  0
ARC
  5
F1
330
1F
100
AcDbEntity
  8
0
  6
Continuous
 62
     7
370
    25
100
AcDbCircle
 10
31.1610170342
 20
21.6471418951
 30
0.0
 40
0.0533305402450926
100
AcDbArc
 50
132.2174730102
 51
184.8262630884
  0
LWPOLYLINE
  5
F2
330
1F
100
AcDbEntity
  8
0
  6
Continuous
 62
     7
370
    25
100
AcDbPolyline
 90
       19
 70
   128
 43
0.0
 10
31.2263785417
 20
21.5113415266
 10
31.2207084994
 20
21.5095429269
 10
31.2128439132
 20
21.5085776554
 10
31.2044342332
 20
21.5091336055
 10
31.1956175463
 20
21.5112016483
 10
31.1865386222
 20
21.5147478268
 10
31.1773465365
 20
21.5197139128
 10
31.168192223
 20
21.5260183632
 10
31.1592259954
 20
21.5335576592
 10
31.1505950788
 20
21.5422080057
 10
31.1424411927
 20
21.5518273643
 10
31.1348982236
 20
21.5622577854
 10
31.1280900269
 20
21.5733280018
 10
31.1221283929
 20
21.5848562408
 10
31.1171112116
 20
21.596653209
 10
31.1131208649
 20
21.6085252006
 10
31.1102228742
 20
21.6202772778
 10
31.1084648245
 20
21.6317164717
 10
31.1078755828
 20
21.6426549512
  0
ARC
  5
F3
330
1F
100
AcDbEntity
  8
0
  6
Continuous
 62
     7
370
    25
100
AcDbCircle
 10
35.9816529847
 20
23.1839276929
 30
0.0
 40
0.0759388744273325
100
AcDbArc
 50
287.8473696381
 51
339.7850374824
  0
LWPOLYLINE
  5
F4
330
1F
100
AcDbEntity
  8
0
  6
Continuous
 62
     7
370
    25
100
AcDbPolyline
 90
       10
 70
   128
 43
0.0
 10
36.1478138132
 20
22.7433671389
 10
36.158397535
 20
22.749722487
 10
36.1678589071
 20
22.755918218
 10
36.176094269
 20
22.76188645
 10
36.1830133922
 20
22.7675617941
 10
36.1885404693
 20
22.7728820698
 10
36.1926149446
 20
22.7777889871
 10
36.1951921773
 20
22.7822287848
 10
36.1962439306
 20
22.7861528196
 10
36.1958011401
 20
22.7894113892
  0
ARC
  5
F5
330
1F
100
AcDbEntity
  8
0
  6
Continuous
 62
     7
370
    25
100
AcDbCircle
 10
35.9569151916
 20
23.1655267773
 30
0.0
 40
0.0746228877435114
100
AcDbArc
 50
65.3276226242
 51
125.9828358049
  0
LINE
  5
F6
330
1F
100
AcDbEntity
  8
0
  6
Continuous
 62
     7
370
    25
100
AcDbLine
 10
35.9058056204
 20
22.3603620821
 30
0.0
 11
36.0049269116
 21
22.4175835855
 31
0.0
  0
ARC
  5
F7
330
1F
100
AcDbEntity
  8
0
  6
Continuous
 62
     7
370
    25
100
AcDbCircle
 10
35.6711413883
 20
23.3305004824
 30
0.0
 40
0.0746228877435609
100
AcDbArc
 50
65.3276226242
 51
125.9828358049
  0
ARC
  5
F8
330
1F
100
AcDbEntity
  8
0
  6
Continuous
 62
     7
370
    25
100
AcDbCircle
 10
36.100209523
 20
22.7043435633
 30
0.0
 40
0.0960798129623469
100
AcDbArc
 50
299.7004901687
 51
324.7573405728
  0
ARC
  5
F9
330
1F
100
AcDbEntity
  8
0
  6
Continuous
 62
     7
370
    25
100
AcDbCircle
 10
35.5834530975
 20
23.3305004824
 30
0.0
 40
0.0746228877434027
100
AcDbArc
 50
54.0171641951
 51
114.6723773759
  0
ARC
  5
FA
330
1F
100
AcDbEntity
  8
0
  6
Continuous
 62
     7
370
    25
100
AcDbCircle
 10
35.9573226214
 20
22.5010411317
 30
0.0
 40
0.0960798129623329
100
AcDbArc
 50
299.7004901687
 51
324.7573405728
  0
ARC
  5
FB
330
1F
100
AcDbEntity
  8
0
  6
Continuous
 62
     7
370
    25
100
AcDbCircle
 10
35.9615056334
 20
22.4474891299
 30
0.0
 40
0.0527233248177431
100
AcDbArc
 50
300.2483378418
 51
325.443642964
  0
LINE
  5
FC
330
1F
100
AcDbEntity
  8
0
  6
Continuous
 62
     7
370
    25
100
AcDbLine
 10
31.4081752802
 20
21.7895159531
 30
0.0
 11
31.4081752802
 21
21.8920438995
 31
0.0
  0
LINE
  5
FD
330
1F
100
AcDbEntity
  8
0
  6
Continuous
 62
     7
370
    25
100
AcDbLine
 10
33.1077942446
 20
19.895240269
 30
0.0
 11
32.9680242968
 21
19.9759277424
 31
0.0
  0
ELLIPSE
  5
FE
330
1F
100
AcDbEntity
  8
0
  6
Continuous
 62
     7
370
    25
100
AcDbEllipse
 10
31.5417706891
 20
21.6294961084
 30
0.0
 11
0.06486966595169363
 21
0.4608031458886401
 31
0.0
210
0.0
220
0.0
230
1.0
 40
0.3024614216
 41
6.137811832249408
 42
7.088130779133778
  0
ARC
  5
FF
330
1F
100
AcDbEntity
  8
0
  6
Continuous
 62
     7
370
    25
100
AcDbCircle
 10
31.342824658
 20
21.7743629507
 30
0.0
 40
0.1346087275766515
100
AcDbArc
 50
42.4087296492
 51
60.9556961381
  0
ARC
  5
100
330
1F
100
AcDbEntity
  8
0
  6
Continuous
 62
     7
370
    25
100
AcDbCircle
 10
34.0321677919
 20
17.8442888633
 30
0.0
 40
0.0148465530793063
100
AcDbArc
 50
301.3066714145
 51
5.7549154106
  0
ARC
  5
101
330
1F
100
AcDbEntity
  8
0
  6
Continuous
 62
     7
370
    25
100
AcDbCircle
 10
34.0195983922
 20
17.8444083887
 30
0.0
 40
0.0144432679200611
100
AcDbArc
 50
172.8843952801
 51
235.8034243265
  0
ARC
  5
102
330
1F
100
AcDbEntity
  8
0
  6
Continuous
 62
     7
370
    25
100
AcDbCircle
 10
30.5163172427
 20
23.9122620922
 30
0.0
 40
0.014439650872849
100
AcDbArc
 50
184.1997546959
 51
247.1203862617
  0
ARC
  5
103
330
1F
100
AcDbEntity
  8
0
  6
Continuous
 62
     7
370
    25
100
AcDbCircle
 10
30.5224718694
 20
23.9227067946
 30
0.0
 40
0.0152744482541244
100
AcDbArc
 50
55.260135717
 51
117.680404833
  0
ARC
  5
104
330
1F
100
AcDbEntity
  8
0
  6
Continuous
 62
     7
370
    25
100
AcDbCircle
 10
30.5250351912
 20
19.8617767838
 30
0.0
 40
0.0144432679201029
100
AcDbArc
 50
172.8843952802
 51
235.8034243264
  0
ARC
  5
105
330
1F
100
AcDbEntity
  8
0
  6
Continuous
 62
     7
370
    25
100
AcDbCircle
 10
30.5163172427
 20
19.8768694905
 30
0.0
 40
0.0144396508729488
100
AcDbArc
 50
184.1997546961
 51
247.1203862614
  0
SPLINE
  5
106
330
1F
100
AcDbEntity
  8
0
  6
Continuous
 62
     7
370
    25
100
AcDbSpline
210
0.0
220
0.0
230
1.0
 70
     8
 71
     3
 72
    22
 73
    18
 74
     0
 42
0.00000001
 43
0.00000001
 40
0.0
 40
0.0
 40
0.0
 40
0.0
 40
0.125
 40
0.125
 40
0.25
 40
0.25
 40
0.375
 40
0.375
 40
0.5
 40
0.5
 40
0.625
 40
0.625
 40
0.75
 40
0.75
 40
0.875
 40
0.875
 40
1.0
 40
1.0
 40
1.0
 40
1.0
 10
19.03155848577077
 20
7.076727162752319
 30
0.0
 10
19.03855602740097
 20
7.076727162752319
 30
0.0
 10
19.04538617036054
 20
7.076678916145086
 30
0.0
 10
19.05880227817493
 20
7.076512047430795
 30
0.0
 10
19.06543680789214
 20
7.076391172137112
 30
0.0
 10
19.07802544575702
 20
7.076095857208956
 30
0.0
 10
19.08403120169669
 20
7.07592112111136
 30
0.0
 10
19.09551034085688
 20
7.075521691277389
 30
0.0
 10
19.10101639547889
 20
7.075294906484981
 30
0.0
 10
19.11114312530124
 20
7.074804789215481
 30
0.0
 10
19.11580335430552
 20
7.074540564942628
 30
0.0
 10
19.12427158063899
 20
7.073971600125399
 30
0.0
 10
19.12810447070933
 20
7.073663872526408
 30
0.0
 10
19.13450842966692
 20
7.073023471992872
 30
0.0
 10
19.1371176441095
 20
7.072689557360556
 30
0.0
 10
19.14085795356207
 20
7.071987529941541
 30
0.0
 10
19.14193961010258
 20
7.07162754980564
 30
0.0
 10
19.14197799844131
 20
7.071264304502588
 30
0.0
  0
LINE
  5
107
330
1F
100
AcDbEntity
  8
0
  6
Continuous
 62
     7
370
    25
100
AcDbLine
 10
17.8948526481
 20
7.0767271628
 30
0.0
 11
19.0315584858
 21
7.0767271628
 31
0.0
  0
SPLINE
  5
108
330
1F
100
AcDbEntity
  8
0
  6
Continuous
 62
     7
370
    25
100
AcDbSpline
210
0.0
220
0.0
230
1.0
 70
     8
 71
     3
 72
    22
 73
    18
 74
     0
 42
0.00000001
 43
0.00000001
 40
0.0
 40
0.0
 40
0.0
 40
0.0
 40
0.1249999999999997
 40
0.1249999999999997
 40
0.2499999999999994
 40
0.2499999999999994
 40
0.3749999999999992
 40
0.3749999999999992
 40
0.4999999999999989
 40
0.4999999999999989
 40
0.6249999999999987
 40
0.6249999999999987
 40
0.7499999999999983
 40
0.7499999999999983
 40
0.8749999999999991
 40
0.8749999999999991
 40
1.0
 40
1.0
 40
1.0
 40
1.0
 10
17.78443313543697
 20
7.071264304502566
 30
0.0
 10
17.7844719490936
 20
7.071631574328546
 30
0.0
 10
17.78555794128031
 20
7.071987103147351
 30
0.0
 10
17.78924205240259
 20
7.072681206759935
 30
0.0
 10
17.7918966901198
 20
7.073022757977983
 30
0.0
 10
17.79829819982746
 20
7.073663138533182
 30
0.0
 10
17.80205184685962
 20
7.073965095051252
 30
0.0
 10
17.81054048255779
 20
7.074536644548765
 30
0.0
 10
17.81529074213245
 20
7.074806022075237
 30
0.0
 10
17.82542356903353
 20
7.075296168571665
 30
0.0
 10
17.83084116487368
 20
7.075519527421551
 30
0.0
 10
17.84239578315804
 20
7.075921761353598
 30
0.0
 10
17.84848824112365
 20
7.076098511659413
 30
0.0
 10
17.86101010927929
 20
7.076391760133919
 30
0.0
 10
17.86748155723183
 20
7.076510045798312
 30
0.0
 10
17.88093282762423
 20
7.07667818169751
 30
0.0
 10
17.88792046555683
 20
7.076727162752318
 30
0.0
 10
17.89485264810751
 20
7.076727162752319
 30
0.0
  0
ELLIPSE
  5
109
330
1F
100
AcDbEntity
  8
0
  6
Continuous
 62
     7
370
    25
100
AcDbEllipse
 10
18.4632055669
 20
6.942248408
 30
0.0
 11
0.0
 21
0.9193961754804238
 31
0.0
210
0.0
220
0.0
230
1.0
 40
0.7456587883
 41
1.430004883296256
 42
1.487579429976944
  0
LINE
  5
10A
330
1F
100
AcDbEntity
  8
0
  6
Continuous
 62
     7
370
    25
100
AcDbLine
 10
17.3958903093
 20
7.0186694301
 30
0.0
 11
17.7800221141
 21
7.0186694301
 31
0.0
  0
ELLIPSE
  5
10B
330
1F
100
AcDbEntity
  8
0
  6
Continuous
 62
     7
370
    25
100
AcDbEllipse
 10
17.2613934718
 20
7.0255159907
 30
0.0
 11
0.1874999999999964
 21
0.0
 31
0.0
210
0.0
220
0.0
230
1.0
 40
0.0524077793
 41
5.512332107964197
 42
6.195918844580112
  0
LINE
  5
10C
330
1F
100
AcDbEntity
  8
0
  6
Continuous
 62
     7
370
    25
100
AcDbLine
 10
17.4481799777
 20
7.0246595584
 30
0.0
 11
17.5296762969
 21
7.0734777817
 31
0.0
  0
ELLIPSE
  5
10D
330
1F
100
AcDbEntity
  8
0
  6
Continuous
 62
     7
370
    25
100
AcDbEllipse
 10
17.7165220566
 20
7.0726568438
 30
0.0
 11
0.1879494542362821
 21
0.0005044077137164039
 31
0.0
210
0.0
220
0.0
230
1.0
 40
0.064913913
 41
1.529476774672294
 42
3.032992742859198
  0
LINE
  5
10E
330
1F
100
AcDbEntity
  8
0
  6
Continuous
 62
     7
370
    25
100
AcDbLine
 10
17.7242531191
 20
7.0848678007
 30
0.0
 11
19.2021580148
 21
7.0848678007
 31
0.0
  0
ELLIPSE
  5
10F
330
1F
100
AcDbEntity
  8
0
  6
Continuous
 62
     7
370
    25
100
AcDbEllipse
 10
19.2098890773
 20
7.0726568438
 30
0.0
 11
0.1879494542362785
 21
-0.0005044077137164038
 31
0.0
210
0.0
220
0.0
230
1.0
 40
0.064913913
 41
0.1085999107305945
 42
1.6121158789175
  0
LINE
  5
110
330
1F
100
AcDbEntity
  8
0
  6
Continuous
 62
     7
370
    25
100
AcDbLine
 10
19.4782311562
 20
7.0246595584
 30
0.0
 11
19.396734837
 21
7.0734777817
 31
0.0
  0
ELLIPSE
  5
111
330
1F
100
AcDbEntity
  8
0
  6
Continuous
 62
     7
370
    25
100
AcDbEllipse
 10
19.6650176621
 20
7.0255159907
 30
0.0
 11
0.1875000000000036
 21
0.0
 31
0.0
210
0.0
220
0.0
230
1.0
 40
0.0524077793
 41
3.228859116189793
 42
3.912445852805451
  0
LINE
  5
112
330
1F
100
AcDbEntity
  8
0
  6
Continuous
 62
     7
370
    25
100
AcDbLine
 10
19.1463890197
 20
7.0186694301
 30
0.0
 11
19.5305208246
 21
7.0186694301
 31
0.0
  0
ELLIPSE
  5
113
330
1F
100
AcDbEntity
  8
0
  6
Continuous
 62
     7
370
    25
100
AcDbEllipse
 10
18.4632055669
 20
6.942248408
 30
0.0
 11
0.0
 21
0.9193961754804238
 31
0.0
210
0.0
220
0.0
230
1.0
 40
0.7456587883
 41
4.795605877202653
 42
4.85318042388335
  0
LINE
  5
114
330
1F
100
AcDbEntity
  8
0
  6
Continuous
 62
     7
370
    25
100
AcDbLine
 10
17.5296762969
 20
7.0734777817
 30
0.0
 11
17.4481799777
 21
8.2025774074
 31
0.0
  0
ELLIPSE
  5
115
330
1F
100
AcDbEntity
  8
0
  6
Continuous
 62
     7
370
    25
100
AcDbEllipse
 10
17.6378259109
 20
8.1629611607
 30
0.0
 11
-0.03391080412098901
 21
0.4698209269473992
 31
0.0
210
0.0
220
0.0
230
1.0
 40
0.3980527077
 41
6.237355505486661
 42
7.740871473673458
  0
LINE
  5
116
330
1F
100
AcDbEntity
  8
0
  6
Continuous
 62
     7
370
    25
100
AcDbLine
 10
17.6125185044
 20
8.6329071822
 30
0.0
 11
17.7242531191
 21
7.0848678007
 31
0.0
  0
LINE
  5
117
330
1F
100
AcDbEntity
  8
0
  6
Continuous
 62
     7
370
    25
100
AcDbLine
 10
19.3138926294
 20
8.6329071822
 30
0.0
 11
17.6125185044
 21
8.6329071822
 31
0.0
  0
LINE
  5
118
330
1F
100
AcDbEntity
  8
0
  6
Continuous
 62
     7
370
    25
100
AcDbLine
 10
19.2021580148
 20
7.0848678007
 30
0.0
 11
19.3138926294
 21
8.6329071822
 31
0.0
  0
ELLIPSE
  5
119
330
1F
100
AcDbEntity
  8
0
  6
Continuous
 62
     7
370
    25
100
AcDbEllipse
 10
19.288585223
 20
8.1629611607
 30
0.0
 11
0.03391080412099257
 21
0.4698209269473991
 31
0.0
210
0.0
220
0.0
230
1.0
 40
0.3980527077
 41
4.825499140685724
 42
6.329015108872584
  0
LINE
  5
11A
330
1F
100
AcDbEntity
  8
0
  6
Continuous
 62
     7
370
    25
100
AcDbLine
 10
19.4782311562
 20
8.2025774074
 30
0.0
 11
19.396734837
 21
7.0734777817
 31
0.0
  0
LINE
  5
11B
330
1F
100
AcDbEntity
  8
0
  6
Continuous
 62
     7
370
    25
100
AcDbLine
 10
17.4481799777
 20
8.2025774074
 30
0.0
 11
17.4481799777
 21
7.0246595584
 31
0.0
  0
LINE
  5
11C
330
1F
100
AcDbEntity
  8
0
  6
Continuous
 62
     7
370
    25
100
AcDbLine
 10
19.4782311562
 20
7.0246595584
 30
0.0
 11
19.4782311562
 21
8.2025774074
 31
0.0
  0
ELLIPSE
  5
11D
330
1F
100
AcDbEntity
  8
0
  6
Continuous
 62
     7
370
    25
100
AcDbEllipse
 10
17.6378259109
 20
8.1629611607
 30
0.0
 11
0.04248760103774886
 21
-0.5886490934306902
 31
0.0
210
0.0
220
0.0
230
1.0
 40
0.6353988963
 41
3.095762851896807
 42
4.599278820083673
  0
LINE
  5
11E
330
1F
100
AcDbEntity
  8
0
  6
Continuous
 62
     7
370
    25
100
AcDbLine
 10
17.6125185044
 20
8.7522289862
 30
0.0
 11
17.6125185044
 21
8.6329071822
 31
0.0
  0
LINE
  5
11F
330
1F
100
AcDbEntity
  8
0
  6
Continuous
 62
     7
370
    25
100
AcDbLine
 10
17.2613934718
 20
8.2025774074
 30
0.0
 11
17.4481799777
 21
8.2025774074
 31
0.0
  0
SPLINE
  5
120
330
1F
100
AcDbEntity
  8
0
  6
Continuous
 62
     7
370
    25
100
AcDbSpline
210
0.0
220
0.0
230
1.0
 70
     8
 71
     3
 72
    16
 73
    12
 74
     0
 42
0.00000001
 43
0.00000001
 40
0.0
 40
0.0
 40
0.0
 40
0.0
 40
0.2500000000000006
 40
0.2500000000000006
 40
0.5000000000000011
 40
0.5000000000000011
 40
0.7500000000000017
 40
0.7500000000000017
 40
0.8750000000000008
 40
0.8750000000000008
 40
1.0
 40
1.0
 40
1.0
 40
1.0
 10
17.39589030925007
 20
7.018669430144796
 30
0.0
 10
17.38631242741164
 20
7.018152656198863
 30
0.0
 10
17.3760301051155
 20
7.015390982249056
 30
0.0
 10
17.35419008411355
 20
7.007491392423694
 30
0.0
 10
17.3430520029548
 20
7.002468380129901
 30
0.0
 10
17.32019657563276
 20
6.991236289342862
 30
0.0
 10
17.30844107845018
 20
6.984977982637828
 30
0.0
 10
17.29088421975515
 20
6.975338476249356
 30
0.0
 10
17.28501920227774
 20
6.972068420314826
 30
0.0
 10
17.27324373279391
 20
6.96545516774397
 30
0.0
 10
17.26729170208889
 20
6.962088195322504
 30
0.0
 10
17.26139347181088
 20
6.958751658059522
 30
0.0
  0
LINE
  5
121
330
1F
100
AcDbEntity
  8
0
  6
Continuous
 62
     7
370
    25
100
AcDbLine
 10
17.2613934718
 20
6.9587516581
 30
0.0
 11
17.2613934718
 21
8.2025774074
 31
0.0
  0
LINE
  5
122
330
1F
100
AcDbEntity
  8
0
  6
Continuous
 62
     7
370
    25
100
AcDbLine
 10
19.4782311562
 20
8.2025774074
 30
0.0
 11
19.6650176621
 21
8.2025774074
 31
0.0
  0
LINE
  5
123
330
1F
100
AcDbEntity
  8
0
  6
Continuous
 62
     7
370
    25
100
AcDbLine
 10
19.3138926294
 20
8.7522289862
 30
0.0
 11
19.3138926294
 21
8.6329071822
 31
0.0
  0
ELLIPSE
  5
124
330
1F
100
AcDbEntity
  8
0
  6
Continuous
 62
     7
370
    25
100
AcDbEllipse
 10
19.288585223
 20
8.1629611607
 30
0.0
 11
-0.04248760103774886
 21
-0.5886490934306902
 31
0.0
210
0.0
220
0.0
230
1.0
 40
0.6353988963
 41
1.683906487095924
 42
3.187422455282801
  0
LINE
  5
125
330
1F
100
AcDbEntity
  8
0
  6
Continuous
 62
     7
370
    25
100
AcDbLine
 10
19.6650176621
 20
8.2025774074
 30
0.0
 11
19.6650176621
 21
6.9587516581
 31
0.0
  0
SPLINE
  5
126
330
1F
100
AcDbEntity
  8
0
  6
Continuous
 62
     7
370
    25
100
AcDbSpline
210
0.0
220
0.0
230
1.0
 70
     8
 71
     3
 72
    16
 73
    12
 74
     0
 42
0.00000001
 43
0.00000001
 40
0.0
 40
0.0
 40
0.0
 40
0.0
 40
0.2500000000000001
 40
0.2500000000000001
 40
0.5000000000000002
 40
0.5000000000000002
 40
0.7500000000000003
 40
0.7500000000000003
 40
0.8750000000000001
 40
0.8750000000000001
 40
1.0
 40
1.0
 40
1.0
 40
1.0
 10
19.53052082462821
 20
7.018669430144796
 30
0.0
 10
19.54009870646664
 20
7.018152656198862
 30
0.0
 10
19.55038102876278
 20
7.015390982249058
 30
0.0
 10
19.57222104976474
 20
7.007491392423693
 30
0.0
 10
19.58335913092349
 20
7.002468380129903
 30
0.0
 10
19.60621455824552
 20
6.991236289342858
 30
0.0
 10
19.6179700554281
 20
6.984977982637829
 30
0.0
 10
19.63552691412313
 20
6.975338476249349
 30
0.0
 10
19.64139193160054
 20
6.972068420314822
 30
0.0
 10
19.65316740108436
 20
6.965455167743951
 30
0.0
 10
19.65911943178931
 20
6.962088195322369
 30
0.0
 10
19.66501766206741
 20
6.958751658059522
 30
0.0
  0
LINE
  5
127
330
1F
100
AcDbEntity
  8
0
  6
Continuous
 62
     7
370
    25
100
AcDbLine
 10
17.8288975359
 20
6.9587516581
 30
0.0
 11
17.2613934718
 21
6.9587516581
 31
0.0
  0
SPLINE
  5
128
330
1F
100
AcDbEntity
  8
0
  6
Continuous
 62
     7
370
    25
100
AcDbSpline
210
0.0
220
0.0
230
1.0
 70
     8
 71
     3
 72
    18
 73
    14
 74
     0
 42
0.00000001
 43
0.00000001
 40
0.0
 40
0.0
 40
0.0
 40
0.0
 40
0.125
 40
0.125
 40
0.25
 40
0.25
 40
0.375
 40
0.375
 40
0.5
 40
0.5
 40
0.75
 40
0.75
 40
1.0
 40
1.0
 40
1.0
 40
1.0
 10
17.78002211413212
 20
7.018669430144796
 30
0.0
 10
17.78000757676872
 20
7.01843569185491
 30
0.0
 10
17.78037973178271
 20
7.017716135336804
 30
0.0
 10
17.78185313113533
 20
7.015376324064361
 30
0.0
 10
17.78296307617504
 20
7.013747405515143
 30
0.0
 10
17.78575779873182
 20
7.00984096164803
 30
0.0
 10
17.78747546570523
 20
7.007517891732746
 30
0.0
 10
17.7913321772962
 20
7.002453892860259
 30
0.0
 10
17.79348715497889
 20
6.999690784906702
 30
0.0
 10
17.80049034338311
 20
6.990925463388929
 30
0.0
 10
17.80569137133897
 20
6.984676341302221
 30
0.0
 10
17.81696037972834
 20
6.971703662366711
 30
0.0
 10
17.82282154727731
 20
6.96521692226557
 30
0.0
 10
17.82889753586799
 20
6.958751658059522
 30
0.0
  0
LINE
  5
129
330
1F
100
AcDbEntity
  8
0
  6
Continuous
 62
     7
370
    25
100
AcDbLine
 10
19.6650176621
 20
6.9587516581
 30
0.0
 11
19.097513598
 21
6.9587516581
 31
0.0
  0
SPLINE
  5
12A
330
1F
100
AcDbEntity
  8
0
  6
Continuous
 62
     7
370
    25
100
AcDbSpline
210
0.0
220
0.0
230
1.0
 70
     8
 71
     3
 72
    14
 73
    10
 74
     0
 42
0.00000001
 43
0.00000001
 40
0.0
 40
0.0
 40
0.0
 40
0.0
 40
0.25
 40
0.25
 40
0.5
 40
0.5
 40
0.75
 40
0.75
 40
1.0
 40
1.0
 40
1.0
 40
1.0
 10
19.09751359801029
 20
6.958751658059522
 30
0.0
 10
19.1035886351415
 20
6.965215909848127
 30
0.0
 10
19.1094365069947
 20
6.971688464581136
 30
0.0
 10
19.12065634172363
 20
6.984602137424046
 30
0.0
 10
19.12591656125766
 20
6.990920901159545
 30
0.0
 10
19.13522350558754
 20
7.002568187397064
 30
0.0
 10
19.13921698487751
 20
7.007834662029457
 30
0.0
 10
19.14484560294707
 20
7.015699473508376
 30
0.0
 10
19.14641810701511
 20
7.018201751907903
 30
0.0
 10
19.14638901974624
 20
7.018669430144796
 30
0.0
  0
LINE
  5
12B
330
1F
100
AcDbEntity
  8
0
  6
Continuous
 62
     7
370
    25
100
AcDbLine
 10
17.6125185044
 20
8.7522289862
 30
0.0
 11
19.3138926294
 21
8.7522289862
 31
0.0
  0
CIRCLE
  5
12C
330
1F
100
AcDbEntity
  8
0
  6
Continuous
 62
     7
370
    25
100
AcDbCircle
 10
16.8082055669
 20
7.5548678007
 30
0.0
 40
0.2049999999999983
  0
LINE
  5
12D
330
1F
100
AcDbEntity
  8
0
  6
Continuous
 62
     7
370
    25
100
AcDbLine
 10
15.9921762302
 20
10.0258971375
 30
0.0
 11
15.9921762302
 21
5.083838464
 31
0.0
  0
LINE
  5
12E
330
1F
100
AcDbEntity
  8
0
  6
Continuous
 62
     7
370
    25
100
AcDbLine
 10
20.9342349037
 20
10.0258971375
 30
0.0
 11
15.9921762302
 21
10.0258971375
 31
0.0
  0
LINE
  5
12F
330
1F
100
AcDbEntity
  8
0
  6
Continuous
 62
     7
370
    25
100
AcDbLine
 10
20.9342349037
 20
5.083838464
 30
0.0
 11
20.9342349037
 21
10.0258971375
 31
0.0
  0
LINE
  5
130
330
1F
100
AcDbEntity
  8
0
  6
Continuous
 62
     7
370
    25
100
AcDbLine
 10
15.9921762302
 20
5.083838464
 30
0.0
 11
20.9342349037
 21
5.083838464
 31
0.0
  0
CIRCLE
  5
131
330
1F
100
AcDbEntity
  8
0
  6
Continuous
 62
     7
370
    25
100
AcDbCircle
 10
20.1182055669
 20
7.5548678007
 30
0.0
 40
0.2049999999999983
  0
ARC
  5
132
330
1F
100
AcDbEntity
  8
0
  6
Continuous
 62
     7
370
    25
100
AcDbCircle
 10
18.4632055669
 20
7.5548678007
 30
0.0
 40
0.8704602999660719
100
AcDbArc
 50
223.2221320796
 51
316.7778679204
  0
LINE
  5
133
330
1F
100
AcDbEntity
  8
0
  6
Continuous
 62
     7
370
    25
100
AcDbLine
 10
15.9921762302
 20
10.0558788623
 30
0.0
 11
20.9342349037
 21
10.0558788623
 31
0.0
  0
LINE
  5
134
330
1F
100
AcDbEntity
  8
0
  6
Continuous
 62
     7
370
    25
100
AcDbLine
 10
20.9342349037
 20
10.0558788623
 30
0.0
 11
20.9342349037
 21
10.0258971375
 31
0.0
  0
LINE
  5
135
330
1F
100
AcDbEntity
  8
0
  6
Continuous
 62
     7
370
    25
100
AcDbLine
 10
15.9921762302
 20
10.0558788623
 30
0.0
 11
15.9921762302
 21
10.0258971375
 31
0.0
  0
LINE
  5
136
330
1F
100
AcDbEntity
  8
0
  6
Continuous
 62
     7
370
    25
100
AcDbLine
 10
15.9921762302
 20
5.083838464
 30
0.0
 11
15.9621945054
 21
5.083838464
 31
0.0
  0
LINE
  5
137
330
1F
100
AcDbEntity
  8
0
  6
Continuous
 62
     7
370
    25
100
AcDbLine
 10
15.9621945054
 20
5.083838464
 30
0.0
 11
15.9621945054
 21
10.0258971375
 31
0.0
  0
LINE
  5
138
330
1F
100
AcDbEntity
  8
0
  6
Continuous
 62
     7
370
    25
100
AcDbLine
 10
15.9921762302
 20
10.0258971375
 30
0.0
 11
15.9621945054
 21
10.0258971375
 31
0.0
  0
ARC
  5
139
330
1F
100
AcDbEntity
  8
0
  6
Continuous
 62
     7
370
    25
100
AcDbCircle
 10
15.992218704
 20
10.0258546636
 30
0.0
 40
0.0300242286928695
100
AcDbArc
 50
90.0810536242
 51
179.9189463758
  0
LINE
  5
13A
330
1F
100
AcDbEntity
  8
0
  6
Continuous
 62
     7
370
    25
100
AcDbLine
 10
15.9921762302
 20
5.083838464
 30
0.0
 11
15.9921762302
 21
5.0538567391
 31
0.0
  0
ARC
  5
13B
330
1F
100
AcDbEntity
  8
0
  6
Continuous
 62
     7
370
    25
100
AcDbCircle
 10
15.992218704
 20
5.0838809378
 30
0.0
 40
0.0300242286928659
100
AcDbArc
 50
180.0810536242
 51
269.9189463758
  0
LINE
  5
13C
330
1F
100
AcDbEntity
  8
0
  6
Continuous
 62
     7
370
    25
100
AcDbLine
 10
20.9342349037
 20
5.083838464
 30
0.0
 11
20.9342349037
 21
5.0538567391
 31
0.0
  0
LINE
  5
13D
330
1F
100
AcDbEntity
  8
0
  6
Continuous
 62
     7
370
    25
100
AcDbLine
 10
20.9342349037
 20
5.0538567391
 30
0.0
 11
15.9921762302
 21
5.0538567391
 31
0.0
  0
CIRCLE
  5
13E
330
1F
100
AcDbEntity
  8
0
  6
Continuous
 62
     7
370
    25
100
AcDbCircle
 10
16.8082055669
 20
7.5548678007
 30
0.0
 40
0.1014999999999979
  0
CIRCLE
  5
13F
330
1F
100
AcDbEntity
  8
0
  6
Continuous
 62
     7
370
    25
100
AcDbCircle
 10
20.1182055669
 20
7.5548678007
 30
0.0
 40
0.1015000000000015
  0
LINE
  5
140
330
1F
100
AcDbEntity
  8
0
  6
Continuous
 62
     7
370
    25
100
AcDbLine
 10
20.9642166285
 20
10.0258971375
 30
0.0
 11
20.9642166285
 21
5.083838464
 31
0.0
  0
LINE
  5
141
330
1F
100
AcDbEntity
  8
0
  6
Continuous
 62
     7
370
    25
100
AcDbLine
 10
20.9642166285
 20
5.083838464
 30
0.0
 11
20.9342349037
 21
5.083838464
 31
0.0
  0
LINE
  5
142
330
1F
100
AcDbEntity
  8
0
  6
Continuous
 62
     7
370
    25
100
AcDbLine
 10
20.9642166285
 20
10.0258971375
 30
0.0
 11
20.9342349037
 21
10.0258971375
 31
0.0
  0
ARC
  5
143
330
1F
100
AcDbEntity
  8
0
  6
Continuous
 62
     7
370
    25
100
AcDbCircle
 10
20.9341924299
 20
10.0258546636
 30
0.0
 40
0.0300242286928695
100
AcDbArc
 50
0.0810536242
 51
89.9189463758
  0
ARC
  5
144
330
1F
100
AcDbEntity
  8
0
  6
Continuous
 62
     7
370
    25
100
AcDbCircle
 10
20.9341924299
 20
5.0838809378
 30
0.0
 40
0.0300242286928624
100
AcDbArc
 50
270.0810536242
 51
359.9189463758
  0
ELLIPSE
  5
145
330
1F
100
AcDbEntity
  8
0
  6
Continuous
 62
     7
370
    25
100
AcDbEllipse
 10
15.9799539609
 20
5.0716161946
 30
0.0
 11
0.0212390563379774
 21
0.02123905633797563
 31
0.0
210
0.0
220
0.0
230
1.0
 40
0.998782766
 41
2.356803477777938
 42
3.926381829401805
  0
LINE
  5
146
330
1F
100
AcDbEntity
  8
0
  6
Continuous
 62
     7
370
    25
100
AcDbLine
 10
15.9499356745
 20
5.0715796331
 30
0.0
 11
15.9621945054
 21
5.083838464
 31
0.0
  0
LINE
  5
147
330
1F
100
AcDbEntity
  8
0
  6
Continuous
 62
     7
370
    25
100
AcDbLine
 10
15.9921762302
 20
5.0538567391
 30
0.0
 11
15.9799173993
 21
5.0415979083
 31
0.0
  0
ELLIPSE
  5
148
330
1F
100
AcDbEntity
  8
0
  6
Continuous
 62
     7
370
    25
100
AcDbEllipse
 10
15.9799539609
 20
10.0381194068
 30
0.0
 11
0.02123905633797563
 21
-0.0212390563379774
 31
0.0
210
0.0
220
0.0
230
1.0
 40
0.998782766
 41
2.356803477777889
 42
3.926381829401676
  0
LINE
  5
149
330
1F
100
AcDbEntity
  8
0
  6
Continuous
 62
     7
370
    25
100
AcDbLine
 10
15.9799173993
 20
10.0681376931
 30
0.0
 11
15.9921762302
 21
10.0558788623
 31
0.0
  0
LINE
  5
14A
330
1F
100
AcDbEntity
  8
0
  6
Continuous
 62
     7
370
    25
100
AcDbLine
 10
15.9621945054
 20
10.0258971375
 30
0.0
 11
15.9499356745
 21
10.0381559683
 31
0.0
  0
ELLIPSE
  5
14B
330
1F
100
AcDbEntity
  8
0
  6
Continuous
 62
     7
370
    25
100
AcDbEllipse
 10
20.946457173
 20
10.0381194068
 30
0.0
 11
-0.02123905633797563
 21
-0.0212390563379774
 31
0.0
210
0.0
220
0.0
230
1.0
 40
0.998782766
 41
2.356803477777945
 42
3.926381829401691
  0
LINE
  5
14C
330
1F
100
AcDbEntity
  8
0
  6
Continuous
 62
     7
370
    25
100
AcDbLine
 10
20.9764754593
 20
10.0381559683
 30
0.0
 11
20.9642166285
 21
10.0258971375
 31
0.0
  0
LINE
  5
14D
330
1F
100
AcDbEntity
  8
0
  6
Continuous
 62
     7
370
    25
100
AcDbLine
 10
20.9342349037
 20
10.0558788623
 30
0.0
 11
20.9464937345
 21
10.0681376931
 31
0.0
  0
ELLIPSE
  5
14E
330
1F
100
AcDbEntity
  8
0
  6
Continuous
 62
     7
370
    25
100
AcDbEllipse
 10
20.946457173
 20
5.0716161946
 30
0.0
 11
-0.02123905633797563
 21
0.02123905633797651
 31
0.0
210
0.0
220
0.0
230
1.0
 40
0.998782766
 41
2.356803477777997
 42
3.926381829401793
  0
LINE
  5
14F
330
1F
100
AcDbEntity
  8
0
  6
Continuous
 62
     7
370
    25
100
AcDbLine
 10
20.9464937345
 20
5.0415979083
 30
0.0
 11
20.9342349037
 21
5.0538567391
 31
0.0
  0
LINE
  5
150
330
1F
100
AcDbEntity
  8
0
  6
Continuous
 62
     7
370
    25
100
AcDbLine
 10
20.9642166285
 20
5.083838464
 30
0.0
 11
20.9764754593
 21
5.0715796331
 31
0.0
  0
LINE
  5
151
330
1F
100
AcDbEntity
  8
0
  6
Continuous
 62
     7
370
    25
100
AcDbLine
 10
15.9799173993
 20
10.0681376931
 30
0.0
 11
20.9464937345
 21
10.0681376931
 31
0.0
  0
LINE
  5
152
330
1F
100
AcDbEntity
  8
0
  6
Continuous
 62
     7
370
    25
100
AcDbLine
 10
15.9499356745
 20
5.0715796331
 30
0.0
 11
15.9499356745
 21
10.0381559683
 31
0.0
  0
LINE
  5
153
330
1F
100
AcDbEntity
  8
0
  6
Continuous
 62
     7
370
    25
100
AcDbLine
 10
20.9464937345
 20
5.0415979083
 30
0.0
 11
15.9799173993
 21
5.0415979083
 31
0.0
  0
LINE
  5
154
330
1F
100
AcDbEntity
  8
0
  6
Continuous
 62
     7
370
    25
100
AcDbLine
 10
20.9764754593
 20
10.0381559683
 30
0.0
 11
20.9764754593
 21
5.0715796331
 31
0.0
  0
LINE
  5
155
330
1F
100
AcDbEntity
  8
0
  6
Continuous
 62
     7
370
    25
100
AcDbLine
 10
17.9632055669
 20
7.0767271628
 30
0.0
 11
17.9632055669
 21
6.842336304
 31
0.0
  0
LINE
  5
156
330
1F
100
AcDbEntity
  8
0
  6
Continuous
 62
     7
370
    25
100
AcDbLine
 10
17.9007055669
 20
7.0767271628
 30
0.0
 11
17.9007055669
 21
6.8905675043
 31
0.0
  0
LINE
  5
157
330
1F
100
AcDbEntity
  8
0
  6
Continuous
 62
     7
370
    25
100
AcDbLine
 10
18.4632055669
 20
7.0767271628
 30
0.0
 11
18.4632055669
 21
6.6844075007
 31
0.0
  0
LINE
  5
158
330
1F
100
AcDbEntity
  8
0
  6
Continuous
 62
     7
370
    25
100
AcDbLine
 10
18.4007055669
 20
7.0767271628
 30
0.0
 11
18.4007055669
 21
6.6866541843
 31
0.0
  0
LINE
  5
159
330
1F
100
AcDbEntity
  8
0
  6
Continuous
 62
     7
370
    25
100
AcDbLine
 10
18.7132055669
 20
7.0767271628
 30
0.0
 11
18.7132055669
 21
6.7210805774
 31
0.0
  0
LINE
  5
15A
330
1F
100
AcDbEntity
  8
0
  6
Continuous
 62
     7
370
    25
100
AcDbLine
 10
18.6507055669
 20
7.0767271628
 30
0.0
 11
18.6507055669
 21
6.7048413989
 31
0.0
  0
LINE
  5
15B
330
1F
100
AcDbEntity
  8
0
  6
Continuous
 62
     7
370
    25
100
AcDbLine
 10
17.8382055669
 20
7.0757655773
 30
0.0
 11
17.8382055669
 21
6.9489997179
 31
0.0
  0
LINE
  5
15C
330
1F
100
AcDbEntity
  8
0
  6
Continuous
 62
     7
370
    25
100
AcDbLine
 10
18.0882055669
 20
7.0767271628
 30
0.0
 11
18.0882055669
 21
6.7693258643
 31
0.0
  0
LINE
  5
15D
330
1F
100
AcDbEntity
  8
0
  6
Continuous
 62
     7
370
    25
100
AcDbLine
 10
18.0257055669
 20
7.0767271628
 30
0.0
 11
18.0257055669
 21
6.8023421308
 31
0.0
  0
LINE
  5
15E
330
1F
100
AcDbEntity
  8
0
  6
Continuous
 62
     7
370
    25
100
AcDbLine
 10
18.2132055669
 20
7.0767271628
 30
0.0
 11
18.2132055669
 21
6.7210805774
 31
0.0
  0
LINE
  5
15F
330
1F
100
AcDbEntity
  8
0
  6
Continuous
 62
     7
370
    25
100
AcDbLine
 10
18.1507055669
 20
7.0767271628
 30
0.0
 11
18.1507055669
 21
6.7424363366
 31
0.0
  0
LINE
  5
160
330
1F
100
AcDbEntity
  8
0
  6
Continuous
 62
     7
370
    25
100
AcDbLine
 10
18.3382055669
 20
7.0767271628
 30
0.0
 11
18.3382055669
 21
6.693429391
 31
0.0
  0
LINE
  5
161
330
1F
100
AcDbEntity
  8
0
  6
Continuous
 62
     7
370
    25
100
AcDbLine
 10
18.2757055669
 20
7.0767271628
 30
0.0
 11
18.2757055669
 21
6.7048413989
 31
0.0
  0
LINE
  5
162
330
1F
100
AcDbEntity
  8
0
  6
Continuous
 62
     7
370
    25
100
AcDbLine
 10
18.5882055669
 20
7.0767271628
 30
0.0
 11
18.5882055669
 21
6.693429391
 31
0.0
  0
LINE
  5
163
330
1F
100
AcDbEntity
  8
0
  6
Continuous
 62
     7
370
    25
100
AcDbLine
 10
18.5257055669
 20
7.0767271628
 30
0.0
 11
18.5257055669
 21
6.6866541843
 31
0.0
  0
LINE
  5
164
330
1F
100
AcDbEntity
  8
0
  6
Continuous
 62
     7
370
    25
100
AcDbLine
 10
18.8382055669
 20
7.0767271628
 30
0.0
 11
18.8382055669
 21
6.7693258643
 31
0.0
  0
LINE
  5
165
330
1F
100
AcDbEntity
  8
0
  6
Continuous
 62
     7
370
    25
100
AcDbLine
 10
18.7757055669
 20
7.0767271628
 30
0.0
 11
18.7757055669
 21
6.7424363366
 31
0.0
  0
LINE
  5
166
330
1F
100
AcDbEntity
  8
0
  6
Continuous
 62
     7
370
    25
100
AcDbLine
 10
18.9632055669
 20
7.0767271628
 30
0.0
 11
18.9632055669
 21
6.842336304
 31
0.0
  0
LINE
  5
167
330
1F
100
AcDbEntity
  8
0
  6
Continuous
 62
     7
370
    25
100
AcDbLine
 10
18.9007055669
 20
7.0767271628
 30
0.0
 11
18.9007055669
 21
6.8023421308
 31
0.0
  0
LINE
  5
168
330
1F
100
AcDbEntity
  8
0
  6
Continuous
 62
     7
370
    25
100
AcDbLine
 10
19.0882055669
 20
7.0757720433
 30
0.0
 11
19.0882055669
 21
6.9489997179
 31
0.0
  0
LINE
  5
169
330
1F
100
AcDbEntity
  8
0
  6
Continuous
 62
     7
370
    25
100
AcDbLine
 10
19.0257055669
 20
7.0767271628
 30
0.0
 11
19.0257055669
 21
6.8905675043
 31
0.0
  0
DIMENSION
  5
16A
330
1F
100
AcDbEntity
  8
0
  6
Continuous
 62
     7
370
    18
100
AcDbDimension
  2
_D
 10
20.1182055669
 20
11.6429408427
 30
0.0
 11
18.4632055669
 21
11.6429408427
 31
0.0
 70
   160
  1
<>
 71
     2
 42
-1.0
  3
SLDDIMSTYLE0
100
AcDbAlignedDimension
 13
16.8082055669
 23
7.5548678007
 33
0.0
 14
20.1182055669
 24
7.5548678007
 34
0.0
100
AcDbRotatedDimension
  0
DIMENSION
  5
17F
330
1F
100
AcDbEntity
  8
0
  6
Continuous
 62
     7
370
    18
100
AcDbDimension
  2
_D_1
 10
20.9642166285
 20
14.0848923696
 30
0.0
 11
18.4632055669
 21
14.0848923696
 31
0.0
 70
   160
  1
<>
 71
     2
 42
-1.0
  3
SLDDIMSTYLE1
100
AcDbAlignedDimension
 13
15.9621945054
 23
10.0258971375
 33
0.0
 14
20.9642166285
 24
10.0258971375
 34
0.0
100
AcDbRotatedDimension
  0
MTEXT
  5
194
330
1F
100
AcDbEntity
  8
0
  6
Continuous
 62
     7
370
     0
100
AcDbMText
 10
22.6365506494
 20
3.7064968784
 30
0.0
 40
0.4166661417
 41
0.0
 71
     1
 72
     1
  1
FACEPLATE SQ
  7
SLDTEXTSTYLE0
 73
     1
 44
1.0
  0
LINE
  5
195
330
1F
100
AcDbEntity
  8
0
  6
Continuous
 62
     7
370
    25
100
AcDbLine
 10
14.6910573149
 20
20.6461812065
 30
0.0
 11
15.6910573149
 21
20.6461812065
 31
0.0
  0
LINE
  5
196
330
1F
100
AcDbEntity
  8
0
  6
Continuous
 62
     7
370
    25
100
AcDbLine
 10
15.6910573149
 20
20.8961812065
 30
0.0
 11
14.6910573149
 21
20.8961812065
 31
0.0
  0
LINE
  5
197
330
1F
100
AcDbEntity
  8
0
  6
Continuous
 62
     7
370
    25
100
AcDbLine
 10
14.1910573149
 20
20.7511812065
 30
0.0
 11
14.6910573149
 21
20.7511812065
 31
0.0
  0
LINE
  5
198
330
1F
100
AcDbEntity
  8
0
  6
Continuous
 62
     7
370
    25
100
AcDbLine
 10
14.6910573149
 20
20.8611812065
 30
0.0
 11
14.1910573149
 21
20.8611812065
 31
0.0
  0
LINE
  5
199
330
1F
100
AcDbEntity
  8
0
  6
Continuous
 62
     7
370
    25
100
AcDbLine
 10
13.9410573149
 20
20.7686812065
 30
0.0
 11
14.1910573149
 21
20.7686812065
 31
0.0
  0
LINE
  5
19A
330
1F
100
AcDbEntity
  8
0
  6
Continuous
 62
     7
370
    25
100
AcDbLine
 10
14.1910573149
 20
20.8436812065
 30
0.0
 11
13.9410573149
 21
20.8436812065
 31
0.0
  0
LINE
  5
19B
330
1F
100
AcDbEntity
  8
0
  6
Continuous
 62
     7
370
    25
100
AcDbLine
 10
14.1910573149
 20
20.6461812065
 30
0.0
 11
14.6910573149
 21
20.6461812065
 31
0.0
  0
LINE
  5
19C
330
1F
100
AcDbEntity
  8
0
  6
Continuous
 62
     7
370
    25
100
AcDbLine
 10
13.9410573149
 20
20.6636812065
 30
0.0
 11
14.1910573149
 21
20.6636812065
 31
0.0
  0
LINE
  5
19D
330
1F
100
AcDbEntity
  8
0
  6
Continuous
 62
     7
370
    25
100
AcDbLine
 10
14.1910573149
 20
20.7386812065
 30
0.0
 11
13.9410573149
 21
20.7386812065
 31
0.0
  0
LINE
  5
19E
330
1F
100
AcDbEntity
  8
0
  6
Continuous
 62
     7
370
    25
100
AcDbLine
 10
16.1510573149
 20
21.2361812065
 30
0.0
 11
16.1310573149
 21
21.2361812065
 31
0.0
  0
LINE
  5
19F
330
1F
100
AcDbEntity
  8
0
  6
Continuous
 62
     7
370
    25
100
AcDbLine
 10
16.1310573149
 20
20.3061812065
 30
0.0
 11
16.1510573149
 21
20.3061812065
 31
0.0
  0
LINE
  5
1A0
330
1F
100
AcDbEntity
  8
0
  6
Continuous
 62
     7
370
    25
100
AcDbLine
 10
16.1510573149
 20
20.3061812065
 30
0.0
 11
16.1760573149
 21
20.3561812065
 31
0.0
  0
LINE
  5
1A1
330
1F
100
AcDbEntity
  8
0
  6
Continuous
 62
     7
370
    25
100
AcDbLine
 10
16.1760573149
 20
21.1861812065
 30
0.0
 11
16.1510573149
 21
21.2361812065
 31
0.0
  0
LINE
  5
1A2
330
1F
100
AcDbEntity
  8
0
  6
Continuous
 62
     7
370
    25
100
AcDbLine
 10
16.2010573149
 20
21.2361812065
 30
0.0
 11
16.1760573149
 21
21.1861812065
 31
0.0
  0
LINE
  5
1A3
330
1F
100
AcDbEntity
  8
0
  6
Continuous
 62
     7
370
    25
100
AcDbLine
 10
16.1760573149
 20
20.3561812065
 30
0.0
 11
16.2010573149
 21
20.3061812065
 31
0.0
  0
LINE
  5
1A4
330
1F
100
AcDbEntity
  8
0
  6
Continuous
 62
     7
370
    25
100
AcDbLine
 10
16.2010573149
 20
20.3061812065
 30
0.0
 11
16.2260573149
 21
20.3561812065
 31
0.0
  0
LINE
  5
1A5
330
1F
100
AcDbEntity
  8
0
  6
Continuous
 62
     7
370
    25
100
AcDbLine
 10
16.2260573149
 20
21.1861812065
 30
0.0
 11
16.2010573149
 21
21.2361812065
 31
0.0
  0
LINE
  5
1A6
330
1F
100
AcDbEntity
  8
0
  6
Continuous
 62
     7
370
    25
100
AcDbLine
 10
16.2510573149
 20
21.2361812065
 30
0.0
 11
16.2260573149
 21
21.1861812065
 31
0.0
  0
LINE
  5
1A7
330
1F
100
AcDbEntity
  8
0
  6
Continuous
 62
     7
370
    25
100
AcDbLine
 10
16.2260573149
 20
20.3561812065
 30
0.0
 11
16.2510573149
 21
20.3061812065
 31
0.0
  0
LINE
  5
1A8
330
1F
100
AcDbEntity
  8
0
  6
Continuous
 62
     7
370
    25
100
AcDbLine
 10
16.2510573149
 20
20.3061812065
 30
0.0
 11
16.2760573149
 21
20.3561812065
 31
0.0
  0
LINE
  5
1A9
330
1F
100
AcDbEntity
  8
0
  6
Continuous
 62
     7
370
    25
100
AcDbLine
 10
16.2760573149
 20
21.1861812065
 30
0.0
 11
16.2510573149
 21
21.2361812065
 31
0.0
  0
LINE
  5
1AA
330
1F
100
AcDbEntity
  8
0
  6
Continuous
 62
     7
370
    25
100
AcDbLine
 10
16.3010573149
 20
21.2361812065
 30
0.0
 11
16.2760573149
 21
21.1861812065
 31
0.0
  0
LINE
  5
1AB
330
1F
100
AcDbEntity
  8
0
  6
Continuous
 62
     7
370
    25
100
AcDbLine
 10
16.2760573149
 20
20.3561812065
 30
0.0
 11
16.3010573149
 21
20.3061812065
 31
0.0
  0
LINE
  5
1AC
330
1F
100
AcDbEntity
  8
0
  6
Continuous
 62
     7
370
    25
100
AcDbLine
 10
16.3010573149
 20
20.3061812065
 30
0.0
 11
16.3260573149
 21
20.3561812065
 31
0.0
  0
LINE
  5
1AD
330
1F
100
AcDbEntity
  8
0
  6
Continuous
 62
     7
370
    25
100
AcDbLine
 10
16.3260573149
 20
21.1861812065
 30
0.0
 11
16.3010573149
 21
21.2361812065
 31
0.0
  0
LINE
  5
1AE
330
1F
100
AcDbEntity
  8
0
  6
Continuous
 62
     7
370
    25
100
AcDbLine
 10
16.3510573149
 20
20.3061812065
 30
0.0
 11
16.3760573149
 21
20.3561812065
 31
0.0
  0
LINE
  5
1AF
330
1F
100
AcDbEntity
  8
0
  6
Continuous
 62
     7
370
    25
100
AcDbLine
 10
16.3760573149
 20
21.1861812065
 30
0.0
 11
16.3510573149
 21
21.2361812065
 31
0.0
  0
LINE
  5
1B0
330
1F
100
AcDbEntity
  8
0
  6
Continuous
 62
     7
370
    25
100
AcDbLine
 10
16.3510573149
 20
21.2361812065
 30
0.0
 11
16.3260573149
 21
21.1861812065
 31
0.0
  0
LINE
  5
1B1
330
1F
100
AcDbEntity
  8
0
  6
Continuous
 62
     7
370
    25
100
AcDbLine
 10
16.3260573149
 20
20.3561812065
 30
0.0
 11
16.3510573149
 21
20.3061812065
 31
0.0
  0
LINE
  5
1B2
330
1F
100
AcDbEntity
  8
0
  6
Continuous
 62
     7
370
    25
100
AcDbLine
 10
16.4010573149
 20
21.2361812065
 30
0.0
 11
16.3760573149
 21
21.1861812065
 31
0.0
  0
LINE
  5
1B3
330
1F
100
AcDbEntity
  8
0
  6
Continuous
 62
     7
370
    25
100
AcDbLine
 10
16.3760573149
 20
20.3561812065
 30
0.0
 11
16.4010573149
 21
20.3061812065
 31
0.0
  0
LINE
  5
1B4
330
1F
100
AcDbEntity
  8
0
  6
Continuous
 62
     7
370
    25
100
AcDbLine
 10
16.4010573149
 20
20.3061812065
 30
0.0
 11
16.4260573149
 21
20.3561812065
 31
0.0
  0
LINE
  5
1B5
330
1F
100
AcDbEntity
  8
0
  6
Continuous
 62
     7
370
    25
100
AcDbLine
 10
16.4260573149
 20
21.1861812065
 30
0.0
 11
16.4010573149
 21
21.2361812065
 31
0.0
  0
LINE
  5
1B6
330
1F
100
AcDbEntity
  8
0
  6
Continuous
 62
     7
370
    25
100
AcDbLine
 10
16.4510573149
 20
20.3061812065
 30
0.0
 11
16.4760573149
 21
20.3561812065
 31
0.0
  0
LINE
  5
1B7
330
1F
100
AcDbEntity
  8
0
  6
Continuous
 62
     7
370
    25
100
AcDbLine
 10
16.4760573149
 20
21.1861812065
 30
0.0
 11
16.4510573149
 21
21.2361812065
 31
0.0
  0
LINE
  5
1B8
330
1F
100
AcDbEntity
  8
0
  6
Continuous
 62
     7
370
    25
100
AcDbLine
 10
16.4510573149
 20
21.2361812065
 30
0.0
 11
16.4260573149
 21
21.1861812065
 31
0.0
  0
LINE
  5
1B9
330
1F
100
AcDbEntity
  8
0
  6
Continuous
 62
     7
370
    25
100
AcDbLine
 10
16.4260573149
 20
20.3561812065
 30
0.0
 11
16.4510573149
 21
20.3061812065
 31
0.0
  0
LINE
  5
1BA
330
1F
100
AcDbEntity
  8
0
  6
Continuous
 62
     7
370
    25
100
AcDbLine
 10
16.5010573149
 20
21.2361812065
 30
0.0
 11
16.4760573149
 21
21.1861812065
 31
0.0
  0
LINE
  5
1BB
330
1F
100
AcDbEntity
  8
0
  6
Continuous
 62
     7
370
    25
100
AcDbLine
 10
16.4760573149
 20
20.3561812065
 30
0.0
 11
16.5010573149
 21
20.3061812065
 31
0.0
  0
LINE
  5
1BC
330
1F
100
AcDbEntity
  8
0
  6
Continuous
 62
     7
370
    25
100
AcDbLine
 10
19.0380573149
 20
21.8811812065
 30
0.0
 11
16.7210573149
 21
21.8811812065
 31
0.0
  0
LINE
  5
1BD
330
1F
100
AcDbEntity
  8
0
  6
Continuous
 62
     7
370
    25
100
AcDbLine
 10
16.7210573149
 20
19.6611812065
 30
0.0
 11
19.0380573149
 21
19.6611812065
 31
0.0
  0
LINE
  5
1BE
330
1F
100
AcDbEntity
  8
0
  6
Continuous
 62
     7
370
    25
100
AcDbLine
 10
16.7210573149
 20
21.8811812065
 30
0.0
 11
16.6910573149
 21
21.8511812065
 31
0.0
  0
LINE
  5
1BF
330
1F
100
AcDbEntity
  8
0
  6
Continuous
 62
     7
370
    25
100
AcDbLine
 10
16.6910573149
 20
19.6911812065
 30
0.0
 11
16.7210573149
 21
19.6611812065
 31
0.0
  0
LINE
  5
1C0
330
1F
100
AcDbEntity
  8
0
  6
Continuous
 62
     7
370
    25
100
AcDbLine
 10
20.4280573149
 20
22.4436812065
 30
0.0
 11
20.4130573149
 21
22.4436812065
 31
0.0
  0
LINE
  5
1C1
330
1F
100
AcDbEntity
  8
0
  6
Continuous
 62
     7
370
    25
100
AcDbLine
 10
20.4130573149
 20
19.0986812065
 30
0.0
 11
20.4280573149
 21
19.0986812065
 31
0.0
  0
LINE
  5
1C2
330
1F
100
AcDbEntity
  8
0
  6
Continuous
 62
     7
370
    25
100
AcDbLine
 10
20.4280573149
 20
21.9475674403
 30
0.0
 11
20.4180573149
 21
21.9473928896
 31
0.0
  0
LINE
  5
1C3
330
1F
100
AcDbEntity
  8
0
  6
Continuous
 62
     7
370
    25
100
AcDbLine
 10
20.4180573149
 20
19.5949695234
 30
0.0
 11
20.4280573149
 21
19.5947949728
 31
0.0
  0
LINE
  5
1C4
330
1F
100
AcDbEntity
  8
0
  6
Continuous
 62
     7
370
    25
100
AcDbLine
 10
19.3527255075
 20
21.8799130139
 30
0.0
 11
19.3514573149
 21
21.8811812065
 31
0.0
  0
LINE
  5
1C5
330
1F
100
AcDbEntity
  8
0
  6
Continuous
 62
     7
370
    25
100
AcDbLine
 10
19.2246573149
 20
21.8811812065
 30
0.0
 11
19.2233909281
 21
21.8799148197
 31
0.0
  0
LINE
  5
1C6
330
1F
100
AcDbEntity
  8
0
  6
Continuous
 62
     7
370
    25
100
AcDbLine
 10
19.0380573149
 20
19.6611812065
 30
0.0
 11
20.1120859553
 21
19.6611812065
 31
0.0
  0
LINE
  5
1C7
330
1F
100
AcDbEntity
  8
0
  6
Continuous
 62
     7
370
    25
100
AcDbLine
 10
19.2033328043
 20
21.8811812065
 30
0.0
 11
19.0380573149
 21
21.8811812065
 31
0.0
  0
LINE
  5
1C8
330
1F
100
AcDbEntity
  8
0
  6
Continuous
 62
     7
370
    25
100
AcDbLine
 10
20.1120859553
 20
21.8811812065
 30
0.0
 11
19.3729356689
 21
21.8811812065
 31
0.0
  0
ARC
  5
1C9
330
1F
100
AcDbEntity
  8
0
  6
Continuous
 62
     7
370
    25
100
AcDbCircle
 10
20.1568073149
 20
19.6211812065
 30
0.0
 40
0.0600000000000031
100
AcDbArc
 50
41.8103148958
 51
138.1896851042
  0
ARC
  5
1CA
330
1F
100
AcDbEntity
  8
0
  6
Continuous
 62
     7
370
    25
100
AcDbCircle
 10
20.1568073149
 20
21.9211812065
 30
0.0
 40
0.0600000000000031
100
AcDbArc
 50
221.8103148958
 51
318.1896851042
  0
LINE
  5
1CB
330
1F
100
AcDbEntity
  8
0
  6
Continuous
 62
     7
370
    25
100
AcDbLine
 10
20.2015286744
 20
19.6611812065
 30
0.0
 11
20.4180573149
 21
19.6611812065
 31
0.0
  0
LINE
  5
1CC
330
1F
100
AcDbEntity
  8
0
  6
Continuous
 62
     7
370
    25
100
AcDbLine
 10
20.4180573149
 20
21.8811812065
 30
0.0
 11
20.2015286744
 21
21.8811812065
 31
0.0
  0
LINE
  5
1CD
330
1F
100
AcDbEntity
  8
0
  6
Continuous
 62
     7
370
    25
100
AcDbLine
 10
16.6910573149
 20
21.2711812065
 30
0.0
 11
16.3160573149
 21
21.2711812065
 31
0.0
  0
LINE
  5
1CE
330
1F
100
AcDbEntity
  8
0
  6
Continuous
 62
     7
370
    25
100
AcDbLine
 10
16.3160573149
 20
21.2711812065
 30
0.0
 11
16.3160573149
 21
21.2811812065
 31
0.0
  0
LINE
  5
1CF
330
1F
100
AcDbEntity
  8
0
  6
Continuous
 62
     7
370
    25
100
AcDbLine
 10
16.6910573149
 20
21.2811812065
 30
0.0
 11
16.3160573149
 21
21.2811812065
 31
0.0
  0
LINE
  5
1D0
330
1F
100
AcDbEntity
  8
0
  6
Continuous
 62
     7
370
    25
100
AcDbLine
 10
14.6910573149
 20
20.8336812065
 30
0.0
 11
14.6910573149
 21
20.6461812065
 31
0.0
  0
LINE
  5
1D1
330
1F
100
AcDbEntity
  8
0
  6
Continuous
 62
     7
370
    25
100
AcDbLine
 10
14.6910573149
 20
20.8961812065
 30
0.0
 11
14.6910573149
 21
20.8336812065
 31
0.0
  0
LINE
  5
1D2
330
1F
100
AcDbEntity
  8
0
  6
Continuous
 62
     7
370
    25
100
AcDbLine
 10
14.1910573149
 20
20.8611812065
 30
0.0
 11
14.1910573149
 21
20.7511812065
 31
0.0
  0
LINE
  5
1D3
330
1F
100
AcDbEntity
  8
0
  6
Continuous
 62
     7
370
    25
100
AcDbLine
 10
13.9410573149
 20
20.8436812065
 30
0.0
 11
13.9410573149
 21
20.7686812065
 31
0.0
  0
LINE
  5
1D4
330
1F
100
AcDbEntity
  8
0
  6
Continuous
 62
     7
370
    25
100
AcDbLine
 10
14.1910573149
 20
20.7511812065
 30
0.0
 11
14.1910573149
 21
20.6461812065
 31
0.0
  0
LINE
  5
1D5
330
1F
100
AcDbEntity
  8
0
  6
Continuous
 62
     7
370
    25
100
AcDbLine
 10
13.9410573149
 20
20.7386812065
 30
0.0
 11
13.9410573149
 21
20.6636812065
 31
0.0
  0
LINE
  5
1D6
330
1F
100
AcDbEntity
  8
0
  6
Continuous
 62
     7
370
    25
100
AcDbLine
 10
16.6910573149
 20
20.7461812065
 30
0.0
 11
16.5010573149
 21
20.7461812065
 31
0.0
  0
LINE
  5
1D7
330
1F
100
AcDbEntity
  8
0
  6
Continuous
 62
     7
370
    25
100
AcDbLine
 10
16.5010573149
 20
20.7961812065
 30
0.0
 11
16.6910573149
 21
20.7961812065
 31
0.0
  0
LINE
  5
1D8
330
1F
100
AcDbEntity
  8
0
  6
Continuous
 62
     7
370
    25
100
AcDbLine
 10
16.5010573149
 20
20.7461812065
 30
0.0
 11
16.5010573149
 21
20.7961812065
 31
0.0
  0
LINE
  5
1D9
330
1F
100
AcDbEntity
  8
0
  6
Continuous
 62
     7
370
    25
100
AcDbLine
 10
16.5010573149
 20
20.2961812065
 30
0.0
 11
16.6910573149
 21
20.2961812065
 31
0.0
  0
LINE
  5
1DA
330
1F
100
AcDbEntity
  8
0
  6
Continuous
 62
     7
370
    25
100
AcDbLine
 10
16.5010573149
 20
20.7461812065
 30
0.0
 11
16.5010573149
 21
20.2961812065
 31
0.0
  0
LINE
  5
1DB
330
1F
100
AcDbEntity
  8
0
  6
Continuous
 62
     7
370
    25
100
AcDbLine
 10
16.6910573149
 20
21.2461812065
 30
0.0
 11
16.5010573149
 21
21.2461812065
 31
0.0
  0
LINE
  5
1DC
330
1F
100
AcDbEntity
  8
0
  6
Continuous
 62
     7
370
    25
100
AcDbLine
 10
16.5010573149
 20
21.2461812065
 30
0.0
 11
16.5010573149
 21
20.7961812065
 31
0.0
  0
LWPOLYLINE
  5
1DD
330
1F
100
AcDbEntity
  8
0
  6
Continuous
 62
     7
370
    25
100
AcDbPolyline
 90
       19
 70
   128
 43
0.0
 10
15.6910573149
 20
20.7711812065
 10
15.6916281102
 20
20.7777178872
 10
15.6933361519
 20
20.7842048199
 10
15.6961684409
 20
20.7905926349
 10
15.7001034218
 20
20.7968327173
 10
15.7051111468
 20
20.8028775762
 10
15.7111535043
 20
20.8086812065
 10
15.7181845082
 20
20.8141994393
 10
15.7261506484
 20
20.8193902773
 10
15.7349912977
 20
20.8242142151
 10
15.7446391734
 20
20.8286345398
 10
15.7550208494
 20
20.8326176099
 10
15.7660573149
 20
20.8361331118
 10
15.7776645756
 20
20.8391542906
 10
15.7897542934
 20
20.8416581531
 10
15.8022344581
 20
20.8436256435
 10
15.8150100882
 20
20.845041788
 10
15.8279839535
 20
20.8458958089
 10
15.8410573149
 20
20.8461812065
  0
LINE
  5
1DE
330
1F
100
AcDbEntity
  8
0
  6
Continuous
 62
     7
370
    25
100
AcDbLine
 10
15.8410573149
 20
20.6961812065
 30
0.0
 11
15.8410573149
 21
20.8461812065
 31
0.0
  0
LWPOLYLINE
  5
1DF
330
1F
100
AcDbEntity
  8
0
  6
Continuous
 62
     7
370
    25
100
AcDbPolyline
 90
       19
 70
   128
 43
0.0
 10
15.6910573149
 20
20.7711812065
 10
15.6916281102
 20
20.7646445258
 10
15.6933361519
 20
20.7581575932
 10
15.6961684409
 20
20.7517697781
 10
15.7001034218
 20
20.7455296958
 10
15.7051111468
 20
20.7394848369
 10
15.7111535043
 20
20.7336812065
 10
15.7181845082
 20
20.7281629738
 10
15.7261506484
 20
20.7229721358
 10
15.7349912977
 20
20.7181481979
 10
15.7446391734
 20
20.7137278733
 10
15.7550208494
 20
20.7097448032
 10
15.7660573149
 20
20.7062293012
 10
15.7776645756
 20
20.7032081225
 10
15.7897542934
 20
20.70070426
 10
15.8022344581
 20
20.6987367696
 10
15.8150100882
 20
20.6973206251
 10
15.8279839535
 20
20.6964666042
 10
15.8410573149
 20
20.6961812065
  0
LINE
  5
1E0
330
1F
100
AcDbEntity
  8
0
  6
Continuous
 62
     7
370
    25
100
AcDbLine
 10
16.1310573149
 20
20.6961812065
 30
0.0
 11
15.8410573149
 21
20.6961812065
 31
0.0
  0
LINE
  5
1E1
330
1F
100
AcDbEntity
  8
0
  6
Continuous
 62
     7
370
    25
100
AcDbLine
 10
15.8410573149
 20
20.8461812065
 30
0.0
 11
16.1310573149
 21
20.8461812065
 31
0.0
  0
LINE
  5
1E2
330
1F
100
AcDbEntity
  8
0
  6
Continuous
 62
     7
370
    25
100
AcDbLine
 10
16.1310573149
 20
20.8461812065
 30
0.0
 11
16.1310573149
 21
20.6961812065
 31
0.0
  0
LINE
  5
1E3
330
1F
100
AcDbEntity
  8
0
  6
Continuous
 62
     7
370
    25
100
AcDbLine
 10
15.6910573149
 20
20.7711812065
 30
0.0
 11
15.6910573149
 21
21.1211812065
 31
0.0
  0
LWPOLYLINE
  5
1E4
330
1F
100
AcDbEntity
  8
0
  6
Continuous
 62
     7
370
    25
100
AcDbPolyline
 90
       19
 70
   128
 43
0.0
 10
15.6910573149
 20
21.1211812065
 10
15.6916281102
 20
21.1277178872
 10
15.6933361519
 20
21.1342048199
 10
15.6961684409
 20
21.1405926349
 10
15.7001034218
 20
21.1468327173
 10
15.7051111468
 20
21.1528775762
 10
15.7111535043
 20
21.1586812065
 10
15.7181845082
 20
21.1641994393
 10
15.7261506484
 20
21.1693902773
 10
15.7349912977
 20
21.1742142151
 10
15.7446391734
 20
21.1786345398
 10
15.7550208494
 20
21.1826176099
 10
15.7660573149
 20
21.1861331118
 10
15.7776645756
 20
21.1891542906
 10
15.7897542934
 20
21.1916581531
 10
15.8022344581
 20
21.1936256435
 10
15.8150100882
 20
21.195041788
 10
15.8279839535
 20
21.1958958089
 10
15.8410573149
 20
21.1961812065
  0
LINE
  5
1E5
330
1F
100
AcDbEntity
  8
0
  6
Continuous
 62
     7
370
    25
100
AcDbLine
 10
15.8410573149
 20
21.1961812065
 30
0.0
 11
15.8410573149
 21
20.8461812065
 31
0.0
  0
LINE
  5
1E6
330
1F
100
AcDbEntity
  8
0
  6
Continuous
 62
     7
370
    25
100
AcDbLine
 10
15.6910573149
 20
20.4211812065
 30
0.0
 11
15.6910573149
 21
20.7711812065
 31
0.0
  0
LINE
  5
1E7
330
1F
100
AcDbEntity
  8
0
  6
Continuous
 62
     7
370
    25
100
AcDbLine
 10
15.8410573149
 20
20.6961812065
 30
0.0
 11
15.8410573149
 21
20.3461812065
 31
0.0
  0
LWPOLYLINE
  5
1E8
330
1F
100
AcDbEntity
  8
0
  6
Continuous
 62
     7
370
    25
100
AcDbPolyline
 90
       19
 70
   128
 43
0.0
 10
15.8410573149
 20
20.3461812065
 10
15.8279839535
 20
20.3464666042
 10
15.8150100882
 20
20.3473206251
 10
15.8022344581
 20
20.3487367696
 10
15.7897542934
 20
20.35070426
 10
15.7776645756
 20
20.3532081225
 10
15.7660573149
 20
20.3562293012
 10
15.7550208494
 20
20.3597448032
 10
15.7446391734
 20
20.3637278733
 10
15.7349912977
 20
20.3681481979
 10
15.7261506484
 20
20.3729721358
 10
15.7181845082
 20
20.3781629738
 10
15.7111535043
 20
20.3836812065
 10
15.7051111468
 20
20.3894848369
 10
15.7001034218
 20
20.3955296958
 10
15.6961684409
 20
20.4017697781
 10
15.6933361519
 20
20.4081575932
 10
15.6916281102
 20
20.4146445258
 10
15.6910573149
 20
20.4211812065
  0
LINE
  5
1E9
330
1F
100
AcDbEntity
  8
0
  6
Continuous
 62
     7
370
    25
100
AcDbLine
 10
16.1310573149
 20
21.1961812065
 30
0.0
 11
15.8410573149
 21
21.1961812065
 31
0.0
  0
LINE
  5
1EA
330
1F
100
AcDbEntity
  8
0
  6
Continuous
 62
     7
370
    25
100
AcDbLine
 10
16.1310573149
 20
21.1961812065
 30
0.0
 11
16.1310573149
 21
20.8461812065
 31
0.0
  0
LINE
  5
1EB
330
1F
100
AcDbEntity
  8
0
  6
Continuous
 62
     7
370
    25
100
AcDbLine
 10
15.8410573149
 20
20.3461812065
 30
0.0
 11
16.1310573149
 21
20.3461812065
 31
0.0
  0
LINE
  5
1EC
330
1F
100
AcDbEntity
  8
0
  6
Continuous
 62
     7
370
    25
100
AcDbLine
 10
16.1310573149
 20
20.6961812065
 30
0.0
 11
16.1310573149
 21
20.3461812065
 31
0.0
  0
LINE
  5
1ED
330
1F
100
AcDbEntity
  8
0
  6
Continuous
 62
     7
370
    25
100
AcDbLine
 10
16.1510573149
 20
21.2361812065
 30
0.0
 11
16.1510573149
 21
20.3061812065
 31
0.0
  0
LINE
  5
1EE
330
1F
100
AcDbEntity
  8
0
  6
Continuous
 62
     7
370
    25
100
AcDbLine
 10
16.1760573149
 20
21.1861812065
 30
0.0
 11
16.1760573149
 21
20.3561812065
 31
0.0
  0
LINE
  5
1EF
330
1F
100
AcDbEntity
  8
0
  6
Continuous
 62
     7
370
    25
100
AcDbLine
 10
16.2010573149
 20
21.2361812065
 30
0.0
 11
16.2010573149
 21
20.3061812065
 31
0.0
  0
LINE
  5
1F0
330
1F
100
AcDbEntity
  8
0
  6
Continuous
 62
     7
370
    25
100
AcDbLine
 10
16.2260573149
 20
21.1861812065
 30
0.0
 11
16.2260573149
 21
20.3561812065
 31
0.0
  0
LINE
  5
1F1
330
1F
100
AcDbEntity
  8
0
  6
Continuous
 62
     7
370
    25
100
AcDbLine
 10
16.2510573149
 20
21.2361812065
 30
0.0
 11
16.2510573149
 21
20.3061812065
 31
0.0
  0
LINE
  5
1F2
330
1F
100
AcDbEntity
  8
0
  6
Continuous
 62
     7
370
    25
100
AcDbLine
 10
16.2760573149
 20
21.1861812065
 30
0.0
 11
16.2760573149
 21
20.3561812065
 31
0.0
  0
LINE
  5
1F3
330
1F
100
AcDbEntity
  8
0
  6
Continuous
 62
     7
370
    25
100
AcDbLine
 10
16.3010573149
 20
21.2361812065
 30
0.0
 11
16.3010573149
 21
20.3061812065
 31
0.0
  0
LINE
  5
1F4
330
1F
100
AcDbEntity
  8
0
  6
Continuous
 62
     7
370
    25
100
AcDbLine
 10
16.3260573149
 20
21.1861812065
 30
0.0
 11
16.3260573149
 21
20.3561812065
 31
0.0
  0
LINE
  5
1F5
330
1F
100
AcDbEntity
  8
0
  6
Continuous
 62
     7
370
    25
100
AcDbLine
 10
16.3760573149
 20
21.1861812065
 30
0.0
 11
16.3760573149
 21
20.3561812065
 31
0.0
  0
LINE
  5
1F6
330
1F
100
AcDbEntity
  8
0
  6
Continuous
 62
     7
370
    25
100
AcDbLine
 10
16.3510573149
 20
21.2361812065
 30
0.0
 11
16.3510573149
 21
20.3061812065
 31
0.0
  0
LINE
  5
1F7
330
1F
100
AcDbEntity
  8
0
  6
Continuous
 62
     7
370
    25
100
AcDbLine
 10
16.4010573149
 20
21.2361812065
 30
0.0
 11
16.4010573149
 21
20.3061812065
 31
0.0
  0
LINE
  5
1F8
330
1F
100
AcDbEntity
  8
0
  6
Continuous
 62
     7
370
    25
100
AcDbLine
 10
16.4260573149
 20
21.1861812065
 30
0.0
 11
16.4260573149
 21
20.3561812065
 31
0.0
  0
LINE
  5
1F9
330
1F
100
AcDbEntity
  8
0
  6
Continuous
 62
     7
370
    25
100
AcDbLine
 10
16.4760573149
 20
21.1861812065
 30
0.0
 11
16.4760573149
 21
20.3561812065
 31
0.0
  0
LINE
  5
1FA
330
1F
100
AcDbEntity
  8
0
  6
Continuous
 62
     7
370
    25
100
AcDbLine
 10
16.4510573149
 20
21.2361812065
 30
0.0
 11
16.4510573149
 21
20.3061812065
 31
0.0
  0
ARC
  5
1FB
330
1F
100
AcDbEntity
  8
0
  6
Continuous
 62
     7
370
    25
100
AcDbCircle
 10
15.8410573149
 20
20.4211812065
 30
0.0
 40
0.1500000000000021
100
AcDbArc
 50
180.0
 51
270.0
  0
LINE
  5
1FC
330
1F
100
AcDbEntity
  8
0
  6
Continuous
 62
     7
370
    25
100
AcDbLine
 10
15.8410573149
 20
20.2711812065
 30
0.0
 11
15.8410573149
 21
20.3461812065
 31
0.0
  0
LINE
  5
1FD
330
1F
100
AcDbEntity
  8
0
  6
Continuous
 62
     7
370
    25
100
AcDbLine
 10
16.1310573149
 20
20.2711812065
 30
0.0
 11
15.8410573149
 21
20.2711812065
 31
0.0
  0
LINE
  5
1FE
330
1F
100
AcDbEntity
  8
0
  6
Continuous
 62
     7
370
    25
100
AcDbLine
 10
16.1310573149
 20
20.3461812065
 30
0.0
 11
16.1310573149
 21
20.2711812065
 31
0.0
  0
ARC
  5
1FF
330
1F
100
AcDbEntity
  8
0
  6
Continuous
 62
     7
370
    25
100
AcDbCircle
 10
15.8410573149
 20
21.1211812065
 30
0.0
 40
0.1500000000000004
100
AcDbArc
 50
90.0
 51
180.0
  0
LINE
  5
200
330
1F
100
AcDbEntity
  8
0
  6
Continuous
 62
     7
370
    25
100
AcDbLine
 10
15.8410573149
 20
21.1961812065
 30
0.0
 11
15.8410573149
 21
21.2711812065
 31
0.0
  0
LINE
  5
201
330
1F
100
AcDbEntity
  8
0
  6
Continuous
 62
     7
370
    25
100
AcDbLine
 10
15.8410573149
 20
21.2711812065
 30
0.0
 11
16.1310573149
 21
21.2711812065
 31
0.0
  0
LINE
  5
202
330
1F
100
AcDbEntity
  8
0
  6
Continuous
 62
     7
370
    25
100
AcDbLine
 10
16.1310573149
 20
21.2711812065
 30
0.0
 11
16.1310573149
 21
21.1961812065
 31
0.0
  0
LINE
  5
203
330
1F
100
AcDbEntity
  8
0
  6
Continuous
 62
     7
370
    25
100
AcDbLine
 10
16.5010573149
 20
21.2461812065
 30
0.0
 11
16.5010573149
 21
21.2711812065
 31
0.0
  0
LINE
  5
204
330
1F
100
AcDbEntity
  8
0
  6
Continuous
 62
     7
370
    25
100
AcDbLine
 10
16.6910573149
 20
20.2711812065
 30
0.0
 11
16.5010573149
 21
20.2711812065
 31
0.0
  0
LINE
  5
205
330
1F
100
AcDbEntity
  8
0
  6
Continuous
 62
     7
370
    25
100
AcDbLine
 10
16.5010573149
 20
20.2711812065
 30
0.0
 11
16.5010573149
 21
20.2961812065
 31
0.0
  0
LINE
  5
206
330
1F
100
AcDbEntity
  8
0
  6
Continuous
 62
     7
370
    25
100
AcDbLine
 10
19.0380573149
 20
21.8811812065
 30
0.0
 11
19.0380573149
 21
19.6611812065
 31
0.0
  0
LINE
  5
207
330
1F
100
AcDbEntity
  8
0
  6
Continuous
 62
     7
370
    25
100
AcDbLine
 10
16.7210573149
 20
20.7711812065
 30
0.0
 11
16.7210573149
 21
19.6611812065
 31
0.0
  0
LINE
  5
208
330
1F
100
AcDbEntity
  8
0
  6
Continuous
 62
     7
370
    25
100
AcDbLine
 10
16.7210573149
 20
21.8811812065
 30
0.0
 11
16.7210573149
 21
20.7711812065
 31
0.0
  0
LINE
  5
209
330
1F
100
AcDbEntity
  8
0
  6
Continuous
 62
     7
370
    25
100
AcDbLine
 10
16.6910573149
 20
20.7711812065
 30
0.0
 11
16.6910573149
 21
21.8511812065
 31
0.0
  0
LINE
  5
20A
330
1F
100
AcDbEntity
  8
0
  6
Continuous
 62
     7
370
    25
100
AcDbLine
 10
16.6910573149
 20
19.6911812065
 30
0.0
 11
16.6910573149
 21
20.7711812065
 31
0.0
  0
LINE
  5
20B
330
1F
100
AcDbEntity
  8
0
  6
Continuous
 62
     7
370
    25
100
AcDbLine
 10
20.4280573149
 20
18.2878930389
 30
0.0
 11
20.4280573149
 21
23.2544693741
 31
0.0
  0
LINE
  5
20C
330
1F
100
AcDbEntity
  8
0
  6
Continuous
 62
     7
370
    25
100
AcDbLine
 10
20.7791042998
 20
23.2422105433
 30
0.0
 11
20.4280573149
 21
23.2544693741
 31
0.0
  0
LINE
  5
20D
330
1F
100
AcDbEntity
  8
0
  6
Continuous
 62
     7
370
    25
100
AcDbLine
 10
20.7791042998
 20
18.3001518698
 30
0.0
 11
20.7791042998
 21
23.2422105433
 31
0.0
  0
LINE
  5
20E
330
1F
100
AcDbEntity
  8
0
  6
Continuous
 62
     7
370
    25
100
AcDbLine
 10
20.4280573149
 20
18.2878930389
 30
0.0
 11
20.7791042998
 21
18.3001518698
 31
0.0
  0
LINE
  5
20F
330
1F
100
AcDbEntity
  8
0
  6
Continuous
 62
     7
370
    25
100
AcDbLine
 10
20.4280573149
 20
23.2844510989
 30
0.0
 11
20.7791042998
 21
23.2721922681
 31
0.0
  0
ARC
  5
210
330
1F
100
AcDbEntity
  8
0
  6
Continuous
 62
     7
370
    25
100
AcDbCircle
 10
20.56402919
 20
23.2572014057
 30
0.0
 40
0.2155969128249598
100
AcDbArc
 50
356.0128986004
 51
3.9871013996
  0
LINE
  5
211
330
1F
100
AcDbEntity
  8
0
  6
Continuous
 62
     7
370
    25
100
AcDbLine
 10
20.4280573149
 20
23.2544693741
 30
0.0
 11
20.4280573149
 21
23.2844510989
 31
0.0
  0
ARC
  5
212
330
1F
100
AcDbEntity
  8
0
  6
Continuous
 62
     7
370
    25
100
AcDbCircle
 10
20.56402919
 20
18.2851610074
 30
0.0
 40
0.2155969128243042
100
AcDbArc
 50
356.0128986004
 51
3.9871013996
  0
LINE
  5
213
330
1F
100
AcDbEntity
  8
0
  6
Continuous
 62
     7
370
    25
100
AcDbLine
 10
20.7791042998
 20
18.270170145
 30
0.0
 11
20.4280573149
 21
18.2579113141
 31
0.0
  0
LINE
  5
214
330
1F
100
AcDbEntity
  8
0
  6
Continuous
 62
     7
370
    25
100
AcDbLine
 10
20.4280573149
 20
18.2579113141
 30
0.0
 11
20.4280573149
 21
18.2878930389
 31
0.0
  0
LINE
  5
215
330
1F
100
AcDbEntity
  8
0
  6
Continuous
 62
     7
370
    25
100
AcDbLine
 10
20.8080573149
 20
23.2422105433
 30
0.0
 11
20.7791042998
 21
23.2422105433
 31
0.0
  0
ARC
  5
216
330
1F
100
AcDbEntity
  8
0
  6
Continuous
 62
     7
370
    25
100
AcDbCircle
 10
20.7780573149
 20
23.2422105433
 30
0.0
 40
0.0300000000000026
100
AcDbArc
 50
0.0
 51
88.0
  0
LINE
  5
217
330
1F
100
AcDbEntity
  8
0
  6
Continuous
 62
     7
370
    25
100
AcDbLine
 10
20.8080573149
 20
23.2422105433
 30
0.0
 11
20.8080573149
 21
18.3001518698
 31
0.0
  0
LINE
  5
218
330
1F
100
AcDbEntity
  8
0
  6
Continuous
 62
     7
370
    25
100
AcDbLine
 10
20.8080573149
 20
18.3001518698
 30
0.0
 11
20.7791042998
 21
18.3001518698
 31
0.0
  0
ARC
  5
219
330
1F
100
AcDbEntity
  8
0
  6
Continuous
 62
     7
370
    25
100
AcDbCircle
 10
20.7780573149
 20
18.3001518698
 30
0.0
 40
0.0299999999999989
100
AcDbArc
 50
272.0
 51
0.0
  0
LINE
  5
21A
330
1F
100
AcDbEntity
  8
0
  6
Continuous
 62
     7
370
    25
100
AcDbLine
 10
20.4130573149
 20
22.2711812065
 30
0.0
 11
20.4130573149
 21
22.4436812065
 31
0.0
  0
LINE
  5
21B
330
1F
100
AcDbEntity
  8
0
  6
Continuous
 62
     7
370
    25
100
AcDbLine
 10
20.4130573149
 20
22.2711812065
 30
0.0
 11
20.4280573149
 21
22.2711812065
 31
0.0
  0
LINE
  5
21C
330
1F
100
AcDbEntity
  8
0
  6
Continuous
 62
     7
370
    25
100
AcDbLine
 10
20.4130573149
 20
19.0986812065
 30
0.0
 11
20.4130573149
 21
19.2711812065
 31
0.0
  0
LINE
  5
21D
330
1F
100
AcDbEntity
  8
0
  6
Continuous
 62
     7
370
    25
100
AcDbLine
 10
20.4280573149
 20
19.2711812065
 30
0.0
 11
20.4130573149
 21
19.2711812065
 31
0.0
  0
SPLINE
  5
21E
330
1F
100
AcDbEntity
  8
0
  6
Continuous
 62
     7
370
    25
100
AcDbSpline
210
0.0
220
0.0
230
1.0
 70
     8
 71
     3
 72
    17
 73
    13
 74
     0
 42
0.00000001
 43
0.00000001
 40
0.0
 40
0.0
 40
0.0
 40
0.0
 40
0.0033360428259486
 40
0.1986222218306195
 40
0.2980953079065863
 40
0.3975600531781887
 40
0.4863158054511308
 40
0.5750600347060264
 40
0.6659963043865909
 40
0.7569063153233181
 40
0.8769790472402761
 40
1.0
 40
1.0
 40
1.0
 40
1.0
 10
20.80805731487374
 20
20.17506506387203
 30
0.0
 10
20.80805744681575
 20
20.1751542457755
 30
0.0
 10
20.80806530241458
 20
20.18046398211259
 30
0.0
 10
20.80914479235653
 20
20.18844356400112
 30
0.0
 10
20.8126719074379
 20
20.19862439300595
 30
0.0
 10
20.81630896952105
 20
20.20577790247006
 30
0.0
 10
20.82080368453591
 20
20.21230872200729
 30
0.0
 10
20.82609639409004
 20
20.21820244146373
 30
0.0
 10
20.8324127752486
 20
20.22359095530308
 30
0.0
 10
20.84062452616472
 20
20.22872786593785
 30
0.0
 10
20.85111130687667
 20
20.23327560370054
 30
0.0
 10
20.86027814904779
 20
20.23440917591389
 30
0.0
 10
20.86491715749916
 20
20.2349828359573
 30
0.0
  0
LINE
  5
21F
330
1F
100
AcDbEntity
  8
0
  6
Continuous
 62
     7
370
    25
100
AcDbLine
 10
20.8080573149
 20
21.4188908132
 30
0.0
 11
20.9792156131
 21
21.4188908132
 31
0.0
  0
LINE
  5
220
330
1F
100
AcDbEntity
  8
0
  6
Continuous
 62
     7
370
    25
100
AcDbLine
 10
20.9792156131
 20
21.4188908132
 30
0.0
 11
20.9792156131
 21
20.2409729642
 31
0.0
  0
LINE
  5
221
330
1F
100
AcDbEntity
  8
0
  6
Continuous
 62
     7
370
    25
100
AcDbLine
 10
20.9792156131
 20
20.2409729642
 30
0.0
 11
20.8649171575
 21
20.234982836
 31
0.0
  0
ARC
  5
222
330
1F
100
AcDbEntity
  8
0
  6
Continuous
 62
     7
370
    25
100
AcDbCircle
 10
20.9955573149
 20
21.968542392
 30
0.0
 40
0.187500000000001
100
AcDbArc
 50
180.0
 51
219.5226312712
  0
ELLIPSE
  5
223
330
1F
100
AcDbEntity
  8
0
  6
Continuous
 62
     7
370
    25
100
AcDbEllipse
 10
20.9955573149
 20
21.3792745665
 30
0.0
 11
-0.1447346925070079
 21
0.4700133395768944
 31
0.0
210
0.0
220
0.0
230
1.0
 40
0.0080804497
 41
6.263590043486281
 42
7.767106011670052
  0
LINE
  5
224
330
1F
100
AcDbEntity
  8
0
  6
Continuous
 62
     7
370
    25
100
AcDbLine
 10
20.4180573149
 20
20.7711812065
 30
0.0
 11
20.4180573149
 21
21.9473928896
 31
0.0
  0
LINE
  5
225
330
1F
100
AcDbEntity
  8
0
  6
Continuous
 62
     7
370
    25
100
AcDbLine
 10
20.4180573149
 20
19.5949695234
 30
0.0
 11
20.4180573149
 21
20.7711812065
 31
0.0
  0
LINE
  5
226
330
1F
100
AcDbEntity
  8
0
  6
Continuous
 62
     7
370
    25
100
AcDbLine
 10
21.9107228043
 20
20.2897911875
 30
0.0
 11
20.9792156131
 21
21.4188908132
 31
0.0
  0
LINE
  5
227
330
1F
100
AcDbEntity
  8
0
  6
Continuous
 62
     7
370
    25
100
AcDbLine
 10
20.8509248251
 20
21.849220588
 30
0.0
 11
22.1280573149
 21
20.3011812065
 31
0.0
  0
LINE
  5
228
330
1F
100
AcDbEntity
  8
0
  6
Continuous
 62
     7
370
    25
100
AcDbLine
 10
22.1280573149
 20
20.3011812065
 30
0.0
 11
21.9107228043
 21
20.2897911875
 31
0.0
  0
LINE
  5
229
330
1F
100
AcDbEntity
  8
0
  6
Continuous
 62
     7
370
    25
100
AcDbLine
 10
20.9792156131
 20
20.2409729642
 30
0.0
 11
21.9107228043
 21
20.2897911875
 31
0.0
  0
LINE
  5
22A
330
1F
100
AcDbEntity
  8
0
  6
Continuous
 62
     7
370
    25
100
AcDbLine
 10
19.3498758068
 20
21.8811812065
 30
0.0
 11
19.3514573149
 21
21.8811812065
 31
0.0
  0
LINE
  5
22B
330
1F
100
AcDbEntity
  8
0
  6
Continuous
 62
     7
370
    25
100
AcDbLine
 10
19.2246573149
 20
21.8811812065
 30
0.0
 11
19.3498758068
 21
21.8811812065
 31
0.0
  0
LWPOLYLINE
  5
22C
330
1F
100
AcDbEntity
  8
0
  6
Continuous
 62
     7
370
    25
100
AcDbPolyline
 90
       49
 70
   128
 43
0.0
 10
19.3498758068
 20
20.2039941008
 10
19.3511837653
 20
20.2110862636
 10
19.3514116127
 20
20.2182656023
 10
19.3505554506
 20
20.2254092763
 10
19.348629928
 20
20.2323950556
 10
19.3456679913
 20
20.2391034114
 10
19.3417203198
 20
20.2454195619
 10
19.3368544595
 20
20.251235436
 10
19.3311536665
 20
20.2564515226
 10
19.324715483
 20
20.2609785729
 10
19.3176500681
 20
20.2647391278
 10
19.3100783129
 20
20.2676688432
 10
19.3021297724
 20
20.2697175909
 10
19.2939404482
 20
20.2708503162
 10
19.285650462
 20
20.2710476379
 10
19.2774016577
 20
20.2703061798
 10
19.2693351747
 20
20.2686386283
 10
19.2615890326
 20
20.2660735158
 10
19.2542957702
 20
20.2626547321
 10
19.2475801772
 20
20.2584407734
 10
19.2415571592
 20
20.2535037419
 10
19.2363297718
 20
20.2479281114
 10
19.231987457
 20
20.2418092826
 10
19.2286045131
 20
20.2352519503
 10
19.226238823
 20
20.2283683122
 10
19.2249308645
 20
20.2212761495
 10
19.224703017
 20
20.2140968108
 10
19.2255591791
 20
20.2069531367
 10
19.2274847017
 20
20.1999673575
 10
19.2304466385
 20
20.1932590017
 10
19.2343943099
 20
20.1869428512
 10
19.2392601702
 20
20.181126977
 10
19.2449609632
 20
20.1759108905
 10
19.2513991467
 20
20.1713838402
 10
19.2584645617
 20
20.1676232853
 10
19.2660363168
 20
20.1646935698
 10
19.2739848573
 20
20.1626448221
 10
19.2821741815
 20
20.1615120968
 10
19.2904641677
 20
20.1613147751
 10
19.298712972
 20
20.1620562333
 10
19.3067794551
 20
20.1637237848
 10
19.3145255971
 20
20.1662888972
 10
19.3218188595
 20
20.169707681
 10
19.3285344525
 20
20.1739216396
 10
19.3345574705
 20
20.1788586712
 10
19.3397848579
 20
20.1844343017
 10
19.3441271727
 20
20.1905531305
 10
19.3475101167
 20
20.1971104628
 10
19.3498758068
 20
20.2039941008
  0
LWPOLYLINE
  5
22D
330
1F
100
AcDbEntity
  8
0
  6
Continuous
 62
     7
370
    25
100
AcDbPolyline
 90
       53
 70
   128
 43
0.0
 10
19.2715566169
 20
20.1588768951
 10
19.2629397713
 20
20.161057062
 10
19.2546891961
 20
20.1641208267
 10
19.2469252032
 20
20.1680235128
 10
19.2397610091
 20
20.1727082103
 10
19.2333010839
 20
20.1781066057
 10
19.2276396278
 20
20.1841399782
 10
19.2228591977
 20
20.1907203478
 10
19.219029503
 20
20.1977517578
 10
19.2162063891
 20
20.2051316744
 10
19.2144310236
 20
20.2127524818
 10
19.2137292952
 20
20.2205030515
 10
19.2141114367
 20
20.2282703628
 10
19.2155718756
 20
20.2359411507
 10
19.2180893154
 20
20.2434035578
 10
19.2216270462
 20
20.2505487655
 10
19.2261334799
 20
20.2572725806
 10
19.2315429026
 20
20.2634769547
 10
19.2377764326
 20
20.269071414
 10
19.2447431712
 20
20.2739743788
 10
19.2523415275
 20
20.2781143527
 10
19.2604607004
 20
20.2814309657
 10
19.2689822941
 20
20.283875854
 10
19.2777820445
 20
20.2854133656
 10
19.2867316315
 20
20.2860210803
 10
19.29570055
 20
20.285690136
 10
19.3045580129
 20
20.2844253588
 10
19.3131748584
 20
20.282245192
 10
19.3214254337
 20
20.2791814272
 10
19.3291894266
 20
20.2752787412
 10
19.3363536207
 20
20.2705940437
 10
19.3428135458
 20
20.2651956483
 10
19.3484750019
 20
20.2591622758
 10
19.353255432
 20
20.2525819062
 10
19.3570851268
 20
20.2455504962
 10
19.3599082406
 20
20.2381705796
 10
19.3616836062
 20
20.2305497721
 10
19.3623853346
 20
20.2227992024
 10
19.3620031931
 20
20.2150318912
 10
19.3605427542
 20
20.2073611033
 10
19.3580253144
 20
20.1998986962
 10
19.3544875836
 20
20.1927534884
 10
19.3499811498
 20
20.1860296734
 10
19.3445717272
 20
20.1798252993
 10
19.3383381971
 20
20.1742308399
 10
19.3313714586
 20
20.1693278752
 10
19.3237731023
 20
20.1651879013
 10
19.3156539294
 20
20.1618712883
 10
19.3071323357
 20
20.1594264
 10
19.2983325852
 20
20.1578888884
 10
19.2893829982
 20
20.1572811737
 10
19.2804140797
 20
20.157612118
 10
19.2715566169
 20
20.1588768951
  0
LINE
  5
22E
330
1F
100
AcDbEntity
  8
0
  6
Continuous
 62
     7
370
    25
100
AcDbLine
 10
19.2747588898
 20
20.2534419623
 30
0.0
 11
19.2441473466
 21
20.2248377656
 31
0.0
  0
LINE
  5
22F
330
1F
100
AcDbEntity
  8
0
  6
Continuous
 62
     7
370
    25
100
AcDbLine
 10
19.2574457717
 20
20.1875770098
 30
0.0
 11
19.2441473466
 21
20.2248377656
 31
0.0
  0
LINE
  5
230
330
1F
100
AcDbEntity
  8
0
  6
Continuous
 62
     7
370
    25
100
AcDbLine
 10
19.30135574
 20
20.1789204508
 30
0.0
 11
19.2574457717
 21
20.1875770098
 31
0.0
  0
LINE
  5
231
330
1F
100
AcDbEntity
  8
0
  6
Continuous
 62
     7
370
    25
100
AcDbLine
 10
19.30135574
 20
20.1789204508
 30
0.0
 11
19.3319672831
 21
20.2075246475
 31
0.0
  0
LINE
  5
232
330
1F
100
AcDbEntity
  8
0
  6
Continuous
 62
     7
370
    25
100
AcDbLine
 10
19.3186688581
 20
20.2447854032
 30
0.0
 11
19.3319672831
 21
20.2075246475
 31
0.0
  0
LINE
  5
233
330
1F
100
AcDbEntity
  8
0
  6
Continuous
 62
     7
370
    25
100
AcDbLine
 10
19.3186688581
 20
20.2447854032
 30
0.0
 11
19.2747588898
 21
20.2534419623
 31
0.0
  0
LINE
  5
234
330
1F
100
AcDbEntity
  8
0
  6
Continuous
 62
     7
370
    25
100
AcDbLine
 10
19.2574457717
 20
20.2325770098
 30
0.0
 11
19.2561912908
 21
20.2360919303
 31
0.0
  0
LINE
  5
235
330
1F
100
AcDbEntity
  8
0
  6
Continuous
 62
     7
370
    25
100
AcDbLine
 10
19.2574457717
 20
20.2325770098
 30
0.0
 11
19.2574457717
 21
20.1875770098
 31
0.0
  0
LINE
  5
236
330
1F
100
AcDbEntity
  8
0
  6
Continuous
 62
     7
370
    25
100
AcDbLine
 10
19.30135574
 20
20.2239204508
 30
0.0
 11
19.30135574
 21
20.1789204508
 31
0.0
  0
LINE
  5
237
330
1F
100
AcDbEntity
  8
0
  6
Continuous
 62
     7
370
    25
100
AcDbLine
 10
19.30135574
 20
20.2239204508
 30
0.0
 11
19.319923339
 21
20.2412704828
 31
0.0
  0
LINE
  5
238
330
1F
100
AcDbEntity
  8
0
  6
Continuous
 62
     7
370
    25
100
AcDbLine
 10
19.30135574
 20
20.2239204508
 30
0.0
 11
19.2574457717
 21
20.2325770098
 31
0.0
  0
LINE
  5
239
330
1F
100
AcDbEntity
  8
0
  6
Continuous
 62
     7
370
    25
100
AcDbLine
 10
20.1120859553
 20
20.7711812065
 30
0.0
 11
20.1120859553
 21
21.8811812065
 31
0.0
  0
LINE
  5
23A
330
1F
100
AcDbEntity
  8
0
  6
Continuous
 62
     7
370
    25
100
AcDbLine
 10
20.1120859553
 20
19.6611812065
 30
0.0
 11
20.1120859553
 21
20.7711812065
 31
0.0
  0
LINE
  5
23B
330
1F
100
AcDbEntity
  8
0
  6
Continuous
 62
     7
370
    25
100
AcDbLine
 10
19.0380573149
 20
20.7711812065
 30
0.0
 11
19.0380573149
 21
21.8811812065
 31
0.0
  0
LINE
  5
23C
330
1F
100
AcDbEntity
  8
0
  6
Continuous
 62
     7
370
    25
100
AcDbLine
 10
19.0380573149
 20
19.6611812065
 30
0.0
 11
19.0380573149
 21
20.7711812065
 31
0.0
  0
SPLINE
  5
23D
330
1F
100
AcDbEntity
  8
0
  6
Continuous
 62
     7
370
    25
100
AcDbSpline
210
0.0
220
0.0
230
1.0
 70
     8
 71
     3
 72
    27
 73
    23
 74
     0
 42
0.00000001
 43
0.00000001
 40
0.0
 40
0.0
 40
0.0
 40
0.0
 40
0.0059455175349361
 40
0.0560678251880511
 40
0.1076445621294225
 40
0.1578226559594481
 40
0.2093879747033751
 40
0.2608549715628558
 40
0.3137161742940601
 40
0.3670144043204506
 40
0.4217723857667926
 40
0.4766230708723631
 40
0.5330215391256453
 40
0.5885968983324048
 40
0.6457983357985638
 40
0.701064721828763
 40
0.7580088771399005
 40
0.8119450192839157
 40
0.8675603875583436
 40
0.9195613469235094
 40
0.9731680482808032
 40
1.0
 40
1.0
 40
1.0
 40
1.0
 10
19.37293566892078
 20
21.88117259707103
 30
0.0
 10
19.37297537343204
 20
21.8811754066237
 30
0.0
 10
19.37334979762362
 20
21.88120190145896
 30
0.0
 10
19.37188817306788
 20
21.8810978027098
 30
0.0
 10
19.36850397651101
 20
21.8808631217763
 30
0.0
 10
19.36274827004924
 20
21.88048587197199
 30
0.0
 10
19.35514645101415
 20
21.88003023270595
 30
0.0
 10
19.34566591411189
 20
21.87952985812912
 30
0.0
 10
19.33459612858622
 20
21.87904113417908
 30
0.0
 10
19.32207312613328
 20
21.87861286913668
 30
0.0
 10
19.30848748747929
 20
21.87829837836112
 30
0.0
 10
19.29408941095701
 20
21.87813582487486
 30
0.0
 10
19.27944868201403
 20
21.87815144631754
 30
0.0
 10
19.26484755472444
 20
21.87834817909748
 30
0.0
 10
19.25099442278838
 20
21.87870275210553
 30
0.0
 10
19.23810589086722
 20
21.87917831044343
 30
0.0
 10
19.22689403483241
 20
21.87970687920178
 30
0.0
 10
19.21746086376827
 20
21.88023308863194
 30
0.0
 10
19.21029432695409
 20
21.88068342040762
 30
0.0
 10
19.20550435715313
 20
21.88100775624246
 30
0.0
 10
19.20315166309745
 20
21.88117447734404
 30
0.0
 10
19.20328749482398
 20
21.88116485330752
 30
0.0
 10
19.20333280426402
 20
21.88116164301404
 30
0.0
  0
SPLINE
  5
23E
330
1F
100
AcDbEntity
  8
0
  6
Continuous
 62
     7
370
    25
100
AcDbSpline
210
0.0
220
0.0
230
1.0
 70
    11
 71
     3
 72
    45
 73
    41
 74
     0
 42
0.00000001
 43
0.00000001
 40
0.0
 40
0.0
 40
0.0
 40
0.0
 40
0.023717539994848
 40
0.0474321274804102
 40
0.0737704074114359
 40
0.1001058302052786
 40
0.1256831926192654
 40
0.1512613530838408
 40
0.176610933955607
 40
0.2019638704002222
 40
0.2277790104241861
 40
0.2535981923459941
 40
0.2802998405742572
 40
0.3070046344696989
 40
0.3345901097638392
 40
0.3621768307668896
 40
0.3903008030868685
 40
0.4184235803193864
 40
0.4465839298029534
 40
0.4747404512680735
 40
0.5024000164995979
 40
0.5300542399531996
 40
0.556790825139761
 40
0.5835234845596531
 40
0.6093175702390977
 40
0.6351113171116113
 40
0.6604538350684882
 40
0.6857990961317773
 40
0.7114024556147783
 40
0.7370098334383354
 40
0.7634096901586931
 40
0.7898131155645011
 40
0.8171426391285769
 40
0.8444740854076855
 40
0.8724773226205879
 40
0.9004801841984491
 40
0.9286871977639591
 40
0.9568911912208188
 40
0.9784464809507027
 40
1.0
 40
1.0
 40
1.0
 40
1.0
 10
19.22448681552865
 20
20.16974025399359
 30
0.0
 10
19.22181486842327
 20
20.17241439568577
 30
0.0
 10
19.21647130683337
 20
20.17776234617606
 30
0.0
 10
19.21014429276277
 20
20.18735271515338
 30
0.0
 10
19.20549542711167
 20
20.19807689983634
 30
0.0
 10
19.20301142194624
 20
20.20969492963123
 30
0.0
 10
19.20292917624583
 20
20.22147190146171
 30
0.0
 10
19.20507236417946
 20
20.23302858927557
 30
0.0
 10
19.20943560855102
 20
20.24413622951108
 30
0.0
 10
19.21579989545424
 20
20.25457229050492
 30
0.0
 10
19.22409670608987
 20
20.26403641270601
 30
0.0
 10
19.23415304263811
 20
20.27238977109771
 30
0.0
 10
19.24575049900511
 20
20.27925411129449
 30
0.0
 10
19.25870102379768
 20
20.28450748765069
 30
0.0
 10
19.27259736840433
 20
20.28779892583833
 30
0.0
 10
19.28714863346374
 20
20.28905316064937
 30
0.0
 10
19.30182297813233
 20
20.28806858465503
 30
0.0
 10
19.31621681567081
 20
20.28490830830379
 30
0.0
 10
19.32979705730808
 20
20.27957203597523
 30
0.0
 10
19.34212525046834
 20
20.27233143131706
 30
0.0
 10
19.35277497810509
 20
20.26335711719196
 30
0.0
 10
19.36141254979209
 20
20.25312588479168
 30
0.0
 10
19.3677852148109
 20
20.24189425975934
 30
0.0
 10
19.37180655593803
 20
20.23021636276122
 30
0.0
 10
19.37338784196173
 20
20.21833253081414
 30
0.0
 10
19.37268139615091
 20
20.20667651297615
 30
0.0
 10
19.36967687806635
 20
20.1954530959456
 30
0.0
 10
19.36460165246245
 20
20.18489629005959
 30
0.0
 10
19.35749513444317
 20
20.17524829538343
 30
0.0
 10
19.34854346059644
 20
20.16661797170872
 30
0.0
 10
19.33790883549484
 20
20.15931567577193
 30
0.0
 10
19.32576357222303
 20
20.15342097908342
 30
0.0
 10
19.31245696417328
 20
20.14924627957733
 30
0.0
 10
19.29824153569102
 20
20.14685895284439
 30
0.0
 10
19.28362108002083
 20
20.14647405341458
 30
0.0
 10
19.2689711921474
 20
20.14808916409989
 30
0.0
 10
19.25482718218728
 20
20.15175948698672
 30
0.0
 10
19.24265579819835
 20
20.15694936408579
 30
0.0
 10
19.23246817514604
 20
20.16301096485729
 30
0.0
 10
19.22714719588194
 20
20.16749721903864
 30
0.0
 10
19.22448681552865
 20
20.16974025399359
 30
0.0
  0
LINE
  5
23F
330
1F
100
AcDbEntity
  8
0
  6
Continuous
 62
     7
370
    25
100
AcDbLine
 10
20.2015286744
 20
20.7711812065
 30
0.0
 11
20.2015286744
 21
21.8811812065
 31
0.0
  0
LINE
  5
240
330
1F
100
AcDbEntity
  8
0
  6
Continuous
 62
     7
370
    25
100
AcDbLine
 10
20.2015286744
 20
19.6611812065
 30
0.0
 11
20.2015286744
 21
20.7711812065
 31
0.0
  0
POINT
  5
241
330
1F
100
AcDbEntity
  8
VP
100
AcDbPoint
 10
21.8080573149
 20
20.7711812065
 30
0.0
  0
DIMENSION
  5
242
330
1F
100
AcDbEntity
  8
0
  6
Continuous
 62
     7
370
    18
100
AcDbDimension
  2
_D_2
 10
9.8847463241
 20
19.6611812065
 30
0.0
 11
9.8847463241
 21
20.7711812065
 31
0.0
 70
   160
  1
%%c<>
 71
     2
 42
-1.0
  3
SLDDIMSTYLE0
100
AcDbAlignedDimension
 13
16.7210573149
 23
21.8811812065
 33
0.0
 14
16.7210573149
 24
19.6611812065
 34
0.0
 50
90.0
100
AcDbRotatedDimension
  0
DIMENSION
  5
255
330
1F
100
AcDbEntity
  8
0
  6
Continuous
 62
     7
370
    18
100
AcDbDimension
  2
_D_3
 10
15.6910573149
 20
24.5949934777
 30
0.0
 11
9.8847463241
 21
24.5949934777
 31
0.0
 70
   160
  1
<>
 71
     2
 42
-1.0
  3
SLDDIMSTYLE2
100
AcDbAlignedDimension
 13
20.4280573149
 23
23.2544693741
 33
0.0
 14
15.6910573149
 24
21.1211812065
 34
0.0
 50
0.0
100
AcDbRotatedDimension
  0
DIMENSION
  5
26A
330
1F
100
AcDbEntity
  8
0
  6
Continuous
 62
     7
370
    18
100
AcDbDimension
  2
_D_4
 10
20.8080573149
 20
24.5949934777
 30
0.0
 11
25.2371693045
 21
24.5949934777
 31
0.0
 70
   160
  1
<>
 71
     2
 42
-1.0
  3
SLDDIMSTYLE0
100
AcDbAlignedDimension
 13
20.4280573149
 23
23.2544693741
 33
0.0
 14
20.8080573149
 24
23.2422105433
 34
0.0
100
AcDbRotatedDimension
  0
LINE
  5
27E
330
1F
100
AcDbEntity
  8
0
  6
Continuous
 62
     7
370
    25
100
AcDbLine
 10
29.2904807273
 20
9.2273678007
 30
0.0
 11
29.2754807273
 21
9.2273678007
 31
0.0
  0
LINE
  5
27F
330
1F
100
AcDbEntity
  8
0
  6
Continuous
 62
     7
370
    25
100
AcDbLine
 10
29.2754807273
 20
5.8823678007
 30
0.0
 11
29.2904807273
 21
5.8823678007
 31
0.0
  0
LINE
  5
280
330
1F
100
AcDbEntity
  8
0
  6
Continuous
 62
     7
370
    25
100
AcDbLine
 10
29.2904807273
 20
8.7312540345
 30
0.0
 11
29.2804807273
 21
8.7310794838
 31
0.0
  0
LINE
  5
281
330
1F
100
AcDbEntity
  8
0
  6
Continuous
 62
     7
370
    25
100
AcDbLine
 10
29.2804807273
 20
6.3786561176
 30
0.0
 11
29.2904807273
 21
6.3784815669
 31
0.0
  0
LINE
  5
282
330
1F
100
AcDbEntity
  8
0
  6
Continuous
 62
     7
370
    25
100
AcDbLine
 10
27.9004807273
 20
6.4448678007
 30
0.0
 11
28.9745093677
 21
6.4448678007
 31
0.0
  0
LINE
  5
283
330
1F
100
AcDbEntity
  8
0
  6
Continuous
 62
     7
370
    25
100
AcDbLine
 10
28.0657562167
 20
8.6648678007
 30
0.0
 11
27.9004807273
 21
8.6648678007
 31
0.0
  0
LINE
  5
284
330
1F
100
AcDbEntity
  8
0
  6
Continuous
 62
     7
370
    25
100
AcDbLine
 10
28.9745093677
 20
8.6648678007
 30
0.0
 11
28.2353590813
 21
8.6648678007
 31
0.0
  0
ARC
  5
285
330
1F
100
AcDbEntity
  8
0
  6
Continuous
 62
     7
370
    25
100
AcDbCircle
 10
29.0192307273
 20
6.4048678007
 30
0.0
 40
0.0600000000000004
100
AcDbArc
 50
41.8103148958
 51
138.1896851042
  0
ARC
  5
286
330
1F
100
AcDbEntity
  8
0
  6
Continuous
 62
     7
370
    25
100
AcDbCircle
 10
29.0192307273
 20
8.7048678007
 30
0.0
 40
0.0600000000000004
100
AcDbArc
 50
221.8103148958
 51
318.1896851042
  0
LINE
  5
287
330
1F
100
AcDbEntity
  8
0
  6
Continuous
 62
     7
370
    25
100
AcDbLine
 10
29.0639520868
 20
6.4448678007
 30
0.0
 11
29.2804807273
 21
6.4448678007
 31
0.0
  0
LINE
  5
288
330
1F
100
AcDbEntity
  8
0
  6
Continuous
 62
     7
370
    25
100
AcDbLine
 10
29.2804807273
 20
8.6648678007
 30
0.0
 11
29.0639520868
 21
8.6648678007
 31
0.0
  0
LINE
  5
289
330
1F
100
AcDbEntity
  8
0
  6
Continuous
 62
     7
370
    25
100
AcDbLine
 10
29.2904807273
 20
5.0715796331
 30
0.0
 11
29.2904807273
 21
10.0381559683
 31
0.0
  0
LINE
  5
28A
330
1F
100
AcDbEntity
  8
0
  6
Continuous
 62
     7
370
    25
100
AcDbLine
 10
29.6415277122
 20
10.0258971375
 30
0.0
 11
29.2904807273
 21
10.0381559683
 31
0.0
  0
LINE
  5
28B
330
1F
100
AcDbEntity
  8
0
  6
Continuous
 62
     7
370
    25
100
AcDbLine
 10
29.6415277122
 20
5.083838464
 30
0.0
 11
29.6415277122
 21
10.0258971375
 31
0.0
  0
LINE
  5
28C
330
1F
100
AcDbEntity
  8
0
  6
Continuous
 62
     7
370
    25
100
AcDbLine
 10
29.2904807273
 20
5.0715796331
 30
0.0
 11
29.6415277122
 21
5.083838464
 31
0.0
  0
LINE
  5
28D
330
1F
100
AcDbEntity
  8
0
  6
Continuous
 62
     7
370
    25
100
AcDbLine
 10
29.2904807273
 20
10.0381559683
 30
0.0
 11
29.2904807273
 21
10.0681376931
 31
0.0
  0
LINE
  5
28E
330
1F
100
AcDbEntity
  8
0
  6
Continuous
 62
     7
370
    25
100
AcDbLine
 10
29.2904807273
 20
10.0681376931
 30
0.0
 11
29.6415277122
 21
10.0558788623
 31
0.0
  0
ARC
  5
28F
330
1F
100
AcDbEntity
  8
0
  6
Continuous
 62
     7
370
    25
100
AcDbCircle
 10
29.4352650168
 20
10.0408879999
 30
0.0
 40
0.2068067345904371
100
AcDbArc
 50
355.8431377341
 51
4.1568622659
  0
ARC
  5
290
330
1F
100
AcDbEntity
  8
0
  6
Continuous
 62
     7
370
    25
100
AcDbCircle
 10
29.4176305966
 20
5.0688476016
 30
0.0
 40
0.2243984053039214
100
AcDbArc
 50
356.1695213422
 51
3.8304786578
  0
LINE
  5
291
330
1F
100
AcDbEntity
  8
0
  6
Continuous
 62
     7
370
    25
100
AcDbLine
 10
29.6415277122
 20
5.0538567391
 30
0.0
 11
29.2904807273
 21
5.0415979083
 31
0.0
  0
LINE
  5
292
330
1F
100
AcDbEntity
  8
0
  6
Continuous
 62
     7
370
    25
100
AcDbLine
 10
29.2904807273
 20
5.0415979083
 30
0.0
 11
29.2904807273
 21
5.0715796331
 31
0.0
  0
LINE
  5
293
330
1F
100
AcDbEntity
  8
0
  6
Continuous
 62
     7
370
    25
100
AcDbLine
 10
29.6704807273
 20
10.0258971375
 30
0.0
 11
29.6704807273
 21
5.083838464
 31
0.0
  0
LINE
  5
294
330
1F
100
AcDbEntity
  8
0
  6
Continuous
 62
     7
370
    25
100
AcDbLine
 10
29.6704807273
 20
5.083838464
 30
0.0
 11
29.6415277122
 21
5.083838464
 31
0.0
  0
LINE
  5
295
330
1F
100
AcDbEntity
  8
0
  6
Continuous
 62
     7
370
    25
100
AcDbLine
 10
29.6704807273
 20
10.0258971375
 30
0.0
 11
29.6415277122
 21
10.0258971375
 31
0.0
  0
ARC
  5
296
330
1F
100
AcDbEntity
  8
0
  6
Continuous
 62
     7
370
    25
100
AcDbCircle
 10
29.6404807273
 20
10.0258971375
 30
0.0
 40
0.0300000000000011
100
AcDbArc
 50
0.0
 51
88.0
  0
ARC
  5
297
330
1F
100
AcDbEntity
  8
0
  6
Continuous
 62
     7
370
    25
100
AcDbCircle
 10
29.6404807273
 20
5.083838464
 30
0.0
 40
0.0300000000000011
100
AcDbArc
 50
272.0
 51
360.0
  0
LINE
  5
298
330
1F
100
AcDbEntity
  8
0
  6
Continuous
 62
     7
370
    25
100
AcDbLine
 10
29.2754807273
 20
9.0548678007
 30
0.0
 11
29.2754807273
 21
9.2273678007
 31
0.0
  0
LINE
  5
299
330
1F
100
AcDbEntity
  8
0
  6
Continuous
 62
     7
370
    25
100
AcDbLine
 10
29.2754807273
 20
9.0548678007
 30
0.0
 11
29.2904807273
 21
9.0548678007
 31
0.0
  0
LINE
  5
29A
330
1F
100
AcDbEntity
  8
0
  6
Continuous
 62
     7
370
    25
100
AcDbLine
 10
29.2754807273
 20
5.8823678007
 30
0.0
 11
29.2754807273
 21
6.0548678007
 31
0.0
  0
LINE
  5
29B
330
1F
100
AcDbEntity
  8
0
  6
Continuous
 62
     7
370
    25
100
AcDbLine
 10
29.2904807273
 20
6.0548678007
 30
0.0
 11
29.2754807273
 21
6.0548678007
 31
0.0
  0
ARC
  5
29C
330
1F
100
AcDbEntity
  8
0
  6
Continuous
 62
     7
370
    25
100
AcDbCircle
 10
29.8579807273
 20
8.7522289862
 30
0.0
 40
0.1875
100
AcDbArc
 50
180.0
 51
219.5226312712
  0
ELLIPSE
  5
29D
330
1F
100
AcDbEntity
  8
0
  6
Continuous
 62
     7
370
    25
100
AcDbEllipse
 10
29.8579807273
 20
8.1629611607
 30
0.0
 11
-0.1447346925070328
 21
0.4700133395769762
 31
0.0
210
0.0
220
0.0
230
1.0
 40
0.0080804497
 41
6.263590043485723
 42
7.767106011670106
  0
LINE
  5
29E
330
1F
100
AcDbEntity
  8
0
  6
Continuous
 62
     7
370
    25
100
AcDbLine
 10
29.6704807273
 20
8.2025774074
 30
0.0
 11
29.8416390255
 21
8.2025774074
 31
0.0
  0
SPLINE
  5
29F
330
1F
100
AcDbEntity
  8
0
  6
Continuous
 62
     7
370
    25
100
AcDbSpline
210
0.0
220
0.0
230
1.0
 70
     8
 71
     3
 72
    16
 73
    12
 74
     0
 42
0.00000001
 43
0.00000001
 40
0.0
 40
0.0
 40
0.0
 40
0.0
 40
0.2499999999999994
 40
0.2499999999999994
 40
0.4999999999999989
 40
0.4999999999999989
 40
0.7499999999999983
 40
0.7499999999999983
 40
0.8749999999999991
 40
0.8749999999999991
 40
1.0
 40
1.0
 40
1.0
 40
1.0
 10
29.72734056989818
 20
7.018669430144796
 30
0.0
 10
29.71747993559917
 20
7.018152656198863
 30
0.0
 10
29.70902935041504
 20
7.015390982249056
 30
0.0
 10
29.69452780099618
 20
7.007491392423694
 30
0.0
 10
29.68874704588589
 20
7.002468380129901
 30
0.0
 10
29.67951406482499
 20
6.991236289342862
 30
0.0
 10
29.67608840565669
 20
6.984977982637828
 30
0.0
 10
29.6727185973756
 20
6.975338476249358
 30
0.0
 10
29.67188114821445
 20
6.972068420314826
 30
0.0
 10
29.67076213903855
 20
6.96545516774397
 30
0.0
 10
29.67048072727276
 20
6.962088195322504
 30
0.0
 10
29.67048072727276
 20
6.958751658059522
 30
0.0
  0
LINE
  5
2A0
330
1F
100
AcDbEntity
  8
0
  6
Continuous
 62
     7
370
    25
100
AcDbLine
 10
29.8416390255
 20
8.2025774074
 30
0.0
 11
29.8416390255
 21
7.0246595584
 31
0.0
  0
LINE
  5
2A1
330
1F
100
AcDbEntity
  8
0
  6
Continuous
 62
     7
370
    25
100
AcDbLine
 10
29.8416390255
 20
7.0246595584
 30
0.0
 11
29.7273405699
 21
7.0186694301
 31
0.0
  0
LINE
  5
2A2
330
1F
100
AcDbEntity
  8
0
  6
Continuous
 62
     7
370
    25
100
AcDbLine
 10
29.2804807273
 20
7.5548678007
 30
0.0
 11
29.2804807273
 21
8.7310794838
 31
0.0
  0
LINE
  5
2A3
330
1F
100
AcDbEntity
  8
0
  6
Continuous
 62
     7
370
    25
100
AcDbLine
 10
29.2804807273
 20
6.3786561176
 30
0.0
 11
29.2804807273
 21
7.5548678007
 31
0.0
  0
LINE
  5
2A4
330
1F
100
AcDbEntity
  8
0
  6
Continuous
 62
     7
370
    25
100
AcDbLine
 10
30.7731462167
 20
7.0734777817
 30
0.0
 11
29.8416390255
 21
8.2025774074
 31
0.0
  0
LINE
  5
2A5
330
1F
100
AcDbEntity
  8
0
  6
Continuous
 62
     7
370
    25
100
AcDbLine
 10
29.7133482375
 20
8.6329071822
 30
0.0
 11
30.9904807273
 21
7.0848678007
 31
0.0
  0
LINE
  5
2A6
330
1F
100
AcDbEntity
  8
0
  6
Continuous
 62
     7
370
    25
100
AcDbLine
 10
30.9904807273
 20
7.0848678007
 30
0.0
 11
30.7731462167
 21
7.0734777817
 31
0.0
  0
LINE
  5
2A7
330
1F
100
AcDbEntity
  8
0
  6
Continuous
 62
     7
370
    25
100
AcDbLine
 10
29.8416390255
 20
7.0246595584
 30
0.0
 11
30.7731462167
 21
7.0734777817
 31
0.0
  0
LINE
  5
2A8
330
1F
100
AcDbEntity
  8
0
  6
Continuous
 62
     7
370
    25
100
AcDbLine
 10
28.9745093677
 20
7.5548678007
 30
0.0
 11
28.9745093677
 21
8.6648678007
 31
0.0
  0
LINE
  5
2A9
330
1F
100
AcDbEntity
  8
0
  6
Continuous
 62
     7
370
    25
100
AcDbLine
 10
28.9745093677
 20
6.4448678007
 30
0.0
 11
28.9745093677
 21
7.5548678007
 31
0.0
  0
LINE
  5
2AA
330
1F
100
AcDbEntity
  8
0
  6
Continuous
 62
     7
370
    25
100
AcDbLine
 10
27.9004807273
 20
7.5548678007
 30
0.0
 11
27.9004807273
 21
8.6648678007
 31
0.0
  0
LINE
  5
2AB
330
1F
100
AcDbEntity
  8
0
  6
Continuous
 62
     7
370
    25
100
AcDbLine
 10
27.9004807273
 20
6.4448678007
 30
0.0
 11
27.9004807273
 21
7.5548678007
 31
0.0
  0
SPLINE
  5
2AC
330
1F
100
AcDbEntity
  8
0
  6
Continuous
 62
     7
370
    25
100
AcDbSpline
210
0.0
220
0.0
230
1.0
 70
     8
 71
     3
 72
    27
 73
    23
 74
     0
 42
0.00000001
 43
0.00000001
 40
0.0
 40
0.0
 40
0.0
 40
0.0
 40
0.0059455175349361
 40
0.056067825188051
 40
0.1076445621294225
 40
0.1578226559594481
 40
0.209387974703375
 40
0.2608549715628564
 40
0.3137161742940598
 40
0.3670144043204502
 40
0.4217723857667922
 40
0.4766230708723627
 40
0.5330215391256449
 40
0.5885968983324044
 40
0.6457983357985634
 40
0.7010647218287636
 40
0.7580088771399004
 40
0.8119450192839156
 40
0.8675603875583435
 40
0.9195613469235094
 40
0.9731680482808032
 40
1.0
 40
1.0
 40
1.0
 40
1.0
 10
28.2353590813198
 20
8.664859191258527
 30
0.0
 10
28.23539878583105
 20
8.66486200081119
 30
0.0
 10
28.23577321002264
 20
8.664888495646453
 30
0.0
 10
28.2343115854669
 20
8.664784396897291
 30
0.0
 10
28.23092738891003
 20
8.66454971596379
 30
0.0
 10
28.22517168244825
 20
8.664172466159487
 30
0.0
 10
28.21756986341316
 20
8.663716826893447
 30
0.0
 10
28.2080893265109
 20
8.663216452316622
 30
0.0
 10
28.19701954098524
 20
8.662727728366573
 30
0.0
 10
28.18449653853229
 20
8.66229946332418
 30
0.0
 10
28.17091089987831
 20
8.661984972548614
 30
0.0
 10
28.15651282335603
 20
8.661822419062355
 30
0.0
 10
28.14187209441305
 20
8.661838040505035
 30
0.0
 10
28.12727096712345
 20
8.662034773284969
 30
0.0
 10
28.1134178351874
 20
8.662389346293025
 30
0.0
 10
28.10052930326624
 20
8.662864904630926
 30
0.0
 10
28.08931744723142
 20
8.663393473389279
 30
0.0
 10
28.07988427616729
 20
8.663919682819436
 30
0.0
 10
28.07271773935311
 20
8.664370014595118
 30
0.0
 10
28.06792776955215
 20
8.664694350429953
 30
0.0
 10
28.06557507549647
 20
8.664861071531536
 30
0.0
 10
28.065710907223
 20
8.664851447495014
 30
0.0
 10
28.06575621666304
 20
8.664848237201536
 30
0.0
  0
SPLINE
  5
2AD
330
1F
100
AcDbEntity
  8
0
  6
Continuous
 62
     7
370
    25
100
AcDbSpline
210
0.0
220
0.0
230
1.0
 70
    11
 71
     3
 72
    45
 73
    41
 74
     0
 42
0.00000001
 43
0.00000001
 40
0.0
 40
0.0
 40
0.0
 40
0.0
 40
0.0237175399948482
 40
0.0474321274804103
 40
0.073770407411436
 40
0.1001058302052787
 40
0.1256831926192655
 40
0.1512613530838409
 40
0.176610933955607
 40
0.2019638704002222
 40
0.2277790104241863
 40
0.2535981923459941
 40
0.2802998405742572
 40
0.3070046344696989
 40
0.3345901097638392
 40
0.3621768307668901
 40
0.390300803086869
 40
0.4184235803193864
 40
0.4465839298029535
 40
0.4747404512680736
 40
0.502400016499598
 40
0.5300542399531997
 40
0.5567908251397611
 40
0.5835234845596532
 40
0.6093175702390978
 40
0.6351113171116114
 40
0.6604538350684883
 40
0.6857990961317775
 40
0.7114024556147784
 40
0.7370098334383355
 40
0.7634096901586931
 40
0.7898131155645011
 40
0.8171426391285764
 40
0.844474085407685
 40
0.8724773226205874
 40
0.9004801841984486
 40
0.9286871977639591
 40
0.9568911912208189
 40
0.9784464809507029
 40
1.0
 40
1.0
 40
1.0
 40
1.0
 10
28.08691022792767
 20
6.953426848181089
 30
0.0
 10
28.08423828082229
 20
6.956100989873265
 30
0.0
 10
28.07889471923239
 20
6.961448940363558
 30
0.0
 10
28.07256770516179
 20
6.97103930934087
 30
0.0
 10
28.0679188395107
 20
6.981763494023843
 30
0.0
 10
28.06543483434526
 20
6.99338152381872
 30
0.0
 10
28.06535258864486
 20
7.005158495649204
 30
0.0
 10
28.06749577657848
 20
7.016715183463065
 30
0.0
 10
28.07185902095005
 20
7.027822823698578
 30
0.0
 10
28.07822330785326
 20
7.038258884692422
 30
0.0
 10
28.0865201184889
 20
7.047723006893501
 30
0.0
 10
28.09657645503713
 20
7.056076365285211
 30
0.0
 10
28.10817391140413
 20
7.062940705481983
 30
0.0
 10
28.1211244361967
 20
7.068194081838181
 30
0.0
 10
28.13502078080334
 20
7.071485520025828
 30
0.0
 10
28.14957204586277
 20
7.072739754836864
 30
0.0
 10
28.16424639053135
 20
7.071755178842523
 30
0.0
 10
28.17864022806983
 20
7.068594902491288
 30
0.0
 10
28.19222046970711
 20
7.063258630162724
 30
0.0
 10
28.20454866286736
 20
7.056018025504558
 30
0.0
 10
28.2151983905041
 20
7.047043711379454
 30
0.0
 10
28.22383596219111
 20
7.036812478979178
 30
0.0
 10
28.23020862720993
 20
7.025580853946835
 30
0.0
 10
28.23422996833705
 20
7.013902956948713
 30
0.0
 10
28.23581125436075
 20
7.002019125001635
 30
0.0
 10
28.23510480854993
 20
6.990363107163643
 30
0.0
 10
28.23210029046537
 20
6.979139690133096
 30
0.0
 10
28.22702506486148
 20
6.968582884247083
 30
0.0
 10
28.21991854684219
 20
6.958934889570926
 30
0.0
 10
28.21096687299546
 20
6.950304565896214
 30
0.0
 10
28.20033224789386
 20
6.943002269959425
 30
0.0
 10
28.18818698462205
 20
6.937107573270914
 30
0.0
 10
28.1748803765723
 20
6.932932873764823
 30
0.0
 10
28.16066494809004
 20
6.930545547031887
 30
0.0
 10
28.14604449241985
 20
6.930160647602079
 30
0.0
 10
28.13139460454642
 20
6.931775758287388
 30
0.0
 10
28.11725059458631
 20
6.935446081174212
 30
0.0
 10
28.10507921059737
 20
6.940635958273291
 30
0.0
 10
28.09489158754506
 20
6.946697559044783
 30
0.0
 10
28.08957060828096
 20
6.951183813226142
 30
0.0
 10
28.08691022792767
 20
6.953426848181089
 30
0.0
  0
LINE
  5
2AE
330
1F
100
AcDbEntity
  8
0
  6
Continuous
 62
     7
370
    25
100
AcDbLine
 10
29.0639520868
 20
7.5548678007
 30
0.0
 11
29.0639520868
 21
8.6648678007
 31
0.0
  0
LINE
  5
2AF
330
1F
100
AcDbEntity
  8
0
  6
Continuous
 62
     7
370
    25
100
AcDbLine
 10
29.0639520868
 20
6.4448678007
 30
0.0
 11
29.0639520868
 21
7.5548678007
 31
0.0
  0
SPLINE
  5
2B0
330
1F
100
AcDbEntity
  8
0
  6
Continuous
 62
     7
370
    25
100
AcDbSpline
210
0.0
220
0.0
230
1.0
 70
     8
 71
     3
 72
    15
 73
    11
 74
     0
 42
0.00000001
 43
0.00000001
 40
0.0
 40
0.0
 40
0.0
 40
0.0
 40
0.1281735847440668
 40
0.2563479607222398
 40
0.3845129554849898
 40
0.5126790842781909
 40
0.6410192809486012
 40
0.7693591897604972
 40
0.8978158259660138
 40
1.0
 40
1.0
 40
1.0
 40
1.0
 10
28.15048072727276
 20
6.979596189378157
 30
0.0
 10
28.15429889104031
 20
6.979754367319608
 30
0.0
 10
28.16193524214547
 20
6.980070724178967
 30
0.0
 10
28.17307023927126
 20
6.982544707985934
 30
0.0
 10
28.18355146251558
 20
6.986461067150843
 30
0.0
 10
28.19311452482446
 20
6.99181347818866
 30
0.0
 10
28.20146401913924
 20
6.998477515225102
 30
0.0
 10
28.20834641081035
 20
7.006266016167885
 30
0.0
 10
28.21339803399804
 20
7.014348191692593
 30
0.0
 10
28.21527034404965
 20
7.020018494981778
 30
0.0
 10
28.21609986097669
 20
7.022530692443821
 30
0.0
  0
SPLINE
  5
2B1
330
1F
100
AcDbEntity
  8
0
  6
Continuous
 62
     7
370
    25
100
AcDbSpline
210
0.0
220
0.0
230
1.0
 70
     8
 71
     3
 72
    16
 73
    12
 74
     0
 42
0.00000001
 43
0.00000001
 40
0.0
 40
0.0
 40
0.0
 40
0.0
 40
0.0747073606285748
 40
0.2016688808354543
 40
0.3286315052098877
 40
0.4558320439622862
 40
0.5830322678546512
 40
0.7103425716954342
 40
0.8376516132718526
 40
0.9188258515829177
 40
1.0
 40
1.0
 40
1.0
 40
1.0
 10
28.084742115814
 20
7.023204476942514
 30
0.0
 10
28.08525919165894
 20
7.021327411910311
 30
0.0
 10
28.08665501271431
 20
7.016260366292384
 30
0.0
 10
28.09099969670014
 20
7.008637820053053
 30
0.0
 10
28.09737422393918
 20
7.000555250702715
 30
0.0
 10
28.10537041448417
 20
6.993579267243648
 30
0.0
 10
28.11460581708636
 20
6.987819401585353
 30
0.0
 10
28.12489006070033
 20
6.983481335182574
 30
0.0
 10
28.1345651595826
 20
6.980991769429914
 30
0.0
 10
28.14316524995667
 20
6.979787926874828
 30
0.0
 10
28.14804223573421
 20
6.979660101853455
 30
0.0
 10
28.15048072727276
 20
6.979596189378157
 30
0.0
  0
LWPOLYLINE
  5
2B2
330
1F
100
AcDbEntity
  8
0
  6
Continuous
 62
     7
370
    25
100
AcDbPolyline
 90
       60
 70
   128
 43
0.0
 10
28.1504807273
 20
6.9494780733
 10
28.1577086843
 20
6.9498116953
 10
28.1648547457
 20
6.9508087815
 10
28.1718379437
 20
6.9524580343
 10
28.1785791559
 20
6.9547407671
 10
28.1850020017
 20
6.9576311157
 10
28.1910337077
 20
6.9610963311
 10
28.1966059321
 20
6.9650971512
 10
28.2016555396
 20
6.9695882451
 10
28.206125316
 20
6.9745187268
 10
28.209964617
 20
6.979832732
 10
28.2131299418
 20
6.985470051
 10
28.2155854259
 20
6.9913668106
 10
28.2173032477
 20
6.9974561983
 10
28.2182639438
 20
7.0036692187
 10
28.2184566288
 20
7.009935476
 10
28.2178791198
 20
7.0161839708
 10
28.21653796
 20
7.0223439054
 10
28.2144483454
 20
7.0283454851
 10
28.2116339521
 20
7.0341207096
 10
28.2081266684
 20
7.0396041434
 10
28.2039662331
 20
7.044733657
 10
28.1991997856
 20
7.0494511309
 10
28.1938813318
 20
7.0537031142
 10
28.1880711317
 20
7.0574414303
 10
28.1818350174
 20
7.0606237226
 10
28.1752436464
 20
7.0632139344
 10
28.1683717016
 20
7.0651827176
 10
28.161297045
 20
7.0665077651
 10
28.1540998352
 20
7.0671740635
 10
28.1468616194
 20
7.0671740635
 10
28.1396644095
 20
7.0665077651
 10
28.1325897529
 20
7.0651827176
 10
28.1257178082
 20
7.0632139344
 10
28.1191264372
 20
7.0606237226
 10
28.1128903228
 20
7.0574414303
 10
28.1070801228
 20
7.0537031142
 10
28.1017616689
 20
7.0494511309
 10
28.0969952215
 20
7.044733657
 10
28.0928347862
 20
7.0396041434
 10
28.0893275024
 20
7.0341207096
 10
28.0865131091
 20
7.0283454851
 10
28.0844234945
 20
7.0223439054
 10
28.0830823348
 20
7.0161839708
 10
28.0825048257
 20
7.009935476
 10
28.0826975108
 20
7.0036692187
 10
28.0836582068
 20
6.9974561983
 10
28.0853760287
 20
6.9913668106
 10
28.0878315128
 20
6.985470051
 10
28.0909968375
 20
6.979832732
 10
28.0948361385
 20
6.9745187268
 10
28.0993059149
 20
6.9695882451
 10
28.1043555224
 20
6.9650971512
 10
28.1099277469
 20
6.9610963311
 10
28.1159594528
 20
6.9576311157
 10
28.1223822986
 20
6.9547407671
 10
28.1291235109
 20
6.9524580343
 10
28.1361067089
 20
6.9508087815
 10
28.1432527702
 20
6.9498116953
 10
28.1504807273
 20
6.9494780733
  0
DIMENSION
  5
2B3
330
1F
100
AcDbEntity
  8
0
  6
Continuous
 62
     7
370
    18
100
AcDbDimension
  2
_D_5
 10
29.6704807273
 20
13.7285624985
 30
0.0
 11
34.4550476564
 21
13.7285624985
 31
0.0
 70
   160
  1
<>
 71
     2
 42
-1.0
  3
SLDDIMSTYLE2
100
AcDbAlignedDimension
 13
30.9904807273
 23
7.0848678007
 33
0.0
 14
29.6704807273
 24
10.0258971375
 34
0.0
100
AcDbRotatedDimension
  0
ENDSEC
  0
SECTION
  2
OBJECTS
  0
DICTIONARY
  5
C
330
0
100
AcDbDictionary
281
     1
  3
ACAD_GROUP
350
D
  3
ACAD_LAYOUT
350
1A
  3
ACAD_MLINESTYLE
350
17
  3
ACAD_PLOTSETTINGS
350
19
  3
ACAD_PLOTSTYLENAME
350
E
  3
ACAD_SCALELIST
350
47
  3
DWGPROPS
350
2C7
  0
DICTIONARY
  5
D
102
{ACAD_REACTORS
330
C
102
}
330
C
100
AcDbDictionary
281
     1
  0
DICTIONARY
  5
1A
102
{ACAD_REACTORS
330
C
102
}
330
C
100
AcDbDictionary
281
     1
  3
Layout1
350
1E
  3
Layout2
350
26
  3
Model
350
22
  0
DICTIONARY
  5
17
102
{ACAD_REACTORS
330
C
102
}
330
C
100
AcDbDictionary
281
     1
  3
Standard
350
18
  0
DICTIONARY
  5
19
102
{ACAD_REACTORS
330
C
102
}
330
C
100
AcDbDictionary
281
     1
  0
ACDBDICTIONARYWDFLT
  5
E
102
{ACAD_REACTORS
330
C
102
}
330
C
100
AcDbDictionary
281
     1
  3
Normal
350
F
100
AcDbDictionaryWithDefault
340
F
  0
DICTIONARY
  5
47
102
{ACAD_REACTORS
330
C
102
}
330
C
100
AcDbDictionary
281
     1
  3
A0
350
48
  3
A1
350
49
  3
A2
350
4A
  3
A3
350
4B
  3
A4
350
4C
  3
A5
350
4D
  3
A6
350
4E
  3
A7
350
4F
  3
A8
350
50
  3
A9
350
51
  3
B1
350
52
  3
B2
350
53
  3
B3
350
54
  3
B4
350
55
  3
B5
350
56
  3
B6
350
57
  3
B7
350
58
  0
XRECORD
  5
2C7
102
{ACAD_REACTORS
330
C
102
}
330
C
100
AcDbXrecord
280
     1
  1
DWGPROPS COOKIE
  2

  3

  4

  6

  7

  8
gurisher.rai
  9

300
=
301
=
302
=
303
=
304
=
305
=
306
=
307
=
308
=
309
=
 40
0.0
 41
2460537.010434943
 42
2460537.010439861
  1

 90
        0
  0
LAYOUT
  5
1E
102
{ACAD_REACTORS
330
1A
102
}
330
1A
100
AcDbPlotSettings
  1

  2
none_device
  4

  6

 40
0.0
 41
0.0
 42
0.0
 43
0.0
 44
0.0
 45
0.0
 46
0.0
 47
0.0
 48
0.0
 49
0.0
140
0.0
141
0.0
142
1.0
143
1.0
 70
   688
 72
     0
 73
     0
 74
     5
  7

 75
    16
147
1.0
148
0.0
149
0.0
100
AcDbLayout
  1
Layout1
 70
     1
 71
     1
 10
0.0
 20
0.0
 11
12.0
 21
9.0
 12
0.0
 22
0.0
 32
0.0
 14
1.0000000000E+20
 24
1.0000000000E+20
 34
1.0000000000E+20
 15
-1.0000000000E+20
 25
-1.0000000000E+20
 35
-1.0000000000E+20
146
0.0
 13
0.0
 23
0.0
 33
0.0
 16
1.0
 26
0.0
 36
0.0
 17
0.0
 27
1.0
 37
0.0
 76
     0
330
1B
  0
LAYOUT
  5
26
102
{ACAD_REACTORS
330
1A
102
}
330
1A
100
AcDbPlotSettings
  1

  2
none_device
  4

  6

 40
0.0
 41
0.0
 42
0.0
 43
0.0
 44
0.0
 45
0.0
 46
0.0
 47
0.0
 48
0.0
 49
0.0
140
0.0
141
0.0
142
1.0
143
1.0
 70
   688
 72
     0
 73
     0
 74
     5
  7

 75
    16
147
1.0
148
0.0
149
0.0
100
AcDbLayout
  1
Layout2
 70
     1
 71
     2
 10
0.0
 20
0.0
 11
0.0
 21
0.0
 12
0.0
 22
0.0
 32
0.0
 14
0.0
 24
0.0
 34
0.0
 15
0.0
 25
0.0
 35
0.0
146
0.0
 13
0.0
 23
0.0
 33
0.0
 16
1.0
 26
0.0
 36
0.0
 17
0.0
 27
1.0
 37
0.0
 76
     0
330
23
  0
LAYOUT
  5
22
102
{ACAD_REACTORS
330
1A
102
}
330
1A
100
AcDbPlotSettings
  1

  2
none_device
  4
Letter_(8.50_x_11.00_Inches)
  6

 40
6.35
 41
6.35
 42
6.35000508
 43
6.35000508
 44
215.9
 45
279.4
 46
0.0
 47
0.0
 48
0.0
 49
0.0
140
0.0
141
0.0
142
1.0
143
1.0
 70
  1712
 72
     0
 73
     0
 74
     0
  7

 75
     0
147
1.0
148
0.0
149
0.0
100
AcDbLayout
  1
Model
 70
     1
 71
     0
 10
0.0
 20
0.0
 11
44.0
 21
34.0
 12
0.0
 22
0.0
 32
0.0
 14
0.0
 24
0.0
 34
0.0
 15
44.0
 25
34.0
 35
0.0
146
0.0
 13
0.0
 23
0.0
 33
0.0
 16
1.0
 26
0.0
 36
0.0
 17
0.0
 27
1.0
 37
0.0
 76
     0
330
1F
331
29
  0
MLINESTYLE
  5
18
102
{ACAD_REACTORS
330
17
102
}
330
17
100
AcDbMlineStyle
  2
Standard
 70
     0
  3

 62
   256
 51
90.0
 52
90.0
 71
     2
 49
0.5
 62
   256
  6
BYLAYER
 49
-0.5
 62
   256
  6
BYLAYER
  0
ACDBPLACEHOLDER
  5
F
102
{ACAD_REACTORS
330
E
102
}
330
E
  0
SCALE
  5
48
102
{ACAD_REACTORS
330
47
102
}
330
47
100
AcDbScale
 70
     0
300
1:1
140
1.0
141
1.0
290
     1
  0
SCALE
  5
49
102
{ACAD_REACTORS
330
47
102
}
330
47
100
AcDbScale
 70
     0
300
1/128" = 1'-0"
140
0.0078125
141
12.0
290
     0
  0
SCALE
  5
4A
102
{ACAD_REACTORS
330
47
102
}
330
47
100
AcDbScale
 70
     0
300
1/64" = 1'-0"
140
0.015625
141
12.0
290
     0
  0
SCALE
  5
4B
102
{ACAD_REACTORS
330
47
102
}
330
47
100
AcDbScale
 70
     0
300
1/32" = 1'-0"
140
0.03125
141
12.0
290
     0
  0
SCALE
  5
4C
102
{ACAD_REACTORS
330
47
102
}
330
47
100
AcDbScale
 70
     0
300
1/16" = 1'-0"
140
0.0625
141
12.0
290
     0
  0
SCALE
  5
4D
102
{ACAD_REACTORS
330
47
102
}
330
47
100
AcDbScale
 70
     0
300
3/32" = 1'-0"
140
0.09375
141
12.0
290
     0
  0
SCALE
  5
4E
102
{ACAD_REACTORS
330
47
102
}
330
47
100
AcDbScale
 70
     0
300
1/8" = 1'-0"
140
0.125
141
12.0
290
     0
  0
SCALE
  5
4F
102
{ACAD_REACTORS
330
47
102
}
330
47
100
AcDbScale
 70
     0
300
3/16" = 1'-0"
140
0.1875
141
12.0
290
     0
  0
SCALE
  5
50
102
{ACAD_REACTORS
330
47
102
}
330
47
100
AcDbScale
 70
     0
300
1/4" = 1'-0"
140
0.25
141
12.0
290
     0
  0
SCALE
  5
51
102
{ACAD_REACTORS
330
47
102
}
330
47
100
AcDbScale
 70
     0
300
3/8" = 1'-0"
140
0.375
141
12.0
290
     0
  0
SCALE
  5
52
102
{ACAD_REACTORS
330
47
102
}
330
47
100
AcDbScale
 70
     0
300
1/2" = 1'-0"
140
0.5
141
12.0
290
     0
  0
SCALE
  5
53
102
{ACAD_REACTORS
330
47
102
}
330
47
100
AcDbScale
 70
     0
300
3/4" = 1'-0"
140
0.75
141
12.0
290
     0
  0
SCALE
  5
54
102
{ACAD_REACTORS
330
47
102
}
330
47
100
AcDbScale
 70
     0
300
1" = 1'-0"
140
1.0
141
12.0
290
     0
  0
SCALE
  5
55
102
{ACAD_REACTORS
330
47
102
}
330
47
100
AcDbScale
 70
     0
300
1-1/2" = 1'-0"
140
1.5
141
12.0
290
     0
  0
SCALE
  5
56
102
{ACAD_REACTORS
330
47
102
}
330
47
100
AcDbScale
 70
     0
300
3" = 1'-0"
140
3.0
141
12.0
290
     0
  0
SCALE
  5
57
102
{ACAD_REACTORS
330
47
102
}
330
47
100
AcDbScale
 70
     0
300
6" = 1'-0"
140
6.0
141
12.0
290
     0
  0
SCALE
  5
58
102
{ACAD_REACTORS
330
47
102
}
330
47
100
AcDbScale
 70
     0
300
1'-0" = 1'-0"
140
12.0
141
12.0
290
     0
  0
ENDSEC
  0
EOF
