  0
SECTION
  2
HEADER
  9
$ACADVER
  1
AC1015
  9
$ACADMAINTVER
 70
     6
  9
$DWGCODEPAGE
  3
ANSI_1252
  9
$INSBASE
 10
0.0
 20
0.0
 30
0.0
  9
$EXTMIN
 10
0.0
 20
0.0
 30
0.0
  9
$EXTMAX
 10
44.0
 20
34.0
 30
0.0
  9
$LIMMIN
 10
0.0
 20
0.0
  9
$LIMMAX
 10
44.0
 20
34.0
  9
$ORTHOMODE
 70
     0
  9
$REGENMODE
 70
     1
  9
$FILLMODE
 70
     1
  9
$QTEXTMODE
 70
     0
  9
$MIRRTEXT
 70
     1
  9
$LTSCALE
 40
4.0
  9
$ATTMODE
 70
     1
  9
$TEXTSIZE
 40
0.5
  9
$TRACEWID
 40
0.05
  9
$TEXTSTYLE
  7
Standard
  9
$CLAYER
  8
0
  9
$CELTYPE
  6
ByLayer
  9
$CECOLOR
 62
   256
  9
$CELTSCALE
 40
1.0
  9
$DISPSILH
 70
     0
  9
$DIMSCALE
 40
1.0
  9
$DIMASZ
 40
0.52
  9
$DIMEXO
 40
0.2
  9
$DIMDLI
 40
0.38
  9
$DIMRND
 40
0.0
  9
$DIMDLE
 40
0.0
  9
$DIMEXE
 40
0.5
  9
$DIMTP
 40
0.0
  9
$DIMTM
 40
0.0
  9
$DIMTXT
 40
0.5
  9
$DIMCEN
 40
0.09
  9
$DIMTSZ
 40
0.0
  9
$DIMTOL
 70
     0
  9
$DIMLIM
 70
     0
  9
$DIMTIH
 70
     1
  9
$DIMTOH
 70
     1
  9
$DIMSE1
 70
     0
  9
$DIMSE2
 70
     0
  9
$DIMTAD
 70
     0
  9
$DIMZIN
 70
     1
  9
$DIMBLK
  1

  9
$DIMASO
 70
     1
  9
$DIMSHO
 70
     1
  9
$DIMPOST
  1

  9
$DIMAPOST
  1

  9
$DIMALT
 70
     0
  9
$DIMALTD
 70
     2
  9
$DIMALTF
 40
25.4
  9
$DIMLFAC
 40
1.0
  9
$DIMTOFL
 70
     0
  9
$DIMTVP
 40
0.0
  9
$DIMTIX
 70
     0
  9
$DIMSOXD
 70
     0
  9
$DIMSAH
 70
     0
  9
$DIMBLK1
  1

  9
$DIMBLK2
  1

  9
$DIMSTYLE
  2
Standard
  9
$DIMCLRD
 70
     0
  9
$DIMCLRE
 70
     0
  9
$DIMCLRT
 70
     0
  9
$DIMTFAC
 40
1.0
  9
$DIMGAP
 40
0.24
  9
$DIMJUST
 70
     0
  9
$DIMSD1
 70
     0
  9
$DIMSD2
 70
     0
  9
$DIMTOLJ
 70
     1
  9
$DIMTZIN
 70
     1
  9
$DIMALTZ
 70
     0
  9
$DIMALTTZ
 70
     0
  9
$DIMUPT
 70
     0
  9
$DIMDEC
 70
     0
  9
$DIMTDEC
 70
     0
  9
$DIMALTU
 70
     2
  9
$DIMALTTD
 70
     2
  9
$DIMTXSTY
  7
Standard
  9
$DIMAUNIT
 70
     0
  9
$DIMADEC
 70
     0
  9
$DIMALTRND
 40
0.0
  9
$DIMAZIN
 70
     0
  9
$DIMDSEP
 70
    46
  9
$DIMATFIT
 70
     3
  9
$DIMFRAC
 70
     0
  9
$DIMLDRBLK
  1

  9
$DIMLUNIT
 70
     2
  9
$DIMLWD
 70
    -2
  9
$DIMLWE
 70
    -2
  9
$DIMTMOVE
 70
     0
  9
$LUNITS
 70
     2
  9
$LUPREC
 70
     6
  9
$SKETCHINC
 40
0.1
  9
$FILLETRAD
 40
0.0
  9
$AUNITS
 70
     0
  9
$AUPREC
 70
     2
  9
$MENU
  1
.
  9
$ELEVATION
 40
0.0
  9
$PELEVATION
 40
0.0
  9
$THICKNESS
 40
0.0
  9
$LIMCHECK
 70
     0
  9
$CHAMFERA
 40
0.0
  9
$CHAMFERB
 40
0.0
  9
$CHAMFERC
 40
0.0
  9
$CHAMFERD
 40
0.0
  9
$SKPOLY
 70
     0
  9
$TDCREATE
 40
2460566.333769271
  9
$TDUCREATE
 40
2460566.625435938
  9
$TDUPDATE
 40
2460566.33376963
  9
$TDUUPDATE
 40
2460566.625436296
  9
$TDINDWG
 40
0.0000000116
  9
$TDUSRTIMER
 40
0.0000000116
  9
$USRTIMER
 70
     1
  9
$ANGBASE
 50
0.0
  9
$ANGDIR
 70
     0
  9
$PDMODE
 70
     0
  9
$PDSIZE
 40
-1.0
  9
$PLINEWID
 40
0.0
  9
$SPLFRAME
 70
     0
  9
$SPLINETYPE
 70
     6
  9
$SPLINESEGS
 70
     8
  9
$HANDSEED
  5
1E0
  9
$SURFTAB1
 70
     6
  9
$SURFTAB2
 70
     6
  9
$SURFTYPE
 70
     6
  9
$SURFU
 70
     6
  9
$SURFV
 70
     6
  9
$UCSBASE
  2

  9
$UCSNAME
  2

  9
$UCSORG
 10
0.0
 20
0.0
 30
0.0
  9
$UCSXDIR
 10
1.0
 20
0.0
 30
0.0
  9
$UCSYDIR
 10
0.0
 20
1.0
 30
0.0
  9
$UCSORTHOREF
  2

  9
$UCSORTHOVIEW
 70
     0
  9
$UCSORGTOP
 10
0.0
 20
0.0
 30
0.0
  9
$UCSORGBOTTOM
 10
0.0
 20
0.0
 30
0.0
  9
$UCSORGLEFT
 10
0.0
 20
0.0
 30
0.0
  9
$UCSORGRIGHT
 10
0.0
 20
0.0
 30
0.0
  9
$UCSORGFRONT
 10
0.0
 20
0.0
 30
0.0
  9
$UCSORGBACK
 10
0.0
 20
0.0
 30
0.0
  9
$PUCSBASE
  2

  9
$PUCSNAME
  2

  9
$PUCSORG
 10
0.0
 20
0.0
 30
0.0
  9
$PUCSXDIR
 10
1.0
 20
0.0
 30
0.0
  9
$PUCSYDIR
 10
0.0
 20
1.0
 30
0.0
  9
$PUCSORTHOREF
  2

  9
$PUCSORTHOVIEW
 70
     0
  9
$PUCSORGTOP
 10
0.0
 20
0.0
 30
0.0
  9
$PUCSORGBOTTOM
 10
0.0
 20
0.0
 30
0.0
  9
$PUCSORGLEFT
 10
0.0
 20
0.0
 30
0.0
  9
$PUCSORGRIGHT
 10
0.0
 20
0.0
 30
0.0
  9
$PUCSORGFRONT
 10
0.0
 20
0.0
 30
0.0
  9
$PUCSORGBACK
 10
0.0
 20
0.0
 30
0.0
  9
$USERI1
 70
     0
  9
$USERI2
 70
     0
  9
$USERI3
 70
     0
  9
$USERI4
 70
     0
  9
$USERI5
 70
     0
  9
$USERR1
 40
0.0
  9
$USERR2
 40
0.0
  9
$USERR3
 40
0.0
  9
$USERR4
 40
0.0
  9
$USERR5
 40
0.0
  9
$WORLDVIEW
 70
     1
  9
$SHADEDGE
 70
     3
  9
$SHADEDIF
 70
    70
  9
$TILEMODE
 70
     1
  9
$MAXACTVP
 70
    64
  9
$PINSBASE
 10
0.0
 20
0.0
 30
0.0
  9
$PLIMCHECK
 70
     0
  9
$PEXTMIN
 10
1.0000000000E+20
 20
1.0000000000E+20
 30
1.0000000000E+20
  9
$PEXTMAX
 10
-1.0000000000E+20
 20
-1.0000000000E+20
 30
-1.0000000000E+20
  9
$PLIMMIN
 10
0.0
 20
0.0
  9
$PLIMMAX
 10
12.0
 20
9.0
  9
$UNITMODE
 70
     0
  9
$VISRETAIN
 70
     1
  9
$PLINEGEN
 70
     0
  9
$PSLTSCALE
 70
     1
  9
$TREEDEPTH
 70
  3020
  9
$CMLSTYLE
  2
Standard
  9
$CMLJUST
 70
     0
  9
$CMLSCALE
 40
1.0
  9
$PROXYGRAPHICS
 70
     1
  9
$MEASUREMENT
 70
     0
  9
$CELWEIGHT
370
    -1
  9
$ENDCAPS
280
     0
  9
$JOINSTYLE
280
     0
  9
$LWDISPLAY
290
     1
  9
$INSUNITS
 70
     1
  9
$HYPERLINKBASE
  1

  9
$STYLESHEET
  1

  9
$XEDIT
290
     1
  9
$CEPSNTYPE
380
     0
  9
$PSTYLEMODE
290
     1
  9
$FINGERPRINTGUID
  2
{e1772795-fa95-4be5-8303-b6c6cc6a6664}
  9
$VERSIONGUID
  2
{FAEB1C32-E019-11D5-929B-00C0DF256EC4}
  9
$EXTNAMES
290
     1
  9
$PSVPSCALE
 40
0.0
  9
$OLESTARTUP
290
     0
  0
ENDSEC
  0
SECTION
  2
CLASSES
  0
CLASS
  1
ACDBDICTIONARYWDFLT
  2
AcDbDictionaryWithDefault
  3
ObjectDBX Classes
 90
        0
280
     0
281
     0
  0
CLASS
  1
VISUALSTYLE
  2
AcDbVisualStyle
  3
ObjectDBX Classes
 90
     4095
280
     0
281
     0
  0
CLASS
  1
MATERIAL
  2
AcDbMaterial
  3
ObjectDBX Classes
 90
     1153
280
     0
281
     0
  0
CLASS
  1
SCALE
  2
AcDbScale
  3
ObjectDBX Classes
 90
     1153
280
     0
281
     0
  0
CLASS
  1
TABLESTYLE
  2
AcDbTableStyle
  3
ObjectDBX Classes
 90
     4095
280
     0
281
     0
  0
CLASS
  1
MLEADERSTYLE
  2
AcDbMLeaderStyle
  3
ACDB_MLEADERSTYLE_CLASS
 90
     4095
280
     0
281
     0
  0
CLASS
  1
SUN
  2
AcDbSun
  3
SCENEOE
 90
     1153
280
     0
281
     0
  0
CLASS
  1
ACDBPLACEHOLDER
  2
AcDbPlaceHolder
  3
ObjectDBX Classes
 90
        0
280
     0
281
     0
  0
CLASS
  1
LAYOUT
  2
AcDbLayout
  3
ObjectDBX Classes
 90
        0
280
     0
281
     0
  0
ENDSEC
  0
SECTION
  2
TABLES
  0
TABLE
  2
VPORT
  5
8
330
0
100
AcDbSymbolTable
 70
     1
  0
VPORT
  5
29
330
8
100
AcDbSymbolTableRecord
100
AcDbViewportTableRecord
  2
*Active
 70
     0
 10
0.0
 20
0.0
 11
1.0
 21
1.0
 12
22.0
 22
17.0
 13
0.0
 23
0.0
 14
0.5
 24
0.5
 15
0.5
 25
0.5
 16
0.0
 26
0.0
 36
1.0
 17
0.0
 27
0.0
 37
0.0
 40
34.0
 41
1.2941176471
 42
50.0
 43
0.0
 44
0.0
 50
0.0
 51
0.0
 71
     0
 72
  2000
 73
     1
 74
     3
 75
     0
 76
     0
 77
     0
 78
     0
281
     0
 65
     1
110
0.0
120
0.0
130
0.0
111
1.0
121
0.0
131
0.0
112
0.0
122
1.0
132
0.0
 79
     0
146
0.0
  0
ENDTAB
  0
TABLE
  2
LTYPE
  5
5
330
0
100
AcDbSymbolTable
 70
     6
  0
LTYPE
  5
14
330
5
100
AcDbSymbolTableRecord
100
AcDbLinetypeTableRecord
  2
ByBlock
 70
     0
  3

 72
    65
 73
     0
 40
0.0
  0
LTYPE
  5
15
330
5
100
AcDbSymbolTableRecord
100
AcDbLinetypeTableRecord
  2
ByLayer
 70
     0
  3

 72
    65
 73
     0
 40
0.0
  0
LTYPE
  5
16
330
5
100
AcDbSymbolTableRecord
100
AcDbLinetypeTableRecord
  2
Continuous
 70
     0
  3
Solid line
 72
    65
 73
     0
 40
0.0
  0
LTYPE
  5
5E
330
5
100
AcDbSymbolTableRecord
100
AcDbLinetypeTableRecord
  2
HIDDEN
 70
     0
  3
Hidden __ __ __ __ __ __ __ __ __ __ __ __ __ __
 72
    65
 73
     2
 40
0.075
 49
0.05
 74
     0
 49
-0.025
 74
     0
  0
LTYPE
  5
5F
330
5
100
AcDbSymbolTableRecord
100
AcDbLinetypeTableRecord
  2
PHANTOM
 70
     0
  3
Phantom ______  __  __  ______  __  __  ______
 72
    65
 73
     6
 40
0.5
 49
0.25
 74
     0
 49
-0.05
 74
     0
 49
0.05
 74
     0
 49
-0.05
 74
     0
 49
0.05
 74
     0
 49
-0.05
 74
     0
  0
LTYPE
  5
60
330
5
100
AcDbSymbolTableRecord
100
AcDbLinetypeTableRecord
  2
CENTER
 70
     0
  3
Center ____ _ ____ _ ____ _ ____ _ ____ _ ____
 72
    65
 73
     4
 40
0.4
 49
0.25
 74
     0
 49
-0.05
 74
     0
 49
0.05
 74
     0
 49
-0.05
 74
     0
  0
LTYPE
  5
61
330
5
100
AcDbSymbolTableRecord
100
AcDbLinetypeTableRecord
  2
CENTERX2
 70
     0
  3
Center (2x) ________  __  ________  __  _____
 72
    65
 73
     4
 40
0.8
 49
0.5
 74
     0
 49
-0.1
 74
     0
 49
0.1
 74
     0
 49
-0.1
 74
     0
  0
LTYPE
  5
62
330
5
100
AcDbSymbolTableRecord
100
AcDbLinetypeTableRecord
  2
DOT2
 70
     0
  3
Dot (.5x) ........................................
 72
    65
 73
     2
 40
0.025
 49
0.0
 74
     0
 49
-0.025
 74
     0
  0
ENDTAB
  0
TABLE
  2
LAYER
  5
2
330
0
100
AcDbSymbolTable
 70
    12
  0
LAYER
  5
10
330
2
100
AcDbSymbolTableRecord
100
AcDbLayerTableRecord
  2
0
 70
     0
 62
     7
  6
Continuous
370
    -3
390
F
  0
LAYER
  5
63
330
2
100
AcDbSymbolTableRecord
100
AcDbLayerTableRecord
  2
SLD-0
 70
     0
 62
     7
  6
Continuous
370
    -3
390
F
  0
LAYER
  5
64
330
2
100
AcDbSymbolTableRecord
100
AcDbLayerTableRecord
  2
DIM
 70
     0
 62
     7
  6
Continuous
370
    -3
390
F
  0
LAYER
  5
65
330
2
100
AcDbSymbolTableRecord
100
AcDbLayerTableRecord
  2
CEN
 70
     0
 62
     1
  6
CENTER
370
    -3
390
F
  0
LAYER
  5
66
330
2
100
AcDbSymbolTableRecord
100
AcDbLayerTableRecord
  2
HAT
 70
     0
 62
     4
  6
Continuous
370
    -3
390
F
  0
LAYER
  5
67
330
2
100
AcDbSymbolTableRecord
100
AcDbLayerTableRecord
  2
OBJ
 70
     0
 62
     5
  6
Continuous
370
    -3
390
F
  0
LAYER
  5
68
330
2
100
AcDbSymbolTableRecord
100
AcDbLayerTableRecord
  2
SLD-DEFPOINTS
 70
     0
 62
     7
  6
Continuous
370
    -3
390
F
  0
LAYER
  5
69
330
2
100
AcDbSymbolTableRecord
100
AcDbLayerTableRecord
  2
HID
 70
     0
 62
     4
  6
HIDDEN
370
    -3
390
F
  0
LAYER
  5
6A
330
2
100
AcDbSymbolTableRecord
100
AcDbLayerTableRecord
  2
NOTE
 70
     0
 62
     7
  6
Continuous
370
    -3
390
F
  0
LAYER
  5
6B
330
2
100
AcDbSymbolTableRecord
100
AcDbLayerTableRecord
  2
VP
 70
     0
 62
    -5
  6
Continuous
290
     0
370
    -3
390
F
  0
LAYER
  5
6C
330
2
100
AcDbSymbolTableRecord
100
AcDbLayerTableRecord
  2
TITLE
 70
     0
 62
     7
  6
Continuous
370
    -3
390
F
  0
LAYER
  5
6D
330
2
100
AcDbSymbolTableRecord
100
AcDbLayerTableRecord
  2
THICK_TITLE
 70
     0
 62
     7
  6
Continuous
370
   100
390
F
  0
ENDTAB
  0
TABLE
  2
STYLE
  5
3
330
0
100
AcDbSymbolTable
 70
     2
  0
STYLE
  5
11
330
3
100
AcDbSymbolTableRecord
100
AcDbTextStyleTableRecord
  2
Standard
 70
     0
 40
0.0
 41
1.0
 50
0.0
 71
     0
 42
0.5
  3
txt
  4

  0
STYLE
  5
13A
330
3
100
AcDbSymbolTableRecord
100
AcDbTextStyleTableRecord
  2
SLDTEXTSTYLE0
 70
     0
 40
0.0
 41
0.75
 50
0.0
 71
     0
 42
0.5
  3
TXT
  4

  0
ENDTAB
  0
TABLE
  2
VIEW
  5
6
330
0
100
AcDbSymbolTable
 70
     0
  0
ENDTAB
  0
TABLE
  2
UCS
  5
7
330
0
100
AcDbSymbolTable
 70
     0
  0
ENDTAB
  0
TABLE
  2
APPID
  5
9
330
0
100
AcDbSymbolTable
 70
     1
  0
APPID
  5
12
330
9
100
AcDbSymbolTableRecord
100
AcDbRegAppTableRecord
  2
ACAD
 70
     0
  0
ENDTAB
  0
TABLE
  2
DIMSTYLE
  5
A
330
0
100
AcDbSymbolTable
 70
     4
100
AcDbDimStyleTable
  0
DIMSTYLE
105
27
330
A
100
AcDbSymbolTableRecord
100
AcDbDimStyleTableRecord
  2
Standard
 70
     0
178
     0
340
11
  0
DIMSTYLE
105
13B
102
{ACAD_REACTORS
330
139
330
14E
330
1AA
102
}
330
A
100
AcDbSymbolTableRecord
100
AcDbDimStyleTableRecord
  2
SLDDIMSTYLE0
 70
     0
 41
0.52
 44
0.0
 45
0.000000001
 78
    12
 79
     3
140
0.5
147
0.125
148
0.000000001
170
     1
172
     1
173
     1
178
     0
271
     6
272
     0
276
     2
277
     5
284
    12
289
     0
340
13A
  0
DIMSTYLE
105
163
102
{ACAD_REACTORS
330
162
102
}
330
A
100
AcDbSymbolTableRecord
100
AcDbDimStyleTableRecord
  2
SLDDIMSTYLE1
 70
     0
 41
0.52
 44
0.0
 45
0.000000001
 78
    12
 79
     3
140
0.5
147
0.125
148
0.000000001
170
     1
173
     1
178
     0
271
     6
272
     0
276
     2
277
     5
284
    12
340
13A
  0
DIMSTYLE
105
1BF
102
{ACAD_REACTORS
330
1BE
330
1CF
102
}
330
A
100
AcDbSymbolTableRecord
100
AcDbDimStyleTableRecord
  2
SLDDIMSTYLE2
 70
     0
 41
0.52
 44
0.0
 45
0.000000001
 78
    12
 79
     3
140
0.5
141
0.0
147
0.125
148
0.000000001
170
     1
173
     1
178
     0
271
     0
272
     0
276
     2
277
     5
284
    12
340
13A
  0
ENDTAB
  0
TABLE
  2
BLOCK_RECORD
  5
1
330
0
100
AcDbSymbolTable
 70
     8
  0
BLOCK_RECORD
  5
1F
330
1
100
AcDbSymbolTableRecord
100
AcDbBlockTableRecord
  2
*Model_Space
340
22
  0
BLOCK_RECORD
  5
1B
330
1
100
AcDbSymbolTableRecord
100
AcDbBlockTableRecord
  2
*Paper_Space
340
1E
  0
BLOCK_RECORD
  5
23
330
1
100
AcDbSymbolTableRecord
100
AcDbBlockTableRecord
  2
*Paper_Space0
340
26
  0
BLOCK_RECORD
  5
6E
330
1
100
AcDbSymbolTableRecord
100
AcDbBlockTableRecord
  2
Block1
340
0
  0
BLOCK_RECORD
  5
13C
330
1
100
AcDbSymbolTableRecord
100
AcDbBlockTableRecord
  2
_D
340
0
  0
BLOCK_RECORD
  5
14F
330
1
100
AcDbSymbolTableRecord
100
AcDbBlockTableRecord
  2
_D_1
340
0
  0
BLOCK_RECORD
  5
164
330
1
100
AcDbSymbolTableRecord
100
AcDbBlockTableRecord
  2
_D_2
340
0
  0
BLOCK_RECORD
  5
1AB
330
1
100
AcDbSymbolTableRecord
100
AcDbBlockTableRecord
  2
_D_3
340
0
  0
BLOCK_RECORD
  5
1C0
330
1
100
AcDbSymbolTableRecord
100
AcDbBlockTableRecord
  2
_D_4
340
0
  0
BLOCK_RECORD
  5
1D0
330
1
100
AcDbSymbolTableRecord
100
AcDbBlockTableRecord
  2
_D_5
340
0
  0
ENDTAB
  0
ENDSEC
  0
SECTION
  2
BLOCKS
  0
BLOCK
  5
20
330
1F
100
AcDbEntity
  8
0
100
AcDbBlockBegin
  2
*Model_Space
 70
     0
 10
0.0
 20
0.0
 30
0.0
  3
*Model_Space
  1

  0
ENDBLK
  5
21
330
1F
100
AcDbEntity
  8
0
100
AcDbBlockEnd
  0
BLOCK
  5
1C
330
1B
100
AcDbEntity
 67
     1
  8
0
100
AcDbBlockBegin
  2
*Paper_Space
 70
     0
 10
0.0
 20
0.0
 30
0.0
  3
*Paper_Space
  1

  0
ENDBLK
  5
1D
330
1B
100
AcDbEntity
 67
     1
  8
0
100
AcDbBlockEnd
  0
BLOCK
  5
24
330
23
100
AcDbEntity
  8
0
100
AcDbBlockBegin
  2
*Paper_Space0
 70
     0
 10
0.0
 20
0.0
 30
0.0
  3
*Paper_Space0
  1

  0
ENDBLK
  5
25
330
23
100
AcDbEntity
  8
0
100
AcDbBlockEnd
  0
BLOCK
  5
6F
330
6E
100
AcDbEntity
  8
0
100
AcDbBlockBegin
  2
Block1
 70
     0
 10
0.0
 20
0.0
 30
0.0
  3
Block1
  1

  0
ENDBLK
  5
70
330
6E
100
AcDbEntity
  8
0
100
AcDbBlockEnd
  0
BLOCK
  5
13D
330
13C
100
AcDbEntity
  8
0
100
AcDbBlockBegin
  2
_D
 70
     0
 10
0.0
 20
0.0
 30
0.0
  3
_D
  1

  0
SOLID
  5
13F
330
13C
100
AcDbEntity
  8
0
  6
Continuous
 62
     7
370
    18
100
AcDbTrace
 10
10.4690780021
 20
9.9544919319
 30
0.0
 11
10.5490780021
 21
10.4744919319
 31
0.0
 12
10.3890780021
 22
10.4744919319
 32
0.0
 13
10.3890780021
 23
10.4744919319
 33
0.0
  0
SOLID
  5
140
330
13C
100
AcDbEntity
  8
0
  6
Continuous
 62
     7
370
    18
100
AcDbTrace
 10
10.4690780021
 20
7.7344919319
 30
0.0
 11
10.3890780021
 21
7.2144919319
 31
0.0
 12
10.5490780021
 22
7.2144919319
 32
0.0
 13
10.5490780021
 23
7.2144919319
 33
0.0
  0
LINE
  5
141
330
13C
100
AcDbEntity
  8
0
  6
Continuous
 62
     7
370
     0
100
AcDbLine
 10
9.4746335733
 20
8.8444918586
 30
0.0
 11
9.3222898249
 21
8.8444918586
 31
0.0
  0
LINE
  5
142
330
13C
100
AcDbEntity
  8
0
  6
Continuous
 62
     7
370
     0
100
AcDbLine
 10
9.3222898249
 20
8.8444918586
 30
0.0
 11
9.3222898249
 21
8.0507418347
 31
0.0
  0
LINE
  5
143
330
13C
100
AcDbEntity
  8
0
  6
Continuous
 62
     7
370
     0
100
AcDbLine
 10
9.3222898249
 20
8.0507418347
 30
0.0
 11
9.4746335733
 21
8.0507418347
 31
0.0
  0
LINE
  5
144
330
13C
100
AcDbEntity
  8
0
  6
Continuous
 62
     7
370
     0
100
AcDbLine
 10
11.4635225042
 20
8.8444918586
 30
0.0
 11
11.6158662526
 21
8.8444918586
 31
0.0
  0
LINE
  5
145
330
13C
100
AcDbEntity
  8
0
  6
Continuous
 62
     7
370
     0
100
AcDbLine
 10
11.6158662526
 20
8.8444918586
 30
0.0
 11
11.6158662526
 21
8.0507418347
 31
0.0
  0
LINE
  5
146
330
13C
100
AcDbEntity
  8
0
  6
Continuous
 62
     7
370
     0
100
AcDbLine
 10
11.6158662526
 20
8.0507418347
 30
0.0
 11
11.4635225042
 21
8.0507418347
 31
0.0
  0
LINE
  5
147
330
13C
100
AcDbEntity
  8
0
  6
Continuous
 62
     7
370
     0
100
AcDbLine
 10
16.6656449312
 20
9.9544919319
 30
0.0
 11
9.9690780021
 21
9.9544919319
 31
0.0
  0
LINE
  5
148
330
13C
100
AcDbEntity
  8
0
  6
Continuous
 62
     7
370
     0
100
AcDbLine
 10
16.6656449312
 20
7.7344919319
 30
0.0
 11
9.9690780021
 21
7.7344919319
 31
0.0
  0
LINE
  5
149
330
13C
100
AcDbEntity
  8
0
  6
Continuous
 62
     7
370
     0
100
AcDbLine
 10
10.4690780021
 20
9.9544919319
 30
0.0
 11
10.4690780021
 21
10.9544919319
 31
0.0
  0
LINE
  5
14A
330
13C
100
AcDbEntity
  8
0
  6
Continuous
 62
     7
370
     0
100
AcDbLine
 10
10.4690780021
 20
7.7344919319
 30
0.0
 11
10.4690780021
 21
6.7344919319
 31
0.0
  0
MTEXT
  5
14B
330
13C
100
AcDbEntity
  8
0
  6
Continuous
 62
     7
370
    18
100
AcDbMText
 10
9.1965606357
 20
9.5905882794
 30
0.0
 40
0.5
 41
0.0
 71
     1
 72
     1
  1
%%c
  7
SLDTEXTSTYLE0
 73
     1
 44
1.0
  0
MTEXT
  5
14C
330
13C
100
AcDbEntity
  8
0
  6
Continuous
 62
     7
370
    18
100
AcDbMText
 10
9.950623118
 20
9.5905882794
 30
0.0
 40
0.5
 41
0.0
 71
     1
 72
     1
  1
2 1/4"
  7
SLDTEXTSTYLE0
 73
     1
 44
1.0
  0
MTEXT
  5
14D
330
13C
100
AcDbEntity
  8
0
  6
Continuous
 62
     7
370
    18
100
AcDbMText
 10
9.4746335733
 20
8.6952757596
 30
0.0
 40
0.5
 41
0.0
 71
     1
 72
     1
  1
56mm
  7
SLDTEXTSTYLE0
 73
     1
 44
1.0
  0
ENDBLK
  5
13E
330
13C
100
AcDbEntity
  8
0
100
AcDbBlockEnd
  0
BLOCK
  5
150
330
14F
100
AcDbEntity
  8
0
100
AcDbBlockBegin
  2
_D_1
 70
     0
 10
0.0
 20
0.0
 30
0.0
  3
_D_1
  1

  0
SOLID
  5
152
330
14F
100
AcDbEntity
  8
0
  6
Continuous
 62
     7
370
    18
100
AcDbTrace
 10
20.8756449312
 20
13.8641769713
 30
0.0
 11
21.3956449312
 21
13.7841769713
 31
0.0
 12
21.3956449312
 22
13.9441769713
 32
0.0
 13
21.3956449312
 23
13.9441769713
 33
0.0
  0
SOLID
  5
153
330
14F
100
AcDbEntity
  8
0
  6
Continuous
 62
     7
370
    18
100
AcDbTrace
 10
20.5006449312
 20
13.8641769713
 30
0.0
 11
19.9806449312
 21
13.9441769713
 31
0.0
 12
19.9806449312
 22
13.7841769713
 32
0.0
 13
19.9806449312
 23
13.7841769713
 33
0.0
  0
LINE
  5
154
330
14F
100
AcDbEntity
  8
0
  6
Continuous
 62
     7
370
     0
100
AcDbLine
 10
23.8668008639
 20
13.8603574487
 30
0.0
 11
23.7144571155
 21
13.8603574487
 31
0.0
  0
LINE
  5
155
330
14F
100
AcDbEntity
  8
0
  6
Continuous
 62
     7
370
     0
100
AcDbLine
 10
23.7144571155
 20
13.8603574487
 30
0.0
 11
23.7144571155
 21
13.0666074249
 31
0.0
  0
LINE
  5
156
330
14F
100
AcDbEntity
  8
0
  6
Continuous
 62
     7
370
     0
100
AcDbLine
 10
23.7144571155
 20
13.0666074249
 30
0.0
 11
23.8668008639
 21
13.0666074249
 31
0.0
  0
LINE
  5
157
330
14F
100
AcDbEntity
  8
0
  6
Continuous
 62
     7
370
     0
100
AcDbLine
 10
25.8556897947
 20
13.8603574487
 30
0.0
 11
26.0080335432
 21
13.8603574487
 31
0.0
  0
LINE
  5
158
330
14F
100
AcDbEntity
  8
0
  6
Continuous
 62
     7
370
     0
100
AcDbLine
 10
26.0080335432
 20
13.8603574487
 30
0.0
 11
26.0080335432
 21
13.0666074249
 31
0.0
  0
LINE
  5
159
330
14F
100
AcDbEntity
  8
0
  6
Continuous
 62
     7
370
     0
100
AcDbLine
 10
26.0080335432
 20
13.0666074249
 30
0.0
 11
25.8556897947
 21
13.0666074249
 31
0.0
  0
LINE
  5
15A
330
14F
100
AcDbEntity
  8
0
  6
Continuous
 62
     7
370
     0
100
AcDbLine
 10
20.8756449312
 20
11.5281190783
 30
0.0
 11
20.8756449312
 21
14.3641769713
 31
0.0
  0
LINE
  5
15B
330
14F
100
AcDbEntity
  8
0
  6
Continuous
 62
     7
370
     0
100
AcDbLine
 10
20.5006449312
 20
11.5444919319
 30
0.0
 11
20.5006449312
 21
14.3641769713
 31
0.0
  0
LINE
  5
15C
330
14F
100
AcDbEntity
  8
0
  6
Continuous
 62
     7
370
     0
100
AcDbLine
 10
20.8756449312
 20
13.8641769713
 30
0.0
 11
23.275978417
 21
13.8641769713
 31
0.0
  0
LINE
  5
15D
330
14F
100
AcDbEntity
  8
0
  6
Continuous
 62
     7
370
     0
100
AcDbLine
 10
20.5006449312
 20
13.8641769713
 30
0.0
 11
19.5006449312
 21
13.8641769713
 31
0.0
  0
MTEXT
  5
15E
330
14F
100
AcDbEntity
  8
0
  6
Continuous
 62
     7
370
    18
100
AcDbMText
 10
23.5648911443
 20
14.6140927588
 30
0.0
 40
0.5
 41
0.0
 71
     1
 72
     1
  1

  7
SLDTEXTSTYLE0
 73
     1
 44
1.0
  0
MTEXT
  5
15F
330
14F
100
AcDbEntity
  8
0
  6
Continuous
 62
     7
370
    18
100
AcDbMText
 10
24.2428424832
 20
14.6064538329
 30
0.0
 40
0.5
 41
0.0
 71
     1
 72
     1
  1
3/8"
  7
SLDTEXTSTYLE0
 73
     1
 44
1.0
  0
MTEXT
  5
160
330
14F
100
AcDbEntity
  8
0
  6
Continuous
 62
     7
370
    18
100
AcDbMText
 10
23.8668008639
 20
13.7111413497
 30
0.0
 40
0.5
 41
0.0
 71
     1
 72
     1
  1
10mm
  7
SLDTEXTSTYLE0
 73
     1
 44
1.0
  0
MTEXT
  5
161
330
14F
100
AcDbEntity
  8
0
  6
Continuous
 62
     7
370
    18
100
AcDbMText
 10
26.3478771816
 20
14.6140927588
 30
0.0
 40
0.5
 41
0.0
 71
     1
 72
     1
  1

  7
SLDTEXTSTYLE0
 73
     1
 44
1.0
  0
ENDBLK
  5
151
330
14F
100
AcDbEntity
  8
0
100
AcDbBlockEnd
  0
BLOCK
  5
165
330
164
100
AcDbEntity
  8
0
100
AcDbBlockBegin
  2
_D_2
 70
     0
 10
0.0
 20
0.0
 30
0.0
  3
_D_2
  1

  0
SOLID
  5
167
330
164
100
AcDbEntity
  8
0
  6
Continuous
 62
     7
370
    18
100
AcDbTrace
 10
20.5006449312
 20
13.8641769713
 30
0.0
 11
19.9806449312
 21
13.9441769713
 31
0.0
 12
19.9806449312
 22
13.7841769713
 32
0.0
 13
19.9806449312
 23
13.7841769713
 33
0.0
  0
SOLID
  5
168
330
164
100
AcDbEntity
  8
0
  6
Continuous
 62
     7
370
    18
100
AcDbTrace
 10
16.4481449312
 20
13.8641769713
 30
0.0
 11
16.9681449312
 21
13.7841769713
 31
0.0
 12
16.9681449312
 22
13.9441769713
 32
0.0
 13
16.9681449312
 23
13.9441769713
 33
0.0
  0
LINE
  5
169
330
164
100
AcDbEntity
  8
0
  6
Continuous
 62
     7
370
     0
100
AcDbLine
 10
17.2952283531
 20
13.8603574487
 30
0.0
 11
17.1428846046
 21
13.8603574487
 31
0.0
  0
LINE
  5
16A
330
164
100
AcDbEntity
  8
0
  6
Continuous
 62
     7
370
     0
100
AcDbLine
 10
17.1428846046
 20
13.8603574487
 30
0.0
 11
17.1428846046
 21
13.0666074249
 31
0.0
  0
LINE
  5
16B
330
164
100
AcDbEntity
  8
0
  6
Continuous
 62
     7
370
     0
100
AcDbLine
 10
17.1428846046
 20
13.0666074249
 30
0.0
 11
17.2952283531
 21
13.0666074249
 31
0.0
  0
LINE
  5
16C
330
164
100
AcDbEntity
  8
0
  6
Continuous
 62
     7
370
     0
100
AcDbLine
 10
19.6535616561
 20
13.8603574487
 30
0.0
 11
19.8059054045
 21
13.8603574487
 31
0.0
  0
LINE
  5
16D
330
164
100
AcDbEntity
  8
0
  6
Continuous
 62
     7
370
     0
100
AcDbLine
 10
19.8059054045
 20
13.8603574487
 30
0.0
 11
19.8059054045
 21
13.0666074249
 31
0.0
  0
LINE
  5
16E
330
164
100
AcDbEntity
  8
0
  6
Continuous
 62
     7
370
     0
100
AcDbLine
 10
19.8059054045
 20
13.0666074249
 30
0.0
 11
19.6535616561
 21
13.0666074249
 31
0.0
  0
LINE
  5
16F
330
164
100
AcDbEntity
  8
0
  6
Continuous
 62
     7
370
     0
100
AcDbLine
 10
20.5006449312
 20
11.5444919319
 30
0.0
 11
20.5006449312
 21
14.3641769713
 31
0.0
  0
LINE
  5
170
330
164
100
AcDbEntity
  8
0
  6
Continuous
 62
     7
370
     0
100
AcDbLine
 10
16.4481449312
 20
9.0997313331
 30
0.0
 11
16.4481449312
 21
14.3641769713
 31
0.0
  0
LINE
  5
171
330
164
100
AcDbEntity
  8
0
  6
Continuous
 62
     7
370
     0
100
AcDbLine
 10
20.5006449312
 20
13.8641769713
 30
0.0
 11
20.2443839563
 21
13.8641769713
 31
0.0
  0
LINE
  5
172
330
164
100
AcDbEntity
  8
0
  6
Continuous
 62
     7
370
     0
100
AcDbLine
 10
16.4481449312
 20
13.8641769713
 30
0.0
 11
16.7044059062
 21
13.8641769713
 31
0.0
  0
MTEXT
  5
173
330
164
100
AcDbEntity
  8
0
  6
Continuous
 62
     7
370
    18
100
AcDbMText
 10
16.9933186334
 20
14.6140927588
 30
0.0
 40
0.5
 41
0.0
 71
     1
 72
     1
  1

  7
SLDTEXTSTYLE0
 73
     1
 44
1.0
  0
MTEXT
  5
174
330
164
100
AcDbEntity
  8
0
  6
Continuous
 62
     7
370
    18
100
AcDbMText
 10
17.3941866199
 20
14.6064538329
 30
0.0
 40
0.5
 41
0.0
 71
     1
 72
     1
  1
4 1/16"
  7
SLDTEXTSTYLE0
 73
     1
 44
1.0
  0
MTEXT
  5
175
330
164
100
AcDbEntity
  8
0
  6
Continuous
 62
     7
370
    18
100
AcDbMText
 10
17.2952283531
 20
13.7111413497
 30
0.0
 40
0.5
 41
0.0
 71
     1
 72
     1
  1
103mm
  7
SLDTEXTSTYLE0
 73
     1
 44
1.0
  0
MTEXT
  5
176
330
164
100
AcDbEntity
  8
0
  6
Continuous
 62
     7
370
    18
100
AcDbMText
 10
20.145749043
 20
14.6140927588
 30
0.0
 40
0.5
 41
0.0
 71
     1
 72
     1
  1

  7
SLDTEXTSTYLE0
 73
     1
 44
1.0
  0
ENDBLK
  5
166
330
164
100
AcDbEntity
  8
0
100
AcDbBlockEnd
  0
BLOCK
  5
1AC
330
1AB
100
AcDbEntity
  8
0
100
AcDbBlockBegin
  2
_D_3
 70
     0
 10
0.0
 20
0.0
 30
0.0
  3
_D_3
  1

  0
SOLID
  5
1AE
330
1AB
100
AcDbEntity
  8
0
  6
Continuous
 62
     7
370
    18
100
AcDbTrace
 10
30.654
 20
13.8641769713
 30
0.0
 11
30.134
 21
13.9441769713
 31
0.0
 12
30.134
 22
13.7841769713
 32
0.0
 13
30.134
 23
13.7841769713
 33
0.0
  0
SOLID
  5
1AF
330
1AB
100
AcDbEntity
  8
0
  6
Continuous
 62
     7
370
    18
100
AcDbTrace
 10
34.154
 20
13.8641769713
 30
0.0
 11
34.674
 21
13.7841769713
 31
0.0
 12
34.674
 22
13.9441769713
 32
0.0
 13
34.674
 23
13.9441769713
 33
0.0
  0
LINE
  5
1B0
330
1AB
100
AcDbEntity
  8
0
  6
Continuous
 62
     7
370
     0
100
AcDbLine
 10
31.4095556079
 20
13.8603574487
 30
0.0
 11
31.2572118595
 21
13.8603574487
 31
0.0
  0
LINE
  5
1B1
330
1AB
100
AcDbEntity
  8
0
  6
Continuous
 62
     7
370
     0
100
AcDbLine
 10
31.2572118595
 20
13.8603574487
 30
0.0
 11
31.2572118595
 21
13.0666074249
 31
0.0
  0
LINE
  5
1B2
330
1AB
100
AcDbEntity
  8
0
  6
Continuous
 62
     7
370
     0
100
AcDbLine
 10
31.2572118595
 20
13.0666074249
 30
0.0
 11
31.4095556079
 21
13.0666074249
 31
0.0
  0
LINE
  5
1B3
330
1AB
100
AcDbEntity
  8
0
  6
Continuous
 62
     7
370
     0
100
AcDbLine
 10
33.3984445388
 20
13.8603574487
 30
0.0
 11
33.5507882872
 21
13.8603574487
 31
0.0
  0
LINE
  5
1B4
330
1AB
100
AcDbEntity
  8
0
  6
Continuous
 62
     7
370
     0
100
AcDbLine
 10
33.5507882872
 20
13.8603574487
 30
0.0
 11
33.5507882872
 21
13.0666074249
 31
0.0
  0
LINE
  5
1B5
330
1AB
100
AcDbEntity
  8
0
  6
Continuous
 62
     7
370
     0
100
AcDbLine
 10
33.5507882872
 20
13.0666074249
 30
0.0
 11
33.3984445388
 21
13.0666074249
 31
0.0
  0
LINE
  5
1B6
330
1AB
100
AcDbEntity
  8
0
  6
Continuous
 62
     7
370
     0
100
AcDbLine
 10
30.654
 20
9.0444919319
 30
0.0
 11
30.654
 21
14.3641769713
 31
0.0
  0
LINE
  5
1B7
330
1AB
100
AcDbEntity
  8
0
  6
Continuous
 62
     7
370
     0
100
AcDbLine
 10
34.154
 20
9.0444919319
 30
0.0
 11
34.154
 21
14.3641769713
 31
0.0
  0
LINE
  5
1B8
330
1AB
100
AcDbEntity
  8
0
  6
Continuous
 62
     7
370
     0
100
AcDbLine
 10
30.654
 20
13.8641769713
 30
0.0
 11
29.654
 21
13.8641769713
 31
0.0
  0
LINE
  5
1B9
330
1AB
100
AcDbEntity
  8
0
  6
Continuous
 62
     7
370
     0
100
AcDbLine
 10
34.154
 20
13.8641769713
 30
0.0
 11
35.154
 21
13.8641769713
 31
0.0
  0
MTEXT
  5
1BA
330
1AB
100
AcDbEntity
  8
0
  6
Continuous
 62
     7
370
    18
100
AcDbMText
 10
31.1076458883
 20
14.6140927588
 30
0.0
 40
0.5
 41
0.0
 71
     1
 72
     1
  1

  7
SLDTEXTSTYLE0
 73
     1
 44
1.0
  0
MTEXT
  5
1BB
330
1AB
100
AcDbEntity
  8
0
  6
Continuous
 62
     7
370
    18
100
AcDbMText
 10
31.5085139481
 20
14.6064538329
 30
0.0
 40
0.5
 41
0.0
 71
     1
 72
     1
  1
3 1/2"
  7
SLDTEXTSTYLE0
 73
     1
 44
1.0
  0
MTEXT
  5
1BC
330
1AB
100
AcDbEntity
  8
0
  6
Continuous
 62
     7
370
    18
100
AcDbMText
 10
31.4095556079
 20
13.7111413497
 30
0.0
 40
0.5
 41
0.0
 71
     1
 72
     1
  1
89mm
  7
SLDTEXTSTYLE0
 73
     1
 44
1.0
  0
MTEXT
  5
1BD
330
1AB
100
AcDbEntity
  8
0
  6
Continuous
 62
     7
370
    18
100
AcDbMText
 10
33.8906319257
 20
14.6140927588
 30
0.0
 40
0.5
 41
0.0
 71
     1
 72
     1
  1

  7
SLDTEXTSTYLE0
 73
     1
 44
1.0
  0
ENDBLK
  5
1AD
330
1AB
100
AcDbEntity
  8
0
100
AcDbBlockEnd
  0
BLOCK
  5
1C1
330
1C0
100
AcDbEntity
  8
0
100
AcDbBlockBegin
  2
_D_4
 70
     0
 10
0.0
 20
0.0
 30
0.0
  3
_D_4
  1

  0
SOLID
  5
1C3
330
1C0
100
AcDbEntity
  8
0
  6
Continuous
 62
     7
370
    18
100
AcDbTrace
 10
33.9795602212
 20
10.7855251592
 30
0.0
 11
34.3693898105
 21
11.1388421434
 31
0.0
 12
34.2451636839
 22
11.2396779975
 32
0.0
 13
34.2451636839
 23
11.2396779975
 33
0.0
  0
LINE
  5
1C4
330
1C0
100
AcDbEntity
  8
0
  6
Continuous
 62
     7
370
     0
100
AcDbLine
 10
37.7832267473
 20
13.8641768979
 30
0.0
 11
37.6308829989
 21
13.8641768979
 31
0.0
  0
LINE
  5
1C5
330
1C0
100
AcDbEntity
  8
0
  6
Continuous
 62
     7
370
     0
100
AcDbLine
 10
37.6308829989
 20
13.8641768979
 30
0.0
 11
37.6308829989
 21
13.0704268741
 31
0.0
  0
LINE
  5
1C6
330
1C0
100
AcDbEntity
  8
0
  6
Continuous
 62
     7
370
     0
100
AcDbLine
 10
37.6308829989
 20
13.0704268741
 30
0.0
 11
37.7832267473
 21
13.0704268741
 31
0.0
  0
LINE
  5
1C7
330
1C0
100
AcDbEntity
  8
0
  6
Continuous
 62
     7
370
     0
100
AcDbLine
 10
40.1415600503
 20
13.8641768979
 30
0.0
 11
40.2939037988
 21
13.8641768979
 31
0.0
  0
LINE
  5
1C8
330
1C0
100
AcDbEntity
  8
0
  6
Continuous
 62
     7
370
     0
100
AcDbLine
 10
40.2939037988
 20
13.8641768979
 30
0.0
 11
40.2939037988
 21
13.0704268741
 31
0.0
  0
LINE
  5
1C9
330
1C0
100
AcDbEntity
  8
0
  6
Continuous
 62
     7
370
     0
100
AcDbLine
 10
40.2939037988
 20
13.0704268741
 30
0.0
 11
40.1415600503
 21
13.0704268741
 31
0.0
  0
LINE
  5
1CA
330
1C0
100
AcDbEntity
  8
0
  6
Continuous
 62
     7
370
     0
100
AcDbLine
 10
33.9795602212
 20
10.7855251592
 30
0.0
 11
36.4785392504
 21
13.8641769713
 31
0.0
  0
LINE
  5
1CB
330
1C0
100
AcDbEntity
  8
0
  6
Continuous
 62
     7
370
     0
100
AcDbLine
 10
36.4785392504
 20
13.8641769713
 30
0.0
 11
37.4785392504
 21
13.8641769713
 31
0.0
  0
MTEXT
  5
1CC
330
1C0
100
AcDbEntity
  8
0
  6
Continuous
 62
     7
370
    18
100
AcDbMText
 10
38.2975149162
 20
14.6102733187
 30
0.0
 40
0.5
 41
0.0
 71
     1
 72
     1
  1
%%c
  7
SLDTEXTSTYLE0
 73
     1
 44
1.0
  0
MTEXT
  5
1CD
330
1C0
100
AcDbEntity
  8
0
  6
Continuous
 62
     7
370
    18
100
AcDbMText
 10
39.0515773985
 20
14.6102733187
 30
0.0
 40
0.5
 41
0.0
 71
     1
 72
     1
  1
5"
  7
SLDTEXTSTYLE0
 73
     1
 44
1.0
  0
MTEXT
  5
1CE
330
1C0
100
AcDbEntity
  8
0
  6
Continuous
 62
     7
370
    18
100
AcDbMText
 10
37.7832267473
 20
13.714960799
 30
0.0
 40
0.5
 41
0.0
 71
     1
 72
     1
  1
127mm
  7
SLDTEXTSTYLE0
 73
     1
 44
1.0
  0
ENDBLK
  5
1C2
330
1C0
100
AcDbEntity
  8
0
100
AcDbBlockEnd
  0
BLOCK
  5
1D1
330
1D0
100
AcDbEntity
  8
0
100
AcDbBlockBegin
  2
_D_5
 70
     0
 10
0.0
 20
0.0
 30
0.0
  3
_D_5
  1

  0
SOLID
  5
1D3
330
1D0
100
AcDbEntity
  8
0
  6
Continuous
 62
     7
370
    18
100
AcDbTrace
 10
33.1670184458
 20
8.4039630268
 30
0.0
 11
33.5773516558
 21
8.0746809945
 31
0.0
 12
33.6573516558
 22
8.2132450591
 32
0.0
 13
33.6573516558
 23
8.2132450591
 33
0.0
  0
LINE
  5
1D4
330
1D0
100
AcDbEntity
  8
0
  6
Continuous
 62
     7
370
     0
100
AcDbLine
 10
37.9679489334
 20
6.3854061217
 30
0.0
 11
37.8156051849
 21
6.3854061217
 31
0.0
  0
LINE
  5
1D5
330
1D0
100
AcDbEntity
  8
0
  6
Continuous
 62
     7
370
     0
100
AcDbLine
 10
37.8156051849
 20
6.3854061217
 30
0.0
 11
37.8156051849
 21
5.5916560978
 31
0.0
  0
LINE
  5
1D6
330
1D0
100
AcDbEntity
  8
0
  6
Continuous
 62
     7
370
     0
100
AcDbLine
 10
37.8156051849
 20
5.5916560978
 30
0.0
 11
37.9679489334
 21
5.5916560978
 31
0.0
  0
LINE
  5
1D7
330
1D0
100
AcDbEntity
  8
0
  6
Continuous
 62
     7
370
     0
100
AcDbLine
 10
39.9568378642
 20
6.3854061217
 30
0.0
 11
40.1091816127
 21
6.3854061217
 31
0.0
  0
LINE
  5
1D8
330
1D0
100
AcDbEntity
  8
0
  6
Continuous
 62
     7
370
     0
100
AcDbLine
 10
40.1091816127
 20
6.3854061217
 30
0.0
 11
40.1091816127
 21
5.5916560978
 31
0.0
  0
LINE
  5
1D9
330
1D0
100
AcDbEntity
  8
0
  6
Continuous
 62
     7
370
     0
100
AcDbLine
 10
40.1091816127
 20
5.5916560978
 30
0.0
 11
39.9568378642
 21
5.5916560978
 31
0.0
  0
LINE
  5
1DA
330
1D0
100
AcDbEntity
  8
0
  6
Continuous
 62
     7
370
     0
100
AcDbLine
 10
33.1670184458
 20
8.4039630268
 30
0.0
 11
36.6632614365
 21
6.385406195
 31
0.0
  0
LINE
  5
1DB
330
1D0
100
AcDbEntity
  8
0
  6
Continuous
 62
     7
370
     0
100
AcDbLine
 10
36.6632614365
 20
6.385406195
 30
0.0
 11
37.6632614365
 21
6.385406195
 31
0.0
  0
MTEXT
  5
1DC
330
1D0
100
AcDbEntity
  8
0
  6
Continuous
 62
     7
370
    18
100
AcDbMText
 10
37.6898759957
 20
7.1315025425
 30
0.0
 40
0.5
 41
0.0
 71
     1
 72
     1
  1
%%c
  7
SLDTEXTSTYLE0
 73
     1
 44
1.0
  0
MTEXT
  5
1DD
330
1D0
100
AcDbEntity
  8
0
  6
Continuous
 62
     7
370
    18
100
AcDbMText
 10
38.443938478
 20
7.1315025425
 30
0.0
 40
0.5
 41
0.0
 71
     1
 72
     1
  1
1 3/4"
  7
SLDTEXTSTYLE0
 73
     1
 44
1.0
  0
MTEXT
  5
1DE
330
1D0
100
AcDbEntity
  8
0
  6
Continuous
 62
     7
370
    18
100
AcDbMText
 10
37.9679489334
 20
6.2361900227
 30
0.0
 40
0.5
 41
0.0
 71
     1
 72
     1
  1
45mm
  7
SLDTEXTSTYLE0
 73
     1
 44
1.0
  0
ENDBLK
  5
1D2
330
1D0
100
AcDbEntity
  8
0
100
AcDbBlockEnd
  0
ENDSEC
  0
SECTION
  2
ENTITIES
  0
LINE
  5
71
330
1F
100
AcDbEntity
  8
0
  6
Continuous
 62
     7
370
    25
100
AcDbLine
 10
32.9546088685
 20
22.556413416
 30
0.0
 11
32.869116303
 21
22.5070596084
 31
0.0
  0
LINE
  5
72
330
1F
100
AcDbEntity
  8
0
  6
Continuous
 62
     7
370
    25
100
AcDbLine
 10
33.9790260962
 20
20.5844311339
 30
0.0
 11
34.0645186617
 21
20.6337849415
 31
0.0
  0
LINE
  5
73
330
1F
100
AcDbEntity
  8
0
  6
Continuous
 62
     7
370
    25
100
AcDbLine
 10
31.0160467315
 20
23.0409193361
 30
0.0
 11
30.7593163276
 21
22.8738158112
 31
0.0
  0
LINE
  5
74
330
1F
100
AcDbEntity
  8
0
  6
Continuous
 62
     7
370
    25
100
AcDbLine
 10
33.2415576369
 20
18.5739818509
 30
0.0
 11
33.5146517585
 21
18.7127395141
 31
0.0
  0
LINE
  5
75
330
1F
100
AcDbEntity
  8
0
  6
Continuous
 62
     7
370
    25
100
AcDbLine
 10
34.0625807416
 20
20.683989198
 30
0.0
 11
34.0626331536
 21
20.6843848586
 31
0.0
  0
LINE
  5
76
330
1F
100
AcDbEntity
  8
0
  6
Continuous
 62
     7
370
    25
100
AcDbLine
 10
34.0578876218
 20
20.7038817774
 30
0.0
 11
34.0455346664
 21
20.70264148
 31
0.0
  0
LINE
  5
77
330
1F
100
AcDbEntity
  8
0
  6
Continuous
 62
     7
370
    25
100
AcDbLine
 10
33.2879492154
 20
22.4252843972
 30
0.0
 11
33.2802123228
 21
22.4208165323
 31
0.0
  0
LINE
  5
78
330
1F
100
AcDbEntity
  8
0
  6
Continuous
 62
     7
370
    25
100
AcDbLine
 10
34.3193249562
 20
23.3442472439
 30
0.0
 11
32.9616799363
 21
22.5604954565
 31
0.0
  0
LINE
  5
79
330
1F
100
AcDbEntity
  8
0
  6
Continuous
 62
     7
370
    25
100
AcDbLine
 10
34.0715897295
 20
20.637866982
 30
0.0
 11
35.4292347494
 21
21.4216187694
 31
0.0
  0
LINE
  5
7A
330
1F
100
AcDbEntity
  8
0
  6
Continuous
 62
     7
370
    25
100
AcDbLine
 10
35.6591683799
 20
21.9298265046
 30
0.0
 11
35.6591683799
 21
21.9543187479
 31
0.0
  0
LINE
  5
7B
330
1F
100
AcDbEntity
  8
0
  6
Continuous
 62
     7
370
    25
100
AcDbLine
 10
34.8956171749
 20
23.2769715413
 30
0.0
 11
34.8744074192
 21
23.2892196533
 31
0.0
  0
LINE
  5
7C
330
1F
100
AcDbEntity
  8
0
  6
Continuous
 62
     7
370
    25
100
AcDbLine
 10
36.7679131006
 20
23.5741610292
 30
0.0
 11
36.41435971
 21
23.3700590012
 31
0.0
  0
LINE
  5
7D
330
1F
100
AcDbEntity
  8
0
  6
Continuous
 62
     7
370
    25
100
AcDbLine
 10
36.5493487389
 20
23.1362258084
 30
0.0
 11
36.9029021295
 21
23.3403278364
 31
0.0
  0
LINE
  5
7E
330
1F
100
AcDbEntity
  8
0
  6
Continuous
 62
     7
370
    25
100
AcDbLine
 10
36.9653131198
 20
23.6404875276
 30
0.0
 11
36.8371097482
 21
23.5664772965
 31
0.0
  0
LINE
  5
7F
330
1F
100
AcDbEntity
  8
0
  6
Continuous
 62
     7
370
    25
100
AcDbLine
 10
36.4763262574
 20
23.3582014206
 30
0.0
 11
35.413261006
 21
22.7445069138
 31
0.0
  0
LINE
  5
80
330
1F
100
AcDbEntity
  8
0
  6
Continuous
 62
     7
370
    25
100
AcDbLine
 10
35.5026347418
 20
22.5796007868
 30
0.0
 11
36.5700686386
 21
23.1958172589
 31
0.0
  0
LINE
  5
81
330
1F
100
AcDbEntity
  8
0
  6
Continuous
 62
     7
370
    25
100
AcDbLine
 10
36.9308521293
 20
23.4040931348
 30
0.0
 11
37.0590555009
 21
23.4781033659
 31
0.0
  0
LINE
  5
82
330
1F
100
AcDbEntity
  8
0
  6
Continuous
 62
     7
370
    25
100
AcDbLine
 10
36.8359783695
 20
23.6814712312
 30
0.0
 11
35.3588184255
 21
22.8287249468
 31
0.0
  0
LWPOLYLINE
  5
83
330
1F
100
AcDbEntity
  8
0
  6
Continuous
 62
     7
370
    25
100
AcDbPolyline
 90
       78
 70
   128
 43
0.0
 10
34.2132872918
 20
20.7874568396
 10
34.2255814216
 20
20.810483039
 10
34.2369089611
 20
20.8345684334
 10
34.2472546188
 20
20.8596805086
 10
34.2566044286
 20
20.8857853644
 10
34.2649457685
 20
20.9128477606
 10
34.2722673782
 20
20.9408311641
 10
34.2785593739
 20
20.9696977987
 10
34.2838132616
 20
20.9994086957
 10
34.2880219489
 20
21.0299237469
 10
34.2911797542
 20
21.0612017584
 10
34.2932824147
 20
21.0932005064
 10
34.2943270918
 20
21.125876794
 10
34.2943123753
 20
21.1591865097
 10
34.293238285
 20
21.193084687
 10
34.2911062709
 20
21.2275255651
 10
34.2879192112
 20
21.2624626502
 10
34.2836814082
 20
21.2978487791
 10
34.2783985828
 20
21.333636182
 10
34.2720778664
 20
21.3697765476
 10
34.2647277919
 20
21.4062210883
 10
34.2563582814
 20
21.4429206054
 10
34.2469806334
 20
21.4798255565
 10
34.2366075073
 20
21.5168861216
 10
34.2252529063
 20
21.5540522706
 10
34.2129321585
 20
21.5912738311
 10
34.1996618965
 20
21.6285005555
 10
34.1854600344
 20
21.6656821897
 10
34.1703457442
 20
21.7027685401
 10
34.1543394292
 20
21.739709542
 10
34.1374626975
 20
21.7764553266
 10
34.1197383317
 20
21.812956289
 10
34.1011902589
 20
21.8491631545
 10
34.0818435181
 20
21.8850270456
 10
34.0617242265
 20
21.9204995477
 10
34.0408595443
 20
21.9555327745
 10
34.0192776377
 20
21.990079433
 10
33.9970076413
 20
22.0240928867
 10
33.9740796187
 20
22.057527219
 10
33.9505245214
 20
22.0903372952
 10
33.9263741478
 20
22.1224788232
 10
33.9016610998
 20
22.1539084134
 10
33.8764187388
 20
22.1845836375
 10
33.8506811409
 20
22.2144630852
 10
33.8244830505
 20
22.2435064207
 10
33.7978598338
 20
22.271674437
 10
33.7708474311
 20
22.2989291084
 10
33.7434823076
 20
22.3252336425
 10
33.7158014051
 20
22.3505525294
 10
33.6878420915
 20
22.3748515897
 10
33.6596421105
 20
22.3980980209
 10
33.6312395308
 20
22.4202604414
 10
33.6026726946
 20
22.441308933
 10
33.5739801656
 20
22.4612150812
 10
33.5452006776
 20
22.4799520136
 10
33.5163730814
 20
22.4974944362
 10
33.4875362929
 20
22.5138186677
 10
33.4587292405
 20
22.528902671
 10
33.4299908123
 20
22.5427260834
 10
33.4013598038
 20
22.5552702441
 10
33.3728748656
 20
22.5665182189
 10
33.344574451
 20
22.5764548237
 10
33.3164967643
 20
22.5850666444
 10
33.2886797089
 20
22.5923420556
 10
33.2611608366
 20
22.5982712358
 10
33.2339772966
 20
22.6028461808
 10
33.2071657853
 20
22.6060607147
 10
33.1807624972
 20
22.6079104981
 10
33.1548030753
 20
22.6083930337
 10
33.1293225636
 20
22.6075076703
 10
33.1043553597
 20
22.6052556029
 10
33.0799351682
 20
22.6016398719
 10
33.056094955
 20
22.5966653582
 10
33.0328669035
 20
22.5903387772
 10
33.0102823703
 20
22.5826686695
 10
32.9883718435
 20
22.5736653894
 10
32.9671649013
 20
22.5633410909
 10
32.9546088685
 20
22.556413416
  0
ARC
  5
84
330
1F
100
AcDbEntity
  8
0
  6
Continuous
 62
     7
370
    25
100
AcDbCircle
 10
33.8578349891
 20
20.9827207345
 30
0.0
 40
0.4055543467642899
100
AcDbArc
 50
300.6393533577
 51
331.2182809482
  0
SPLINE
  5
85
330
1F
100
AcDbEntity
  8
0
  6
Continuous
 62
     7
370
    25
100
AcDbSpline
210
0.0
220
0.0
230
1.0
 70
    11
 71
     3
 72
    44
 73
    40
 74
     0
 42
0.00000001
 43
0.00000001
 40
0.0
 40
0.0
 40
0.0
 40
0.0
 40
0.0268132602862637
 40
0.053626664432214
 40
0.0804383625137265
 40
0.1072502668899068
 40
0.1340938280604559
 40
0.1609373368108822
 40
0.1878020595931766
 40
0.2146665517760571
 40
0.2414968427518517
 40
0.2683270849932148
 40
0.2951211887164666
 40
0.3219154992981841
 40
0.3487279238935017
 40
0.3755404890686893
 40
0.4023972479766807
 40
0.4292538607291181
 40
0.4561119243343699
 40
0.482969781076289
 40
0.5097838560717288
 40
0.5365979871666194
 40
0.5633915041607767
 40
0.5901852501849745
 40
0.617013651591511
 40
0.6438420984067943
 40
0.6707064229963743
 40
0.6975705372491997
 40
0.7244158069054033
 40
0.7512609385190697
 40
0.7780620098939787
 40
0.8048632293856229
 40
0.8316638205822762
 40
0.8584646143373601
 40
0.8853091099274686
 40
0.9121535471252123
 40
0.9390180776821767
 40
0.965882376877875
 40
1.0
 40
1.0
 40
1.0
 40
1.0
 10
34.05648302703408
 20
20.72441287520106
 30
0.0
 10
34.05913133380068
 20
20.72585819562804
 30
0.0
 10
34.06442796154271
 20
20.72874884423647
 30
0.0
 10
34.07148636449383
 20
20.73152970567892
 30
0.0
 10
34.07759849368329
 20
20.73303037261197
 30
0.0
 10
34.08257258984399
 20
20.7331760735792
 30
0.0
 10
34.08621303462287
 20
20.7319534518031
 30
0.0
 10
34.08844940230994
 20
20.72946302022935
 30
0.0
 10
34.08913652954612
 20
20.7257468999624
 30
0.0
 10
34.08830221573938
 20
20.72097342930154
 30
0.0
 10
34.08589469692581
 20
20.71525417436691
 30
0.0
 10
34.08204580470619
 20
20.70879379322771
 30
0.0
 10
34.07680630377453
 20
20.7017488716585
 30
0.0
 10
34.07038855856696
 20
20.69432716531785
 30
0.0
 10
34.0629365690169
 20
20.68671120882827
 30
0.0
 10
34.05471069279783
 20
20.6790951572643
 30
0.0
 10
34.04593470373419
 20
20.67167891528284
 30
0.0
 10
34.03689062142207
 20
20.66463963101588
 30
0.0
 10
34.02785208818399
 20
20.65818023240445
 30
0.0
 10
34.01908572733229
 20
20.65244854510725
 30
0.0
 10
34.01086709215267
 20
20.64762940624139
 30
0.0
 10
34.00340211056591
 20
20.64382138348302
 30
0.0
 10
33.9969302382888
 20
20.64117693921572
 30
0.0
 10
33.99157423259629
 20
20.63973526190959
 30
0.0
 10
33.9875204403296
 20
20.63960555736992
 30
0.0
 10
33.98481041323409
 20
20.64076220232035
 30
0.0
 10
33.98356316413764
 20
20.64325041358277
 30
0.0
 10
33.98374091219407
 20
20.6469675676207
 30
0.0
 10
33.98538244674486
 20
20.65187456981353
 30
0.0
 10
33.98837403975134
 20
20.65779024925582
 30
0.0
 10
33.99267815032476
 20
20.6645911644184
 30
0.0
 10
33.99812516470949
 20
20.67204374499695
 30
0.0
 10
34.00461475275291
 20
20.67995490487704
 30
0.0
 10
34.01194466029268
 20
20.68807390855332
 30
0.0
 10
34.01995624704959
 20
20.69615415383123
 30
0.0
 10
34.02842594954516
 20
20.70396178127653
 30
0.0
 10
34.03713033755908
 20
20.71120271798489
 30
0.0
 10
34.04666834183746
 20
20.71838491012193
 30
0.0
 10
34.05296194048154
 20
20.72225030081848
 30
0.0
 10
34.05648302703408
 20
20.72441287520106
 30
0.0
  0
SPLINE
  5
86
330
1F
100
AcDbEntity
  8
0
  6
Continuous
 62
     7
370
    25
100
AcDbSpline
210
0.0
220
0.0
230
1.0
 70
    11
 71
     3
 72
    44
 73
    40
 74
     0
 42
0.00000001
 43
0.00000001
 40
0.0
 40
0.0
 40
0.0
 40
0.0
 40
0.0268132602862636
 40
0.0536266644322146
 40
0.0804383625137269
 40
0.1072502668899072
 40
0.1340938280604565
 40
0.1609373368108828
 40
0.1878020595931768
 40
0.2146665517760572
 40
0.2414968427518517
 40
0.2683270849932151
 40
0.2951211887164664
 40
0.321915499298184
 40
0.3487279238935013
 40
0.3755404890686885
 40
0.40239724797668
 40
0.4292538607291171
 40
0.4561119243343688
 40
0.4829697810762879
 40
0.5097838560717283
 40
0.5365979871666184
 40
0.5633915041607757
 40
0.5901852501849735
 40
0.6170136515915103
 40
0.6438420984067932
 40
0.6707064229963733
 40
0.6975705372491993
 40
0.7244158069054033
 40
0.7512609385190695
 40
0.7780620098939786
 40
0.804863229385623
 40
0.8316638205822764
 40
0.85846461433736
 40
0.8853091099274685
 40
0.9121535471252122
 40
0.9390180776821768
 40
0.9658823768778757
 40
1.0
 40
1.0
 40
1.0
 40
1.0
 10
33.23406571678884
 20
22.44920120287557
 30
0.0
 10
33.23689957799918
 20
22.45070269867133
 30
0.0
 10
33.24256731562421
 20
22.45370569831873
 30
0.0
 10
33.25252827835995
 20
22.45734941579486
 30
0.0
 10
33.26323651710122
 20
22.46018974900627
 30
0.0
 10
33.2744920610816
 20
22.46210856831736
 30
0.0
 10
33.28596045169348
 20
22.46300346318392
 30
0.0
 10
33.29732909398859
 20
22.4628608351834
 30
0.0
 10
33.30825943917547
 20
22.46161495464329
 30
0.0
 10
33.31846199895445
 20
22.45932607606933
 30
0.0
 10
33.32760861179195
 20
22.4560004713761
 30
0.0
 10
33.33548510990296
 20
22.45177250748709
 30
0.0
 10
33.34181567366611
 20
22.44672489102474
 30
0.0
 10
33.34649017474557
 20
22.44104381085047
 30
0.0
 10
33.34930568823332
 20
22.43487871891329
 30
0.0
 10
33.35025763845455
 20
22.42843915691248
 30
0.0
 10
33.34923510339792
 20
22.42192503987541
 30
0.0
 10
33.3463405143064
 20
22.4155434546968
 30
0.0
 10
33.34157731161638
 20
22.40951272810695
 30
0.0
 10
33.33515542012783
 20
22.4040036049882
 30
0.0
 10
33.32719339714912
 20
22.39921032387244
 30
0.0
 10
33.31798063451751
 20
22.3952348426659
 30
0.0
 10
33.3077285667331
 20
22.39221909173832
 30
0.0
 10
33.29676093274627
 20
22.39018857063532
 30
0.0
 10
33.28536161387786
 20
22.38922428184286
 30
0.0
 10
33.27385897344013
 20
22.38928665250728
 30
0.0
 10
33.26258693133875
 20
22.39039309383957
 30
0.0
 10
33.25185318708986
 20
22.39245087679848
 30
0.0
 10
33.24199769886258
 20
22.39541816973942
 30
0.0
 10
33.23326441753592
 20
22.399164432911
 30
0.0
 10
33.22595023371445
 20
22.40360565342932
 30
0.0
 10
33.22019788335561
 20
22.40859657357447
 30
0.0
 10
33.21623423376117
 20
22.41402782274981
 30
0.0
 10
33.21409316497379
 20
22.41975527416753
 30
0.0
 10
33.21391706666942
 20
22.42564822908544
 30
0.0
 10
33.21562489241384
 20
22.4315675254062
 30
0.0
 10
33.21928358725751
 20
22.43735061563638
 30
0.0
 10
33.22505768308216
 20
22.4434161900664
 30
0.0
 10
33.23083402206671
 20
22.44712578930901
 30
0.0
 10
33.23406571678884
 20
22.44920120287557
 30
0.0
  0
LWPOLYLINE
  5
87
330
1F
100
AcDbEntity
  8
0
  6
Continuous
 62
     7
370
    25
100
AcDbPolyline
 90
       70
 70
   128
 43
0.0
 10
31.649003472
 20
21.5322737379
 10
31.6475535782
 20
21.5306871686
 10
31.6333484076
 20
21.5139585792
 10
31.6200415107
 20
21.4960589949
 10
31.607655326
 20
21.4770185985
 10
31.5962107393
 20
21.4568694963
 10
31.585727049
 20
21.4356456643
 10
31.5762219327
 20
21.4133828906
 10
31.5677114184
 20
21.3901187154
 10
31.5602098566
 20
21.3658923673
 10
31.5537298967
 20
21.3407446974
 10
31.5482824654
 20
21.3147181104
 10
31.5438767482
 20
21.2878564929
 10
31.5405201742
 20
21.2602051398
 10
31.5382184034
 20
21.2318106775
 10
31.536975317
 20
21.2027209854
 10
31.5367930112
 20
21.1729851154
 10
31.5376717934
 20
21.1426532089
 10
31.5396101817
 20
21.1117764123
 10
31.5426049076
 20
21.0804067909
 10
31.5466509214
 20
21.048597241
 10
31.5517414004
 20
21.0164014007
 10
31.5578677611
 20
20.9838735594
 10
31.565019673
 20
20.9510685664
 10
31.5731850763
 20
20.9180417384
 10
31.5823502023
 20
20.8848487661
 10
31.5924995966
 20
20.8515456203
 10
31.603616145
 20
20.8181884578
 10
31.6156811024
 20
20.7848335261
 10
31.6286741247
 20
20.7515370693
 10
31.6425733026
 20
20.7183552327
 10
31.657355199
 20
20.6853439684
 10
31.6729948882
 20
20.6525589408
 10
31.6894659982
 20
20.620055433
 10
31.7067407551
 20
20.5878882532
 10
31.7247900295
 20
20.5561116426
 10
31.7435833865
 20
20.5247791837
 10
31.7630891361
 20
20.49394371
 10
31.7832743872
 20
20.4636572173
 10
31.8041051029
 20
20.4339707753
 10
31.825546158
 20
20.4049344422
 10
31.8475613979
 20
20.3765971798
 10
31.8701137
 20
20.349006771
 10
31.893165036
 20
20.3222097396
 10
31.9166765361
 20
20.2962512714
 10
31.9406085546
 20
20.2711751383
 10
31.9649207368
 20
20.2470236243
 10
31.9895720867
 20
20.2238374544
 10
32.0145210367
 20
20.2016557255
 10
32.0397255172
 20
20.1805158413
 10
32.0651430276
 20
20.1604534482
 10
32.0907307084
 20
20.1415023761
 10
32.1164454129
 20
20.1236945806
 10
32.1422437803
 20
20.1070600899
 10
32.1680823087
 20
20.0916269534
 10
32.1939174285
 20
20.0774211948
 10
32.2197055759
 20
20.0644667683
 10
32.2454032662
 20
20.052785518
 10
32.2709671673
 20
20.0423971411
 10
32.2963541726
 20
20.0333191548
 10
32.321521474
 20
20.0255668666
 10
32.3464266337
 20
20.0191533486
 10
32.3710276559
 20
20.0140894154
 10
32.3952830577
 20
20.0103836061
 10
32.4191519391
 20
20.0080421693
 10
32.4425940517
 20
20.0070690534
 10
32.4655698669
 20
20.0074658992
 10
32.4880406421
 20
20.0092320376
 10
32.5099684866
 20
20.0123644903
 10
32.5247269421
 20
20.0153118284
  0
SPLINE
  5
88
330
1F
100
AcDbEntity
  8
0
  6
Continuous
 62
     7
370
    25
100
AcDbSpline
210
0.0
220
0.0
230
1.0
 70
     8
 71
     3
 72
     9
 73
     5
 74
     0
 42
0.00000001
 43
0.00000001
 40
0.0
 40
0.0
 40
0.0
 40
0.0
 40
0.5981909995907676
 40
1.0
 40
1.0
 40
1.0
 40
1.0
 10
33.25221100617072
 20
22.39256199366664
 30
0.0
 10
33.25347152008923
 20
22.39307592161746
 30
0.0
 10
33.25557872985896
 20
22.39393505850045
 30
0.0
 10
33.25795990618618
 20
22.39452172918678
 30
0.0
 10
33.25891668426602
 20
22.39475745874882
 30
0.0
  0
LWPOLYLINE
  5
89
330
1F
100
AcDbEntity
  8
0
  6
Continuous
 62
     7
370
    25
100
AcDbPolyline
 90
       93
 70
   128
 43
0.0
 10
34.0717136561
 20
19.8786011236
 10
34.0711078866
 20
19.9323871935
 10
34.069290993
 20
19.9868358078
 10
34.0662642206
 20
20.0419096501
 10
34.0620296438
 20
20.0975709756
 10
34.0565901648
 20
20.1537816368
 10
34.0499495115
 20
20.2105031096
 10
34.0421122351
 20
20.2676965201
 10
34.0330837069
 20
20.3253226707
 10
34.0228701145
 20
20.3833420674
 10
34.0114784579
 20
20.4417149464
 10
33.9989165443
 20
20.5004013021
 10
33.9851929831
 20
20.5593609137
 10
33.9703171796
 20
20.6185533732
 10
33.9542993291
 20
20.6779381131
 10
33.9371504093
 20
20.7374744339
 10
33.9188821732
 20
20.7971215326
 10
33.8995071411
 20
20.85683853
 10
33.8790385915
 20
20.916584499
 10
33.8574905526
 20
20.9763184927
 10
33.8348777924
 20
21.0359995724
 10
33.8112158085
 20
21.0955868357
 10
33.7865208176
 20
21.1550394445
 10
33.7608097445
 20
21.2143166528
 10
33.7341002102
 20
21.2733778352
 10
33.7064105202
 20
21.3321825139
 10
33.6777596515
 20
21.3906903873
 10
33.64816724
 20
21.4488613568
 10
33.6176535669
 20
21.5066555551
 10
33.5862395448
 20
21.5640333729
 10
33.5539467032
 20
21.6209554863
 10
33.520797174
 20
21.6773828837
 10
33.4868136763
 20
21.7332768926
 10
33.4520195007
 20
21.7885992061
 10
33.4164384933
 20
21.843311909
 10
33.3800950396
 20
21.8973775039
 10
33.3430140476
 20
21.950758937
 10
33.3052209308
 20
22.0034196233
 10
33.2667415906
 20
22.0553234718
 10
33.2276023988
 20
22.1064349102
 10
33.1878301797
 20
22.1567189093
 10
33.1474521909
 20
22.206141007
 10
33.1064961056
 20
22.2546673317
 10
33.064989993
 20
22.302264626
 10
33.0229622994
 20
22.3489002691
 10
32.9804418284
 20
22.3945422993
 10
32.9374577214
 20
22.4391594357
 10
32.8940394376
 20
22.4827211
 10
32.8502167337
 20
22.5251974372
 10
32.8060196437
 20
22.5665593362
 10
32.7614784579
 20
22.6067784496
 10
32.7166237027
 20
22.6458272131
 10
32.6714861193
 20
22.6836788649
 10
32.6260966428
 20
22.7203074631
 10
32.5804863808
 20
22.7556879044
 10
32.5346865923
 20
22.7897959409
 10
32.4887286662
 20
22.8226081964
 10
32.4426440998
 20
22.8541021833
 10
32.3964644771
 20
22.8842563171
 10
32.3502214473
 20
22.9130499316
 10
32.3039467032
 20
22.9404632931
 10
32.257671959
 20
22.9664776139
 10
32.2114289293
 20
22.9910750651
 10
32.1652493066
 20
23.0142387888
 10
32.1191647402
 20
23.0359529098
 10
32.0732068141
 20
23.0562025462
 10
32.0274070256
 20
23.07497382
 10
31.9817967635
 20
23.0922538663
 10
31.936407287
 20
23.1080308422
 10
31.8912697036
 20
23.1222939349
 10
31.8464149484
 20
23.1350333693
 10
31.8018737627
 20
23.1462404144
 10
31.7576766726
 20
23.1559073894
 10
31.7138539687
 20
23.1640276691
 10
31.670435685
 20
23.1705956882
 10
31.627451578
 20
23.1756069454
 10
31.584931107
 20
23.1790580061
 10
31.5429034133
 20
23.1809465052
 10
31.5013973008
 20
23.1812711484
 10
31.4604412155
 20
23.1800317132
 10
31.4200632267
 20
23.1772290491
 10
31.3802910075
 20
23.1728650768
 10
31.3411518158
 20
23.1669427873
 10
31.3026724756
 20
23.1594662393
 10
31.2648793587
 20
23.1504405569
 10
31.2277983667
 20
23.1398719259
 10
31.191454913
 20
23.1277675894
 10
31.1558739057
 20
23.1141358433
 10
31.12107973
 20
23.0989860299
 10
31.0870962323
 20
23.0823285322
 10
31.0539467032
 20
23.0641747665
 10
31.0216538616
 20
23.0445371744
 10
31.0160467315
 20
23.0409193361
  0
LWPOLYLINE
  5
8A
330
1F
100
AcDbEntity
  8
0
  6
Continuous
 62
     7
370
    25
100
AcDbPolyline
 90
       33
 70
   128
 43
0.0
 10
33.5146517585
 20
18.7127395141
 10
33.520797174
 20
18.7158939946
 10
33.5539467032
 20
18.7340477603
 10
33.5862395448
 20
18.7536853524
 10
33.6176535669
 20
18.7747933122
 10
33.64816724
 20
18.7973571735
 10
33.6777596515
 20
18.821361472
 10
33.7064105202
 20
18.8467897565
 10
33.7341002102
 20
18.8736245996
 10
33.7608097445
 20
18.9018476101
 10
33.7865208176
 20
18.9314394453
 10
33.8112158085
 20
18.9623798245
 10
33.8348777924
 20
18.9946475427
 10
33.8574905526
 20
19.0282204852
 10
33.8790385915
 20
19.0630756427
 10
33.8995071411
 20
19.0991891274
 10
33.9188821732
 20
19.1365361888
 10
33.9371504093
 20
19.1750912311
 10
33.9542993291
 20
19.2148278307
 10
33.9703171796
 20
19.2557187539
 10
33.9851929831
 20
19.2977359763
 10
33.9989165443
 20
19.3408507014
 10
34.0114784579
 20
19.3850333804
 10
34.0228701145
 20
19.4302537327
 10
34.0330837069
 20
19.4764807666
 10
34.0421122351
 20
19.5236828004
 10
34.0499495115
 20
19.5718274842
 10
34.0565901648
 20
19.6208818219
 10
34.0620296438
 20
19.6708121943
 10
34.0662642206
 20
19.7215843815
 10
34.069290993
 20
19.7731635868
 10
34.0711078866
 20
19.8255144604
 10
34.0717136561
 20
19.8786011236
  0
LWPOLYLINE
  5
8B
330
1F
100
AcDbEntity
  8
0
  6
Continuous
 62
     7
370
    25
100
AcDbPolyline
 90
      241
 70
   128
 43
0.0
 10
33.7949712574
 20
19.7322080679
 10
33.7943694551
 20
19.7856418852
 10
33.7925644606
 20
19.8397339078
 10
33.789557511
 20
19.8944470638
 10
33.785350667
 20
19.9497438553
 10
33.7799468119
 20
20.0055863849
 10
33.7733496492
 20
20.0619363808
 10
33.7655637002
 20
20.1187552236
 10
33.7565943011
 20
20.1760039724
 10
33.746447599
 20
20.2336433918
 10
33.735130548
 20
20.2916339787
 10
33.7226509042
 20
20.3499359891
 10
33.7090172205
 20
20.4085094658
 10
33.6942388407
 20
20.4673142655
 10
33.6783258934
 20
20.5263100863
 10
33.6612892843
 20
20.5854564954
 10
33.6431406895
 20
20.6447129568
 10
33.6238925472
 20
20.7040388591
 10
33.603558049
 20
20.7633935433
 10
33.5821511313
 20
20.8227363306
 10
33.5596864652
 20
20.8820265505
 10
33.536179447
 20
20.9412235684
 10
33.5116461871
 20
21.0002868136
 10
33.4861034994
 20
21.0591758072
 10
33.4595688897
 20
21.1178501895
 10
33.4320605433
 20
21.1762697481
 10
33.4035973132
 20
21.2343944451
 10
33.3741987066
 20
21.2921844447
 10
33.3438848719
 20
21.3496001407
 10
33.3126765846
 20
21.406602183
 10
33.2805952334
 20
21.4631515054
 10
33.2476628052
 20
21.5192093518
 10
33.2139018703
 20
21.574737303
 10
33.1793355666
 20
21.6296973028
 10
33.1439875843
 20
21.6840516844
 10
33.107882149
 20
21.7377631961
 10
33.0710440057
 20
21.7907950266
 10
33.0334984013
 20
21.8431108307
 10
32.9952710677
 20
21.8946747535
 10
32.9563882041
 20
21.9454514559
 10
32.9168764588
 20
21.995406138
 10
32.8767629112
 20
22.0445045633
 10
32.8360750531
 20
22.0927130823
 10
32.7948407699
 20
22.1399986552
 10
32.7530883216
 20
22.1863288749
 10
32.7108463232
 20
22.2316719889
 10
32.6681437252
 20
22.2759969214
 10
32.6250097939
 20
22.3192732942
 10
32.5814740911
 20
22.3614714479
 10
32.537566454
 20
22.4025624619
 10
32.4933169748
 20
22.4425181747
 10
32.4487559797
 20
22.4813112024
 10
32.4039140088
 20
22.5189149583
 10
32.3588217943
 20
22.5553036706
 10
32.3135102404
 20
22.5904524004
 10
32.2680104012
 20
22.6243370585
 10
32.22235346
 20
22.656934422
 10
32.1765707079
 20
22.6882221503
 10
32.1306935221
 20
22.7181788004
 10
32.0847533445
 20
22.7467838414
 10
32.0387816602
 20
22.774017669
 10
31.9928099759
 20
22.7998616183
 10
31.9468697983
 20
22.8242979773
 10
31.9009926125
 20
22.8473099985
 10
31.8552098604
 20
22.8688819106
 10
31.8095529193
 20
22.8889989293
 10
31.7640530801
 20
22.9076472674
 10
31.7187415261
 20
22.9248141442
 10
31.6736493117
 20
22.9404877945
 10
31.6288073407
 20
22.9546574762
 10
31.5842463457
 20
22.9673134783
 10
31.5399968664
 20
22.9784471268
 10
31.4960892294
 20
22.9880507914
 10
31.4525535266
 20
22.9961178903
 10
31.4094195953
 20
23.0026428945
 10
31.3667169973
 20
23.0076213322
 10
31.3244749989
 20
23.0110497914
 10
31.2827225505
 20
23.0129259225
 10
31.2414882674
 20
23.0132484396
 10
31.2008004093
 20
23.0120171216
 10
31.1606868616
 20
23.0092328125
 10
31.1211751163
 20
23.0048974206
 10
31.0822922527
 20
22.9990139169
 10
31.0440649192
 20
22.9915863339
 10
31.0065193148
 20
22.982619762
 10
30.9696811714
 20
22.9721203464
 10
30.9335757362
 20
22.960095283
 10
30.8982277538
 20
22.946552813
 10
30.8636614502
 20
22.9315022179
 10
30.8299005152
 20
22.9149538126
 10
30.796968087
 20
22.8969189384
 10
30.7648867358
 20
22.8774099557
 10
30.7336784485
 20
22.8564402349
 10
30.7033646138
 20
22.8340241475
 10
30.6739660072
 20
22.8101770565
 10
30.6455027771
 20
22.7849153055
 10
30.6179944308
 20
22.7582562076
 10
30.591459821
 20
22.7302180336
 10
30.5659171333
 20
22.7008199995
 10
30.5413838735
 20
22.6700822532
 10
30.5178768552
 20
22.6380258609
 10
30.4954121892
 20
22.6046727924
 10
30.4740052714
 20
22.5700459061
 10
30.4536707733
 20
22.5341689338
 10
30.434422631
 20
22.4970664636
 10
30.4162740362
 20
22.4587639237
 10
30.3992374271
 20
22.4192875647
 10
30.3833244797
 20
22.3786644419
 10
30.3685461
 20
22.3369223963
 10
30.3549124163
 20
22.2940900357
 10
30.3424327725
 20
22.2501967153
 10
30.3311157214
 20
22.2052725174
 10
30.3209690193
 20
22.1593482309
 10
30.3119996202
 20
22.1124553299
 10
30.3042136712
 20
22.0646259525
 10
30.2976165085
 20
22.0158928785
 10
30.2922126534
 20
21.9662895072
 10
30.2880058095
 20
21.9158498342
 10
30.2849988599
 20
21.8646084285
 10
30.2831938654
 20
21.8126004081
 10
30.2825920631
 20
21.759861417
 10
30.2831938654
 20
21.7064275997
 10
30.2849988599
 20
21.652335577
 10
30.2880058095
 20
21.5976224211
 10
30.2922126534
 20
21.5423256295
 10
30.2976165085
 20
21.4864830999
 10
30.3042136712
 20
21.430133104
 10
30.3119996202
 20
21.3733142613
 10
30.3209690193
 20
21.3160655125
 10
30.3311157214
 20
21.2584260931
 10
30.3424327725
 20
21.2004355062
 10
30.3549124163
 20
21.1421334958
 10
30.3685461
 20
21.083560019
 10
30.3833244797
 20
21.0247552193
 10
30.3992374271
 20
20.9657593985
 10
30.4162740362
 20
20.9066129894
 10
30.434422631
 20
20.847356528
 10
30.4536707733
 20
20.7880306257
 10
30.4740052714
 20
20.7286759416
 10
30.4954121892
 20
20.6693331542
 10
30.5178768552
 20
20.6100429343
 10
30.5413838735
 20
20.5508459164
 10
30.5659171333
 20
20.4917826712
 10
30.591459821
 20
20.4328936777
 10
30.6179944308
 20
20.3742192954
 10
30.6455027771
 20
20.3157997368
 10
30.6739660072
 20
20.2576750398
 10
30.7033646138
 20
20.1998850401
 10
30.7336784485
 20
20.1424693442
 10
30.7648867358
 20
20.0854673019
 10
30.796968087
 20
20.0289179795
 10
30.8299005152
 20
19.972860133
 10
30.8636614502
 20
19.9173321819
 10
30.8982277538
 20
19.8623721821
 10
30.9335757362
 20
19.8080178004
 10
30.9696811714
 20
19.7543062888
 10
31.0065193148
 20
19.7012744582
 10
31.0440649192
 20
19.6489586542
 10
31.0822922527
 20
19.5973947313
 10
31.1211751163
 20
19.5466180289
 10
31.1606868616
 20
19.4966633469
 10
31.2008004093
 20
19.4475649215
 10
31.2414882674
 20
19.3993564026
 10
31.2827225505
 20
19.3520708296
 10
31.3244749989
 20
19.30574061
 10
31.3667169973
 20
19.2603974959
 10
31.4094195953
 20
19.2160725635
 10
31.4525535266
 20
19.1727961907
 10
31.4960892294
 20
19.130598037
 10
31.5399968664
 20
19.0895070229
 10
31.5842463457
 20
19.0495513102
 10
31.6288073407
 20
19.0107582825
 10
31.6736493117
 20
18.9731545266
 10
31.7187415261
 20
18.9367658142
 10
31.7640530801
 20
18.9016170844
 10
31.8095529193
 20
18.8677324264
 10
31.8552098604
 20
18.8351350629
 10
31.9009926125
 20
18.8038473346
 10
31.9468697983
 20
18.7738906845
 10
31.9928099759
 20
18.7452856434
 10
32.0387816602
 20
18.7180518159
 10
32.0847533445
 20
18.6922078665
 10
32.1306935221
 20
18.6677715075
 10
32.1765707079
 20
18.6447594863
 10
32.22235346
 20
18.6231875742
 10
32.2680104012
 20
18.6030705556
 10
32.3135102404
 20
18.5844222175
 10
32.3588217943
 20
18.5672553407
 10
32.4039140088
 20
18.5515816904
 10
32.4487559797
 20
18.5374120087
 10
32.4933169748
 20
18.5247560066
 10
32.537566454
 20
18.513622358
 10
32.5814740911
 20
18.5040186934
 10
32.6250097939
 20
18.4959515946
 10
32.6681437252
 20
18.4894265904
 10
32.7108463232
 20
18.4844481527
 10
32.7530883216
 20
18.4810196934
 10
32.7948407699
 20
18.4791435624
 10
32.8360750531
 20
18.4788210453
 10
32.8767629112
 20
18.4800523633
 10
32.9168764588
 20
18.4828366723
 10
32.9563882041
 20
18.4871720643
 10
32.9952710677
 20
18.493055568
 10
33.0334984013
 20
18.500483151
 10
33.0710440057
 20
18.5094497229
 10
33.107882149
 20
18.5199491384
 10
33.1439875843
 20
18.5319742019
 10
33.1793355666
 20
18.5455166718
 10
33.2139018703
 20
18.5605672669
 10
33.2476628052
 20
18.5771156723
 10
33.2805952334
 20
18.5951505464
 10
33.3126765846
 20
18.6146595292
 10
33.3438848719
 20
18.63562925
 10
33.3741987066
 20
18.6580453373
 10
33.4035973132
 20
18.6818924283
 10
33.4320605433
 20
18.7071541793
 10
33.4595688897
 20
18.7338132773
 10
33.4861034994
 20
18.7618514513
 10
33.5116461871
 20
18.7912494854
 10
33.536179447
 20
18.8219872316
 10
33.5596864652
 20
18.854043624
 10
33.5821511313
 20
18.8873966925
 10
33.603558049
 20
18.9220235787
 10
33.6238925472
 20
18.9579005511
 10
33.6431406895
 20
18.9950030213
 10
33.6612892843
 20
19.0333055612
 10
33.6783258934
 20
19.0727819201
 10
33.6942388407
 20
19.113405043
 10
33.7090172205
 20
19.1551470886
 10
33.7226509042
 20
19.1979794492
 10
33.735130548
 20
19.2418727696
 10
33.746447599
 20
19.2867969674
 10
33.7565943011
 20
19.332721254
 10
33.7655637002
 20
19.379614155
 10
33.7733496492
 20
19.4274435324
 10
33.7799468119
 20
19.4761766064
 10
33.785350667
 20
19.5257799777
 10
33.789557511
 20
19.5762196506
 10
33.7925644606
 20
19.6274610564
 10
33.7943694551
 20
19.6794690767
 10
33.7949712574
 20
19.7322080679
  0
LWPOLYLINE
  5
8C
330
1F
100
AcDbEntity
  8
0
  6
Continuous
 62
     7
370
    25
100
AcDbPolyline
 90
      153
 70
   128
 43
0.0
 10
32.6617836124
 20
20.3863833708
 10
32.6612514182
 20
20.3569606011
 10
32.6596557449
 20
20.328202558
 10
32.6569993186
 20
20.3001583742
 10
32.6532866778
 20
20.2728759627
 10
32.6485241655
 20
20.246401935
 10
32.6427199184
 20
20.2207815216
 10
32.6358838528
 20
20.1960584945
 10
32.6280276482
 20
20.1722750926
 10
32.6191647267
 20
20.1494719494
 10
32.6093102305
 20
20.1276880237
 10
32.5984809958
 20
20.1069605331
 10
32.5866955241
 20
20.08732489
 10
32.5739739508
 20
20.0688146417
 10
32.5603380105
 20
20.0514614125
 10
32.5458109999
 20
20.0352948502
 10
32.5304177381
 20
20.0203425751
 10
32.5141845244
 20
20.0066301329
 10
32.4971390928
 20
19.9941809511
 10
32.4793105653
 20
19.9830162989
 10
32.4607294015
 20
19.9731552508
 10
32.4414273471
 20
19.9646146545
 10
32.4214373793
 20
19.9574091012
 10
32.4007936506
 20
19.9515509016
 10
32.3795314305
 20
19.9470500643
 10
32.3576870451
 20
19.943914279
 10
32.3352978152
 20
19.942148903
 10
32.3124019925
 20
19.9417569524
 10
32.289038694
 20
19.942739097
 10
32.2652478355
 20
19.9450936588
 10
32.2410700634
 20
19.9488166149
 10
32.216546685
 20
19.9539016048
 10
32.1917195979
 20
19.9603399409
 10
32.166631219
 20
19.9681206234
 10
32.1413244113
 20
19.9772303591
 10
32.115842411
 20
19.9876535842
 10
32.0902287537
 20
19.9993724908
 10
32.0645271999
 20
20.0123670573
 10
32.0387816602
 20
20.0266150828
 10
32.0130361206
 20
20.0420922247
 10
31.9873345668
 20
20.0587720405
 10
31.9617209095
 20
20.0766260332
 10
31.9362389092
 20
20.0956236994
 10
31.9109321014
 20
20.115732582
 10
31.8858437225
 20
20.1369183252
 10
31.8610166355
 20
20.1591447336
 10
31.836493257
 20
20.1823738338
 10
31.8123154849
 20
20.2065659392
 10
31.7885246265
 20
20.2316797179
 10
31.765161328
 20
20.2576722636
 10
31.7422655052
 20
20.2844991684
 10
31.7198762753
 20
20.312114599
 10
31.69803189
 20
20.3404713749
 10
31.6767696699
 20
20.3695210489
 10
31.6561259412
 20
20.3992139903
 10
31.6361359733
 20
20.4294994692
 10
31.6168339189
 20
20.4603257432
 10
31.5982527551
 20
20.4916401463
 10
31.5804242276
 20
20.5233891783
 10
31.5633787961
 20
20.5555185965
 10
31.5471455823
 20
20.5879735083
 10
31.5317523206
 20
20.6206984651
 10
31.51722531
 20
20.6536375568
 10
31.5035893696
 20
20.6867345076
 10
31.4908677963
 20
20.7199327718
 10
31.4790823247
 20
20.7531756308
 10
31.46825309
 20
20.7864062898
 10
31.4583985937
 20
20.8195679746
 10
31.4495356722
 20
20.8526040291
 10
31.4416794676
 20
20.8854580118
 10
31.4348434021
 20
20.9180737921
 10
31.4290391549
 20
20.9503956466
 10
31.4242766426
 20
20.982368354
 10
31.4205640019
 20
21.0139372893
 10
31.4179075756
 20
21.0450485177
 10
31.4163119022
 20
21.075648886
 10
31.415779708
 20
21.105686114
 10
31.4163119022
 20
21.1351088838
 10
31.4179075756
 20
21.1638669269
 10
31.4205640019
 20
21.1919111107
 10
31.4242766426
 20
21.2191935222
 10
31.4290391549
 20
21.2456675499
 10
31.4348434021
 20
21.2712879633
 10
31.4416794676
 20
21.2960109904
 10
31.4495356722
 20
21.3197943923
 10
31.4583985937
 20
21.3425975355
 10
31.46825309
 20
21.3643814611
 10
31.4790823247
 20
21.3851089518
 10
31.4908677963
 20
21.4047445948
 10
31.5035893696
 20
21.4232548432
 10
31.51722531
 20
21.4406080724
 10
31.5317523206
 20
21.4567746346
 10
31.5471455823
 20
21.4717269097
 10
31.5633787961
 20
21.4854393519
 10
31.5804242276
 20
21.4978885338
 10
31.5982527551
 20
21.509053186
 10
31.6168339189
 20
21.518914234
 10
31.6361359733
 20
21.5274548304
 10
31.6561259412
 20
21.5346603837
 10
31.6767696699
 20
21.5405185833
 10
31.69803189
 20
21.5450194205
 10
31.7198762753
 20
21.5481552059
 10
31.7422655052
 20
21.5499205819
 10
31.765161328
 20
21.5503125324
 10
31.7885246265
 20
21.5493303878
 10
31.8123154849
 20
21.5469758261
 10
31.836493257
 20
21.54325287
 10
31.8610166355
 20
21.5381678801
 10
31.8858437225
 20
21.531729544
 10
31.9109321014
 20
21.5239488615
 10
31.9362389092
 20
21.5148391258
 10
31.9617209095
 20
21.5044159007
 10
31.9873345668
 20
21.4926969941
 10
32.0130361206
 20
21.4797024275
 10
32.0387816602
 20
21.4654544021
 10
32.0645271999
 20
21.4499772602
 10
32.0902287537
 20
21.4332974443
 10
32.115842411
 20
21.4154434517
 10
32.1413244113
 20
21.3964457855
 10
32.166631219
 20
21.3763369029
 10
32.1917195979
 20
21.3551511596
 10
32.216546685
 20
21.3329247512
 10
32.2410700634
 20
21.3096956511
 10
32.2652478355
 20
21.2855035457
 10
32.289038694
 20
21.260389767
 10
32.3124019925
 20
21.2343972213
 10
32.3352978152
 20
21.2075703165
 10
32.3576870451
 20
21.1799548859
 10
32.3795314305
 20
21.15159811
 10
32.4007936506
 20
21.1225484359
 10
32.4214373793
 20
21.0928554945
 10
32.4414273471
 20
21.0625700157
 10
32.4607294015
 20
21.0317437416
 10
32.4793105653
 20
21.0004293386
 10
32.4971390928
 20
20.9686803066
 10
32.5141845244
 20
20.9365508884
 10
32.5304177381
 20
20.9040959765
 10
32.5458109999
 20
20.8713710197
 10
32.5603380105
 20
20.838431928
 10
32.5739739508
 20
20.8053349773
 10
32.5866955241
 20
20.772136713
 10
32.5984809958
 20
20.738893854
 10
32.6093102305
 20
20.7056631951
 10
32.6191647267
 20
20.6725015103
 10
32.6280276482
 20
20.6394654558
 10
32.6358838528
 20
20.6066114731
 10
32.6427199184
 20
20.5739956928
 10
32.6485241655
 20
20.5416738382
 10
32.6532866778
 20
20.5097011309
 10
32.6569993186
 20
20.4781321955
 10
32.6596557449
 20
20.4470209672
 10
32.6612514182
 20
20.4164205989
 10
32.6617836124
 20
20.3863833708
  0
LWPOLYLINE
  5
8D
330
1F
100
AcDbEntity
  8
0
  6
Continuous
 62
     7
370
    25
100
AcDbPolyline
 90
       74
 70
   128
 43
0.0
 10
30.9463016833
 20
21.3767100088
 10
30.9457650782
 20
21.3914095065
 10
30.9441592359
 20
21.4066197252
 10
30.9414960454
 20
21.4222280538
 10
30.9377952241
 20
21.4381189338
 10
30.9330841716
 20
21.4541747145
 10
30.9273977667
 20
21.4702765247
 10
30.9207781098
 20
21.4863051522
 10
30.9132742103
 20
21.5021419265
 10
30.9049416247
 20
21.5176695978
 10
30.8958420443
 20
21.5327732047
 10
30.8860428393
 20
21.5473409252
 10
30.8756165596
 20
21.5612649052
 10
30.8646403978
 20
21.5744420562
 10
30.8531956175
 20
21.5867748194
 10
30.8413669517
 20
21.5981718872
 10
30.829241976
 20
21.6085488797
 10
30.8169104592
 20
21.6178289694
 10
30.8044636997
 20
21.6259434496
 10
30.7919938489
 20
21.6328322437
 10
30.7795932293
 20
21.6384443493
 10
30.7673536505
 20
21.6427382164
 10
30.7553657304
 20
21.6456820548
 10
30.7437182231
 20
21.6472540693
 10
30.7324973628
 20
21.6474426211
 10
30.7217862247
 20
21.6462463145
 10
30.7116641105
 20
21.6436740063
 10
30.7022059607
 20
21.6397447411
 10
30.6934818001
 20
21.6344876098
 10
30.6855562193
 20
21.6279415343
 10
30.6784878967
 20
21.6201549796
 10
30.6723291635
 20
21.6111855944
 10
30.6671256169
 20
21.601099785
 10
30.6629157822
 20
21.5899722232
 10
30.6597308274
 20
21.5778852936
 10
30.6575943328
 20
21.5649284836
 10
30.6565221164
 20
21.5511977209
 10
30.6565221164
 20
21.5367946631
 10
30.6575943328
 20
21.5218259457
 10
30.6597308274
 20
21.5064023915
 10
30.6629157822
 20
21.4906381914
 10
30.6671256169
 20
21.4746500579
 10
30.6723291635
 20
21.4585563615
 10
30.6784878967
 20
21.4424762543
 10
30.6855562193
 20
21.4265287879
 10
30.6934818001
 20
21.4108320317
 10
30.7022059607
 20
21.395502199
 10
30.7116641105
 20
21.3806527864
 10
30.7217862247
 20
21.3663937339
 10
30.7324973628
 20
21.3528306105
 10
30.7437182231
 20
21.3400638329
 10
30.7553657304
 20
21.3281879217
 10
30.7673536505
 20
21.317290802
 10
30.7795932293
 20
21.3074531524
 10
30.7919938489
 20
21.2987478073
 10
30.8044636997
 20
21.2912392181
 10
30.8169104592
 20
21.2849829757
 10
30.829241976
 20
21.2800253991
 10
30.8413669517
 20
21.2764031926
 10
30.8531956175
 20
21.2741431737
 10
30.8646403978
 20
21.2732620747
 10
30.8756165596
 20
21.2737664191
 10
30.8860428393
 20
21.2756524728
 10
30.8958420443
 20
21.2789062721
 10
30.9049416247
 20
21.283503727
 10
30.9132742103
 20
21.2894107997
 10
30.9207781098
 20
21.2965837562
 10
30.9273977667
 20
21.3049694904
 10
30.9330841716
 20
21.3145059173
 10
30.9377952241
 20
21.3251224326
 10
30.9414960454
 20
21.3367404352
 10
30.9441592359
 20
21.3492739095
 10
30.9457650782
 20
21.3626300622
 10
30.9463016833
 20
21.3767100088
  0
LWPOLYLINE
  5
8E
330
1F
100
AcDbEntity
  8
0
  6
Continuous
 62
     7
370
    25
100
AcDbPolyline
 90
       74
 70
   128
 43
0.0
 10
33.4211754174
 20
19.9479958131
 10
33.4206388124
 20
19.9626953108
 10
33.4190329701
 20
19.9779055295
 10
33.4163697796
 20
19.9935138581
 10
33.4126689583
 20
20.0094047381
 10
33.4079579057
 20
20.0254605188
 10
33.4022715009
 20
20.041562329
 10
33.3956518439
 20
20.0575909565
 10
33.3881479445
 20
20.0734277308
 10
33.3798153588
 20
20.0889554022
 10
33.3707157784
 20
20.104059009
 10
33.3609165735
 20
20.1186267295
 10
33.3504902938
 20
20.1325507095
 10
33.339514132
 20
20.1457278605
 10
33.3280693516
 20
20.1580606237
 10
33.3162406859
 20
20.1694576915
 10
33.3041157101
 20
20.179834684
 10
33.2917841934
 20
20.1891147737
 10
33.2793374339
 20
20.1972292539
 10
33.2668675831
 20
20.204118048
 10
33.2544669634
 20
20.2097301536
 10
33.2422273847
 20
20.2140240207
 10
33.2302394645
 20
20.2169678591
 10
33.2185919572
 20
20.2185398736
 10
33.2073710969
 20
20.2187284255
 10
33.1966599589
 20
20.2175321188
 10
33.1865378447
 20
20.2149598106
 10
33.1770796948
 20
20.2110305455
 10
33.1683555342
 20
20.2057734141
 10
33.1604299535
 20
20.1992273387
 10
33.1533616308
 20
20.1914407839
 10
33.1472028977
 20
20.1824713987
 10
33.1419993511
 20
20.1723855893
 10
33.1377895163
 20
20.1612580275
 10
33.1346045615
 20
20.1491710979
 10
33.132468067
 20
20.1362142879
 10
33.1313958506
 20
20.1224835252
 10
33.1313958506
 20
20.1080804674
 10
33.132468067
 20
20.09311175
 10
33.1346045615
 20
20.0776881959
 10
33.1377895163
 20
20.0619239957
 10
33.1419993511
 20
20.0459358622
 10
33.1472028977
 20
20.0298421658
 10
33.1533616308
 20
20.0137620587
 10
33.1604299535
 20
19.9978145922
 10
33.1683555342
 20
19.982117836
 10
33.1770796948
 20
19.9667880033
 10
33.1865378447
 20
19.9519385907
 10
33.1966599589
 20
19.9376795382
 10
33.2073710969
 20
19.9241164149
 10
33.2185919572
 20
19.9113496372
 10
33.2302394645
 20
19.899473726
 10
33.2422273847
 20
19.8885766063
 10
33.2544669634
 20
19.8787389567
 10
33.2668675831
 20
19.8700336116
 10
33.2793374339
 20
19.8625250224
 10
33.2917841934
 20
19.85626878
 10
33.3041157101
 20
19.8513112034
 10
33.3162406859
 20
19.8476889969
 10
33.3280693516
 20
19.845428978
 10
33.339514132
 20
19.844547879
 10
33.3504902938
 20
19.8450522234
 10
33.3609165735
 20
19.8469382771
 10
33.3707157784
 20
19.8501920764
 10
33.3798153588
 20
19.8547895313
 10
33.3881479445
 20
19.860696604
 10
33.3956518439
 20
19.8678695605
 10
33.4022715009
 20
19.8762552947
 10
33.4079579057
 20
19.8857917216
 10
33.4126689583
 20
19.8964082369
 10
33.4163697796
 20
19.9080262395
 10
33.4190329701
 20
19.9205597138
 10
33.4206388124
 20
19.9339158665
 10
33.4211754174
 20
19.9479958131
  0
LWPOLYLINE
  5
8F
330
1F
100
AcDbEntity
  8
0
  6
Continuous
 62
     7
370
    25
100
AcDbPolyline
 90
       29
 70
   128
 43
0.0
 10
33.314923281
 20
20.1706474584
 10
33.3104464091
 20
20.1686221593
 10
33.3044932185
 20
20.1645178687
 10
33.2993876523
 20
20.1591366133
 10
33.2952071057
 20
20.1525599674
 10
33.2920149513
 20
20.1448876262
 10
33.2898595791
 20
20.1362358948
 10
33.2887736624
 20
20.1267359244
 10
33.2887736624
 20
20.116531725
 10
33.2898595791
 20
20.1057779817
 10
33.2920149513
 20
20.0946377105
 10
33.2952071057
 20
20.0832797864
 10
33.2993876523
 20
20.0718763841
 10
33.3044932185
 20
20.0606003674
 10
33.3104464091
 20
20.0496226693
 10
33.3171569797
 20
20.0391097004
 10
33.3245232049
 20
20.0292208268
 10
33.3324334202
 20
20.0201059536
 10
33.340767715
 20
20.011903253
 10
33.3493997497
 20
20.0047370696
 10
33.3581986715
 20
19.9987160354
 10
33.3670310977
 20
19.9939314232
 10
33.3757631377
 20
19.9904557628
 10
33.3842624228
 20
19.9883417417
 10
33.3924001123
 20
19.9876214063
 10
33.4000528474
 20
19.9883056762
 10
33.4071046201
 20
19.9903841784
 10
33.413448533
 20
19.9938254051
 10
33.4159189177
 20
19.9956989282
  0
ARC
  5
90
330
1F
100
AcDbEntity
  8
0
  6
Continuous
 62
     7
370
    25
100
AcDbCircle
 10
31.9419740649
 20
21.1763590915
 30
0.0
 40
0.4735115554051011
100
AcDbArc
 50
133.9761712173
 51
184.4319790138
  0
LWPOLYLINE
  5
91
330
1F
100
AcDbEntity
  8
0
  6
Continuous
 62
     7
370
    25
100
AcDbPolyline
 90
       57
 70
   128
 43
0.0
 10
32.4936856761
 20
19.99187784
 10
32.4924554655
 20
19.9914176057
 10
32.4722811663
 20
19.984708166
 10
32.4514712762
 20
19.9793375612
 10
32.4300608855
 20
19.9753148472
 10
32.4080860968
 20
19.9726468072
 10
32.3855839646
 20
19.9713379402
 10
32.3625924327
 20
19.9713904533
 10
32.3391502699
 20
19.9728042577
 10
32.315297005
 20
19.9755769697
 10
32.2910728601
 20
19.9797039137
 10
32.2665186825
 20
19.9851781308
 10
32.2416758761
 20
19.9919903902
 10
32.2165863315
 20
20.000129205
 10
32.1912923554
 20
20.0095808511
 10
32.1658365991
 20
20.0203293911
 10
32.1402619868
 20
20.0323567004
 10
32.1146116431
 20
20.0456424984
 10
32.0889288202
 20
20.060164382
 10
32.0632568252
 20
20.0758978641
 10
32.0376389469
 20
20.0928164146
 10
32.0121183829
 20
20.1108915049
 10
31.9867381665
 20
20.1300926564
 10
31.9615410946
 20
20.1503874915
 10
31.9365696552
 20
20.1717417886
 10
31.9118659556
 20
20.1941195394
 10
31.887471652
 20
20.2174830101
 10
31.8634278787
 20
20.2417928045
 10
31.8397751788
 20
20.2670079309
 10
31.8165534363
 20
20.2930858708
 10
31.7938018082
 20
20.3199826509
 10
31.7715586589
 20
20.3476529172
 10
31.7498614954
 20
20.3760500113
 10
31.728746904
 20
20.4051260493
 10
31.7082504887
 20
20.4348320024
 10
31.6884068111
 20
20.4651177797
 10
31.6692493321
 20
20.4959323125
 10
31.6508103556
 20
20.5272236405
 10
31.6331209738
 20
20.5589389995
 10
31.6162110151
 20
20.5910249102
 10
31.6001089935
 20
20.6234272685
 10
31.5848420605
 20
20.6560914367
 10
31.5704359598
 20
20.6889623356
 10
31.5569149832
 20
20.7219845374
 10
31.5443019302
 20
20.7551023593
 10
31.5326180693
 20
20.788259957
 10
31.521883102
 20
20.8214014195
 10
31.51211513
 20
20.8544708626
 10
31.5033306243
 20
20.8874125239
 10
31.4955443976
 20
20.9201708562
 10
31.4887695791
 20
20.9526906215
 10
31.4830175927
 20
20.9849169843
 10
31.4782981377
 20
21.0167956035
 10
31.474619172
 20
21.0482727245
 10
31.4719868993
 20
21.07929527
 10
31.4704057581
 20
21.1098109287
 10
31.4698784146
 20
21.1397682444
  0
LWPOLYLINE
  5
92
330
1F
100
AcDbEntity
  8
0
  6
Continuous
 62
     7
370
    25
100
AcDbPolyline
 90
       29
 70
   128
 43
0.0
 10
30.8400495468
 20
21.5993616541
 10
30.8355726749
 20
21.597336355
 10
30.8296194844
 20
21.5932320644
 10
30.8245139182
 20
21.5878508089
 10
30.8203333715
 20
21.581274163
 10
30.8171412172
 20
21.5736018219
 10
30.814985845
 20
21.5649500905
 10
30.8138999282
 20
21.5554501201
 10
30.8138999282
 20
21.5452459206
 10
30.814985845
 20
21.5344921774
 10
30.8171412172
 20
21.5233519062
 10
30.8203333715
 20
21.5119939821
 10
30.8245139182
 20
21.5005905798
 10
30.8296194844
 20
21.4893145631
 10
30.8355726749
 20
21.478336865
 10
30.8422832455
 20
21.4678238961
 10
30.8496494707
 20
21.4579350225
 10
30.8575596861
 20
21.4488201493
 10
30.8658939808
 20
21.4406174487
 10
30.8745260155
 20
21.4334512653
 10
30.8833249373
 20
21.4274302311
 10
30.8921573635
 20
21.4226456189
 10
30.9008894035
 20
21.4191699585
 10
30.9093886886
 20
21.4170559374
 10
30.9175263782
 20
21.416335602
 10
30.9251791132
 20
21.4170198719
 10
30.932230886
 20
21.4190983741
 10
30.9385747989
 20
21.4225396008
 10
30.9410451836
 20
21.4244131239
  0
LWPOLYLINE
  5
93
330
1F
100
AcDbEntity
  8
0
  6
Continuous
 62
     7
370
    25
100
AcDbPolyline
 90
        3
 70
   128
 43
0.0
 10
34.057065474
 20
20.7229323282
 10
34.0566846428
 20
20.7233388616
 10
34.0557782484
 20
20.7239662087
  0
ARC
  5
94
330
1F
100
AcDbEntity
  8
0
  6
Continuous
 62
     7
370
    25
100
AcDbCircle
 10
34.1127736128
 20
20.5367208103
 30
0.0
 40
0.1803857151055142
100
AcDbArc
 50
116.2690682029
 51
125.6230549066
  0
ARC
  5
95
330
1F
100
AcDbEntity
  8
0
  6
Continuous
 62
     7
370
    25
100
AcDbCircle
 10
34.0517063843
 20
20.6628340445
 30
0.0
 40
0.0402830239980761
100
AcDbArc
 50
98.8129333141
 51
117.7705894736
  0
LWPOLYLINE
  5
96
330
1F
100
AcDbEntity
  8
0
  6
Continuous
 62
     7
370
    25
100
AcDbPolyline
 90
        3
 70
   128
 43
0.0
 10
33.9737835637
 20
20.6293107657
 10
33.969284789
 20
20.6237709633
 10
33.9690391776
 20
20.6234443939
  0
LWPOLYLINE
  5
97
330
1F
100
AcDbEntity
  8
0
  6
Continuous
 62
     7
370
    25
100
AcDbPolyline
 90
       34
 70
   128
 43
0.0
 10
33.9731546646
 20
20.6075907533
 10
33.9750454134
 20
20.6082379119
 10
33.9807136059
 20
20.6106244753
 10
33.9871649889
 20
20.613918206
 10
33.9942407082
 20
20.6180380014
 10
34.0017665359
 20
20.6228824186
 10
34.0095571613
 20
20.6283321718
 10
34.0174207532
 20
20.6342530701
 10
34.025163684
 20
20.6404993213
 10
34.032595297
 20
20.6469171219
 10
34.0395326012
 20
20.6533484445
 10
34.0458047772
 20
20.6596349285
 10
34.0512573832
 20
20.6656217798
 10
34.0557561578
 20
20.6711615823
 10
34.0591903265
 20
20.6761179275
 10
34.0614753284
 20
20.680368774
 10
34.0625548994
 20
20.6838094517
 10
34.0624024567
 20
20.6863552397
 10
34.0610217541
 20
20.6879434523
 10
34.0584467889
 20
20.6885349824
 10
34.0547409655
 20
20.6881152645
 10
34.0499955334
 20
20.6866946336
 10
34.044327341
 20
20.6843080702
 10
34.0378759579
 20
20.6810143395
 10
34.0308002387
 20
20.6768945441
 10
34.0232744109
 20
20.6720501269
 10
34.0154837855
 20
20.6666003737
 10
34.0076201936
 20
20.6606794754
 10
33.9998772628
 20
20.6544332242
 10
33.9924456498
 20
20.6480154236
 10
33.9855083456
 20
20.641584101
 10
33.9792361696
 20
20.635297617
 10
33.9737835637
 20
20.6293107657
 10
33.9737835637
 20
20.6293107657
  0
LWPOLYLINE
  5
98
330
1F
100
AcDbEntity
  8
0
  6
Continuous
 62
     7
370
    25
100
AcDbPolyline
 90
        7
 70
   128
 43
0.0
 10
34.0431164447
 20
20.6989990337
 10
34.049200925
 20
20.7015889701
 10
34.0544023195
 20
20.7032467768
 10
34.0586147429
 20
20.7039387057
 10
34.0617524423
 20
20.703650671
 10
34.0637515432
 20
20.7023885365
 10
34.0640477455
 20
20.7019589406
  0
ARC
  5
99
330
1F
100
AcDbEntity
  8
0
  6
Continuous
 62
     7
370
    25
100
AcDbCircle
 10
34.1583078555
 20
20.471904628
 30
0.0
 40
0.2546388231030953
100
AcDbArc
 50
116.8959552824
 51
130.1020764637
  0
LINE
  5
9A
330
1F
100
AcDbEntity
  8
0
  6
Continuous
 62
     7
370
    25
100
AcDbLine
 10
34.0067122401
 20
20.6312513088
 30
0.0
 11
34.0400354843
 21
20.6603622156
 31
0.0
  0
LINE
  5
9B
330
1F
100
AcDbEntity
  8
0
  6
Continuous
 62
     7
370
    25
100
AcDbLine
 10
34.0458437176
 20
20.6765771795
 30
0.0
 11
34.0400354843
 21
20.6603622156
 31
0.0
  0
LINE
  5
9C
330
1F
100
AcDbEntity
  8
0
  6
Continuous
 62
     7
370
    25
100
AcDbLine
 10
34.0183287067
 20
20.6636812367
 30
0.0
 11
34.0458437176
 21
20.6765771795
 31
0.0
  0
LINE
  5
9D
330
1F
100
AcDbEntity
  8
0
  6
Continuous
 62
     7
370
    25
100
AcDbLine
 10
34.0183287067
 20
20.6636812367
 30
0.0
 11
33.9850054625
 21
20.6345703299
 31
0.0
  0
LINE
  5
9E
330
1F
100
AcDbEntity
  8
0
  6
Continuous
 62
     7
370
    25
100
AcDbLine
 10
33.9791972293
 20
20.618355366
 30
0.0
 11
33.9850054625
 21
20.6345703299
 31
0.0
  0
LINE
  5
9F
330
1F
100
AcDbEntity
  8
0
  6
Continuous
 62
     7
370
    25
100
AcDbLine
 10
33.9791972293
 20
20.618355366
 30
0.0
 11
34.0067122401
 21
20.6312513088
 31
0.0
  0
LINE
  5
A0
330
1F
100
AcDbEntity
  8
0
  6
Continuous
 62
     7
370
    25
100
AcDbLine
 10
34.0400079229
 20
20.6603965017
 30
0.0
 11
34.0400354843
 21
20.6603622156
 31
0.0
  0
LINE
  5
A1
330
1F
100
AcDbEntity
  8
0
  6
Continuous
 62
     7
370
    25
100
AcDbLine
 10
34.0062014201
 20
20.6318867641
 30
0.0
 11
34.0067122401
 21
20.6312513088
 31
0.0
  0
LWPOLYLINE
  5
A2
330
1F
100
AcDbEntity
  8
0
  6
Continuous
 62
     7
370
    25
100
AcDbPolyline
 90
       41
 70
   128
 43
0.0
 10
33.2791240648
 20
22.3799183411
 10
33.2850662146
 20
22.3753121146
 10
33.2921834103
 20
22.3712992203
 10
33.3003004028
 20
22.3679784688
 10
33.3092173249
 20
22.3654316283
 10
33.3187146123
 20
22.3637214102
 10
33.3285584103
 20
22.3628899259
 10
33.3385063319
 20
22.3629576492
 10
33.3483134263
 20
22.3639229126
 10
33.3577382103
 20
22.3657619481
 10
33.3665486145
 20
22.3684294726
 10
33.3745276973
 20
22.3718598027
 10
33.3814789874
 20
22.3759684723
 10
33.3872313208
 20
22.3806543123
 10
33.3916430561
 20
22.3858019418
 10
33.3946055617
 20
22.3912846091
 10
33.3960458908
 20
22.3969673128
 10
33.3959285779
 20
22.4027101257
 10
33.3942565114
 20
22.4083716408
 10
33.3910708633
 20
22.4138124528
 10
33.3864500748
 20
22.4188985908
 10
33.3805079249
 20
22.4235048173
 10
33.3733907293
 20
22.4275177116
 10
33.3652737368
 20
22.430838463
 10
33.3563568147
 20
22.4333853036
 10
33.3468595273
 20
22.4350955217
 10
33.3370157293
 20
22.435927006
 10
33.3270678077
 20
22.4358592827
 10
33.3172607132
 20
22.4348940193
 10
33.3078359292
 20
22.4330549838
 10
33.2990255251
 20
22.4303874593
 10
33.2910464423
 20
22.4269571292
 10
33.2840951522
 20
22.4228484596
 10
33.2783428188
 20
22.4181626196
 10
33.2739310835
 20
22.4130149901
 10
33.2709685779
 20
22.4075323228
 10
33.2695282488
 20
22.4018496191
 10
33.2696455617
 20
22.3961068062
 10
33.2713176282
 20
22.3904452911
 10
33.2745032763
 20
22.3850044791
 10
33.2791240648
 20
22.3799183411
  0
ARC
  5
A3
330
1F
100
AcDbEntity
  8
0
  6
Continuous
 62
     7
370
    25
100
AcDbCircle
 10
33.2968096193
 20
22.3858227475
 30
0.0
 40
0.0387302881797873
100
AcDbArc
 50
115.3746438143
 51
171.973673934
  0
LINE
  5
A4
330
1F
100
AcDbEntity
  8
0
  6
Continuous
 62
     7
370
    25
100
AcDbLine
 10
33.2586768903
 20
22.3938463889
 30
0.0
 11
33.2569956171
 21
22.3916550826
 31
0.0
  0
LINE
  5
A5
330
1F
100
AcDbEntity
  8
0
  6
Continuous
 62
     7
370
    25
100
AcDbLine
 10
33.372613756
 20
22.3872739515
 30
0.0
 11
33.370904157
 21
22.4132523942
 31
0.0
  0
LINE
  5
A6
330
1F
100
AcDbEntity
  8
0
  6
Continuous
 62
     7
370
    25
100
AcDbLine
 10
33.3310774708
 20
22.4253869086
 30
0.0
 11
33.370904157
 21
22.4132523942
 31
0.0
  0
LINE
  5
A7
330
1F
100
AcDbEntity
  8
0
  6
Continuous
 62
     7
370
    25
100
AcDbLine
 10
33.2929603836
 20
22.4115429804
 30
0.0
 11
33.3310774708
 21
22.4253869086
 31
0.0
  0
LINE
  5
A8
330
1F
100
AcDbEntity
  8
0
  6
Continuous
 62
     7
370
    25
100
AcDbLine
 10
33.2929603836
 20
22.4115429804
 30
0.0
 11
33.2946699826
 21
22.3855645377
 31
0.0
  0
LINE
  5
A9
330
1F
100
AcDbEntity
  8
0
  6
Continuous
 62
     7
370
    25
100
AcDbLine
 10
33.3344966688
 20
22.3734300233
 30
0.0
 11
33.2946699826
 21
22.3855645377
 31
0.0
  0
LINE
  5
AA
330
1F
100
AcDbEntity
  8
0
  6
Continuous
 62
     7
370
    25
100
AcDbLine
 10
33.3344966688
 20
22.3734300233
 30
0.0
 11
33.372613756
 21
22.3872739515
 31
0.0
  0
LINE
  5
AB
330
1F
100
AcDbEntity
  8
0
  6
Continuous
 62
     7
370
    25
100
AcDbLine
 10
33.370904157
 20
22.4132156437
 30
0.0
 11
33.370904157
 21
22.4132523942
 31
0.0
  0
LINE
  5
AC
330
1F
100
AcDbEntity
  8
0
  6
Continuous
 62
     7
370
    25
100
AcDbLine
 10
33.3310774708
 20
22.4018163954
 30
0.0
 11
33.3310774708
 21
22.4253869086
 31
0.0
  0
ARC
  5
AD
330
1F
100
AcDbEntity
  8
0
  6
Continuous
 62
     7
370
    25
100
AcDbCircle
 10
33.8849289631
 20
20.9610140847
 30
0.0
 40
0.3731827421674317
100
AcDbArc
 50
299.3854031482
 51
310.2517537296
  0
ARC
  5
AE
330
1F
100
AcDbEntity
  8
0
  6
Continuous
 62
     7
370
    25
100
AcDbCircle
 10
33.1481822412
 20
22.2372124369
 30
0.0
 40
0.3732211055134643
100
AcDbArc
 50
110.1434887678
 51
120.6074162141
  0
ARC
  5
AF
330
1F
100
AcDbEntity
  8
0
  6
Continuous
 62
     7
370
    25
100
AcDbCircle
 10
34.5356159688
 20
22.9286466549
 30
0.0
 40
0.4685143025496764
100
AcDbArc
 50
69.248486237
 51
117.4938212596
  0
LWPOLYLINE
  5
B0
330
1F
100
AcDbEntity
  8
0
  6
Continuous
 62
     7
370
    25
100
AcDbPolyline
 90
       72
 70
   128
 43
0.0
 10
35.4292347494
 20
21.4216187694
 10
35.432559601
 20
21.4235612996
 10
35.4524497819
 20
21.4361916365
 10
35.4715594604
 20
21.4501000297
 10
35.4898628396
 20
21.4652677036
 10
35.5073352107
 20
21.4816741826
 10
35.5239529868
 20
21.4992973186
 10
35.5396937347
 20
21.5181133213
 10
35.5545362051
 20
21.5380967899
 10
35.5684603613
 20
21.5592207477
 10
35.5814474066
 20
21.5814566784
 10
35.5934798088
 20
21.6047745645
 10
35.6045413249
 20
21.6291429279
 10
35.6146170223
 20
21.6545288724
 10
35.6236932993
 20
21.6808981284
 10
35.6317579034
 20
21.7082150984
 10
35.6387999477
 20
21.7364429059
 10
35.6448099258
 20
21.7655434447
 10
35.6497797245
 20
21.7954774304
 10
35.6537026348
 20
21.8262044535
 10
35.656573361
 20
21.857683034
 10
35.6583880277
 20
21.8898706773
 10
35.6591441852
 20
21.9227239316
 10
35.6588408127
 20
21.9561984464
 10
35.6574783198
 20
21.9902490329
 10
35.6550585457
 20
22.0248297243
 10
35.6515847571
 20
22.0598938384
 10
35.6470616434
 20
22.0953940401
 10
35.6414953106
 20
22.1312824059
 10
35.634893273
 20
22.1675104882
 10
35.627264443
 20
22.2040293808
 10
35.6186191192
 20
22.2407897848
 10
35.6089689723
 20
22.2777420756
 10
35.5983270297
 20
22.3148363691
 10
35.5867076573
 20
22.3520225899
 10
35.574126541
 20
22.3892505384
 10
35.5606006644
 20
22.4264699584
 10
35.546148287
 20
22.4636306056
 10
35.5307889188
 20
22.5006823149
 10
35.5145432942
 20
22.5375750681
 10
35.4974333441
 20
22.5742590618
 10
35.479482166
 20
22.6106847743
 10
35.4607139932
 20
22.6468030326
 10
35.4411541619
 20
22.6825650788
 10
35.4208290769
 20
22.7179226358
 10
35.3997661761
 20
22.7528279725
 10
35.3779938935
 20
22.7872339683
 10
35.3555416205
 20
22.8210941769
 10
35.3324396669
 20
22.8543628885
 10
35.308719219
 20
22.8869951919
 10
35.2844122983
 20
22.918947035
 10
35.2595517181
 20
22.9501752844
 10
35.234171039
 20
22.9806377834
 10
35.2083045238
 20
23.0102934089
 10
35.1819870909
 20
23.0391021275
 10
35.1552542677
 20
23.0670250485
 10
35.1281421422
 20
23.0940244774
 10
35.1006873146
 20
23.1200639663
 10
35.0729268475
 20
23.1451083629
 10
35.0448982163
 20
23.1691238587
 10
35.0166392584
 20
23.1920780338
 10
34.9881881219
 20
23.213939901
 10
34.9595832146
 20
23.234679948
 10
34.9308631518
 20
23.2542701767
 10
34.9020667042
 20
23.2726841411
 10
34.8732327457
 20
23.2898969833
 10
34.8444002007
 20
23.3058854668
 10
34.8156079918
 20
23.3206280078
 10
34.7868949872
 20
23.3341047045
 10
34.7582999481
 20
23.3462973642
 10
34.7298614763
 20
23.3571895273
 10
34.7016179626
 20
23.3667664898
  0
ARC
  5
B1
330
1F
100
AcDbEntity
  8
0
  6
Continuous
 62
     7
370
    25
100
AcDbCircle
 10
34.0033880218
 20
21.8801778541
 30
0.0
 40
1.657439430655811
100
AcDbArc
 50
2.5638211438
 51
57.4308023235
  0
ARC
  5
B2
330
1F
100
AcDbEntity
  8
0
  6
Continuous
 62
     7
370
    25
100
AcDbCircle
 10
36.7942011675
 20
23.5239137392
 30
0.0
 40
0.0567084880019676
100
AcDbArc
 50
69.1249204837
 51
117.6173870129
  0
LWPOLYLINE
  5
B3
330
1F
100
AcDbEntity
  8
0
  6
Continuous
 62
     7
370
    25
100
AcDbPolyline
 90
       26
 70
   128
 43
0.0
 10
36.9029021295
 20
23.3403278364
 10
36.9043840293
 20
23.3412217311
 10
36.911007631
 20
23.3462961418
 10
36.9167746543
 20
23.3526276411
 10
36.9216197565
 20
23.3601444904
 10
36.9254880407
 20
23.3687615208
 10
36.9283356778
 20
23.378381098
 10
36.9301304027
 20
23.3888942283
 10
36.9308518806
 20
23.4001817937
 10
36.9304919368
 20
23.4121159016
 10
36.9290546497
 20
23.4245613338
 10
36.9265563042
 20
23.4373770786
 10
36.9230252077
 20
23.4504179284
 10
36.9185013688
 20
23.4635361253
 10
36.9130360445
 20
23.4765830347
 10
36.9066911591
 20
23.4894108301
 10
36.8995386026
 20
23.5018741674
 10
36.8916594165
 20
23.5138318319
 10
36.8831428749
 20
23.5251483386
 10
36.8740854738
 20
23.5356954668
 10
36.8645898371
 20
23.5453537136
 10
36.8547635541
 20
23.5540136469
 10
36.8447179606
 20
23.5615771465
 10
36.8345668772
 20
23.5679585146
 10
36.8244253197
 20
23.573085448
 10
36.814408196
 20
23.5768998564
  0
ARC
  5
B4
330
1F
100
AcDbEntity
  8
0
  6
Continuous
 62
     7
370
    25
100
AcDbCircle
 10
36.4410250574
 20
23.3242792183
 30
0.0
 40
0.0524144486935807
100
AcDbArc
 50
67.7699711275
 51
167.3224316112
  0
LWPOLYLINE
  5
B5
330
1F
100
AcDbEntity
  8
0
  6
Continuous
 62
     7
370
    25
100
AcDbPolyline
 90
       34
 70
   128
 43
0.0
 10
36.4801520913
 20
23.1439095411
 10
36.4877741313
 20
23.1397040796
 10
36.4978677777
 20
23.1352270635
 10
36.5077799842
 20
23.1320860752
 10
36.5173984414
 20
23.1303167035
 10
36.5266141684
 20
23.1299389962
 10
36.5353227474
 20
23.1309572326
 10
36.5434255067
 20
23.1333598759
 10
36.5508306387
 20
23.1371197031
 10
36.5574542404
 20
23.1421941139
 10
36.5632212637
 20
23.1485256131
 10
36.5680663659
 20
23.1560424624
 10
36.5719346502
 20
23.1646594928
 10
36.5747822872
 20
23.17427907
 10
36.5765770121
 20
23.1847922003
 10
36.57729849
 20
23.1960797657
 10
36.5769385462
 20
23.2080138736
 10
36.5755012591
 20
23.2204593058
 10
36.5730029136
 20
23.2332750506
 10
36.5694718171
 20
23.2463159004
 10
36.5649479782
 20
23.2594340973
 10
36.5594826539
 20
23.2724810068
 10
36.5531377685
 20
23.2853088022
 10
36.5459852121
 20
23.2977721394
 10
36.5381060259
 20
23.3097298039
 10
36.5295894843
 20
23.3210463106
 10
36.5205320832
 20
23.3315934389
 10
36.5110364465
 20
23.3412516856
 10
36.5012101635
 20
23.349911619
 10
36.49116457
 20
23.3574751185
 10
36.4810134866
 20
23.3638564867
 10
36.4708719291
 20
23.3689834201
 10
36.4608548054
 20
23.3727978285
 10
36.4608548054
 20
23.3727978285
  0
ARC
  5
B6
330
1F
100
AcDbEntity
  8
0
  6
Continuous
 62
     7
370
    25
100
AcDbCircle
 10
36.4442132646
 20
23.318478632
 30
0.0
 40
0.0489628980701353
100
AcDbArc
 50
68.1825967279
 51
170.1511836941
  0
LWPOLYLINE
  5
B7
330
1F
100
AcDbEntity
  8
0
  6
Continuous
 62
     7
370
    25
100
AcDbPolyline
 90
       32
 70
   128
 43
0.0
 10
36.4873821915
 20
23.148083389
 10
36.4965187646
 20
23.1440237155
 10
36.5060184469
 20
23.1410134482
 10
36.5152248083
 20
23.1393642746
 10
36.524026096
 20
23.1390962133
 10
36.5323154743
 20
23.1402125184
 10
36.5399923214
 20
23.1426996392
 10
36.5469634507
 20
23.1465273857
 10
36.5531442422
 20
23.151649294
 10
36.5584596695
 20
23.1580031912
 10
36.5628452105
 20
23.1655119496
 10
36.5662476306
 20
23.174084423
 10
36.5686256291
 20
23.1836165533
 10
36.5699503402
 20
23.1939926331
 10
36.5702056839
 20
23.2050867111
 10
36.5693885605
 20
23.2167641201
 10
36.5675088889
 20
23.2288831122
 10
36.5645894857
 20
23.2412965792
 10
36.5606657884
 20
23.2538538386
 10
36.5557854256
 20
23.2664024621
 10
36.5500076381
 20
23.2787901264
 10
36.5434025605
 20
23.2908664622
 10
36.5360503695
 20
23.302484879
 10
36.5280403107
 20
23.313504345
 10
36.5194696153
 20
23.3237910988
 10
36.5104423201
 20
23.3332202732
 10
36.5010680041
 20
23.3416774107
 10
36.4914604589
 20
23.3490598532
 10
36.481736307
 20
23.3552779878
 10
36.4720135864
 20
23.3602563348
 10
36.4624103179
 20
23.3639344637
 10
36.4624103179
 20
23.3639344637
  0
LWPOLYLINE
  5
B8
330
1F
100
AcDbEntity
  8
0
  6
Continuous
 62
     7
370
    25
100
AcDbPolyline
 90
       27
 70
   128
 43
0.0
 10
37.0590555009
 20
23.4781033659
 10
37.0613423877
 20
23.4795591464
 10
37.0666034576
 20
23.4841650636
 10
37.0709792834
 20
23.4899931377
 10
37.0743986827
 20
23.4969485625
 10
37.0768060318
 20
23.5049181931
 10
37.07816217
 20
23.5137723865
 10
37.0784450367
 20
23.5233671101
 10
37.0776500306
 20
23.5335462852
 10
37.075790084
 20
23.5441443256
 10
37.0728954531
 20
23.5549888315
 10
37.0690132252
 20
23.5659033938
 10
37.064206553
 20
23.5767104636
 10
37.0585536275
 20
23.5872342408
 10
37.0521464055
 20
23.5973035336
 10
37.0450891144
 20
23.6067545433
 10
37.037496556
 20
23.615433529
 10
37.0294922396
 20
23.6231993083
 10
37.0212063726
 20
23.6299255542
 10
37.0127737424
 20
23.6355028499
 10
37.0043315238
 20
23.6398404687
 10
36.9960170476
 20
23.6428678498
 10
36.9879655667
 20
23.6445357466
 10
36.9803080556
 20
23.644817027
 10
36.9731690802
 20
23.6437071153
 10
36.9666647711
 20
23.6412240668
 10
36.9653131198
 20
23.6404875276
  0
LWPOLYLINE
  5
B9
330
1F
100
AcDbEntity
  8
0
  6
Continuous
 62
     7
370
    25
100
AcDbPolyline
 90
       15
 70
   128
 43
0.0
 10
36.9328215449
 20
23.6217305407
 10
36.9314900118
 20
23.6242106077
 10
36.9253615088
 20
23.6344747451
 10
36.9185414577
 20
23.6441826177
 10
36.9111408014
 20
23.6531763063
 10
36.9032799273
 20
23.6613095091
 10
36.8950867094
 20
23.6684499222
 10
36.8866944281
 20
23.6744813914
 10
36.8782396017
 20
23.679305802
 10
36.8698597662
 20
23.6828446745
 10
36.8616912376
 20
23.6850404417
 10
36.8538668944
 20
23.6858573845
 10
36.8465140166
 20
23.6852822138
 10
36.8397522142
 20
23.6833242859
 10
36.8359783695
 20
23.6814712312
  0
LWPOLYLINE
  5
BA
330
1F
100
AcDbEntity
  8
0
  6
Continuous
 62
     7
370
    25
100
AcDbPolyline
 90
       69
 70
   128
 43
0.0
 10
33.3439729427
 20
22.5830147025
 10
33.3722164564
 20
22.5734377399
 10
33.4006549282
 20
22.5625455769
 10
33.4292499673
 20
22.5503529172
 10
33.4579629719
 20
22.5368762204
 10
33.4867551808
 20
22.5221336794
 10
33.5155877258
 20
22.506145196
 10
33.5444216844
 20
22.4889323538
 10
33.5732181319
 20
22.4705183894
 10
33.6019381947
 20
22.4509281607
 10
33.630543102
 20
22.4301881137
 10
33.6589942385
 20
22.4083262464
 10
33.6872531964
 20
22.3853720714
 10
33.7152818276
 20
22.3613565756
 10
33.7430422947
 20
22.3363121789
 10
33.7704971223
 20
22.3102726901
 10
33.7976092478
 20
22.2832732612
 10
33.824342071
 20
22.2553503401
 10
33.8506595039
 20
22.2265416216
 10
33.8765260192
 20
22.196885996
 10
33.9019066983
 20
22.1664234971
 10
33.9267672784
 20
22.1351952477
 10
33.9510741991
 20
22.1032434046
 10
33.974794647
 20
22.0706111012
 10
33.9978966007
 20
22.0373423896
 10
34.0203488736
 20
22.003482181
 10
34.0421211562
 20
21.9690761851
 10
34.063184057
 20
21.9341708484
 10
34.083509142
 20
21.8988132914
 10
34.1030689733
 20
21.8630512453
 10
34.1218371461
 20
21.8269329869
 10
34.1397883242
 20
21.7905072744
 10
34.1568982744
 20
21.7538232807
 10
34.173143899
 20
21.7169305275
 10
34.1885032672
 20
21.6798788183
 10
34.2029556445
 20
21.6427181711
 10
34.2164815211
 20
21.605498751
 10
34.2290626375
 20
21.5682708026
 10
34.2406820098
 20
21.5310845818
 10
34.2513239524
 20
21.4939902882
 10
34.2609740993
 20
21.4570379975
 10
34.2696194231
 20
21.4202775934
 10
34.2772482531
 20
21.3837587008
 10
34.2838502908
 20
21.3475306185
 10
34.2894166236
 20
21.3116422527
 10
34.2939397373
 20
21.276142051
 10
34.2974135259
 20
21.241077937
 10
34.2998332999
 20
21.2064972456
 10
34.3011957928
 20
21.1724466591
 10
34.3014991653
 20
21.1389721442
 10
34.3007430078
 20
21.1061188899
 10
34.2989283411
 20
21.0739312467
 10
34.2960576149
 20
21.0424526662
 10
34.2921347046
 20
21.0117256431
 10
34.2871649059
 20
20.9817916574
 10
34.2811549278
 20
20.9526911186
 10
34.2741128835
 20
20.9244633111
 10
34.2660482795
 20
20.897146341
 10
34.2569720024
 20
20.8707770851
 10
34.246896305
 20
20.8453911405
 10
34.2358347889
 20
20.8210227771
 10
34.2238023867
 20
20.797704891
 10
34.2108153415
 20
20.7754689604
 10
34.1968911852
 20
20.7543450026
 10
34.1820487148
 20
20.7343615339
 10
34.1663079669
 20
20.7155455312
 10
34.1496901908
 20
20.6979223952
 10
34.1322178198
 20
20.6815159163
 10
34.1260599995
 20
20.6761962792
  0
ARC
  5
BB
330
1F
100
AcDbEntity
  8
0
  6
Continuous
 62
     7
370
    25
100
AcDbCircle
 10
33.1751135866
 20
22.1118783622
 30
0.0
 40
0.5004827002958401
100
AcDbArc
 50
70.2818795206
 51
108.0964121789
  0
LINE
  5
BC
330
1F
100
AcDbEntity
  8
0
  6
Continuous
 62
     7
370
    25
100
AcDbLine
 10
18.7956449312
 20
7.7344919319
 30
0.0
 11
20.4656449312
 21
7.7344919319
 31
0.0
  0
LINE
  5
BD
330
1F
100
AcDbEntity
  8
0
  6
Continuous
 62
     7
370
    25
100
AcDbLine
 10
20.4656449312
 20
9.9544919319
 30
0.0
 11
19.1090449312
 21
9.9544919319
 31
0.0
  0
LINE
  5
BE
330
1F
100
AcDbEntity
  8
0
  6
Continuous
 62
     7
370
    25
100
AcDbLine
 10
18.9822449312
 20
9.9544919319
 30
0.0
 11
18.7956449312
 21
9.9544919319
 31
0.0
  0
LINE
  5
BF
330
1F
100
AcDbEntity
  8
0
  6
Continuous
 62
     7
370
    25
100
AcDbLine
 10
20.5006449312
 20
6.3444919319
 30
0.0
 11
20.8756449312
 21
6.3608647855
 31
0.0
  0
LINE
  5
C0
330
1F
100
AcDbEntity
  8
0
  6
Continuous
 62
     7
370
    25
100
AcDbLine
 10
20.8756449312
 20
11.3281190783
 30
0.0
 11
20.5006449312
 21
11.3444919319
 31
0.0
  0
LINE
  5
C1
330
1F
100
AcDbEntity
  8
0
  6
Continuous
 62
     7
370
    25
100
AcDbLine
 10
20.5006449312
 20
10.2129427905
 30
0.0
 11
20.4656449312
 21
10.2114146575
 31
0.0
  0
LINE
  5
C2
330
1F
100
AcDbEntity
  8
0
  6
Continuous
 62
     7
370
    25
100
AcDbLine
 10
20.4656449312
 20
7.4775692063
 30
0.0
 11
20.5006449312
 21
7.4760410733
 31
0.0
  0
LINE
  5
C3
330
1F
100
AcDbEntity
  8
0
  6
Continuous
 62
     7
370
    25
100
AcDbLine
 10
16.8656449312
 20
9.9544919319
 30
0.0
 11
16.8356449312
 21
9.9244919319
 31
0.0
  0
LINE
  5
C4
330
1F
100
AcDbEntity
  8
0
  6
Continuous
 62
     7
370
    25
100
AcDbLine
 10
16.8356449312
 20
7.7644919319
 30
0.0
 11
16.8656449312
 21
7.7344919319
 31
0.0
  0
LINE
  5
C5
330
1F
100
AcDbEntity
  8
0
  6
Continuous
 62
     7
370
    25
100
AcDbLine
 10
16.8656449312
 20
7.7344919319
 30
0.0
 11
18.7856449312
 21
7.7344919319
 31
0.0
  0
LINE
  5
C6
330
1F
100
AcDbEntity
  8
0
  6
Continuous
 62
     7
370
    25
100
AcDbLine
 10
18.7856449312
 20
9.9544919319
 30
0.0
 11
16.8656449312
 21
9.9544919319
 31
0.0
  0
ARC
  5
C7
330
1F
100
AcDbEntity
  8
0
  6
Continuous
 62
     7
370
    25
100
AcDbCircle
 10
18.7856449312
 20
9.9444919319
 30
0.0
 40
0.0100000000000016
100
AcDbArc
 50
360.0
 51
90.0
  0
ARC
  5
C8
330
1F
100
AcDbEntity
  8
0
  6
Continuous
 62
     7
370
    25
100
AcDbCircle
 10
18.7856449312
 20
7.7444919319
 30
0.0
 40
0.0099999999999998
100
AcDbArc
 50
270.0
 51
0.0
  0
LINE
  5
C9
330
1F
100
AcDbEntity
  8
0
  6
Continuous
 62
     7
370
    25
100
AcDbLine
 10
14.1836449312
 20
8.7301153092
 30
0.0
 11
14.6836449312
 21
8.7301153092
 31
0.0
  0
LINE
  5
CA
330
1F
100
AcDbEntity
  8
0
  6
Continuous
 62
     7
370
    25
100
AcDbLine
 10
14.6836449312
 20
9.0001153092
 30
0.0
 11
14.1836449312
 21
9.0001153092
 31
0.0
  0
LINE
  5
CB
330
1F
100
AcDbEntity
  8
0
  6
Continuous
 62
     7
370
    25
100
AcDbLine
 10
13.9336449312
 20
8.7301185546
 30
0.0
 11
16.4481449312
 21
8.7301185546
 31
0.0
  0
LINE
  5
CC
330
1F
100
AcDbEntity
  8
0
  6
Continuous
 62
     7
370
    25
100
AcDbLine
 10
16.4481449312
 20
8.9176185546
 30
0.0
 11
13.9336449312
 21
8.9176185546
 31
0.0
  0
LINE
  5
CD
330
1F
100
AcDbEntity
  8
0
  6
Continuous
 62
     7
370
    25
100
AcDbLine
 10
16.4481449312
 20
8.9588653092
 30
0.0
 11
14.6836449312
 21
8.9588653092
 31
0.0
  0
LINE
  5
CE
330
1F
100
AcDbEntity
  8
0
  6
Continuous
 62
     7
370
    25
100
AcDbLine
 10
14.1836449312
 20
8.9588653092
 30
0.0
 11
13.9336449312
 21
8.9588653092
 31
0.0
  0
LINE
  5
CF
330
1F
100
AcDbEntity
  8
0
  6
Continuous
 62
     7
370
    25
100
AcDbLine
 10
16.7106449312
 20
8.3494919319
 30
0.0
 11
16.8356449312
 21
8.3494919319
 31
0.0
  0
LINE
  5
D0
330
1F
100
AcDbEntity
  8
0
  6
Continuous
 62
     7
370
    25
100
AcDbLine
 10
16.8356449312
 20
9.3394919319
 30
0.0
 11
16.7106449312
 21
9.3394919319
 31
0.0
  0
LINE
  5
D1
330
1F
100
AcDbEntity
  8
0
  6
Continuous
 62
     7
370
    25
100
AcDbLine
 10
16.7106449312
 20
9.1882419319
 30
0.0
 11
16.6976449312
 21
9.1882419319
 31
0.0
  0
LINE
  5
D2
330
1F
100
AcDbEntity
  8
0
  6
Continuous
 62
     7
370
    25
100
AcDbLine
 10
16.6976449312
 20
8.5007419319
 30
0.0
 11
16.7106449312
 21
8.5007419319
 31
0.0
  0
LINE
  5
D3
330
1F
100
AcDbEntity
  8
0
  6
Continuous
 62
     7
370
    25
100
AcDbLine
 10
16.4681449312
 20
9.1849329481
 30
0.0
 11
16.4481449312
 21
9.1502919319
 31
0.0
  0
LINE
  5
D4
330
1F
100
AcDbEntity
  8
0
  6
Continuous
 62
     7
370
    25
100
AcDbLine
 10
16.4881449312
 20
9.1502919319
 30
0.0
 11
16.4681449312
 21
9.1849329481
 31
0.0
  0
LINE
  5
D5
330
1F
100
AcDbEntity
  8
0
  6
Continuous
 62
     7
370
    25
100
AcDbLine
 10
16.5081449312
 20
9.1849329481
 30
0.0
 11
16.4881449312
 21
9.1502919319
 31
0.0
  0
LINE
  5
D6
330
1F
100
AcDbEntity
  8
0
  6
Continuous
 62
     7
370
    25
100
AcDbLine
 10
16.5681449312
 20
9.1502919319
 30
0.0
 11
16.5481449312
 21
9.1849329481
 31
0.0
  0
LINE
  5
D7
330
1F
100
AcDbEntity
  8
0
  6
Continuous
 62
     7
370
    25
100
AcDbLine
 10
16.5881449312
 20
9.1849329481
 30
0.0
 11
16.5681449312
 21
9.1502919319
 31
0.0
  0
LINE
  5
D8
330
1F
100
AcDbEntity
  8
0
  6
Continuous
 62
     7
370
    25
100
AcDbLine
 10
16.6081449312
 20
9.1502919319
 30
0.0
 11
16.5881449312
 21
9.1849329481
 31
0.0
  0
LINE
  5
D9
330
1F
100
AcDbEntity
  8
0
  6
Continuous
 62
     7
370
    25
100
AcDbLine
 10
16.5281449312
 20
9.1502919319
 30
0.0
 11
16.5081449312
 21
9.1849329481
 31
0.0
  0
LINE
  5
DA
330
1F
100
AcDbEntity
  8
0
  6
Continuous
 62
     7
370
    25
100
AcDbLine
 10
16.5481449312
 20
9.1849329481
 30
0.0
 11
16.5281449312
 21
9.1502919319
 31
0.0
  0
LINE
  5
DB
330
1F
100
AcDbEntity
  8
0
  6
Continuous
 62
     7
370
    25
100
AcDbLine
 10
16.6276449312
 20
9.1840669226
 30
0.0
 11
16.6081449312
 21
9.1502919319
 31
0.0
  0
LINE
  5
DC
330
1F
100
AcDbEntity
  8
0
  6
Continuous
 62
     7
370
    25
100
AcDbLine
 10
16.6976449312
 20
9.1444919319
 30
0.0
 11
16.6276449312
 21
9.1444919319
 31
0.0
  0
LINE
  5
DD
330
1F
100
AcDbEntity
  8
0
  6
Continuous
 62
     7
370
    25
100
AcDbLine
 10
16.6276449312
 20
8.5444919319
 30
0.0
 11
16.6976449312
 21
8.5444919319
 31
0.0
  0
LINE
  5
DE
330
1F
100
AcDbEntity
  8
0
  6
Continuous
 62
     7
370
    25
100
AcDbLine
 10
16.4481449312
 20
8.5386919319
 30
0.0
 11
16.4681449312
 21
8.5040509157
 31
0.0
  0
LINE
  5
DF
330
1F
100
AcDbEntity
  8
0
  6
Continuous
 62
     7
370
    25
100
AcDbLine
 10
16.4681449312
 20
8.5040509157
 30
0.0
 11
16.4881449312
 21
8.5386919319
 31
0.0
  0
LINE
  5
E0
330
1F
100
AcDbEntity
  8
0
  6
Continuous
 62
     7
370
    25
100
AcDbLine
 10
16.4881449312
 20
8.5386919319
 30
0.0
 11
16.5081449312
 21
8.5040509157
 31
0.0
  0
LINE
  5
E1
330
1F
100
AcDbEntity
  8
0
  6
Continuous
 62
     7
370
    25
100
AcDbLine
 10
16.5481449312
 20
8.5040509157
 30
0.0
 11
16.5681449312
 21
8.5386919319
 31
0.0
  0
LINE
  5
E2
330
1F
100
AcDbEntity
  8
0
  6
Continuous
 62
     7
370
    25
100
AcDbLine
 10
16.5681449312
 20
8.5386919319
 30
0.0
 11
16.5881449312
 21
8.5040509157
 31
0.0
  0
LINE
  5
E3
330
1F
100
AcDbEntity
  8
0
  6
Continuous
 62
     7
370
    25
100
AcDbLine
 10
16.5081449312
 20
8.5040509157
 30
0.0
 11
16.5281449312
 21
8.5386919319
 31
0.0
  0
LINE
  5
E4
330
1F
100
AcDbEntity
  8
0
  6
Continuous
 62
     7
370
    25
100
AcDbLine
 10
16.5281449312
 20
8.5386919319
 30
0.0
 11
16.5481449312
 21
8.5040509157
 31
0.0
  0
LINE
  5
E5
330
1F
100
AcDbEntity
  8
0
  6
Continuous
 62
     7
370
    25
100
AcDbLine
 10
16.5881449312
 20
8.5040509157
 30
0.0
 11
16.6081449312
 21
8.5386919319
 31
0.0
  0
LINE
  5
E6
330
1F
100
AcDbEntity
  8
0
  6
Continuous
 62
     7
370
    25
100
AcDbLine
 10
16.6081449312
 20
8.5386919319
 30
0.0
 11
16.6276449312
 21
8.5049169412
 31
0.0
  0
SPLINE
  5
E7
330
1F
100
AcDbEntity
  8
0
  6
Continuous
 62
     7
370
    25
100
AcDbSpline
210
0.0
220
0.0
230
1.0
 70
    11
 71
     3
 72
    44
 73
    40
 74
     0
 42
0.00000001
 43
0.00000001
 40
0.0
 40
0.0
 40
0.0
 40
0.0
 40
0.0268132602862638
 40
0.0536266644322141
 40
0.0804383625137269
 40
0.107250266889907
 40
0.1340938280604562
 40
0.1609373368108822
 40
0.1878020595931768
 40
0.2146665517760573
 40
0.2414968427518519
 40
0.2683270849932151
 40
0.295121188716467
 40
0.3219154992981847
 40
0.3487279238935025
 40
0.3755404890686892
 40
0.402397247976681
 40
0.4292538607291183
 40
0.45611192433437
 40
0.4829697810762892
 40
0.5097838560717297
 40
0.5365979871666199
 40
0.5633915041607777
 40
0.5901852501849753
 40
0.617013651591512
 40
0.6438420984067945
 40
0.6707064229963755
 40
0.6975705372492014
 40
0.7244158069054039
 40
0.751260938519069
 40
0.7780620098939782
 40
0.8048632293856224
 40
0.8316638205822758
 40
0.8584646143373593
 40
0.8853091099274693
 40
0.9121535471252123
 40
0.9390180776821774
 40
0.9658823768778757
 40
1.0
 40
1.0
 40
1.0
 40
1.0
 10
19.04564493124305
 20
8.172991009987703
 30
0.0
 10
19.04182618299399
 20
8.173142514556586
 30
0.0
 10
19.03418866600735
 20
8.173445524507212
 30
0.0
 10
19.02305159251773
 20
8.17581545464728
 30
0.0
 10
19.01256943865609
 20
8.179568162381909
 30
0.0
 10
19.00300219489175
 20
8.184696943049945
 30
0.0
 10
18.99466486264
 20
8.191088434058283
 30
0.0
 10
18.98773851157467
 20
8.198544905051842
 30
0.0
 10
18.98248758067432
 20
8.206908457486293
 30
0.0
 10
18.97899414505045
 20
8.215920027033164
 30
0.0
 10
18.97743321724319
 20
8.22535393602185
 30
0.0
 10
18.97776755204907
 20
8.234927677136849
 30
0.0
 10
18.98006351561318
 20
8.244374595401279
 30
0.0
 10
18.98417537363118
 20
8.253431376569436
 30
0.0
 10
18.9900622922663
 20
8.261814757694484
 30
0.0
 10
18.99749477552687
 20
8.26930842160333
 30
0.0
 10
19.00632472039844
 20
8.27563909029043
 30
0.0
 10
19.01625421110183
 20
8.280660130479495
 30
0.0
 10
19.02703761877291
 20
8.284150923254325
 30
0.0
 10
19.03833450408573
 20
8.28606517447343
 30
0.0
 10
19.04983747102707
 20
8.286274697458094
 30
0.0
 10
19.06121450843141
 20
8.284847640210755
 30
0.0
 10
19.07213734646399
 20
8.281761123503811
 30
0.0
 10
19.08232644365808
 20
8.277179248188064
 30
0.0
 10
19.0914592335593
 20
8.271181650832649
 30
0.0
 10
19.09932775072022
 20
8.264002512101312
 30
0.0
 10
19.10564575369245
 20
8.25581730288827
 30
0.0
 10
19.11029638861985
 20
8.246908106728151
 30
0.0
 10
19.11307233877645
 20
8.237520826939026
 30
0.0
 10
19.11397242159323
 20
8.227947507134196
 30
0.0
 10
19.11289544295213
 20
8.218461209484564
 30
0.0
 10
19.10995537760537
 20
8.209316966462875
 30
0.0
 10
19.10515912462508
 20
8.200781933671927
 30
0.0
 10
19.09871162518435
 20
8.19304891388276
 30
0.0
 10
19.09072678352992
 20
8.186363697024523
 30
0.0
 10
19.08148255658972
 20
8.180842647776547
 30
0.0
 10
19.0711953577958
 20
8.17672285655463
 30
0.0
 10
19.05920512565248
 20
8.17364963817124
 30
0.0
 10
19.05050974526696
 20
8.17322729742777
 30
0.0
 10
19.04564493124305
 20
8.172991009987703
 30
0.0
  0
SPLINE
  5
E8
330
1F
100
AcDbEntity
  8
0
  6
Continuous
 62
     7
370
    25
100
AcDbSpline
210
0.0
220
0.0
230
1.0
 70
     8
 71
     3
 72
    21
 73
    17
 74
     0
 42
0.00000001
 43
0.00000001
 40
0.0
 40
0.0
 40
0.0
 40
0.0
 40
0.0756480851731754
 40
0.1534924899609108
 40
0.2291398548523758
 40
0.3069761107841803
 40
0.3827123747621257
 40
0.4606413749608637
 40
0.5364327533638293
 40
0.6144273726177493
 40
0.6901215717081798
 40
0.7680168348079819
 40
0.8436134862552255
 40
0.9213997924305786
 40
0.9970501840350006
 40
1.0
 40
1.0
 40
1.0
 40
1.0
 10
19.04564493124304
 20
9.94567683413871
 30
0.0
 10
19.0418802768166
 20
9.945699748633722
 30
0.0
 10
19.03424166732062
 20
9.945746242908985
 30
0.0
 10
19.02315643716906
 20
9.94611545068421
 30
0.0
 10
19.01261186174694
 20
9.946682819820534
 30
0.0
 10
19.00309125560834
 20
9.947422359996812
 30
0.0
 10
18.99469211397284
 20
9.948292661123647
 30
0.0
 10
18.9878021512437
 20
9.949226087638985
 30
0.0
 10
18.98249633506463
 20
9.950183136079659
 30
0.0
 10
18.9790253967144
 20
9.951095111640877
 30
0.0
 10
18.97742051072193
 20
9.95193504783989
 30
0.0
 10
18.97776976593889
 20
9.95265460750843
 30
0.0
 10
18.98000556647389
 20
9.953252820154479
 30
0.0
 10
18.98424575671112
 20
9.953698181158877
 30
0.0
 10
18.98787307769271
 20
9.953945873316467
 30
0.0
 10
18.99040780782639
 20
9.954020736620087
 30
0.0
 10
18.99050293464153
 20
9.954023546192417
 30
0.0
  0
SPLINE
  5
E9
330
1F
100
AcDbEntity
  8
0
  6
Continuous
 62
     7
370
    25
100
AcDbSpline
210
0.0
220
0.0
230
1.0
 70
     8
 71
     3
 72
    20
 73
    16
 74
     0
 42
0.00000001
 43
0.00000001
 40
0.0
 40
0.0
 40
0.0
 40
0.0
 40
0.0563362305192687
 40
0.1343326216848144
 40
0.2100724203122983
 40
0.2880157722517045
 40
0.3636345672737216
 40
0.4414466688624437
 40
0.5170677107972098
 40
0.594874868693525
 40
0.6706177154498304
 40
0.7485536649348264
 40
0.8243484740638708
 40
0.9023467670285414
 40
1.0
 40
1.0
 40
1.0
 40
1.0
 10
19.10066486278561
 20
9.95401500044349
 30
0.0
 10
19.10228078365421
 20
9.953947515935276
 30
0.0
 10
19.10613391484019
 20
9.953786600467069
 30
0.0
 10
19.11022197816526
 20
9.953394061803035
 30
0.0
 10
19.11308569426969
 20
9.952839541699044
 30
0.0
 10
19.11396418078921
 20
9.952153942650902
 30
0.0
 10
19.11291926338988
 20
9.95134452769644
 30
0.0
 10
19.1099855768263
 20
9.950453047781657
 30
0.0
 10
19.10519831600668
 20
9.949503633933311
 30
0.0
 10
19.09877476593633
 20
9.9485614987337
 30
0.0
 10
19.09077781825475
 20
9.947664927902428
 30
0.0
 10
19.0815718586084
 20
9.94688287548483
 30
0.0
 10
19.07125258030795
 20
9.946259903869617
 30
0.0
 10
19.05925852403468
 20
9.94578253666158
 30
0.0
 10
19.05050913980558
 20
9.945714602208074
 30
0.0
 10
19.04564493124304
 20
9.94567683413871
 30
0.0
  0
LINE
  5
EA
330
1F
100
AcDbEntity
  8
0
  6
Continuous
 62
     7
370
    25
100
AcDbLine
 10
18.7956449312
 20
9.9544919319
 30
0.0
 11
18.7956449312
 21
7.7344919319
 31
0.0
  0
SPLINE
  5
EB
330
1F
100
AcDbEntity
  8
0
  6
Continuous
 62
     7
370
    25
100
AcDbSpline
210
0.0
220
0.0
230
1.0
 70
     8
 71
     3
 72
    15
 73
    11
 74
     0
 42
0.00000001
 43
0.00000001
 40
0.0
 40
0.0
 40
0.0
 40
0.0
 40
0.1415810008654241
 40
0.2831628757308797
 40
0.424734388072167
 40
0.5663071530675481
 40
0.7080721940636814
 40
0.8498369170902692
 40
0.9917305776140014
 40
1.0
 40
1.0
 40
1.0
 40
1.0
 10
19.04564493124305
 20
8.214703015888016
 30
0.0
 10
19.04182672869747
 20
8.21485397527666
 30
0.0
 10
19.034190300036
 20
8.215155894985836
 30
0.0
 10
19.02305588457104
 20
8.217518127883896
 30
0.0
 10
19.01257245116234
 20
8.221257770955539
 30
0.0
 10
19.00301765157172
 20
8.226375225278948
 30
0.0
 10
18.99463727695923
 20
8.232737057545469
 30
0.0
 10
18.98787020025599
 20
8.240229632051266
 30
0.0
 10
18.98385569431691
 20
8.245828503036321
 30
0.0
 10
18.98264833199278
 20
8.248998342974545
 30
0.0
 10
18.98258184302068
 20
8.249172904823151
 30
0.0
  0
SPLINE
  5
EC
330
1F
100
AcDbEntity
  8
0
  6
Continuous
 62
     7
370
    25
100
AcDbSpline
210
0.0
220
0.0
230
1.0
 70
     8
 71
     3
 72
    14
 73
    10
 74
     0
 42
0.00000001
 43
0.00000001
 40
0.0
 40
0.0
 40
0.0
 40
0.0
 40
0.1121565291990673
 40
0.2533962207323902
 40
0.3949005803404229
 40
0.536404589682109
 40
0.6780310575665023
 40
0.8196561212437061
 40
1.0
 40
1.0
 40
1.0
 40
1.0
 10
19.10867900008187
 20
8.249334944880449
 30
0.0
 10
19.10750493144002
 20
8.24704900717177
 30
0.0
 10
19.10485234795826
 20
8.241884368248419
 30
0.0
 10
19.09870333235458
 20
8.234748682329394
 30
0.0
 10
19.09076806600351
 20
8.228058451345147
 30
0.0
 10
19.08151668903495
 20
8.222550827165882
 30
0.0
 10
19.07123537225119
 20
8.218435960732474
 30
0.0
 10
19.05923285627689
 20
8.215362768672302
 30
0.0
 10
19.05052336356944
 20
8.214939884968635
 30
0.0
 10
19.04564493124305
 20
8.214703015888016
 30
0.0
  0
LINE
  5
ED
330
1F
100
AcDbEntity
  8
0
  6
Continuous
 62
     7
370
    25
100
AcDbLine
 10
20.5006449312
 20
11.3444919319
 30
0.0
 11
20.5006449312
 21
6.3444919319
 31
0.0
  0
LINE
  5
EE
330
1F
100
AcDbEntity
  8
0
  6
Continuous
 62
     7
370
    25
100
AcDbLine
 10
20.8756449312
 20
11.3281190783
 30
0.0
 11
20.8756449312
 21
6.3608647855
 31
0.0
  0
LINE
  5
EF
330
1F
100
AcDbEntity
  8
0
  6
Continuous
 62
     7
370
    25
100
AcDbLine
 10
20.4656449312
 20
10.2114146575
 30
0.0
 11
20.4656449312
 21
7.4775692063
 31
0.0
  0
LWPOLYLINE
  5
F0
330
1F
100
AcDbEntity
  8
0
  6
Continuous
 62
     7
370
    25
100
AcDbPolyline
 90
       51
 70
   128
 43
0.0
 10
19.1074634231
 20
8.2773048262
 10
19.1087397125
 20
8.2841108133
 10
19.1090209594
 20
8.2910016639
 10
19.1083027285
 20
8.2978687051
 10
19.1065963468
 20
8.3046036396
 10
19.1039287247
 20
8.3111002535
 10
19.1003419325
 20
8.3172560912
 10
19.0958925359
 20
8.3229740715
 10
19.0906507045
 20
8.3281640185
 10
19.0846991052
 20
8.3327440836
 10
19.0781315982
 20
8.3366420364
 10
19.0710517571
 20
8.3397964039
 10
19.0635712352
 20
8.3421574398
 10
19.0558080048
 20
8.3436879092
 10
19.0478844966
 20
8.3443636756
 10
19.0399256691
 20
8.3441740819
 10
19.0320570378
 20
8.343122118
 10
19.0244026957
 20
8.3412243741
 10
19.0170833564
 20
8.3385107786
 10
19.0102144501
 20
8.3350241266
 10
19.0039043037
 20
8.3308194047
 10
18.998252432
 20
8.3259629239
 10
18.9933479682
 20
8.3205312738
 10
18.9892682588
 20
8.3146101147
 10
18.9860776432
 20
8.3082928268
 10
18.9838264394
 20
8.3016790376
 10
18.98255015
 20
8.2948730505
 10
18.9822689031
 20
8.2879821999
 10
18.982987134
 20
8.2811151587
 10
18.9846935157
 20
8.2743802242
 10
18.9873611377
 20
8.2678836103
 10
18.99094793
 20
8.2617277726
 10
18.9953973266
 20
8.2560097923
 10
19.000639158
 20
8.2508198453
 10
19.0065907573
 20
8.2462397802
 10
19.0131582642
 20
8.2423418274
 10
19.0202381053
 20
8.2391874599
 10
19.0277186273
 20
8.236826424
 10
19.0354818577
 20
8.2352959546
 10
19.0434053659
 20
8.2346201882
 10
19.0513641934
 20
8.2348097819
 10
19.0592328247
 20
8.2358617458
 10
19.0668871667
 20
8.2377594897
 10
19.0742065061
 20
8.2404730852
 10
19.0810754123
 20
8.2439597372
 10
19.0873855587
 20
8.2481644591
 10
19.0930374305
 20
8.2530209399
 10
19.0979418943
 20
8.25845259
 10
19.1020216037
 20
8.2643737491
 10
19.1052122192
 20
8.270691037
 10
19.1074634231
 20
8.2773048262
  0
ARC
  5
F1
330
1F
100
AcDbEntity
  8
0
  6
Continuous
 62
     7
370
    25
100
AcDbCircle
 10
19.0424108536
 20
8.3061168574
 30
0.0
 40
0.0751101543380727
100
AcDbArc
 50
221.7494239391
 51
259.8265387741
  0
ARC
  5
F2
330
1F
100
AcDbEntity
  8
0
  6
Continuous
 62
     7
370
    25
100
AcDbCircle
 10
19.0459992548
 20
8.3107525157
 30
0.0
 40
0.0803525637951693
100
AcDbArc
 50
257.8915167114
 51
317.3337140258
  0
LINE
  5
F3
330
1F
100
AcDbEntity
  8
0
  6
Continuous
 62
     7
370
    25
100
AcDbLine
 10
19.0323465062
 20
8.3267526876
 30
0.0
 11
19.001734963
 21
8.298148491
 31
0.0
  0
LINE
  5
F4
330
1F
100
AcDbEntity
  8
0
  6
Continuous
 62
     7
370
    25
100
AcDbLine
 10
19.0150333881
 20
8.2608877352
 30
0.0
 11
19.001734963
 21
8.298148491
 31
0.0
  0
LINE
  5
F5
330
1F
100
AcDbEntity
  8
0
  6
Continuous
 62
     7
370
    25
100
AcDbLine
 10
19.0589433563
 20
8.2522311762
 30
0.0
 11
19.0150333881
 21
8.2608877352
 31
0.0
  0
LINE
  5
F6
330
1F
100
AcDbEntity
  8
0
  6
Continuous
 62
     7
370
    25
100
AcDbLine
 10
19.0589433563
 20
8.2522311762
 30
0.0
 11
19.0895548995
 21
8.2808353728
 31
0.0
  0
LINE
  5
F7
330
1F
100
AcDbEntity
  8
0
  6
Continuous
 62
     7
370
    25
100
AcDbLine
 10
19.0762564744
 20
8.3180961286
 30
0.0
 11
19.0895548995
 21
8.2808353728
 31
0.0
  0
LINE
  5
F8
330
1F
100
AcDbEntity
  8
0
  6
Continuous
 62
     7
370
    25
100
AcDbLine
 10
19.0762564744
 20
8.3180961286
 30
0.0
 11
19.0323465062
 21
8.3267526876
 31
0.0
  0
LINE
  5
F9
330
1F
100
AcDbEntity
  8
0
  6
Continuous
 62
     7
370
    25
100
AcDbLine
 10
19.0150333881
 20
8.2797179981
 30
0.0
 11
19.0150333881
 21
8.2608877352
 31
0.0
  0
LINE
  5
FA
330
1F
100
AcDbEntity
  8
0
  6
Continuous
 62
     7
370
    25
100
AcDbLine
 10
19.0589433563
 20
8.2848483417
 30
0.0
 11
19.0589433563
 21
8.2522311762
 31
0.0
  0
LINE
  5
FB
330
1F
100
AcDbEntity
  8
0
  6
Continuous
 62
     7
370
    25
100
AcDbLine
 10
19.1074634231
 20
9.9544919319
 30
0.0
 11
19.1090449312
 21
9.9544919319
 31
0.0
  0
LINE
  5
FC
330
1F
100
AcDbEntity
  8
0
  6
Continuous
 62
     7
370
    25
100
AcDbLine
 10
18.9822449312
 20
9.9544919319
 30
0.0
 11
19.1074634231
 21
9.9544919319
 31
0.0
  0
LINE
  5
FD
330
1F
100
AcDbEntity
  8
0
  6
Continuous
 62
     7
370
    25
100
AcDbLine
 10
16.8656449312
 20
9.9273011226
 30
0.0
 11
16.8656449312
 21
7.7344919319
 31
0.0
  0
LINE
  5
FE
330
1F
100
AcDbEntity
  8
0
  6
Continuous
 62
     7
370
    25
100
AcDbLine
 10
16.8656449312
 20
9.9544919319
 30
0.0
 11
16.8656449312
 21
9.9273011226
 31
0.0
  0
LINE
  5
FF
330
1F
100
AcDbEntity
  8
0
  6
Continuous
 62
     7
370
    25
100
AcDbLine
 10
16.8356449312
 20
9.8980360093
 30
0.0
 11
16.8356449312
 21
9.9244919319
 31
0.0
  0
LINE
  5
100
330
1F
100
AcDbEntity
  8
0
  6
Continuous
 62
     7
370
    25
100
AcDbLine
 10
16.8356449312
 20
7.7644919319
 30
0.0
 11
16.8356449312
 21
9.8980360093
 31
0.0
  0
LINE
  5
101
330
1F
100
AcDbEntity
  8
0
  6
Continuous
 62
     7
370
    25
100
AcDbLine
 10
14.1836449312
 20
8.9968083188
 30
0.0
 11
14.1836449312
 21
8.9176185546
 31
0.0
  0
LINE
  5
102
330
1F
100
AcDbEntity
  8
0
  6
Continuous
 62
     7
370
    25
100
AcDbLine
 10
14.1836449312
 20
8.7301185546
 30
0.0
 11
14.1836449312
 21
8.7301153092
 31
0.0
  0
LINE
  5
103
330
1F
100
AcDbEntity
  8
0
  6
Continuous
 62
     7
370
    25
100
AcDbLine
 10
14.1836449312
 20
9.0001153092
 30
0.0
 11
14.1836449312
 21
8.9968083188
 31
0.0
  0
LINE
  5
104
330
1F
100
AcDbEntity
  8
0
  6
Continuous
 62
     7
370
    25
100
AcDbLine
 10
14.6836449312
 20
8.9968083188
 30
0.0
 11
14.6836449312
 21
8.9176185546
 31
0.0
  0
LINE
  5
105
330
1F
100
AcDbEntity
  8
0
  6
Continuous
 62
     7
370
    25
100
AcDbLine
 10
14.6836449312
 20
8.7301185546
 30
0.0
 11
14.6836449312
 21
8.7301153092
 31
0.0
  0
LINE
  5
106
330
1F
100
AcDbEntity
  8
0
  6
Continuous
 62
     7
370
    25
100
AcDbLine
 10
14.6836449312
 20
9.0001153092
 30
0.0
 11
14.6836449312
 21
8.9968083188
 31
0.0
  0
LINE
  5
107
330
1F
100
AcDbEntity
  8
0
  6
Continuous
 62
     7
370
    25
100
AcDbLine
 10
13.9336449312
 20
8.9176185546
 30
0.0
 11
13.9336449312
 21
8.7301185546
 31
0.0
  0
LINE
  5
108
330
1F
100
AcDbEntity
  8
0
  6
Continuous
 62
     7
370
    25
100
AcDbLine
 10
13.9336449312
 20
8.9588653092
 30
0.0
 11
13.9336449312
 21
8.9176185546
 31
0.0
  0
LINE
  5
109
330
1F
100
AcDbEntity
  8
0
  6
Continuous
 62
     7
370
    25
100
AcDbLine
 10
16.7106449312
 20
9.3394919319
 30
0.0
 11
16.7106449312
 21
8.3494919319
 31
0.0
  0
LINE
  5
10A
330
1F
100
AcDbEntity
  8
0
  6
Continuous
 62
     7
370
    25
100
AcDbLine
 10
16.6976449312
 20
9.1882419319
 30
0.0
 11
16.6976449312
 21
8.5007419319
 31
0.0
  0
LINE
  5
10B
330
1F
100
AcDbEntity
  8
0
  6
Continuous
 62
     7
370
    25
100
AcDbLine
 10
16.4481449312
 20
9.1502919319
 30
0.0
 11
16.4481449312
 21
8.8997313331
 31
0.0
  0
LINE
  5
10C
330
1F
100
AcDbEntity
  8
0
  6
Continuous
 62
     7
370
    25
100
AcDbLine
 10
16.4681449312
 20
8.9697521149
 30
0.0
 11
16.4681449312
 21
9.1849329481
 31
0.0
  0
SPLINE
  5
10D
330
1F
100
AcDbEntity
  8
0
  6
Continuous
 62
     7
370
    25
100
AcDbSpline
210
0.0
220
0.0
230
1.0
 70
     8
 71
     3
 72
     9
 73
     5
 74
     0
 42
0.00000001
 43
0.00000001
 40
0.0
 40
0.0
 40
0.0
 40
0.0
 40
0.4995107894512592
 40
1.0
 40
1.0
 40
1.0
 40
1.0
 10
16.46814493124304
 20
8.969752114909404
 30
0.0
 10
16.46440477246207
 20
8.9582048771064
 30
0.0
 10
16.45691712883166
 20
8.935087783248045
 30
0.0
 10
16.45107090379589
 20
8.911524501397766
 30
0.0
 10
16.44814493124305
 20
8.899731333066581
 30
0.0
  0
LINE
  5
10E
330
1F
100
AcDbEntity
  8
0
  6
Continuous
 62
     7
370
    25
100
AcDbLine
 10
16.4881449312
 20
9.1502919319
 30
0.0
 11
16.4881449312
 21
8.8997313331
 31
0.0
  0
SPLINE
  5
10F
330
1F
100
AcDbEntity
  8
0
  6
Continuous
 62
     7
370
    25
100
AcDbSpline
210
0.0
220
0.0
230
1.0
 70
     8
 71
     3
 72
    10
 73
     6
 74
     0
 42
0.00000001
 43
0.00000001
 40
0.0
 40
0.0
 40
0.0
 40
0.0
 40
0.4661492107783567
 40
0.9332262706972273
 40
1.0
 40
1.0
 40
1.0
 40
1.0
 10
16.48814493124304
 20
8.899731333066581
 30
0.0
 10
16.48541703872952
 20
8.910712984998813
 30
0.0
 10
16.47995582395453
 20
8.932698147349939
 30
0.0
 10
16.47273648756924
 20
8.955901833650817
 30
0.0
 10
16.46865539215455
 20
8.968212326067949
 30
0.0
 10
16.46814493124304
 20
8.969752114909404
 30
0.0
  0
LINE
  5
110
330
1F
100
AcDbEntity
  8
0
  6
Continuous
 62
     7
370
    25
100
AcDbLine
 10
16.5081449312
 20
8.9697521149
 30
0.0
 11
16.5081449312
 21
9.1849329481
 31
0.0
  0
SPLINE
  5
111
330
1F
100
AcDbEntity
  8
0
  6
Continuous
 62
     7
370
    25
100
AcDbSpline
210
0.0
220
0.0
230
1.0
 70
     8
 71
     3
 72
     9
 73
     5
 74
     0
 42
0.00000001
 43
0.00000001
 40
0.0
 40
0.0
 40
0.0
 40
0.0
 40
0.4995107894512578
 40
1.0
 40
1.0
 40
1.0
 40
1.0
 10
16.50814493124304
 20
8.969752114909404
 30
0.0
 10
16.50440477246207
 20
8.9582048771064
 30
0.0
 10
16.49691712883165
 20
8.935087783248047
 30
0.0
 10
16.49107090379588
 20
8.911524501397766
 30
0.0
 10
16.48814493124304
 20
8.899731333066581
 30
0.0
  0
LINE
  5
112
330
1F
100
AcDbEntity
  8
0
  6
Continuous
 62
     7
370
    25
100
AcDbLine
 10
16.5481449312
 20
8.9697521149
 30
0.0
 11
16.5481449312
 21
9.1849329481
 31
0.0
  0
LINE
  5
113
330
1F
100
AcDbEntity
  8
0
  6
Continuous
 62
     7
370
    25
100
AcDbLine
 10
16.5681449312
 20
9.1502919319
 30
0.0
 11
16.5681449312
 21
8.8997313331
 31
0.0
  0
SPLINE
  5
114
330
1F
100
AcDbEntity
  8
0
  6
Continuous
 62
     7
370
    25
100
AcDbSpline
210
0.0
220
0.0
230
1.0
 70
     8
 71
     3
 72
    10
 73
     6
 74
     0
 42
0.00000001
 43
0.00000001
 40
0.0
 40
0.0
 40
0.0
 40
0.0
 40
0.4661492107783564
 40
0.9332262706972279
 40
0.9999999999999999
 40
0.9999999999999999
 40
0.9999999999999999
 40
0.9999999999999999
 10
16.56814493124304
 20
8.899731333066581
 30
0.0
 10
16.56541703872953
 20
8.910712984998813
 30
0.0
 10
16.55995582395454
 20
8.93269814734994
 30
0.0
 10
16.55273648756923
 20
8.955901833650817
 30
0.0
 10
16.54865539215455
 20
8.968212326067949
 30
0.0
 10
16.54814493124304
 20
8.969752114909404
 30
0.0
  0
LINE
  5
115
330
1F
100
AcDbEntity
  8
0
  6
Continuous
 62
     7
370
    25
100
AcDbLine
 10
16.5881449312
 20
8.9697521149
 30
0.0
 11
16.5881449312
 21
9.1849329481
 31
0.0
  0
SPLINE
  5
116
330
1F
100
AcDbEntity
  8
0
  6
Continuous
 62
     7
370
    25
100
AcDbSpline
210
0.0
220
0.0
230
1.0
 70
     8
 71
     3
 72
     9
 73
     5
 74
     0
 42
0.00000001
 43
0.00000001
 40
0.0
 40
0.0
 40
0.0
 40
0.0
 40
0.4995107894512585
 40
1.0
 40
1.0
 40
1.0
 40
1.0
 10
16.58814493124304
 20
8.969752114909404
 30
0.0
 10
16.58440477246208
 20
8.9582048771064
 30
0.0
 10
16.57691712883165
 20
8.935087783248047
 30
0.0
 10
16.57107090379588
 20
8.911524501397766
 30
0.0
 10
16.56814493124304
 20
8.899731333066581
 30
0.0
  0
LINE
  5
117
330
1F
100
AcDbEntity
  8
0
  6
Continuous
 62
     7
370
    25
100
AcDbLine
 10
16.6081449312
 20
9.1502919319
 30
0.0
 11
16.6081449312
 21
8.8997313331
 31
0.0
  0
SPLINE
  5
118
330
1F
100
AcDbEntity
  8
0
  6
Continuous
 62
     7
370
    25
100
AcDbSpline
210
0.0
220
0.0
230
1.0
 70
     8
 71
     3
 72
    10
 73
     6
 74
     0
 42
0.00000001
 43
0.00000001
 40
0.0
 40
0.0
 40
0.0
 40
0.0
 40
0.4661492107783721
 40
0.9332262706972594
 40
1.0
 40
1.0
 40
1.0
 40
1.0
 10
16.60814493124304
 20
8.899731333066583
 30
0.0
 10
16.60541703872953
 20
8.910712984998815
 30
0.0
 10
16.59995582395454
 20
8.932698147349942
 30
0.0
 10
16.59273648756922
 20
8.955901833650811
 30
0.0
 10
16.58865539215455
 20
8.968212326067949
 30
0.0
 10
16.58814493124304
 20
8.969752114909404
 30
0.0
  0
LINE
  5
119
330
1F
100
AcDbEntity
  8
0
  6
Continuous
 62
     7
370
    25
100
AcDbLine
 10
16.5281449312
 20
9.1502919319
 30
0.0
 11
16.5281449312
 21
8.8997313331
 31
0.0
  0
SPLINE
  5
11A
330
1F
100
AcDbEntity
  8
0
  6
Continuous
 62
     7
370
    25
100
AcDbSpline
210
0.0
220
0.0
230
1.0
 70
     8
 71
     3
 72
    10
 73
     6
 74
     0
 42
0.00000001
 43
0.00000001
 40
0.0
 40
0.0
 40
0.0
 40
0.0
 40
0.4661492107783578
 40
0.9332262706972246
 40
1.0
 40
1.0
 40
1.0
 40
1.0
 10
16.52814493124304
 20
8.899731333066581
 30
0.0
 10
16.52541703872952
 20
8.910712984998813
 30
0.0
 10
16.51995582395453
 20
8.932698147349937
 30
0.0
 10
16.51273648756924
 20
8.955901833650818
 30
0.0
 10
16.50865539215456
 20
8.968212326067949
 30
0.0
 10
16.50814493124304
 20
8.969752114909404
 30
0.0
  0
SPLINE
  5
11B
330
1F
100
AcDbEntity
  8
0
  6
Continuous
 62
     7
370
    25
100
AcDbSpline
210
0.0
220
0.0
230
1.0
 70
     8
 71
     3
 72
     9
 73
     5
 74
     0
 42
0.00000001
 43
0.00000001
 40
0.0
 40
0.0
 40
0.0
 40
0.0
 40
0.4995107894512579
 40
1.0
 40
1.0
 40
1.0
 40
1.0
 10
16.54814493124304
 20
8.969752114909404
 30
0.0
 10
16.54440477246207
 20
8.9582048771064
 30
0.0
 10
16.53691712883165
 20
8.935087783248047
 30
0.0
 10
16.53107090379588
 20
8.911524501397766
 30
0.0
 10
16.52814493124304
 20
8.899731333066581
 30
0.0
  0
SPLINE
  5
11C
330
1F
100
AcDbEntity
  8
0
  6
Continuous
 62
     7
370
    25
100
AcDbSpline
210
0.0
220
0.0
230
1.0
 70
     8
 71
     3
 72
     9
 73
     5
 74
     0
 42
0.00000001
 43
0.00000001
 40
0.0
 40
0.0
 40
0.0
 40
0.0
 40
0.4995271105052527
 40
1.0
 40
1.0
 40
1.0
 40
1.0
 10
16.62764493124304
 20
8.968248690387188
 30
0.0
 10
16.62400376690575
 20
8.956946710331183
 30
0.0
 10
16.61671454423754
 20
8.934321351630281
 30
0.0
 10
16.61100326944244
 20
8.911268606855035
 30
0.0
 10
16.60814493124304
 20
8.899731333066583
 30
0.0
  0
LINE
  5
11D
330
1F
100
AcDbEntity
  8
0
  6
Continuous
 62
     7
370
    25
100
AcDbLine
 10
16.6276449312
 20
9.1840669226
 30
0.0
 11
16.6276449312
 21
8.9682486904
 31
0.0
  0
LINE
  5
11E
330
1F
100
AcDbEntity
  8
0
  6
Continuous
 62
     7
370
    25
100
AcDbLine
 10
16.6976449312
 20
8.8844600843
 30
0.0
 11
16.6276449312
 21
8.8844600843
 31
0.0
  0
SPLINE
  5
11F
330
1F
100
AcDbEntity
  8
0
  6
Continuous
 62
     7
370
    25
100
AcDbSpline
210
0.0
220
0.0
230
1.0
 70
     8
 71
     3
 72
    10
 73
     6
 74
     0
 42
0.00000001
 43
0.00000001
 40
0.0
 40
0.0
 40
0.0
 40
0.0
 40
0.4765077511737049
 40
0.9539639696989635
 40
1.0
 40
1.0
 40
1.0
 40
1.0
 10
16.60814493124303
 20
8.665512267165733
 30
0.0
 10
16.61087235850208
 20
8.654530485717483
 30
0.0
 10
16.61633264184207
 20
8.632545064076522
 30
0.0
 10
16.62339992878674
 20
8.609847150608992
 30
0.0
 10
16.62730179979748
 20
8.598033780375253
 30
0.0
 10
16.62764493124304
 20
8.596994909845161
 30
0.0
  0
SPLINE
  5
120
330
1F
100
AcDbEntity
  8
0
  6
Continuous
 62
     7
370
    25
100
AcDbSpline
210
0.0
220
0.0
230
1.0
 70
     8
 71
     3
 72
     9
 73
     5
 74
     0
 42
0.00000001
 43
0.00000001
 40
0.0
 40
0.0
 40
0.0
 40
0.0
 40
0.4995107894512548
 40
1.0
 40
1.0
 40
1.0
 40
1.0
 10
16.58814493124305
 20
8.595491485322931
 30
0.0
 10
16.59188509002401
 20
8.607038723125939
 30
0.0
 10
16.59937273365443
 20
8.630155816984301
 30
0.0
 10
16.60521895869019
 20
8.65371909883456
 30
0.0
 10
16.60814493124303
 20
8.665512267165733
 30
0.0
  0
SPLINE
  5
121
330
1F
100
AcDbEntity
  8
0
  6
Continuous
 62
     7
370
    25
100
AcDbSpline
210
0.0
220
0.0
230
1.0
 70
     8
 71
     3
 72
    10
 73
     6
 74
     0
 42
0.00000001
 43
0.00000001
 40
0.0
 40
0.0
 40
0.0
 40
0.0
 40
0.4661492107782159
 40
0.9332262706969421
 40
0.9999999999999999
 40
0.9999999999999999
 40
0.9999999999999999
 40
0.9999999999999999
 10
16.56814493124304
 20
8.665512267165733
 30
0.0
 10
16.57087282375656
 20
8.654530615233517
 30
0.0
 10
16.57633403853156
 20
8.63254545288242
 30
0.0
 10
16.58355337491684
 20
8.609341766581533
 30
0.0
 10
16.58763447033153
 20
8.597031274164392
 30
0.0
 10
16.58814493124305
 20
8.595491485322931
 30
0.0
  0
SPLINE
  5
122
330
1F
100
AcDbEntity
  8
0
  6
Continuous
 62
     7
370
    25
100
AcDbSpline
210
0.0
220
0.0
230
1.0
 70
     8
 71
     3
 72
     9
 73
     5
 74
     0
 42
0.00000001
 43
0.00000001
 40
0.0
 40
0.0
 40
0.0
 40
0.0
 40
0.4995107894512539
 40
1.0
 40
1.0
 40
1.0
 40
1.0
 10
16.54814493124305
 20
8.595491485322931
 30
0.0
 10
16.55188509002401
 20
8.607038723125939
 30
0.0
 10
16.55937273365444
 20
8.630155816984301
 30
0.0
 10
16.5652189586902
 20
8.653719098834559
 30
0.0
 10
16.56814493124304
 20
8.665512267165733
 30
0.0
  0
SPLINE
  5
123
330
1F
100
AcDbEntity
  8
0
  6
Continuous
 62
     7
370
    25
100
AcDbSpline
210
0.0
220
0.0
230
1.0
 70
     8
 71
     3
 72
    10
 73
     6
 74
     0
 42
0.00000001
 43
0.00000001
 40
0.0
 40
0.0
 40
0.0
 40
0.0
 40
0.4661492107782302
 40
0.9332262706969763
 40
1.0
 40
1.0
 40
1.0
 40
1.0
 10
16.52814493124303
 20
8.665512267165733
 30
0.0
 10
16.53087282375655
 20
8.654530615233515
 30
0.0
 10
16.53633403853154
 20
8.632545452882418
 30
0.0
 10
16.54355337491686
 20
8.609341766581538
 30
0.0
 10
16.54763447033153
 20
8.597031274164392
 30
0.0
 10
16.54814493124305
 20
8.595491485322931
 30
0.0
  0
SPLINE
  5
124
330
1F
100
AcDbEntity
  8
0
  6
Continuous
 62
     7
370
    25
100
AcDbSpline
210
0.0
220
0.0
230
1.0
 70
     8
 71
     3
 72
     9
 73
     5
 74
     0
 42
0.00000001
 43
0.00000001
 40
0.0
 40
0.0
 40
0.0
 40
0.0
 40
0.4995107894512554
 40
1.0
 40
1.0
 40
1.0
 40
1.0
 10
16.50814493124305
 20
8.595491485322931
 30
0.0
 10
16.51188509002401
 20
8.607038723125939
 30
0.0
 10
16.51937273365443
 20
8.630155816984301
 30
0.0
 10
16.52521895869019
 20
8.65371909883456
 30
0.0
 10
16.52814493124303
 20
8.665512267165733
 30
0.0
  0
SPLINE
  5
125
330
1F
100
AcDbEntity
  8
0
  6
Continuous
 62
     7
370
    25
100
AcDbSpline
210
0.0
220
0.0
230
1.0
 70
     8
 71
     3
 72
    10
 73
     6
 74
     0
 42
0.00000001
 43
0.00000001
 40
0.0
 40
0.0
 40
0.0
 40
0.0
 40
0.4661492107782146
 40
0.9332262706969411
 40
1.0
 40
1.0
 40
1.0
 40
1.0
 10
16.48814493124303
 20
8.665512267165733
 30
0.0
 10
16.49087282375656
 20
8.654530615233517
 30
0.0
 10
16.49633403853156
 20
8.63254545288242
 30
0.0
 10
16.50355337491683
 20
8.609341766581533
 30
0.0
 10
16.50763447033153
 20
8.597031274164392
 30
0.0
 10
16.50814493124305
 20
8.595491485322931
 30
0.0
  0
SPLINE
  5
126
330
1F
100
AcDbEntity
  8
0
  6
Continuous
 62
     7
370
    25
100
AcDbSpline
210
0.0
220
0.0
230
1.0
 70
     8
 71
     3
 72
     9
 73
     5
 74
     0
 42
0.00000001
 43
0.00000001
 40
0.0
 40
0.0
 40
0.0
 40
0.0
 40
0.4995107894512543
 40
1.0
 40
1.0
 40
1.0
 40
1.0
 10
16.46814493124305
 20
8.59549148532293
 30
0.0
 10
16.47188509002401
 20
8.607038723125939
 30
0.0
 10
16.47937273365444
 20
8.6301558169843
 30
0.0
 10
16.4852189586902
 20
8.653719098834559
 30
0.0
 10
16.48814493124303
 20
8.665512267165733
 30
0.0
  0
SPLINE
  5
127
330
1F
100
AcDbEntity
  8
0
  6
Continuous
 62
     7
370
    25
100
AcDbSpline
210
0.0
220
0.0
230
1.0
 70
     8
 71
     3
 72
    10
 73
     6
 74
     0
 42
0.00000001
 43
0.00000001
 40
0.0
 40
0.0
 40
0.0
 40
0.0
 40
0.4661492107782292
 40
0.9332262706969721
 40
1.0
 40
1.0
 40
1.0
 40
1.0
 10
16.44814493124305
 20
8.665512267165733
 30
0.0
 10
16.45087282375657
 20
8.654530615233515
 30
0.0
 10
16.45633403853155
 20
8.632545452882418
 30
0.0
 10
16.46355337491686
 20
8.609341766581538
 30
0.0
 10
16.46763447033153
 20
8.597031274164392
 30
0.0
 10
16.46814493124305
 20
8.59549148532293
 30
0.0
  0
LINE
  5
128
330
1F
100
AcDbEntity
  8
0
  6
Continuous
 62
     7
370
    25
100
AcDbLine
 10
16.6276449312
 20
8.6807835159
 30
0.0
 11
16.6976449312
 21
8.6807835159
 31
0.0
  0
LINE
  5
129
330
1F
100
AcDbEntity
  8
0
  6
Continuous
 62
     7
370
    25
100
AcDbLine
 10
16.6276449312
 20
8.5969949098
 30
0.0
 11
16.6276449312
 21
8.6807835159
 31
0.0
  0
LINE
  5
12A
330
1F
100
AcDbEntity
  8
0
  6
Continuous
 62
     7
370
    25
100
AcDbLine
 10
16.4481449312
 20
8.8997313331
 30
0.0
 11
16.4481449312
 21
8.6655122672
 31
0.0
  0
LINE
  5
12B
330
1F
100
AcDbEntity
  8
0
  6
Continuous
 62
     7
370
    25
100
AcDbLine
 10
16.6276449312
 20
8.8844600843
 30
0.0
 11
16.6276449312
 21
8.9682486904
 31
0.0
  0
LINE
  5
12C
330
1F
100
AcDbEntity
  8
0
  6
Continuous
 62
     7
370
    25
100
AcDbLine
 10
16.4681449312
 20
8.5040509157
 30
0.0
 11
16.4681449312
 21
8.5954914853
 31
0.0
  0
LINE
  5
12D
330
1F
100
AcDbEntity
  8
0
  6
Continuous
 62
     7
370
    25
100
AcDbLine
 10
16.4481449312
 20
8.6655122672
 30
0.0
 11
16.4481449312
 21
8.5386919319
 31
0.0
  0
LINE
  5
12E
330
1F
100
AcDbEntity
  8
0
  6
Continuous
 62
     7
370
    25
100
AcDbLine
 10
16.4881449312
 20
8.6655122672
 30
0.0
 11
16.4881449312
 21
8.5386919319
 31
0.0
  0
LINE
  5
12F
330
1F
100
AcDbEntity
  8
0
  6
Continuous
 62
     7
370
    25
100
AcDbLine
 10
16.5081449312
 20
8.5040509157
 30
0.0
 11
16.5081449312
 21
8.5954914853
 31
0.0
  0
LINE
  5
130
330
1F
100
AcDbEntity
  8
0
  6
Continuous
 62
     7
370
    25
100
AcDbLine
 10
16.5681449312
 20
8.6655122672
 30
0.0
 11
16.5681449312
 21
8.5386919319
 31
0.0
  0
LINE
  5
131
330
1F
100
AcDbEntity
  8
0
  6
Continuous
 62
     7
370
    25
100
AcDbLine
 10
16.5481449312
 20
8.5040509157
 30
0.0
 11
16.5481449312
 21
8.5954914853
 31
0.0
  0
LINE
  5
132
330
1F
100
AcDbEntity
  8
0
  6
Continuous
 62
     7
370
    25
100
AcDbLine
 10
16.5881449312
 20
8.5040509157
 30
0.0
 11
16.5881449312
 21
8.5954914853
 31
0.0
  0
LINE
  5
133
330
1F
100
AcDbEntity
  8
0
  6
Continuous
 62
     7
370
    25
100
AcDbLine
 10
16.5281449312
 20
8.6655122672
 30
0.0
 11
16.5281449312
 21
8.5386919319
 31
0.0
  0
LINE
  5
134
330
1F
100
AcDbEntity
  8
0
  6
Continuous
 62
     7
370
    25
100
AcDbLine
 10
16.6081449312
 20
8.6655122672
 30
0.0
 11
16.6081449312
 21
8.5386919319
 31
0.0
  0
LINE
  5
135
330
1F
100
AcDbEntity
  8
0
  6
Continuous
 62
     7
370
    25
100
AcDbLine
 10
16.6276449312
 20
8.5969949098
 30
0.0
 11
16.6276449312
 21
8.5049169412
 31
0.0
  0
LINE
  5
136
330
1F
100
AcDbEntity
  8
0
  6
Continuous
 62
     7
370
    25
100
AcDbLine
 10
18.7856449312
 20
9.9273011226
 30
0.0
 11
18.7856449312
 21
9.9544919319
 31
0.0
  0
LINE
  5
137
330
1F
100
AcDbEntity
  8
0
  6
Continuous
 62
     7
370
    25
100
AcDbLine
 10
18.7856449312
 20
7.7344919319
 30
0.0
 11
18.7856449312
 21
9.9273011226
 31
0.0
  0
POINT
  5
138
330
1F
100
AcDbEntity
  8
VP
100
AcDbPoint
 10
21.5656449312
 20
8.8444919319
 30
0.0
  0
DIMENSION
  5
139
330
1F
100
AcDbEntity
  8
0
  6
Continuous
 62
     7
370
    18
100
AcDbDimension
  2
_D
 10
10.4690780021
 20
7.7344919319
 30
0.0
 11
10.4690780021
 21
8.8444919319
 31
0.0
 70
   160
  1
%%c<>
 71
     2
 42
-1.0
  3
SLDDIMSTYLE0
100
AcDbAlignedDimension
 13
16.8656449312
 23
9.9544919319
 33
0.0
 14
16.8656449312
 24
7.7344919319
 34
0.0
 50
90.0
100
AcDbRotatedDimension
  0
DIMENSION
  5
14E
330
1F
100
AcDbEntity
  8
0
  6
Continuous
 62
     7
370
    18
100
AcDbDimension
  2
_D_1
 10
20.5006449312
 20
13.8641769713
 30
0.0
 11
24.861245256
 21
13.8641769713
 31
0.0
 70
   160
  1
<>
 71
     2
 42
-1.0
  3
SLDDIMSTYLE0
100
AcDbAlignedDimension
 13
20.8756449312
 23
11.3281190783
 33
0.0
 14
20.5006449312
 24
11.3444919319
 34
0.0
100
AcDbRotatedDimension
  0
DIMENSION
  5
162
330
1F
100
AcDbEntity
  8
0
  6
Continuous
 62
     7
370
    18
100
AcDbDimension
  2
_D_2
 10
16.4481449312
 20
13.8641769713
 30
0.0
 11
18.4743949312
 21
13.8641769713
 31
0.0
 70
   160
  1
<>
 71
     2
 42
-1.0
  3
SLDDIMSTYLE1
100
AcDbAlignedDimension
 13
20.5006449312
 23
11.3444919319
 33
0.0
 14
16.4481449312
 24
8.8997313331
 34
0.0
 50
0.0
100
AcDbRotatedDimension
  0
CIRCLE
  5
177
330
1F
100
AcDbEntity
  8
0
  6
Continuous
 62
     7
370
    25
100
AcDbCircle
 10
32.404
 20
8.8444919319
 30
0.0
 40
0.881057810168798
  0
CIRCLE
  5
178
330
1F
100
AcDbEntity
  8
0
  6
Continuous
 62
     7
370
    25
100
AcDbCircle
 10
32.404
 20
8.8444919319
 30
0.0
 40
2.483627146409304
  0
CIRCLE
  5
179
330
1F
100
AcDbEntity
  8
0
  6
Continuous
 62
     7
370
    25
100
AcDbCircle
 10
30.654
 20
8.8444919319
 30
0.0
 40
0.2049999999999983
  0
CIRCLE
  5
17A
330
1F
100
AcDbEntity
  8
0
  6
Continuous
 62
     7
370
    25
100
AcDbCircle
 10
34.154
 20
8.8444919319
 30
0.0
 40
0.2049999999999983
  0
CIRCLE
  5
17B
330
1F
100
AcDbEntity
  8
0
  6
Continuous
 62
     7
370
    25
100
AcDbCircle
 10
32.404
 20
8.8444919319
 30
0.0
 40
2.5
  0
CIRCLE
  5
17C
330
1F
100
AcDbEntity
  8
0
  6
Continuous
 62
     7
370
    25
100
AcDbCircle
 10
30.654
 20
8.8444919319
 30
0.0
 40
0.1014999999999979
  0
CIRCLE
  5
17D
330
1F
100
AcDbEntity
  8
0
  6
Continuous
 62
     7
370
    25
100
AcDbCircle
 10
34.154
 20
8.8444919319
 30
0.0
 40
0.1014999999999944
  0
ARC
  5
17E
330
1F
100
AcDbEntity
  8
0
  6
Continuous
 62
     7
370
    25
100
AcDbCircle
 10
32.404
 20
8.8444919319
 30
0.0
 40
0.288999999999999
100
AcDbArc
 50
281.3894313547
 51
291.220868467
  0
ARC
  5
17F
330
1F
100
AcDbEntity
  8
0
  6
Continuous
 62
     7
370
    25
100
AcDbCircle
 10
32.404
 20
8.8444919319
 30
0.0
 40
0.289000000000001
100
AcDbArc
 50
93.946421133
 51
111.220868467
  0
ARC
  5
180
330
1F
100
AcDbEntity
  8
0
  6
Continuous
 62
     7
370
    25
100
AcDbCircle
 10
32.404
 20
8.8444919319
 30
0.0
 40
0.2890000000000005
100
AcDbArc
 50
273.946421133
 51
281.3894313547
  0
CIRCLE
  5
181
330
1F
100
AcDbEntity
  8
0
  6
Continuous
 62
     7
370
    25
100
AcDbCircle
 10
32.404
 20
8.8444919319
 30
0.0
 40
0.2999999999999996
  0
ARC
  5
182
330
1F
100
AcDbEntity
  8
0
  6
Continuous
 62
     7
370
    25
100
AcDbCircle
 10
32.5195546523
 20
8.7968251476
 30
0.0
 40
0.0200000000000026
100
AcDbArc
 50
67.5836448
 51
247.5836448
  0
LINE
  5
183
330
1F
100
AcDbEntity
  8
0
  6
Continuous
 62
     7
370
    25
100
AcDbLine
 10
32.2960720332
 20
8.9106474606
 30
0.0
 11
32.2590945551
 21
8.9259008272
 31
0.0
  0
ARC
  5
184
330
1F
100
AcDbEntity
  8
0
  6
Continuous
 62
     7
370
    25
100
AcDbCircle
 10
32.2514678696
 20
8.9074120828
 30
0.0
 40
0.0200000000000026
100
AcDbArc
 50
67.5836448
 51
247.5836448
  0
ARC
  5
185
330
1F
100
AcDbEntity
  8
0
  6
Continuous
 62
     7
370
    25
100
AcDbCircle
 10
32.3525839414
 20
9.0748229739
 30
0.0
 40
0.1050000000000021
100
AcDbArc
 50
192.5836448
 51
264.337593912
  0
ARC
  5
186
330
1F
100
AcDbEntity
  8
0
  6
Continuous
 62
     7
370
    25
100
AcDbCircle
 10
32.3525839414
 20
9.0748229739
 30
0.0
 40
0.1050000000000024
100
AcDbArc
 50
300.5495811209
 51
12.5836448
  0
LINE
  5
187
330
1F
100
AcDbEntity
  8
0
  6
Continuous
 62
     7
370
    25
100
AcDbLine
 10
32.4550617355
 20
9.0976987627
 30
0.0
 11
32.4452523991
 21
9.1416421289
 31
0.0
  0
LINE
  5
188
330
1F
100
AcDbEntity
  8
0
  6
Continuous
 62
     7
370
    25
100
AcDbLine
 10
32.5677031892
 20
8.5930933125
 30
0.0
 11
32.5578938527
 21
8.6370366787
 31
0.0
  0
LINE
  5
189
330
1F
100
AcDbEntity
  8
0
  6
Continuous
 62
     7
370
    25
100
AcDbLine
 10
32.2402968108
 20
9.0958905513
 30
0.0
 11
32.2501061473
 21
9.0519471851
 31
0.0
  0
LINE
  5
18A
330
1F
100
AcDbEntity
  8
0
  6
Continuous
 62
     7
370
    25
100
AcDbLine
 10
32.5119279668
 20
8.7783364032
 30
0.0
 11
32.5489054556
 21
8.7630830322
 31
0.0
  0
ARC
  5
18B
330
1F
100
AcDbEntity
  8
0
  6
Continuous
 62
     7
370
    25
100
AcDbCircle
 10
32.5565321411
 20
8.7815717766
 30
0.0
 40
0.020000000000001
100
AcDbArc
 50
247.5836448
 51
67.5836448
  0
LINE
  5
18C
330
1F
100
AcDbEntity
  8
0
  6
Continuous
 62
     7
370
    25
100
AcDbLine
 10
32.3529382645
 20
8.5912851011
 30
0.0
 11
32.3627476009
 21
8.5473417349
 31
0.0
  0
ARC
  5
18D
330
1F
100
AcDbEntity
  8
0
  6
Continuous
 62
     7
370
    25
100
AcDbCircle
 10
32.4554160586
 20
8.6141608899
 30
0.0
 40
0.1050000000000021
100
AcDbArc
 50
12.5836448
 51
84.337593912
  0
ARC
  5
18E
330
1F
100
AcDbEntity
  8
0
  6
Continuous
 62
     7
370
    25
100
AcDbCircle
 10
32.4554160586
 20
8.6141608899
 30
0.0
 40
0.1050000000000021
100
AcDbArc
 50
120.5495811209
 51
192.5836448
  0
LINE
  5
18F
330
1F
100
AcDbEntity
  8
0
  6
Continuous
 62
     7
370
    25
100
AcDbLine
 10
32.5641588266
 20
8.800060521
 30
0.0
 11
32.5271813378
 21
8.815313892
 31
0.0
  0
LINE
  5
190
330
1F
100
AcDbEntity
  8
0
  6
Continuous
 62
     7
370
    25
100
AcDbLine
 10
32.2438411841
 20
8.8889233384
 30
0.0
 11
32.2808186622
 21
8.8736699718
 31
0.0
  0
ARC
  5
191
330
1F
100
AcDbEntity
  8
0
  6
Continuous
 62
     7
370
    25
100
AcDbCircle
 10
32.2884453477
 20
8.8921587162
 30
0.0
 40
0.0200000000000016
100
AcDbArc
 50
247.5836448
 51
67.5836448
  0
ARC
  5
192
330
1F
100
AcDbEntity
  8
0
  6
Continuous
 62
     7
370
    25
100
AcDbCircle
 10
32.4554160586
 20
8.6141608899
 30
0.0
 40
0.0659999999999983
100
AcDbArc
 50
298.5651134081
 51
212.5836448
  0
ARC
  5
193
330
1F
100
AcDbEntity
  8
0
  6
Continuous
 62
     7
370
    25
100
AcDbCircle
 10
32.4554160586
 20
8.6141608899
 30
0.0
 40
0.0659999999999997
100
AcDbArc
 50
212.5836448
 51
266.6021761919
  0
ARC
  5
194
330
1F
100
AcDbEntity
  8
0
  6
Continuous
 62
     7
370
    25
100
AcDbCircle
 10
32.3525839414
 20
9.0748229739
 30
0.0
 40
0.0659999999999973
100
AcDbArc
 50
118.5651134081
 51
212.5836448
  0
ARC
  5
195
330
1F
100
AcDbEntity
  8
0
  6
Continuous
 62
     7
370
    25
100
AcDbCircle
 10
32.3525839414
 20
9.0748229739
 30
0.0
 40
0.0660000000000007
100
AcDbArc
 50
321.2313246963
 51
86.6021761919
  0
ARC
  5
196
330
1F
100
AcDbEntity
  8
0
  6
Continuous
 62
     7
370
    25
100
AcDbCircle
 10
32.3525839414
 20
9.0748229739
 30
0.0
 40
0.066000000000002
100
AcDbArc
 50
253.0897600661
 51
311.7974149669
  0
ARC
  5
197
330
1F
100
AcDbEntity
  8
0
  6
Continuous
 62
     7
370
    25
100
AcDbCircle
 10
32.3525839414
 20
9.0748229739
 30
0.0
 40
0.065999999999999
100
AcDbArc
 50
212.5836448
 51
243.6558503367
  0
ARC
  5
198
330
1F
100
AcDbEntity
  8
0
  6
Continuous
 62
     7
370
    25
100
AcDbCircle
 10
32.3765021637
 20
8.9664299038
 30
0.0
 40
0.0625000000000004
100
AcDbArc
 50
102.7080163432
 51
170.4226838592
  0
ARC
  5
199
330
1F
100
AcDbEntity
  8
0
  6
Continuous
 62
     7
370
    25
100
AcDbCircle
 10
32.3765021637
 20
8.9664299038
 30
0.0
 40
0.0625000000000036
100
AcDbArc
 50
34.4644911737
 51
102.7080163432
  0
ARC
  5
19A
330
1F
100
AcDbEntity
  8
0
  6
Continuous
 62
     7
370
    25
100
AcDbCircle
 10
32.3765021637
 20
8.9664299038
 30
0.0
 40
0.072500000000002
100
AcDbArc
 50
102.7080163432
 51
168.4204942543
  0
ARC
  5
19B
330
1F
100
AcDbEntity
  8
0
  6
Continuous
 62
     7
370
    25
100
AcDbCircle
 10
32.3765021637
 20
8.9664299038
 30
0.0
 40
0.0725000000000039
100
AcDbArc
 50
36.4666807786
 51
102.7080163432
  0
CIRCLE
  5
19C
330
1F
100
AcDbEntity
  8
0
  6
Continuous
 62
     7
370
    25
100
AcDbCircle
 10
32.4314978363
 20
8.72255396
 30
0.0
 40
0.0244999999999992
  0
CIRCLE
  5
19D
330
1F
100
AcDbEntity
  8
0
  6
Continuous
 62
     7
370
    25
100
AcDbCircle
 10
32.4314978363
 20
8.72255396
 30
0.0
 40
0.0344999999999978
  0
CIRCLE
  5
19E
330
1F
100
AcDbEntity
  8
0
  6
Continuous
 62
     7
370
    25
100
AcDbCircle
 10
32.3765021637
 20
8.9664299038
 30
0.0
 40
0.0245000000000007
  0
CIRCLE
  5
19F
330
1F
100
AcDbEntity
  8
0
  6
Continuous
 62
     7
370
    25
100
AcDbCircle
 10
32.3765021637
 20
8.9664299038
 30
0.0
 40
0.0345000000000011
  0
ARC
  5
1A0
330
1F
100
AcDbEntity
  8
0
  6
Continuous
 62
     7
370
    25
100
AcDbCircle
 10
32.404
 20
8.8444919319
 30
0.0
 40
0.2812499999999996
100
AcDbArc
 50
271.882979415
 51
293.284310185
  0
ARC
  5
1A1
330
1F
100
AcDbEntity
  8
0
  6
Continuous
 62
     7
370
    25
100
AcDbCircle
 10
32.404
 20
8.8444919319
 30
0.0
 40
0.2812500000000007
100
AcDbArc
 50
91.882979415
 51
113.284310185
  0
ARC
  5
1A2
330
1F
100
AcDbEntity
  8
0
  6
Continuous
 62
     7
370
    25
100
AcDbCircle
 10
32.404
 20
8.8444919319
 30
0.0
 40
0.1960000000000001
100
AcDbArc
 50
268.5631835421
 51
296.604106058
  0
ARC
  5
1A3
330
1F
100
AcDbEntity
  8
0
  6
Continuous
 62
     7
370
    25
100
AcDbCircle
 10
32.404
 20
8.8444919319
 30
0.0
 40
0.1960000000000003
100
AcDbArc
 50
88.5631835421
 51
97.335592334
  0
ARC
  5
1A4
330
1F
100
AcDbEntity
  8
0
  6
Continuous
 62
     7
370
    25
100
AcDbCircle
 10
32.404
 20
8.8444919319
 30
0.0
 40
0.1960000000000017
100
AcDbArc
 50
108.0804403524
 51
116.604106058
  0
ARC
  5
1A5
330
1F
100
AcDbEntity
  8
0
  6
Continuous
 62
     7
370
    25
100
AcDbCircle
 10
32.3765021637
 20
8.9664299038
 30
0.0
 40
0.0549999999999995
100
AcDbArc
 50
76.6132516016
 51
128.2739234313
  0
ARC
  5
1A6
330
1F
100
AcDbEntity
  8
0
  6
Continuous
 62
     7
370
    25
100
AcDbCircle
 10
32.3765021637
 20
8.9664299038
 30
0.0
 40
0.0830000000000016
100
AcDbArc
 50
66.1647111731
 51
138.7224638598
  0
ARC
  5
1A7
330
1F
100
AcDbEntity
  8
0
  6
Continuous
 62
     7
370
    25
100
AcDbCircle
 10
32.3765021637
 20
8.9664299038
 30
0.0
 40
0.1000000000000032
100
AcDbArc
 50
66.4649343447
 51
138.4222406882
  0
ARC
  5
1A8
330
1F
100
AcDbEntity
  8
0
  6
Continuous
 62
     7
370
    25
100
AcDbCircle
 10
32.4314978363
 20
8.72255396
 30
0.0
 40
0.083000000000002
100
AcDbArc
 50
246.1647111731
 51
318.7224638598
  0
ARC
  5
1A9
330
1F
100
AcDbEntity
  8
0
  6
Continuous
 62
     7
370
    25
100
AcDbCircle
 10
32.4314978363
 20
8.72255396
 30
0.0
 40
0.1000000000000017
100
AcDbArc
 50
246.4649343448
 51
318.4222406882
  0
DIMENSION
  5
1AA
330
1F
100
AcDbEntity
  8
0
  6
Continuous
 62
     7
370
    18
100
AcDbDimension
  2
_D_3
 10
34.154
 20
13.8641769713
 30
0.0
 11
32.404
 21
13.8641769713
 31
0.0
 70
   160
  1
<>
 71
     2
 42
-1.0
  3
SLDDIMSTYLE0
100
AcDbAlignedDimension
 13
30.654
 23
8.8444919319
 33
0.0
 14
34.154
 24
8.8444919319
 34
0.0
100
AcDbRotatedDimension
  0
DIMENSION
  5
1BE
330
1F
100
AcDbEntity
  8
0
  6
Continuous
 62
     7
370
    18
100
AcDbDimension
  2
_D_4
 10
30.8284397788
 20
6.9034587046
 30
0.0
 11
38.9623933621
 21
13.8641769713
 31
0.0
 70
   163
  1
<>
 71
     1
 42
-1.0
  3
SLDDIMSTYLE2
100
AcDbDiametricDimension
 15
33.9795602212
 25
10.7855251592
 35
0.0
 40
0.0
  0
DIMENSION
  5
1CF
330
1F
100
AcDbEntity
  8
0
  6
Continuous
 62
     7
370
    18
100
AcDbDimension
  2
_D_5
 10
31.6409815542
 20
9.285020837
 30
0.0
 11
38.9623933621
 21
6.385406195
 31
0.0
 70
   163
  1
<>
 71
     1
 42
-1.0
  3
SLDDIMSTYLE2
100
AcDbDiametricDimension
 15
33.1670184458
 25
8.4039630268
 35
0.0
 40
0.0
  0
ENDSEC
  0
SECTION
  2
OBJECTS
  0
DICTIONARY
  5
C
330
0
100
AcDbDictionary
281
     1
  3
ACAD_GROUP
350
D
  3
ACAD_LAYOUT
350
1A
  3
ACAD_MLINESTYLE
350
17
  3
ACAD_PLOTSETTINGS
350
19
  3
ACAD_PLOTSTYLENAME
350
E
  3
ACAD_SCALELIST
350
47
  3
DWGPROPS
350
1DF
  0
DICTIONARY
  5
D
102
{ACAD_REACTORS
330
C
102
}
330
C
100
AcDbDictionary
281
     1
  0
DICTIONARY
  5
1A
102
{ACAD_REACTORS
330
C
102
}
330
C
100
AcDbDictionary
281
     1
  3
Layout1
350
1E
  3
Layout2
350
26
  3
Model
350
22
  0
DICTIONARY
  5
17
102
{ACAD_REACTORS
330
C
102
}
330
C
100
AcDbDictionary
281
     1
  3
Standard
350
18
  0
DICTIONARY
  5
19
102
{ACAD_REACTORS
330
C
102
}
330
C
100
AcDbDictionary
281
     1
  0
ACDBDICTIONARYWDFLT
  5
E
102
{ACAD_REACTORS
330
C
102
}
330
C
100
AcDbDictionary
281
     1
  3
Normal
350
F
100
AcDbDictionaryWithDefault
340
F
  0
DICTIONARY
  5
47
102
{ACAD_REACTORS
330
C
102
}
330
C
100
AcDbDictionary
281
     1
  3
A0
350
48
  3
A1
350
49
  3
A2
350
4A
  3
A3
350
4B
  3
A4
350
4C
  3
A5
350
4D
  3
A6
350
4E
  3
A7
350
4F
  3
A8
350
50
  3
A9
350
51
  3
B1
350
52
  3
B2
350
53
  3
B3
350
54
  3
B4
350
55
  3
B5
350
56
  3
B6
350
57
  3
B7
350
58
  0
XRECORD
  5
1DF
102
{ACAD_REACTORS
330
C
102
}
330
C
100
AcDbXrecord
280
     1
  1
DWGPROPS COOKIE
  2

  3

  4

  6

  7

  8
gurisher.rai
  9

300
=
301
=
302
=
303
=
304
=
305
=
306
=
307
=
308
=
309
=
 40
0.0
 41
2460566.625435938
 42
2460566.625436296
  1

 90
        0
  0
LAYOUT
  5
1E
102
{ACAD_REACTORS
330
1A
102
}
330
1A
100
AcDbPlotSettings
  1

  2
none_device
  4

  6

 40
0.0
 41
0.0
 42
0.0
 43
0.0
 44
0.0
 45
0.0
 46
0.0
 47
0.0
 48
0.0
 49
0.0
140
0.0
141
0.0
142
1.0
143
1.0
 70
   688
 72
     0
 73
     0
 74
     5
  7

 75
    16
147
1.0
148
0.0
149
0.0
100
AcDbLayout
  1
Layout1
 70
     1
 71
     1
 10
0.0
 20
0.0
 11
12.0
 21
9.0
 12
0.0
 22
0.0
 32
0.0
 14
1.0000000000E+20
 24
1.0000000000E+20
 34
1.0000000000E+20
 15
-1.0000000000E+20
 25
-1.0000000000E+20
 35
-1.0000000000E+20
146
0.0
 13
0.0
 23
0.0
 33
0.0
 16
1.0
 26
0.0
 36
0.0
 17
0.0
 27
1.0
 37
0.0
 76
     0
330
1B
  0
LAYOUT
  5
26
102
{ACAD_REACTORS
330
1A
102
}
330
1A
100
AcDbPlotSettings
  1

  2
none_device
  4

  6

 40
0.0
 41
0.0
 42
0.0
 43
0.0
 44
0.0
 45
0.0
 46
0.0
 47
0.0
 48
0.0
 49
0.0
140
0.0
141
0.0
142
1.0
143
1.0
 70
   688
 72
     0
 73
     0
 74
     5
  7

 75
    16
147
1.0
148
0.0
149
0.0
100
AcDbLayout
  1
Layout2
 70
     1
 71
     2
 10
0.0
 20
0.0
 11
0.0
 21
0.0
 12
0.0
 22
0.0
 32
0.0
 14
0.0
 24
0.0
 34
0.0
 15
0.0
 25
0.0
 35
0.0
146
0.0
 13
0.0
 23
0.0
 33
0.0
 16
1.0
 26
0.0
 36
0.0
 17
0.0
 27
1.0
 37
0.0
 76
     0
330
23
  0
LAYOUT
  5
22
102
{ACAD_REACTORS
330
1A
102
}
330
1A
100
AcDbPlotSettings
  1

  2
none_device
  4
Letter_(8.50_x_11.00_Inches)
  6

 40
6.35
 41
6.35
 42
6.35000508
 43
6.35000508
 44
215.9
 45
279.4
 46
0.0
 47
0.0
 48
0.0
 49
0.0
140
0.0
141
0.0
142
1.0
143
1.0
 70
  1712
 72
     0
 73
     0
 74
     0
  7

 75
     0
147
1.0
148
0.0
149
0.0
100
AcDbLayout
  1
Model
 70
     1
 71
     0
 10
0.0
 20
0.0
 11
44.0
 21
34.0
 12
0.0
 22
0.0
 32
0.0
 14
0.0
 24
0.0
 34
0.0
 15
44.0
 25
34.0
 35
0.0
146
0.0
 13
0.0
 23
0.0
 33
0.0
 16
1.0
 26
0.0
 36
0.0
 17
0.0
 27
1.0
 37
0.0
 76
     0
330
1F
331
29
  0
MLINESTYLE
  5
18
102
{ACAD_REACTORS
330
17
102
}
330
17
100
AcDbMlineStyle
  2
Standard
 70
     0
  3

 62
   256
 51
90.0
 52
90.0
 71
     2
 49
0.5
 62
   256
  6
BYLAYER
 49
-0.5
 62
   256
  6
BYLAYER
  0
ACDBPLACEHOLDER
  5
F
102
{ACAD_REACTORS
330
E
102
}
330
E
  0
SCALE
  5
48
102
{ACAD_REACTORS
330
47
102
}
330
47
100
AcDbScale
 70
     0
300
1:1
140
1.0
141
1.0
290
     1
  0
SCALE
  5
49
102
{ACAD_REACTORS
330
47
102
}
330
47
100
AcDbScale
 70
     0
300
1/128" = 1'-0"
140
0.0078125
141
12.0
290
     0
  0
SCALE
  5
4A
102
{ACAD_REACTORS
330
47
102
}
330
47
100
AcDbScale
 70
     0
300
1/64" = 1'-0"
140
0.015625
141
12.0
290
     0
  0
SCALE
  5
4B
102
{ACAD_REACTORS
330
47
102
}
330
47
100
AcDbScale
 70
     0
300
1/32" = 1'-0"
140
0.03125
141
12.0
290
     0
  0
SCALE
  5
4C
102
{ACAD_REACTORS
330
47
102
}
330
47
100
AcDbScale
 70
     0
300
1/16" = 1'-0"
140
0.0625
141
12.0
290
     0
  0
SCALE
  5
4D
102
{ACAD_REACTORS
330
47
102
}
330
47
100
AcDbScale
 70
     0
300
3/32" = 1'-0"
140
0.09375
141
12.0
290
     0
  0
SCALE
  5
4E
102
{ACAD_REACTORS
330
47
102
}
330
47
100
AcDbScale
 70
     0
300
1/8" = 1'-0"
140
0.125
141
12.0
290
     0
  0
SCALE
  5
4F
102
{ACAD_REACTORS
330
47
102
}
330
47
100
AcDbScale
 70
     0
300
3/16" = 1'-0"
140
0.1875
141
12.0
290
     0
  0
SCALE
  5
50
102
{ACAD_REACTORS
330
47
102
}
330
47
100
AcDbScale
 70
     0
300
1/4" = 1'-0"
140
0.25
141
12.0
290
     0
  0
SCALE
  5
51
102
{ACAD_REACTORS
330
47
102
}
330
47
100
AcDbScale
 70
     0
300
3/8" = 1'-0"
140
0.375
141
12.0
290
     0
  0
SCALE
  5
52
102
{ACAD_REACTORS
330
47
102
}
330
47
100
AcDbScale
 70
     0
300
1/2" = 1'-0"
140
0.5
141
12.0
290
     0
  0
SCALE
  5
53
102
{ACAD_REACTORS
330
47
102
}
330
47
100
AcDbScale
 70
     0
300
3/4" = 1'-0"
140
0.75
141
12.0
290
     0
  0
SCALE
  5
54
102
{ACAD_REACTORS
330
47
102
}
330
47
100
AcDbScale
 70
     0
300
1" = 1'-0"
140
1.0
141
12.0
290
     0
  0
SCALE
  5
55
102
{ACAD_REACTORS
330
47
102
}
330
47
100
AcDbScale
 70
     0
300
1-1/2" = 1'-0"
140
1.5
141
12.0
290
     0
  0
SCALE
  5
56
102
{ACAD_REACTORS
330
47
102
}
330
47
100
AcDbScale
 70
     0
300
3" = 1'-0"
140
3.0
141
12.0
290
     0
  0
SCALE
  5
57
102
{ACAD_REACTORS
330
47
102
}
330
47
100
AcDbScale
 70
     0
300
6" = 1'-0"
140
6.0
141
12.0
290
     0
  0
SCALE
  5
58
102
{ACAD_REACTORS
330
47
102
}
330
47
100
AcDbScale
 70
     0
300
1'-0" = 1'-0"
140
12.0
141
12.0
290
     0
  0
ENDSEC
  0
EOF
