  0
SECTION
  2
HEADER
  9
$ACADVER
  1
AC1015
  9
$ACADMAINTVER
 70
     6
  9
$DWGCODEPAGE
  3
ANSI_1252
  9
$INSBASE
 10
0.0
 20
0.0
 30
0.0
  9
$EXTMIN
 10
0.0
 20
0.0
 30
0.0
  9
$EXTMAX
 10
44.0
 20
34.0
 30
0.0
  9
$LIMMIN
 10
0.0
 20
0.0
  9
$LIMMAX
 10
44.0
 20
34.0
  9
$ORTHOMODE
 70
     0
  9
$REGENMODE
 70
     1
  9
$FILLMODE
 70
     1
  9
$QTEXTMODE
 70
     0
  9
$MIRRTEXT
 70
     1
  9
$LTSCALE
 40
4.0
  9
$ATTMODE
 70
     1
  9
$TEXTSIZE
 40
0.5
  9
$TRACEWID
 40
0.05
  9
$TEXTSTYLE
  7
Standard
  9
$CLAYER
  8
0
  9
$CELTYPE
  6
ByLayer
  9
$CECOLOR
 62
   256
  9
$CELTSCALE
 40
1.0
  9
$DISPSILH
 70
     0
  9
$DIMSCALE
 40
1.0
  9
$DIMASZ
 40
0.52
  9
$DIMEXO
 40
0.2
  9
$DIMDLI
 40
0.38
  9
$DIMRND
 40
0.0
  9
$DIMDLE
 40
0.0
  9
$DIMEXE
 40
0.5
  9
$DIMTP
 40
0.0
  9
$DIMTM
 40
0.0
  9
$DIMTXT
 40
0.5
  9
$DIMCEN
 40
0.09
  9
$DIMTSZ
 40
0.0
  9
$DIMTOL
 70
     0
  9
$DIMLIM
 70
     0
  9
$DIMTIH
 70
     1
  9
$DIMTOH
 70
     1
  9
$DIMSE1
 70
     0
  9
$DIMSE2
 70
     0
  9
$DIMTAD
 70
     0
  9
$DIMZIN
 70
     1
  9
$DIMBLK
  1

  9
$DIMASO
 70
     1
  9
$DIMSHO
 70
     1
  9
$DIMPOST
  1

  9
$DIMAPOST
  1

  9
$DIMALT
 70
     0
  9
$DIMALTD
 70
     2
  9
$DIMALTF
 40
25.4
  9
$DIMLFAC
 40
1.0
  9
$DIMTOFL
 70
     0
  9
$DIMTVP
 40
0.0
  9
$DIMTIX
 70
     0
  9
$DIMSOXD
 70
     0
  9
$DIMSAH
 70
     0
  9
$DIMBLK1
  1

  9
$DIMBLK2
  1

  9
$DIMSTYLE
  2
Standard
  9
$DIMCLRD
 70
     0
  9
$DIMCLRE
 70
     0
  9
$DIMCLRT
 70
     0
  9
$DIMTFAC
 40
1.0
  9
$DIMGAP
 40
0.24
  9
$DIMJUST
 70
     0
  9
$DIMSD1
 70
     0
  9
$DIMSD2
 70
     0
  9
$DIMTOLJ
 70
     1
  9
$DIMTZIN
 70
     1
  9
$DIMALTZ
 70
     0
  9
$DIMALTTZ
 70
     0
  9
$DIMUPT
 70
     0
  9
$DIMDEC
 70
     0
  9
$DIMTDEC
 70
     0
  9
$DIMALTU
 70
     2
  9
$DIMALTTD
 70
     2
  9
$DIMTXSTY
  7
Standard
  9
$DIMAUNIT
 70
     0
  9
$DIMADEC
 70
     0
  9
$DIMALTRND
 40
0.0
  9
$DIMAZIN
 70
     0
  9
$DIMDSEP
 70
    46
  9
$DIMATFIT
 70
     3
  9
$DIMFRAC
 70
     0
  9
$DIMLDRBLK
  1

  9
$DIMLUNIT
 70
     2
  9
$DIMLWD
 70
    -2
  9
$DIMLWE
 70
    -2
  9
$DIMTMOVE
 70
     0
  9
$LUNITS
 70
     2
  9
$LUPREC
 70
     6
  9
$SKETCHINC
 40
0.1
  9
$FILLETRAD
 40
0.0
  9
$AUNITS
 70
     0
  9
$AUPREC
 70
     2
  9
$MENU
  1
.
  9
$ELEVATION
 40
0.0
  9
$PELEVATION
 40
0.0
  9
$THICKNESS
 40
0.0
  9
$LIMCHECK
 70
     0
  9
$CHAMFERA
 40
0.0
  9
$CHAMFERB
 40
0.0
  9
$CHAMFERC
 40
0.0
  9
$CHAMFERD
 40
0.0
  9
$SKPOLY
 70
     0
  9
$TDCREATE
 40
2460566.334801945
  9
$TDUCREATE
 40
2460566.626468611
  9
$TDUPDATE
 40
2460566.334802304
  9
$TDUUPDATE
 40
2460566.62646897
  9
$TDINDWG
 40
0.0000000116
  9
$TDUSRTIMER
 40
0.0000000116
  9
$USRTIMER
 70
     1
  9
$ANGBASE
 50
0.0
  9
$ANGDIR
 70
     0
  9
$PDMODE
 70
     0
  9
$PDSIZE
 40
-1.0
  9
$PLINEWID
 40
0.0
  9
$SPLFRAME
 70
     0
  9
$SPLINETYPE
 70
     6
  9
$SPLINESEGS
 70
     8
  9
$HANDSEED
  5
1CD
  9
$SURFTAB1
 70
     6
  9
$SURFTAB2
 70
     6
  9
$SURFTYPE
 70
     6
  9
$SURFU
 70
     6
  9
$SURFV
 70
     6
  9
$UCSBASE
  2

  9
$UCSNAME
  2

  9
$UCSORG
 10
0.0
 20
0.0
 30
0.0
  9
$UCSXDIR
 10
1.0
 20
0.0
 30
0.0
  9
$UCSYDIR
 10
0.0
 20
1.0
 30
0.0
  9
$UCSORTHOREF
  2

  9
$UCSORTHOVIEW
 70
     0
  9
$UCSORGTOP
 10
0.0
 20
0.0
 30
0.0
  9
$UCSORGBOTTOM
 10
0.0
 20
0.0
 30
0.0
  9
$UCSORGLEFT
 10
0.0
 20
0.0
 30
0.0
  9
$UCSORGRIGHT
 10
0.0
 20
0.0
 30
0.0
  9
$UCSORGFRONT
 10
0.0
 20
0.0
 30
0.0
  9
$UCSORGBACK
 10
0.0
 20
0.0
 30
0.0
  9
$PUCSBASE
  2

  9
$PUCSNAME
  2

  9
$PUCSORG
 10
0.0
 20
0.0
 30
0.0
  9
$PUCSXDIR
 10
1.0
 20
0.0
 30
0.0
  9
$PUCSYDIR
 10
0.0
 20
1.0
 30
0.0
  9
$PUCSORTHOREF
  2

  9
$PUCSORTHOVIEW
 70
     0
  9
$PUCSORGTOP
 10
0.0
 20
0.0
 30
0.0
  9
$PUCSORGBOTTOM
 10
0.0
 20
0.0
 30
0.0
  9
$PUCSORGLEFT
 10
0.0
 20
0.0
 30
0.0
  9
$PUCSORGRIGHT
 10
0.0
 20
0.0
 30
0.0
  9
$PUCSORGFRONT
 10
0.0
 20
0.0
 30
0.0
  9
$PUCSORGBACK
 10
0.0
 20
0.0
 30
0.0
  9
$USERI1
 70
     0
  9
$USERI2
 70
     0
  9
$USERI3
 70
     0
  9
$USERI4
 70
     0
  9
$USERI5
 70
     0
  9
$USERR1
 40
0.0
  9
$USERR2
 40
0.0
  9
$USERR3
 40
0.0
  9
$USERR4
 40
0.0
  9
$USERR5
 40
0.0
  9
$WORLDVIEW
 70
     1
  9
$SHADEDGE
 70
     3
  9
$SHADEDIF
 70
    70
  9
$TILEMODE
 70
     1
  9
$MAXACTVP
 70
    64
  9
$PINSBASE
 10
0.0
 20
0.0
 30
0.0
  9
$PLIMCHECK
 70
     0
  9
$PEXTMIN
 10
1.0000000000E+20
 20
1.0000000000E+20
 30
1.0000000000E+20
  9
$PEXTMAX
 10
-1.0000000000E+20
 20
-1.0000000000E+20
 30
-1.0000000000E+20
  9
$PLIMMIN
 10
0.0
 20
0.0
  9
$PLIMMAX
 10
12.0
 20
9.0
  9
$UNITMODE
 70
     0
  9
$VISRETAIN
 70
     1
  9
$PLINEGEN
 70
     0
  9
$PSLTSCALE
 70
     1
  9
$TREEDEPTH
 70
  3020
  9
$CMLSTYLE
  2
Standard
  9
$CMLJUST
 70
     0
  9
$CMLSCALE
 40
1.0
  9
$PROXYGRAPHICS
 70
     1
  9
$MEASUREMENT
 70
     0
  9
$CELWEIGHT
370
    -1
  9
$ENDCAPS
280
     0
  9
$JOINSTYLE
280
     0
  9
$LWDISPLAY
290
     1
  9
$INSUNITS
 70
     1
  9
$HYPERLINKBASE
  1

  9
$STYLESHEET
  1

  9
$XEDIT
290
     1
  9
$CEPSNTYPE
380
     0
  9
$PSTYLEMODE
290
     1
  9
$FINGERPRINTGUID
  2
{735af1f6-cfb5-455a-8990-e3cbad89180c}
  9
$VERSIONGUID
  2
{FAEB1C32-E019-11D5-929B-00C0DF256EC4}
  9
$EXTNAMES
290
     1
  9
$PSVPSCALE
 40
0.0
  9
$OLESTARTUP
290
     0
  0
ENDSEC
  0
SECTION
  2
CLASSES
  0
CLASS
  1
ACDBDICTIONARYWDFLT
  2
AcDbDictionaryWithDefault
  3
ObjectDBX Classes
 90
        0
280
     0
281
     0
  0
CLASS
  1
VISUALSTYLE
  2
AcDbVisualStyle
  3
ObjectDBX Classes
 90
     4095
280
     0
281
     0
  0
CLASS
  1
MATERIAL
  2
AcDbMaterial
  3
ObjectDBX Classes
 90
     1153
280
     0
281
     0
  0
CLASS
  1
SCALE
  2
AcDbScale
  3
ObjectDBX Classes
 90
     1153
280
     0
281
     0
  0
CLASS
  1
TABLESTYLE
  2
AcDbTableStyle
  3
ObjectDBX Classes
 90
     4095
280
     0
281
     0
  0
CLASS
  1
MLEADERSTYLE
  2
AcDbMLeaderStyle
  3
ACDB_MLEADERSTYLE_CLASS
 90
     4095
280
     0
281
     0
  0
CLASS
  1
SUN
  2
AcDbSun
  3
SCENEOE
 90
     1153
280
     0
281
     0
  0
CLASS
  1
ACDBPLACEHOLDER
  2
AcDbPlaceHolder
  3
ObjectDBX Classes
 90
        0
280
     0
281
     0
  0
CLASS
  1
LAYOUT
  2
AcDbLayout
  3
ObjectDBX Classes
 90
        0
280
     0
281
     0
  0
ENDSEC
  0
SECTION
  2
TABLES
  0
TABLE
  2
VPORT
  5
8
330
0
100
AcDbSymbolTable
 70
     1
  0
VPORT
  5
29
330
8
100
AcDbSymbolTableRecord
100
AcDbViewportTableRecord
  2
*Active
 70
     0
 10
0.0
 20
0.0
 11
1.0
 21
1.0
 12
22.0
 22
17.0
 13
0.0
 23
0.0
 14
0.5
 24
0.5
 15
0.5
 25
0.5
 16
0.0
 26
0.0
 36
1.0
 17
0.0
 27
0.0
 37
0.0
 40
34.0
 41
1.2941176471
 42
50.0
 43
0.0
 44
0.0
 50
0.0
 51
0.0
 71
     0
 72
  2000
 73
     1
 74
     3
 75
     0
 76
     0
 77
     0
 78
     0
281
     0
 65
     1
110
0.0
120
0.0
130
0.0
111
1.0
121
0.0
131
0.0
112
0.0
122
1.0
132
0.0
 79
     0
146
0.0
  0
ENDTAB
  0
TABLE
  2
LTYPE
  5
5
330
0
100
AcDbSymbolTable
 70
     6
  0
LTYPE
  5
14
330
5
100
AcDbSymbolTableRecord
100
AcDbLinetypeTableRecord
  2
ByBlock
 70
     0
  3

 72
    65
 73
     0
 40
0.0
  0
LTYPE
  5
15
330
5
100
AcDbSymbolTableRecord
100
AcDbLinetypeTableRecord
  2
ByLayer
 70
     0
  3

 72
    65
 73
     0
 40
0.0
  0
LTYPE
  5
16
330
5
100
AcDbSymbolTableRecord
100
AcDbLinetypeTableRecord
  2
Continuous
 70
     0
  3
Solid line
 72
    65
 73
     0
 40
0.0
  0
LTYPE
  5
5E
330
5
100
AcDbSymbolTableRecord
100
AcDbLinetypeTableRecord
  2
HIDDEN
 70
     0
  3
Hidden __ __ __ __ __ __ __ __ __ __ __ __ __ __
 72
    65
 73
     2
 40
0.075
 49
0.05
 74
     0
 49
-0.025
 74
     0
  0
LTYPE
  5
5F
330
5
100
AcDbSymbolTableRecord
100
AcDbLinetypeTableRecord
  2
PHANTOM
 70
     0
  3
Phantom ______  __  __  ______  __  __  ______
 72
    65
 73
     6
 40
0.5
 49
0.25
 74
     0
 49
-0.05
 74
     0
 49
0.05
 74
     0
 49
-0.05
 74
     0
 49
0.05
 74
     0
 49
-0.05
 74
     0
  0
LTYPE
  5
60
330
5
100
AcDbSymbolTableRecord
100
AcDbLinetypeTableRecord
  2
CENTER
 70
     0
  3
Center ____ _ ____ _ ____ _ ____ _ ____ _ ____
 72
    65
 73
     4
 40
0.4
 49
0.25
 74
     0
 49
-0.05
 74
     0
 49
0.05
 74
     0
 49
-0.05
 74
     0
  0
LTYPE
  5
61
330
5
100
AcDbSymbolTableRecord
100
AcDbLinetypeTableRecord
  2
CENTERX2
 70
     0
  3
Center (2x) ________  __  ________  __  _____
 72
    65
 73
     4
 40
0.8
 49
0.5
 74
     0
 49
-0.1
 74
     0
 49
0.1
 74
     0
 49
-0.1
 74
     0
  0
LTYPE
  5
62
330
5
100
AcDbSymbolTableRecord
100
AcDbLinetypeTableRecord
  2
DOT2
 70
     0
  3
Dot (.5x) ........................................
 72
    65
 73
     2
 40
0.025
 49
0.0
 74
     0
 49
-0.025
 74
     0
  0
ENDTAB
  0
TABLE
  2
LAYER
  5
2
330
0
100
AcDbSymbolTable
 70
    12
  0
LAYER
  5
10
330
2
100
AcDbSymbolTableRecord
100
AcDbLayerTableRecord
  2
0
 70
     0
 62
     7
  6
Continuous
370
    -3
390
F
  0
LAYER
  5
63
330
2
100
AcDbSymbolTableRecord
100
AcDbLayerTableRecord
  2
SLD-0
 70
     0
 62
     7
  6
Continuous
370
    -3
390
F
  0
LAYER
  5
64
330
2
100
AcDbSymbolTableRecord
100
AcDbLayerTableRecord
  2
DIM
 70
     0
 62
     7
  6
Continuous
370
    -3
390
F
  0
LAYER
  5
65
330
2
100
AcDbSymbolTableRecord
100
AcDbLayerTableRecord
  2
CEN
 70
     0
 62
     1
  6
CENTER
370
    -3
390
F
  0
LAYER
  5
66
330
2
100
AcDbSymbolTableRecord
100
AcDbLayerTableRecord
  2
HAT
 70
     0
 62
     4
  6
Continuous
370
    -3
390
F
  0
LAYER
  5
67
330
2
100
AcDbSymbolTableRecord
100
AcDbLayerTableRecord
  2
OBJ
 70
     0
 62
     5
  6
Continuous
370
    -3
390
F
  0
LAYER
  5
68
330
2
100
AcDbSymbolTableRecord
100
AcDbLayerTableRecord
  2
SLD-DEFPOINTS
 70
     0
 62
     7
  6
Continuous
370
    -3
390
F
  0
LAYER
  5
69
330
2
100
AcDbSymbolTableRecord
100
AcDbLayerTableRecord
  2
HID
 70
     0
 62
     4
  6
HIDDEN
370
    -3
390
F
  0
LAYER
  5
6A
330
2
100
AcDbSymbolTableRecord
100
AcDbLayerTableRecord
  2
NOTE
 70
     0
 62
     7
  6
Continuous
370
    -3
390
F
  0
LAYER
  5
6B
330
2
100
AcDbSymbolTableRecord
100
AcDbLayerTableRecord
  2
VP
 70
     0
 62
    -5
  6
Continuous
290
     0
370
    -3
390
F
  0
LAYER
  5
6C
330
2
100
AcDbSymbolTableRecord
100
AcDbLayerTableRecord
  2
TITLE
 70
     0
 62
     7
  6
Continuous
370
    -3
390
F
  0
LAYER
  5
6D
330
2
100
AcDbSymbolTableRecord
100
AcDbLayerTableRecord
  2
THICK_TITLE
 70
     0
 62
     7
  6
Continuous
370
   100
390
F
  0
ENDTAB
  0
TABLE
  2
STYLE
  5
3
330
0
100
AcDbSymbolTable
 70
     2
  0
STYLE
  5
11
330
3
100
AcDbSymbolTableRecord
100
AcDbTextStyleTableRecord
  2
Standard
 70
     0
 40
0.0
 41
1.0
 50
0.0
 71
     0
 42
0.5
  3
txt
  4

  0
STYLE
  5
11F
330
3
100
AcDbSymbolTableRecord
100
AcDbTextStyleTableRecord
  2
SLDTEXTSTYLE0
 70
     0
 40
0.0
 41
0.75
 50
0.0
 71
     0
 42
0.5
  3
TXT
  4

  0
ENDTAB
  0
TABLE
  2
VIEW
  5
6
330
0
100
AcDbSymbolTable
 70
     0
  0
ENDTAB
  0
TABLE
  2
UCS
  5
7
330
0
100
AcDbSymbolTable
 70
     0
  0
ENDTAB
  0
TABLE
  2
APPID
  5
9
330
0
100
AcDbSymbolTable
 70
     1
  0
APPID
  5
12
330
9
100
AcDbSymbolTableRecord
100
AcDbRegAppTableRecord
  2
ACAD
 70
     0
  0
ENDTAB
  0
TABLE
  2
DIMSTYLE
  5
A
330
0
100
AcDbSymbolTable
 70
     5
100
AcDbDimStyleTable
  0
DIMSTYLE
105
27
330
A
100
AcDbSymbolTableRecord
100
AcDbDimStyleTableRecord
  2
Standard
 70
     0
178
     0
340
11
  0
DIMSTYLE
105
120
102
{ACAD_REACTORS
330
11E
330
133
330
1A7
102
}
330
A
100
AcDbSymbolTableRecord
100
AcDbDimStyleTableRecord
  2
SLDDIMSTYLE0
 70
     0
 41
0.52
 44
0.0
 45
0.000000001
 78
    12
 79
     3
140
0.5
147
0.125
148
0.000000001
170
     1
172
     1
173
     1
178
     0
271
     6
272
     0
276
     2
277
     5
284
    12
289
     0
340
11F
  0
DIMSTYLE
105
148
102
{ACAD_REACTORS
330
147
102
}
330
A
100
AcDbSymbolTableRecord
100
AcDbDimStyleTableRecord
  2
SLDDIMSTYLE1
 70
     0
 41
0.52
 44
0.0
 45
0.000000001
 78
    12
 79
     3
140
0.5
147
0.125
148
0.000000001
170
     1
173
     1
178
     0
271
     6
272
     0
276
     2
277
     5
284
    12
340
11F
  0
DIMSTYLE
105
193
102
{ACAD_REACTORS
330
192
102
}
330
A
100
AcDbSymbolTableRecord
100
AcDbDimStyleTableRecord
  2
SLDDIMSTYLE2
 70
     0
 41
0.52
 44
0.0
 45
0.000000001
 78
    12
 79
     3
140
0.5
147
0.125
148
0.000000001
170
     1
173
     1
178
     0
271
     0
272
     0
276
     2
277
     5
284
    12
340
11F
  0
DIMSTYLE
105
1BC
102
{ACAD_REACTORS
330
1BB
102
}
330
A
100
AcDbSymbolTableRecord
100
AcDbDimStyleTableRecord
  2
SLDDIMSTYLE3
 70
     0
 41
0.52
 44
0.0
 45
0.000000001
 78
    12
 79
     3
140
0.5
141
0.0
147
0.125
148
0.000000001
170
     1
173
     1
178
     0
271
     0
272
     0
276
     2
277
     5
284
    12
340
11F
  0
ENDTAB
  0
TABLE
  2
BLOCK_RECORD
  5
1
330
0
100
AcDbSymbolTable
 70
     8
  0
BLOCK_RECORD
  5
1F
330
1
100
AcDbSymbolTableRecord
100
AcDbBlockTableRecord
  2
*Model_Space
340
22
  0
BLOCK_RECORD
  5
1B
330
1
100
AcDbSymbolTableRecord
100
AcDbBlockTableRecord
  2
*Paper_Space
340
1E
  0
BLOCK_RECORD
  5
23
330
1
100
AcDbSymbolTableRecord
100
AcDbBlockTableRecord
  2
*Paper_Space0
340
26
  0
BLOCK_RECORD
  5
6E
330
1
100
AcDbSymbolTableRecord
100
AcDbBlockTableRecord
  2
Block1
340
0
  0
BLOCK_RECORD
  5
121
330
1
100
AcDbSymbolTableRecord
100
AcDbBlockTableRecord
  2
_D
340
0
  0
BLOCK_RECORD
  5
134
330
1
100
AcDbSymbolTableRecord
100
AcDbBlockTableRecord
  2
_D_1
340
0
  0
BLOCK_RECORD
  5
149
330
1
100
AcDbSymbolTableRecord
100
AcDbBlockTableRecord
  2
_D_2
340
0
  0
BLOCK_RECORD
  5
194
330
1
100
AcDbSymbolTableRecord
100
AcDbBlockTableRecord
  2
_D_3
340
0
  0
BLOCK_RECORD
  5
1A8
330
1
100
AcDbSymbolTableRecord
100
AcDbBlockTableRecord
  2
_D_4
340
0
  0
BLOCK_RECORD
  5
1BD
330
1
100
AcDbSymbolTableRecord
100
AcDbBlockTableRecord
  2
_D_5
340
0
  0
ENDTAB
  0
ENDSEC
  0
SECTION
  2
BLOCKS
  0
BLOCK
  5
20
330
1F
100
AcDbEntity
  8
0
100
AcDbBlockBegin
  2
*Model_Space
 70
     0
 10
0.0
 20
0.0
 30
0.0
  3
*Model_Space
  1

  0
ENDBLK
  5
21
330
1F
100
AcDbEntity
  8
0
100
AcDbBlockEnd
  0
BLOCK
  5
1C
330
1B
100
AcDbEntity
 67
     1
  8
0
100
AcDbBlockBegin
  2
*Paper_Space
 70
     0
 10
0.0
 20
0.0
 30
0.0
  3
*Paper_Space
  1

  0
ENDBLK
  5
1D
330
1B
100
AcDbEntity
 67
     1
  8
0
100
AcDbBlockEnd
  0
BLOCK
  5
24
330
23
100
AcDbEntity
  8
0
100
AcDbBlockBegin
  2
*Paper_Space0
 70
     0
 10
0.0
 20
0.0
 30
0.0
  3
*Paper_Space0
  1

  0
ENDBLK
  5
25
330
23
100
AcDbEntity
  8
0
100
AcDbBlockEnd
  0
BLOCK
  5
6F
330
6E
100
AcDbEntity
  8
0
100
AcDbBlockBegin
  2
Block1
 70
     0
 10
0.0
 20
0.0
 30
0.0
  3
Block1
  1

  0
ENDBLK
  5
70
330
6E
100
AcDbEntity
  8
0
100
AcDbBlockEnd
  0
BLOCK
  5
122
330
121
100
AcDbEntity
  8
0
100
AcDbBlockBegin
  2
_D
 70
     0
 10
0.0
 20
0.0
 30
0.0
  3
_D
  1

  0
SOLID
  5
124
330
121
100
AcDbEntity
  8
0
  6
Continuous
 62
     7
370
    18
100
AcDbTrace
 10
10.4969954665
 20
9.4940996229
 30
0.0
 11
10.5769954665
 21
10.0140996229
 31
0.0
 12
10.4169954665
 22
10.0140996229
 32
0.0
 13
10.4169954665
 23
10.0140996229
 33
0.0
  0
SOLID
  5
125
330
121
100
AcDbEntity
  8
0
  6
Continuous
 62
     7
370
    18
100
AcDbTrace
 10
10.4969954665
 20
7.2740996229
 30
0.0
 11
10.4169954665
 21
6.7540996229
 31
0.0
 12
10.5769954665
 22
6.7540996229
 32
0.0
 13
10.5769954665
 23
6.7540996229
 33
0.0
  0
LINE
  5
126
330
121
100
AcDbEntity
  8
0
  6
Continuous
 62
     7
370
     0
100
AcDbLine
 10
9.5025510378
 20
8.3840995495
 30
0.0
 11
9.3502072893
 21
8.3840995495
 31
0.0
  0
LINE
  5
127
330
121
100
AcDbEntity
  8
0
  6
Continuous
 62
     7
370
     0
100
AcDbLine
 10
9.3502072893
 20
8.3840995495
 30
0.0
 11
9.3502072893
 21
7.5903495257
 31
0.0
  0
LINE
  5
128
330
121
100
AcDbEntity
  8
0
  6
Continuous
 62
     7
370
     0
100
AcDbLine
 10
9.3502072893
 20
7.5903495257
 30
0.0
 11
9.5025510378
 21
7.5903495257
 31
0.0
  0
LINE
  5
129
330
121
100
AcDbEntity
  8
0
  6
Continuous
 62
     7
370
     0
100
AcDbLine
 10
11.4914399686
 20
8.3840995495
 30
0.0
 11
11.6437837171
 21
8.3840995495
 31
0.0
  0
LINE
  5
12A
330
121
100
AcDbEntity
  8
0
  6
Continuous
 62
     7
370
     0
100
AcDbLine
 10
11.6437837171
 20
8.3840995495
 30
0.0
 11
11.6437837171
 21
7.5903495257
 31
0.0
  0
LINE
  5
12B
330
121
100
AcDbEntity
  8
0
  6
Continuous
 62
     7
370
     0
100
AcDbLine
 10
11.6437837171
 20
7.5903495257
 30
0.0
 11
11.4914399686
 21
7.5903495257
 31
0.0
  0
LINE
  5
12C
330
121
100
AcDbEntity
  8
0
  6
Continuous
 62
     7
370
     0
100
AcDbLine
 10
16.6935623957
 20
9.4940996229
 30
0.0
 11
9.9969954665
 21
9.4940996229
 31
0.0
  0
LINE
  5
12D
330
121
100
AcDbEntity
  8
0
  6
Continuous
 62
     7
370
     0
100
AcDbLine
 10
16.6935623957
 20
7.2740996229
 30
0.0
 11
9.9969954665
 21
7.2740996229
 31
0.0
  0
LINE
  5
12E
330
121
100
AcDbEntity
  8
0
  6
Continuous
 62
     7
370
     0
100
AcDbLine
 10
10.4969954665
 20
9.4940996229
 30
0.0
 11
10.4969954665
 21
10.4940996229
 31
0.0
  0
LINE
  5
12F
330
121
100
AcDbEntity
  8
0
  6
Continuous
 62
     7
370
     0
100
AcDbLine
 10
10.4969954665
 20
7.2740996229
 30
0.0
 11
10.4969954665
 21
6.2740996229
 31
0.0
  0
MTEXT
  5
130
330
121
100
AcDbEntity
  8
0
  6
Continuous
 62
     7
370
    18
100
AcDbMText
 10
9.2244781001
 20
9.1301959703
 30
0.0
 40
0.5
 41
0.0
 71
     1
 72
     1
  1
%%c
  7
SLDTEXTSTYLE0
 73
     1
 44
1.0
  0
MTEXT
  5
131
330
121
100
AcDbEntity
  8
0
  6
Continuous
 62
     7
370
    18
100
AcDbMText
 10
9.9785405824
 20
9.1301959703
 30
0.0
 40
0.5
 41
0.0
 71
     1
 72
     1
  1
2 1/4"
  7
SLDTEXTSTYLE0
 73
     1
 44
1.0
  0
MTEXT
  5
132
330
121
100
AcDbEntity
  8
0
  6
Continuous
 62
     7
370
    18
100
AcDbMText
 10
9.5025510378
 20
8.2348834505
 30
0.0
 40
0.5
 41
0.0
 71
     1
 72
     1
  1
56mm
  7
SLDTEXTSTYLE0
 73
     1
 44
1.0
  0
ENDBLK
  5
123
330
121
100
AcDbEntity
  8
0
100
AcDbBlockEnd
  0
BLOCK
  5
135
330
134
100
AcDbEntity
  8
0
100
AcDbBlockBegin
  2
_D_1
 70
     0
 10
0.0
 20
0.0
 30
0.0
  3
_D_1
  1

  0
SOLID
  5
137
330
134
100
AcDbEntity
  8
0
  6
Continuous
 62
     7
370
    18
100
AcDbTrace
 10
20.5535623957
 20
12.4589027725
 30
0.0
 11
20.0335623957
 21
12.5389027725
 31
0.0
 12
20.0335623957
 22
12.3789027725
 32
0.0
 13
20.0335623957
 23
12.3789027725
 33
0.0
  0
SOLID
  5
138
330
134
100
AcDbEntity
  8
0
  6
Continuous
 62
     7
370
    18
100
AcDbTrace
 10
20.9435623957
 20
12.4589027725
 30
0.0
 11
21.4635623957
 21
12.3789027725
 31
0.0
 12
21.4635623957
 22
12.5389027725
 32
0.0
 13
21.4635623957
 23
12.5389027725
 33
0.0
  0
LINE
  5
139
330
134
100
AcDbEntity
  8
0
  6
Continuous
 62
     7
370
     0
100
AcDbLine
 10
23.0740731078
 20
12.4550832499
 30
0.0
 11
22.9217293593
 21
12.4550832499
 31
0.0
  0
LINE
  5
13A
330
134
100
AcDbEntity
  8
0
  6
Continuous
 62
     7
370
     0
100
AcDbLine
 10
22.9217293593
 20
12.4550832499
 30
0.0
 11
22.9217293593
 21
11.6613332261
 31
0.0
  0
LINE
  5
13B
330
134
100
AcDbEntity
  8
0
  6
Continuous
 62
     7
370
     0
100
AcDbLine
 10
22.9217293593
 20
11.6613332261
 30
0.0
 11
23.0740731078
 21
11.6613332261
 31
0.0
  0
LINE
  5
13C
330
134
100
AcDbEntity
  8
0
  6
Continuous
 62
     7
370
     0
100
AcDbLine
 10
25.0629620386
 20
12.4550832499
 30
0.0
 11
25.2153057871
 21
12.4550832499
 31
0.0
  0
LINE
  5
13D
330
134
100
AcDbEntity
  8
0
  6
Continuous
 62
     7
370
     0
100
AcDbLine
 10
25.2153057871
 20
12.4550832499
 30
0.0
 11
25.2153057871
 21
11.6613332261
 31
0.0
  0
LINE
  5
13E
330
134
100
AcDbEntity
  8
0
  6
Continuous
 62
     7
370
     0
100
AcDbLine
 10
25.2153057871
 20
11.6613332261
 30
0.0
 11
25.0629620386
 21
11.6613332261
 31
0.0
  0
LINE
  5
13F
330
134
100
AcDbEntity
  8
0
  6
Continuous
 62
     7
370
     0
100
AcDbLine
 10
20.5535623957
 20
11.0840996229
 30
0.0
 11
20.5535623957
 21
12.9589027725
 31
0.0
  0
LINE
  5
140
330
134
100
AcDbEntity
  8
0
  6
Continuous
 62
     7
370
     0
100
AcDbLine
 10
20.9435623957
 20
11.0840996229
 30
0.0
 11
20.9435623957
 21
12.9589027725
 31
0.0
  0
LINE
  5
141
330
134
100
AcDbEntity
  8
0
  6
Continuous
 62
     7
370
     0
100
AcDbLine
 10
20.5535623957
 20
12.4589027725
 30
0.0
 11
19.5535623957
 21
12.4589027725
 31
0.0
  0
LINE
  5
142
330
134
100
AcDbEntity
  8
0
  6
Continuous
 62
     7
370
     0
100
AcDbLine
 10
20.9435623957
 20
12.4589027725
 30
0.0
 11
22.4832506609
 21
12.4589027725
 31
0.0
  0
MTEXT
  5
143
330
134
100
AcDbEntity
  8
0
  6
Continuous
 62
     7
370
    18
100
AcDbMText
 10
22.7721633881
 20
13.20881856
 30
0.0
 40
0.5
 41
0.0
 71
     1
 72
     1
  1

  7
SLDTEXTSTYLE0
 73
     1
 44
1.0
  0
MTEXT
  5
144
330
134
100
AcDbEntity
  8
0
  6
Continuous
 62
     7
370
    18
100
AcDbMText
 10
23.450114727
 20
13.201179634
 30
0.0
 40
0.5
 41
0.0
 71
     1
 72
     1
  1
3/8"
  7
SLDTEXTSTYLE0
 73
     1
 44
1.0
  0
MTEXT
  5
145
330
134
100
AcDbEntity
  8
0
  6
Continuous
 62
     7
370
    18
100
AcDbMText
 10
23.0740731078
 20
12.3058671509
 30
0.0
 40
0.5
 41
0.0
 71
     1
 72
     1
  1
10mm
  7
SLDTEXTSTYLE0
 73
     1
 44
1.0
  0
MTEXT
  5
146
330
134
100
AcDbEntity
  8
0
  6
Continuous
 62
     7
370
    18
100
AcDbMText
 10
25.5551494255
 20
13.20881856
 30
0.0
 40
0.5
 41
0.0
 71
     1
 72
     1
  1

  7
SLDTEXTSTYLE0
 73
     1
 44
1.0
  0
ENDBLK
  5
136
330
134
100
AcDbEntity
  8
0
100
AcDbBlockEnd
  0
BLOCK
  5
14A
330
149
100
AcDbEntity
  8
0
100
AcDbBlockBegin
  2
_D_2
 70
     0
 10
0.0
 20
0.0
 30
0.0
  3
_D_2
  1

  0
SOLID
  5
14C
330
149
100
AcDbEntity
  8
0
  6
Continuous
 62
     7
370
    18
100
AcDbTrace
 10
20.5535623957
 20
12.4589027725
 30
0.0
 11
20.0335623957
 21
12.5389027725
 31
0.0
 12
20.0335623957
 22
12.3789027725
 32
0.0
 13
20.0335623957
 23
12.3789027725
 33
0.0
  0
SOLID
  5
14D
330
149
100
AcDbEntity
  8
0
  6
Continuous
 62
     7
370
    18
100
AcDbTrace
 10
16.4760623957
 20
12.4589027725
 30
0.0
 11
16.9960623957
 21
12.3789027725
 31
0.0
 12
16.9960623957
 22
12.5389027725
 32
0.0
 13
16.9960623957
 23
12.5389027725
 33
0.0
  0
LINE
  5
14E
330
149
100
AcDbEntity
  8
0
  6
Continuous
 62
     7
370
     0
100
AcDbLine
 10
17.3356458175
 20
12.4550832499
 30
0.0
 11
17.1833020691
 21
12.4550832499
 31
0.0
  0
LINE
  5
14F
330
149
100
AcDbEntity
  8
0
  6
Continuous
 62
     7
370
     0
100
AcDbLine
 10
17.1833020691
 20
12.4550832499
 30
0.0
 11
17.1833020691
 21
11.6613332261
 31
0.0
  0
LINE
  5
150
330
149
100
AcDbEntity
  8
0
  6
Continuous
 62
     7
370
     0
100
AcDbLine
 10
17.1833020691
 20
11.6613332261
 30
0.0
 11
17.3356458175
 21
11.6613332261
 31
0.0
  0
LINE
  5
151
330
149
100
AcDbEntity
  8
0
  6
Continuous
 62
     7
370
     0
100
AcDbLine
 10
19.6939791205
 20
12.4550832499
 30
0.0
 11
19.846322869
 21
12.4550832499
 31
0.0
  0
LINE
  5
152
330
149
100
AcDbEntity
  8
0
  6
Continuous
 62
     7
370
     0
100
AcDbLine
 10
19.846322869
 20
12.4550832499
 30
0.0
 11
19.846322869
 21
11.6613332261
 31
0.0
  0
LINE
  5
153
330
149
100
AcDbEntity
  8
0
  6
Continuous
 62
     7
370
     0
100
AcDbLine
 10
19.846322869
 20
11.6613332261
 30
0.0
 11
19.6939791205
 21
11.6613332261
 31
0.0
  0
LINE
  5
154
330
149
100
AcDbEntity
  8
0
  6
Continuous
 62
     7
370
     0
100
AcDbLine
 10
20.5535623957
 20
11.0840996229
 30
0.0
 11
20.5535623957
 21
12.9589027725
 31
0.0
  0
LINE
  5
155
330
149
100
AcDbEntity
  8
0
  6
Continuous
 62
     7
370
     0
100
AcDbLine
 10
16.4760623957
 20
8.639339024
 30
0.0
 11
16.4760623957
 21
12.9589027725
 31
0.0
  0
LINE
  5
156
330
149
100
AcDbEntity
  8
0
  6
Continuous
 62
     7
370
     0
100
AcDbLine
 10
20.5535623957
 20
12.4589027725
 30
0.0
 11
20.2848014207
 21
12.4589027725
 31
0.0
  0
LINE
  5
157
330
149
100
AcDbEntity
  8
0
  6
Continuous
 62
     7
370
     0
100
AcDbLine
 10
16.4760623957
 20
12.4589027725
 30
0.0
 11
16.7448233706
 21
12.4589027725
 31
0.0
  0
MTEXT
  5
158
330
149
100
AcDbEntity
  8
0
  6
Continuous
 62
     7
370
    18
100
AcDbMText
 10
17.0337360979
 20
13.20881856
 30
0.0
 40
0.5
 41
0.0
 71
     1
 72
     1
  1

  7
SLDTEXTSTYLE0
 73
     1
 44
1.0
  0
MTEXT
  5
159
330
149
100
AcDbEntity
  8
0
  6
Continuous
 62
     7
370
    18
100
AcDbMText
 10
17.4346040843
 20
13.201179634
 30
0.0
 40
0.5
 41
0.0
 71
     1
 72
     1
  1
4 1/16"
  7
SLDTEXTSTYLE0
 73
     1
 44
1.0
  0
MTEXT
  5
15A
330
149
100
AcDbEntity
  8
0
  6
Continuous
 62
     7
370
    18
100
AcDbMText
 10
17.3356458175
 20
12.3058671509
 30
0.0
 40
0.5
 41
0.0
 71
     1
 72
     1
  1
104mm
  7
SLDTEXTSTYLE0
 73
     1
 44
1.0
  0
MTEXT
  5
15B
330
149
100
AcDbEntity
  8
0
  6
Continuous
 62
     7
370
    18
100
AcDbMText
 10
20.1861665074
 20
13.20881856
 30
0.0
 40
0.5
 41
0.0
 71
     1
 72
     1
  1

  7
SLDTEXTSTYLE0
 73
     1
 44
1.0
  0
ENDBLK
  5
14B
330
149
100
AcDbEntity
  8
0
100
AcDbBlockEnd
  0
BLOCK
  5
195
330
194
100
AcDbEntity
  8
0
100
AcDbBlockBegin
  2
_D_3
 70
     0
 10
0.0
 20
0.0
 30
0.0
  3
_D_3
  1

  0
SOLID
  5
197
330
194
100
AcDbEntity
  8
0
  6
Continuous
 62
     7
370
    18
100
AcDbTrace
 10
36.1189205788
 20
5.8840996229
 30
0.0
 11
36.1989205788
 21
6.4040996229
 31
0.0
 12
36.0389205788
 22
6.4040996229
 32
0.0
 13
36.0389205788
 23
6.4040996229
 33
0.0
  0
SOLID
  5
198
330
194
100
AcDbEntity
  8
0
  6
Continuous
 62
     7
370
    18
100
AcDbTrace
 10
36.1189205788
 20
10.8840996229
 30
0.0
 11
36.0389205788
 21
10.3640996229
 31
0.0
 12
36.1989205788
 22
10.3640996229
 32
0.0
 13
36.1989205788
 23
10.3640996229
 33
0.0
  0
LINE
  5
199
330
194
100
AcDbEntity
  8
0
  6
Continuous
 62
     7
370
     0
100
AcDbLine
 10
34.9397540006
 20
8.3802801003
 30
0.0
 11
34.7874102522
 21
8.3802801003
 31
0.0
  0
LINE
  5
19A
330
194
100
AcDbEntity
  8
0
  6
Continuous
 62
     7
370
     0
100
AcDbLine
 10
34.7874102522
 20
8.3802801003
 30
0.0
 11
34.7874102522
 21
7.5865300764
 31
0.0
  0
LINE
  5
19B
330
194
100
AcDbEntity
  8
0
  6
Continuous
 62
     7
370
     0
100
AcDbLine
 10
34.7874102522
 20
7.5865300764
 30
0.0
 11
34.9397540006
 21
7.5865300764
 31
0.0
  0
LINE
  5
19C
330
194
100
AcDbEntity
  8
0
  6
Continuous
 62
     7
370
     0
100
AcDbLine
 10
37.2980873036
 20
8.3802801003
 30
0.0
 11
37.4504310521
 21
8.3802801003
 31
0.0
  0
LINE
  5
19D
330
194
100
AcDbEntity
  8
0
  6
Continuous
 62
     7
370
     0
100
AcDbLine
 10
37.4504310521
 20
8.3802801003
 30
0.0
 11
37.4504310521
 21
7.5865300764
 31
0.0
  0
LINE
  5
19E
330
194
100
AcDbEntity
  8
0
  6
Continuous
 62
     7
370
     0
100
AcDbLine
 10
37.4504310521
 20
7.5865300764
 30
0.0
 11
37.2980873036
 21
7.5865300764
 31
0.0
  0
LINE
  5
19F
330
194
100
AcDbEntity
  8
0
  6
Continuous
 62
     7
370
     0
100
AcDbLine
 10
33.3011557296
 20
5.8840996229
 30
0.0
 11
36.6189205788
 21
5.8840996229
 31
0.0
  0
LINE
  5
1A0
330
194
100
AcDbEntity
  8
0
  6
Continuous
 62
     7
370
     0
100
AcDbLine
 10
33.3011557296
 20
10.8840996229
 30
0.0
 11
36.6189205788
 21
10.8840996229
 31
0.0
  0
LINE
  5
1A1
330
194
100
AcDbEntity
  8
0
  6
Continuous
 62
     7
370
     0
100
AcDbLine
 10
36.1189205788
 20
5.8840996229
 30
0.0
 11
36.1189205788
 21
7.4849677364
 31
0.0
  0
LINE
  5
1A2
330
194
100
AcDbEntity
  8
0
  6
Continuous
 62
     7
370
     0
100
AcDbLine
 10
36.1189205788
 20
10.8840996229
 30
0.0
 11
36.1189205788
 21
9.2832315093
 31
0.0
  0
MTEXT
  5
1A3
330
194
100
AcDbEntity
  8
0
  6
Continuous
 62
     7
370
    18
100
AcDbMText
 10
34.637844281
 20
9.1340154104
 30
0.0
 40
0.5
 41
0.0
 71
     1
 72
     1
  1

  7
SLDTEXTSTYLE0
 73
     1
 44
1.0
  0
MTEXT
  5
1A4
330
194
100
AcDbEntity
  8
0
  6
Continuous
 62
     7
370
    18
100
AcDbMText
 10
35.8310733923
 20
9.1263764844
 30
0.0
 40
0.5
 41
0.0
 71
     1
 72
     1
  1
5"
  7
SLDTEXTSTYLE0
 73
     1
 44
1.0
  0
MTEXT
  5
1A5
330
194
100
AcDbEntity
  8
0
  6
Continuous
 62
     7
370
    18
100
AcDbMText
 10
34.9397540006
 20
8.2310640013
 30
0.0
 40
0.5
 41
0.0
 71
     1
 72
     1
  1
127mm
  7
SLDTEXTSTYLE0
 73
     1
 44
1.0
  0
MTEXT
  5
1A6
330
194
100
AcDbEntity
  8
0
  6
Continuous
 62
     7
370
    18
100
AcDbMText
 10
37.7902746905
 20
9.1340154104
 30
0.0
 40
0.5
 41
0.0
 71
     1
 72
     1
  1

  7
SLDTEXTSTYLE0
 73
     1
 44
1.0
  0
ENDBLK
  5
196
330
194
100
AcDbEntity
  8
0
100
AcDbBlockEnd
  0
BLOCK
  5
1A9
330
1A8
100
AcDbEntity
  8
0
100
AcDbBlockBegin
  2
_D_4
 70
     0
 10
0.0
 20
0.0
 30
0.0
  3
_D_4
  1

  0
SOLID
  5
1AB
330
1A8
100
AcDbEntity
  8
0
  6
Continuous
 62
     7
370
    18
100
AcDbTrace
 10
32.2576557296
 20
12.4589027725
 30
0.0
 11
32.7776557296
 21
12.3789027725
 31
0.0
 12
32.7776557296
 22
12.5389027725
 32
0.0
 13
32.7776557296
 23
12.5389027725
 33
0.0
  0
SOLID
  5
1AC
330
1A8
100
AcDbEntity
  8
0
  6
Continuous
 62
     7
370
    18
100
AcDbTrace
 10
28.9446557296
 20
12.4589027725
 30
0.0
 11
28.4246557296
 21
12.5389027725
 31
0.0
 12
28.4246557296
 22
12.3789027725
 32
0.0
 13
28.4246557296
 23
12.3789027725
 33
0.0
  0
LINE
  5
1AD
330
1A8
100
AcDbEntity
  8
0
  6
Continuous
 62
     7
370
     0
100
AcDbLine
 10
29.6067113375
 20
12.4550832499
 30
0.0
 11
29.4543675891
 21
12.4550832499
 31
0.0
  0
LINE
  5
1AE
330
1A8
100
AcDbEntity
  8
0
  6
Continuous
 62
     7
370
     0
100
AcDbLine
 10
29.4543675891
 20
12.4550832499
 30
0.0
 11
29.4543675891
 21
11.6613332261
 31
0.0
  0
LINE
  5
1AF
330
1A8
100
AcDbEntity
  8
0
  6
Continuous
 62
     7
370
     0
100
AcDbLine
 10
29.4543675891
 20
11.6613332261
 30
0.0
 11
29.6067113375
 21
11.6613332261
 31
0.0
  0
LINE
  5
1B0
330
1A8
100
AcDbEntity
  8
0
  6
Continuous
 62
     7
370
     0
100
AcDbLine
 10
31.5956002684
 20
12.4550832499
 30
0.0
 11
31.7479440168
 21
12.4550832499
 31
0.0
  0
LINE
  5
1B1
330
1A8
100
AcDbEntity
  8
0
  6
Continuous
 62
     7
370
     0
100
AcDbLine
 10
31.7479440168
 20
12.4550832499
 30
0.0
 11
31.7479440168
 21
11.6613332261
 31
0.0
  0
LINE
  5
1B2
330
1A8
100
AcDbEntity
  8
0
  6
Continuous
 62
     7
370
     0
100
AcDbLine
 10
31.7479440168
 20
11.6613332261
 30
0.0
 11
31.5956002684
 21
11.6613332261
 31
0.0
  0
LINE
  5
1B3
330
1A8
100
AcDbEntity
  8
0
  6
Continuous
 62
     7
370
     0
100
AcDbLine
 10
32.2576557296
 20
8.5840996229
 30
0.0
 11
32.2576557296
 21
12.9589027725
 31
0.0
  0
LINE
  5
1B4
330
1A8
100
AcDbEntity
  8
0
  6
Continuous
 62
     7
370
     0
100
AcDbLine
 10
28.9446557296
 20
8.5840996229
 30
0.0
 11
28.9446557296
 21
12.9589027725
 31
0.0
  0
LINE
  5
1B5
330
1A8
100
AcDbEntity
  8
0
  6
Continuous
 62
     7
370
     0
100
AcDbLine
 10
32.2576557296
 20
12.4589027725
 30
0.0
 11
33.2576557296
 21
12.4589027725
 31
0.0
  0
LINE
  5
1B6
330
1A8
100
AcDbEntity
  8
0
  6
Continuous
 62
     7
370
     0
100
AcDbLine
 10
28.9446557296
 20
12.4589027725
 30
0.0
 11
27.9446557296
 21
12.4589027725
 31
0.0
  0
MTEXT
  5
1B7
330
1A8
100
AcDbEntity
  8
0
  6
Continuous
 62
     7
370
    18
100
AcDbMText
 10
29.3048016179
 20
13.20881856
 30
0.0
 40
0.5
 41
0.0
 71
     1
 72
     1
  1

  7
SLDTEXTSTYLE0
 73
     1
 44
1.0
  0
MTEXT
  5
1B8
330
1A8
100
AcDbEntity
  8
0
  6
Continuous
 62
     7
370
    18
100
AcDbMText
 10
29.5209474183
 20
13.201179634
 30
0.0
 40
0.5
 41
0.0
 71
     1
 72
     1
  1
3 5/16"
  7
SLDTEXTSTYLE0
 73
     1
 44
1.0
  0
MTEXT
  5
1B9
330
1A8
100
AcDbEntity
  8
0
  6
Continuous
 62
     7
370
    18
100
AcDbMText
 10
29.6067113375
 20
12.3058671509
 30
0.0
 40
0.5
 41
0.0
 71
     1
 72
     1
  1
84mm
  7
SLDTEXTSTYLE0
 73
     1
 44
1.0
  0
MTEXT
  5
1BA
330
1A8
100
AcDbEntity
  8
0
  6
Continuous
 62
     7
370
    18
100
AcDbMText
 10
32.0877876553
 20
13.20881856
 30
0.0
 40
0.5
 41
0.0
 71
     1
 72
     1
  1

  7
SLDTEXTSTYLE0
 73
     1
 44
1.0
  0
ENDBLK
  5
1AA
330
1A8
100
AcDbEntity
  8
0
100
AcDbBlockEnd
  0
BLOCK
  5
1BE
330
1BD
100
AcDbEntity
  8
0
100
AcDbBlockBegin
  2
_D_5
 70
     0
 10
0.0
 20
0.0
 30
0.0
  3
_D_5
  1

  0
SOLID
  5
1C0
330
1BD
100
AcDbEntity
  8
0
  6
Continuous
 62
     7
370
    18
100
AcDbTrace
 10
31.0566557296
 20
7.59515048
 30
0.0
 11
31.2473736973
 21
7.10481727
 31
0.0
 12
31.3859377619
 22
7.18481727
 32
0.0
 13
31.3859377619
 23
7.18481727
 33
0.0
  0
LINE
  5
1C1
330
1BD
100
AcDbEntity
  8
0
  6
Continuous
 62
     7
370
     0
100
AcDbLine
 10
35.258658274
 20
3.1706521932
 30
0.0
 11
35.1063145256
 21
3.1706521932
 31
0.0
  0
LINE
  5
1C2
330
1BD
100
AcDbEntity
  8
0
  6
Continuous
 62
     7
370
     0
100
AcDbLine
 10
35.1063145256
 20
3.1706521932
 30
0.0
 11
35.1063145256
 21
2.3769021693
 31
0.0
  0
LINE
  5
1C3
330
1BD
100
AcDbEntity
  8
0
  6
Continuous
 62
     7
370
     0
100
AcDbLine
 10
35.1063145256
 20
2.3769021693
 30
0.0
 11
35.258658274
 21
2.3769021693
 31
0.0
  0
LINE
  5
1C4
330
1BD
100
AcDbEntity
  8
0
  6
Continuous
 62
     7
370
     0
100
AcDbLine
 10
37.2475472049
 20
3.1706521932
 30
0.0
 11
37.3998909533
 21
3.1706521932
 31
0.0
  0
LINE
  5
1C5
330
1BD
100
AcDbEntity
  8
0
  6
Continuous
 62
     7
370
     0
100
AcDbLine
 10
37.3998909533
 20
3.1706521932
 30
0.0
 11
37.3998909533
 21
2.3769021693
 31
0.0
  0
LINE
  5
1C6
330
1BD
100
AcDbEntity
  8
0
  6
Continuous
 62
     7
370
     0
100
AcDbLine
 10
37.3998909533
 20
2.3769021693
 30
0.0
 11
37.2475472049
 21
2.3769021693
 31
0.0
  0
LINE
  5
1C7
330
1BD
100
AcDbEntity
  8
0
  6
Continuous
 62
     7
370
     0
100
AcDbLine
 10
31.0566557296
 20
7.59515048
 30
0.0
 11
33.6111409642
 21
3.1706522665
 31
0.0
  0
LINE
  5
1C8
330
1BD
100
AcDbEntity
  8
0
  6
Continuous
 62
     7
370
     0
100
AcDbLine
 10
33.6111409642
 20
3.1706522665
 30
0.0
 11
34.6111409642
 21
3.1706522665
 31
0.0
  0
MTEXT
  5
1C9
330
1BD
100
AcDbEntity
  8
0
  6
Continuous
 62
     7
370
    18
100
AcDbMText
 10
34.6111409642
 20
3.916748614
 30
0.0
 40
0.5
 41
0.0
 71
     1
 72
     1
  1
%%c
  7
SLDTEXTSTYLE0
 73
     1
 44
1.0
  0
MTEXT
  5
1CA
330
1BD
100
AcDbEntity
  8
0
  6
Continuous
 62
     7
370
    18
100
AcDbMText
 10
35.3652034466
 20
3.916748614
 30
0.0
 40
0.5
 41
0.0
 71
     1
 72
     1
  1
1 13/16"
  7
SLDTEXTSTYLE0
 73
     1
 44
1.0
  0
MTEXT
  5
1CB
330
1BD
100
AcDbEntity
  8
0
  6
Continuous
 62
     7
370
    18
100
AcDbMText
 10
35.258658274
 20
3.0214360942
 30
0.0
 40
0.5
 41
0.0
 71
     1
 72
     1
  1
46mm
  7
SLDTEXTSTYLE0
 73
     1
 44
1.0
  0
ENDBLK
  5
1BF
330
1BD
100
AcDbEntity
  8
0
100
AcDbBlockEnd
  0
ENDSEC
  0
SECTION
  2
ENTITIES
  0
LINE
  5
71
330
1F
100
AcDbEntity
  8
0
  6
Continuous
 62
     7
370
    25
100
AcDbLine
 10
32.9546088685
 20
22.556413416
 30
0.0
 11
32.9442331077
 21
22.5504236168
 31
0.0
  0
LINE
  5
72
330
1F
100
AcDbEntity
  8
0
  6
Continuous
 62
     7
370
    25
100
AcDbLine
 10
33.2470046681
 20
20.1618441585
 30
0.0
 11
33.2490381732
 21
20.163018076
 31
0.0
  0
LINE
  5
73
330
1F
100
AcDbEntity
  8
0
  6
Continuous
 62
     7
370
    25
100
AcDbLine
 10
34.0540359866
 20
20.627733422
 30
0.0
 11
34.0645186617
 21
20.6337849415
 31
0.0
  0
LINE
  5
74
330
1F
100
AcDbEntity
  8
0
  6
Continuous
 62
     7
370
    25
100
AcDbLine
 10
34.3193249562
 20
23.3442472439
 30
0.0
 11
32.9616799363
 21
22.5604954565
 31
0.0
  0
LINE
  5
75
330
1F
100
AcDbEntity
  8
0
  6
Continuous
 62
     7
370
    25
100
AcDbLine
 10
34.0715897295
 20
20.637866982
 30
0.0
 11
35.4292347494
 21
21.4216187694
 31
0.0
  0
LINE
  5
76
330
1F
100
AcDbEntity
  8
0
  6
Continuous
 62
     7
370
    25
100
AcDbLine
 10
35.6591683799
 20
21.9298265046
 30
0.0
 11
35.6591683799
 21
21.9543187479
 31
0.0
  0
LINE
  5
77
330
1F
100
AcDbEntity
  8
0
  6
Continuous
 62
     7
370
    25
100
AcDbLine
 10
34.8956171749
 20
23.2769715413
 30
0.0
 11
34.8744074192
 21
23.2892196533
 31
0.0
  0
LINE
  5
78
330
1F
100
AcDbEntity
  8
0
  6
Continuous
 62
     7
370
    25
100
AcDbLine
 10
36.7679131006
 20
23.5741610292
 30
0.0
 11
36.41435971
 21
23.3700590012
 31
0.0
  0
LINE
  5
79
330
1F
100
AcDbEntity
  8
0
  6
Continuous
 62
     7
370
    25
100
AcDbLine
 10
36.5493487389
 20
23.1362258084
 30
0.0
 11
36.9029021295
 21
23.3403278364
 31
0.0
  0
LINE
  5
7A
330
1F
100
AcDbEntity
  8
0
  6
Continuous
 62
     7
370
    25
100
AcDbLine
 10
36.9653131198
 20
23.6404875276
 30
0.0
 11
36.8371097482
 21
23.5664772965
 31
0.0
  0
LINE
  5
7B
330
1F
100
AcDbEntity
  8
0
  6
Continuous
 62
     7
370
    25
100
AcDbLine
 10
36.4763262574
 20
23.3582014206
 30
0.0
 11
35.413261006
 21
22.7445069138
 31
0.0
  0
LINE
  5
7C
330
1F
100
AcDbEntity
  8
0
  6
Continuous
 62
     7
370
    25
100
AcDbLine
 10
35.5026347418
 20
22.5796007868
 30
0.0
 11
36.5700686386
 21
23.1958172589
 31
0.0
  0
LINE
  5
7D
330
1F
100
AcDbEntity
  8
0
  6
Continuous
 62
     7
370
    25
100
AcDbLine
 10
36.9308521293
 20
23.4040931348
 30
0.0
 11
37.0590555009
 21
23.4781033659
 31
0.0
  0
LINE
  5
7E
330
1F
100
AcDbEntity
  8
0
  6
Continuous
 62
     7
370
    25
100
AcDbLine
 10
36.8359783695
 20
23.6814712312
 30
0.0
 11
35.3588184255
 21
22.8287249468
 31
0.0
  0
LINE
  5
7F
330
1F
100
AcDbEntity
  8
0
  6
Continuous
 62
     7
370
    25
100
AcDbLine
 10
33.7782643419
 20
21.7505484701
 30
0.0
 11
34.0540359866
 21
21.9097480519
 31
0.0
  0
LINE
  5
80
330
1F
100
AcDbEntity
  8
0
  6
Continuous
 62
     7
370
    25
100
AcDbLine
 10
33.7782643419
 20
21.7505484701
 30
0.0
 11
30.242730436
 21
23.7915687497
 31
0.0
  0
LINE
  5
81
330
1F
100
AcDbEntity
  8
0
  6
Continuous
 62
     7
370
    25
100
AcDbLine
 10
30.242730436
 20
23.7915687497
 30
0.0
 11
30.5185020807
 21
23.9507683315
 31
0.0
  0
LINE
  5
82
330
1F
100
AcDbEntity
  8
0
  6
Continuous
 62
     7
370
    25
100
AcDbLine
 10
30.5185020807
 20
23.9507683315
 30
0.0
 11
34.0540359866
 21
21.9097480519
 31
0.0
  0
LINE
  5
83
330
1F
100
AcDbEntity
  8
0
  6
Continuous
 62
     7
370
    25
100
AcDbLine
 10
33.7782643419
 20
17.6678444107
 30
0.0
 11
34.0540359866
 21
17.8270439925
 31
0.0
  0
LINE
  5
84
330
1F
100
AcDbEntity
  8
0
  6
Continuous
 62
     7
370
    25
100
AcDbLine
 10
33.7782643419
 20
17.6678444107
 30
0.0
 11
33.7782643419
 21
21.7505484701
 31
0.0
  0
LINE
  5
85
330
1F
100
AcDbEntity
  8
0
  6
Continuous
 62
     7
370
    25
100
AcDbLine
 10
34.0540359866
 20
21.9097480519
 30
0.0
 11
34.0540359866
 21
17.8270439925
 31
0.0
  0
LINE
  5
86
330
1F
100
AcDbEntity
  8
0
  6
Continuous
 62
     7
370
    25
100
AcDbLine
 10
30.242730436
 20
19.7088646903
 30
0.0
 11
33.7782643419
 21
17.6678444107
 31
0.0
  0
LINE
  5
87
330
1F
100
AcDbEntity
  8
0
  6
Continuous
 62
     7
370
    25
100
AcDbLine
 10
30.242730436
 20
23.7915687497
 30
0.0
 11
30.242730436
 21
19.7088646903
 31
0.0
  0
LWPOLYLINE
  5
88
330
1F
100
AcDbEntity
  8
0
  6
Continuous
 62
     7
370
    25
100
AcDbPolyline
 90
       74
 70
   128
 43
0.0
 10
30.8391750059
 20
21.2385057324
 10
30.8516361958
 20
21.2319316923
 10
30.8640051274
 20
21.2266456275
 10
30.8761902255
 20
21.2226866742
 10
30.8881012758
 20
21.220084143
 10
30.8996500932
 20
21.2188573023
 10
30.9107511741
 20
21.2190152351
 10
30.9213223302
 20
21.2205567721
 10
30.9312852962
 20
21.2234705004
 10
30.9405663098
 20
21.2277348477
 10
30.9490966577
 20
21.2333182422
 10
30.9568131842
 20
21.2401793465
 10
30.9636587587
 20
21.2482673634
 10
30.9695826991
 20
21.257522412
 10
30.9745411465
 20
21.2678759711
 10
30.9784973904
 20
21.2792513867
 10
30.9814221401
 20
21.2915644391
 10
30.9832937418
 20
21.3047239668
 10
30.9840983389
 20
21.3186325413
 10
30.9838299742
 20
21.3331871884
 10
30.9824906348
 20
21.3482801505
 10
30.9800902366
 20
21.3637996846
 10
30.9766465513
 20
21.3796308895
 10
30.9721850748
 20
21.3956565566
 10
30.9667388383
 20
21.4117580373
 10
30.9603481638
 20
21.4278161221
 10
30.9530603657
 20
21.4437119223
 10
30.9449294002
 20
21.4593277511
 10
30.9360154661
 20
21.4745479943
 10
30.9263845592
 20
21.4892599667
 10
30.9161079832
 20
21.5033547458
 10
30.9052618224
 20
21.5167279789
 10
30.893926378
 20
21.5292806552
 10
30.8821855735
 20
21.5409198392
 10
30.8701263338
 20
21.5515593583
 10
30.8578379414
 20
21.5611204413
 10
30.845411375
 20
21.5695323013
 10
30.8329386368
 20
21.5767326598
 10
30.8205120705
 20
21.5826682079
 10
30.8082236781
 20
21.5872950008
 10
30.7961644384
 20
21.5905787835
 10
30.7844236339
 20
21.5924952438
 10
30.7730881895
 20
21.5930301931
 10
30.7622420287
 20
21.5921796707
 10
30.7519654527
 20
21.5899499736
 10
30.7423345458
 20
21.5863576097
 10
30.7334206117
 20
21.5814291757
 10
30.7252896462
 20
21.5752011598
 10
30.7180018481
 20
21.5677196722
 10
30.7116111736
 20
21.5590401032
 10
30.7061649371
 20
21.5492267133
 10
30.7017034606
 20
21.5383521573
 10
30.6982597753
 20
21.5264969468
 10
30.6958593771
 20
21.5137488534
 10
30.6945200377
 20
21.5002022597
 10
30.694251673
 20
21.4859574599
 10
30.69505627
 20
21.4711199175
 10
30.6969278717
 20
21.4557994844
 10
30.6998526214
 20
21.4401095879
 10
30.7038088654
 20
21.4241663903
 10
30.7087673128
 20
21.4080879296
 10
30.7146912532
 20
21.391993245
 10
30.7215368277
 20
21.376001496
 10
30.7292533542
 20
21.3602310799
 10
30.7377837021
 20
21.3447987553
 10
30.7470647157
 20
21.3298187778
 10
30.7570276817
 20
21.3154020539
 10
30.7675988378
 20
21.3016553199
 10
30.7786999187
 20
21.2886803518
 10
30.7902487361
 20
21.2765732118
 10
30.8021597864
 20
21.265423537
 10
30.8143448845
 20
21.2553138755
 10
30.8267138161
 20
21.2463190759
 10
30.8391750059
 20
21.2385057324
  0
LWPOLYLINE
  5
89
330
1F
100
AcDbEntity
  8
0
  6
Continuous
 62
     7
370
    25
100
AcDbPolyline
 90
       74
 70
   128
 43
0.0
 10
33.181819772
 20
19.8861256951
 10
33.1942809619
 20
19.8795516551
 10
33.2066498935
 20
19.8742655903
 10
33.2188349916
 20
19.8703066369
 10
33.2307460419
 20
19.8677041058
 10
33.2422948592
 20
19.8664772651
 10
33.2533959402
 20
19.8666351979
 10
33.2639670962
 20
19.8681767349
 10
33.2739300622
 20
19.8710904632
 10
33.2832110759
 20
19.8753548104
 10
33.2917414238
 20
19.880938205
 10
33.2994579502
 20
19.8877993093
 10
33.3063035248
 20
19.8958873261
 10
33.3122274652
 20
19.9051423747
 10
33.3171859126
 20
19.9154959339
 10
33.3211421565
 20
19.9268713494
 10
33.3240669062
 20
19.9391844019
 10
33.3259385079
 20
19.9523439296
 10
33.3267431049
 20
19.9662525041
 10
33.3264747403
 20
19.9808071512
 10
33.3251354008
 20
19.9959001132
 10
33.3227350026
 20
20.0114196474
 10
33.3192913174
 20
20.0272508523
 10
33.3148298409
 20
20.0432765194
 10
33.3093836044
 20
20.0593780001
 10
33.3029929299
 20
20.0754360848
 10
33.2957051317
 20
20.0913318851
 10
33.2875741662
 20
20.1069477139
 10
33.2786602322
 20
20.1221679571
 10
33.2690293253
 20
20.1368799294
 10
33.2587527493
 20
20.1509747086
 10
33.2479065885
 20
20.1643479417
 10
33.236571144
 20
20.176900618
 10
33.2248303396
 20
20.188539802
 10
33.2127710999
 20
20.1991793211
 10
33.2004827074
 20
20.2087404041
 10
33.1880561411
 20
20.2171522641
 10
33.1755834029
 20
20.2243526226
 10
33.1631568366
 20
20.2302881707
 10
33.1508684441
 20
20.2349149636
 10
33.1388092045
 20
20.2381987462
 10
33.1270684
 20
20.2401152066
 10
33.1157329555
 20
20.2406501558
 10
33.1048867947
 20
20.2397996334
 10
33.0946102188
 20
20.2375699364
 10
33.0849793118
 20
20.2339775725
 10
33.0760653778
 20
20.2290491384
 10
33.0679344123
 20
20.2228211226
 10
33.0606466141
 20
20.215339635
 10
33.0542559396
 20
20.206660066
 10
33.0488097031
 20
20.1968466761
 10
33.0443482266
 20
20.1859721201
 10
33.0409045414
 20
20.1741169095
 10
33.0385041432
 20
20.1613688162
 10
33.0371648038
 20
20.1478222225
 10
33.0368964391
 20
20.1335774227
 10
33.0377010361
 20
20.1187398802
 10
33.0395726378
 20
20.1034194472
 10
33.0424973875
 20
20.0877295506
 10
33.0464536314
 20
20.0717863531
 10
33.0514120789
 20
20.0557078923
 10
33.0573360193
 20
20.0396132078
 10
33.0641815938
 20
20.0236214588
 10
33.0718981202
 20
20.0078510427
 10
33.0804284681
 20
19.9924187181
 10
33.0897094818
 20
19.9774387406
 10
33.0996724478
 20
19.9630220166
 10
33.1102436038
 20
19.9492752826
 10
33.1213446848
 20
19.9363003146
 10
33.1328935021
 20
19.9241931746
 10
33.1448045525
 20
19.9130434998
 10
33.1569896505
 20
19.9029338383
 10
33.1693585821
 20
19.8939390387
 10
33.181819772
 20
19.8861256951
  0
LWPOLYLINE
  5
8A
330
1F
100
AcDbEntity
  8
0
  6
Continuous
 62
     7
370
    25
100
AcDbPolyline
 90
      156
 70
   128
 43
0.0
 10
32.010497389
 20
19.9858379006
 10
32.0366029242
 20
19.971378583
 10
32.0626655682
 20
19.9581651963
 10
32.0886424999
 20
19.9462194501
 10
32.1144910395
 20
19.9355609712
 10
32.1401687177
 20
19.9262072714
 10
32.1656333463
 20
19.9181737189
 10
32.190843087
 20
19.9114735128
 10
32.2157565201
 20
19.9061176614
 10
32.240332713
 20
19.9021149645
 10
32.2645312871
 20
19.8994719984
 10
32.2883124841
 20
19.8981931056
 10
32.3116372317
 20
19.8982803872
 10
32.3344672073
 20
19.8997336998
 10
32.3567649014
 20
19.9025506558
 10
32.3784936788
 20
19.9067266267
 10
32.3996178393
 20
19.9122547515
 10
32.4201026759
 20
19.9191259476
 10
32.4399145321
 20
19.9273289255
 10
32.4590208571
 20
19.9368502078
 10
32.4773902591
 20
19.947674151
 10
32.4949925575
 20
19.9597829714
 10
32.5117988315
 20
19.9731567744
 10
32.5277814686
 20
19.9877735866
 10
32.5429142093
 20
20.0036093928
 10
32.5571721905
 20
20.0206381748
 10
32.5705319865
 20
20.0388319543
 10
32.5829716472
 20
20.0581608391
 10
32.5944707341
 20
20.0785930717
 10
32.6050103543
 20
20.100095082
 10
32.6145731913
 20
20.1226315425
 10
32.6231435334
 20
20.1461654256
 10
32.6307072994
 20
20.1706580653
 10
32.6372520622
 20
20.1960692202
 10
32.6427670687
 20
20.22235714
 10
32.6472432578
 20
20.2494786335
 10
32.6506732751
 20
20.2773891403
 10
32.6530514851
 20
20.3060428034
 10
32.6543739804
 20
20.3353925451
 10
32.6546385881
 20
20.3653901436
 10
32.6538448736
 20
20.3959863131
 10
32.6519941408
 20
20.4271307841
 10
32.6490894305
 20
20.4587723864
 10
32.6451355152
 20
20.4908591328
 10
32.6401388912
 20
20.5233383049
 10
32.6341077677
 20
20.5561565396
 10
32.6270520541
 20
20.5892599166
 10
32.6189833428
 20
20.622594047
 10
32.6099148906
 20
20.6561041631
 10
32.5998615971
 20
20.6897352077
 10
32.5888399797
 20
20.7234319252
 10
32.576868147
 20
20.757138952
 10
32.5639657686
 20
20.7908009074
 10
32.5501540431
 20
20.824362485
 10
32.5354556631
 20
20.8577685432
 10
32.5198947781
 20
20.8909641959
 10
32.5034969545
 20
20.9238949028
 10
32.4862891339
 20
20.9565065588
 10
32.4682995887
 20
20.988745583
 10
32.4495578757
 20
21.0205590068
 10
32.4300947875
 20
21.0518945609
 10
32.4099423019
 20
21.0827007609
 10
32.3891335293
 20
21.1129269924
 10
32.3677026585
 20
21.1425235938
 10
32.3456849004
 20
21.171441938
 10
32.3231164301
 20
21.1996345121
 10
32.3000343276
 20
21.2270549958
 10
32.2764765166
 20
21.2536583374
 10
32.2524817026
 20
21.2794008276
 10
32.228089309
 20
21.3042401717
 10
32.2033394125
 20
21.3281355585
 10
32.178272677
 20
21.3510477281
 10
32.1529302872
 20
21.3729390358
 10
32.1273538805
 20
21.3937735143
 10
32.1015854788
 20
21.4135169326
 10
32.0756674197
 20
21.4321368523
 10
32.0496422864
 20
21.4496026808
 10
32.0235528381
 20
21.465885722
 10
31.9974419398
 20
21.4809592227
 10
31.9713524915
 20
21.4947984174
 10
31.9453273582
 20
21.5073805681
 10
31.9194092991
 20
21.5186850026
 10
31.8936408975
 20
21.5286931475
 10
31.8680644908
 20
21.5373885597
 10
31.842722101
 20
21.5447569524
 10
31.8176553655
 20
21.5507862196
 10
31.7929054689
 20
21.555466455
 10
31.7685130754
 20
21.5587899692
 10
31.7445182614
 20
21.5607513015
 10
31.7209604504
 20
21.5613472295
 10
31.6978783478
 20
21.5605767741
 10
31.6753098775
 20
21.5584412012
 10
31.6532921194
 20
21.5549440194
 10
31.6318612487
 20
21.5500909748
 10
31.6110524761
 20
21.5438900407
 10
31.5908999904
 20
21.5363514053
 10
31.5714369022
 20
21.5274874546
 10
31.5526951892
 20
21.517312752
 10
31.534705644
 20
21.5058440145
 10
31.5174978234
 20
21.4931000853
 10
31.5010999998
 20
21.4791019025
 10
31.4855391148
 20
21.4638724652
 10
31.4708407349
 20
21.4474367953
 10
31.4570290094
 20
21.4298218965
 10
31.444126631
 20
21.4110567101
 10
31.4321547982
 20
21.3911720673
 10
31.4211331808
 20
21.3702006383
 10
31.4110798873
 20
21.3481768793
 10
31.4020114352
 20
21.3251369752
 10
31.3939427238
 20
21.3011187806
 10
31.3868870102
 20
21.2761617572
 10
31.3808558868
 20
21.2503069094
 10
31.3758592627
 20
21.2235967166
 10
31.3719053474
 20
21.1960750636
 10
31.3690006372
 20
21.1677871684
 10
31.3671499044
 20
21.138779508
 10
31.3663561898
 20
21.1090997418
 10
31.3666207976
 20
21.0787966337
 10
31.3679432929
 20
21.0479199715
 10
31.3703215029
 20
21.0165204855
 10
31.3737515202
 20
20.9846497651
 10
31.3782277092
 20
20.9523601736
 10
31.3837427157
 20
20.9197047629
 10
31.3902874785
 20
20.8867371857
 10
31.3978512446
 20
20.8535116076
 10
31.4064215866
 20
20.8200826182
 10
31.4159844236
 20
20.7865051412
 10
31.4265240439
 20
20.7528343443
 10
31.4380231308
 20
20.7191255485
 10
31.4504627914
 20
20.6854341374
 10
31.4638225874
 20
20.6518154657
 10
31.4780805687
 20
20.618324769
 10
31.4932133094
 20
20.5850170722
 10
31.5091959464
 20
20.5519471
 10
31.5260022205
 20
20.5191691861
 10
31.5436045188
 20
20.4867371846
 10
31.5619739209
 20
20.4547043812
 10
31.5810802459
 20
20.4231234057
 10
31.6008921021
 20
20.3920461455
 10
31.6213769387
 20
20.3615236605
 10
31.6425010992
 20
20.3316060991
 10
31.6642298766
 20
20.3023426157
 10
31.6865275706
 20
20.2737812903
 10
31.7093575462
 20
20.2459690488
 10
31.7326822938
 20
20.2189515869
 10
31.7564634909
 20
20.1927732941
 10
31.7806620649
 20
20.1674771812
 10
31.8052382579
 20
20.1431048098
 10
31.830151691
 20
20.1196962236
 10
31.8553614316
 20
20.0972898827
 10
31.8808260602
 20
20.0759226009
 10
31.9065037385
 20
20.0556294844
 10
31.932352278
 20
20.0364438747
 10
31.9583292098
 20
20.018397294
 10
31.9843918537
 20
20.0015193924
 10
32.010497389
 20
19.9858379006
  0
LINE
  5
8B
330
1F
100
AcDbEntity
  8
0
  6
Continuous
 62
     7
370
    25
100
AcDbLine
 10
33.2474440841
 20
20.1648873115
 30
0.0
 11
33.2441789815
 21
20.1436526899
 31
0.0
  0
ARC
  5
8C
330
1F
100
AcDbEntity
  8
0
  6
Continuous
 62
     7
370
    25
100
AcDbCircle
 10
33.2949355553
 20
20.056564154
 30
0.0
 40
0.0472206958937798
100
AcDbArc
 50
232.2252732587
 51
304.2625763174
  0
LWPOLYLINE
  5
8D
330
1F
100
AcDbEntity
  8
0
  6
Continuous
 62
     7
370
    25
100
AcDbPolyline
 90
       21
 70
   128
 43
0.0
 10
33.2205245257
 20
20.1924863754
 10
33.2144846192
 20
20.1895584623
 10
33.2087353543
 20
20.1851283231
 10
33.2038543165
 20
20.1794398413
 10
33.1999154973
 20
20.1725792485
 10
33.1969786051
 20
20.1646505443
 10
33.1950881603
 20
20.1557739198
 10
33.1942728202
 20
20.1460839355
 10
33.1945449443
 20
20.1357274818
 10
33.1959004077
 20
20.1248615519
 10
33.1983186628
 20
20.1136508623
 10
33.2017630513
 20
20.1022653555
 10
33.2061813599
 20
20.0908776243
 10
33.2115066116
 20
20.0796602951
 10
33.2176580808
 20
20.068783411
 10
33.2245425176
 20
20.0584118547
 10
33.232055561
 20
20.0487028483
 10
33.2400833209
 20
20.0398035704
 10
33.2485041046
 20
20.0318489251
 10
33.2571902616
 20
20.0249594967
 10
33.2660101187
 20
20.0192397218
  0
LWPOLYLINE
  5
8E
330
1F
100
AcDbEntity
  8
0
  6
Continuous
 62
     7
370
    25
100
AcDbPolyline
 90
       75
 70
   128
 43
0.0
 10
31.5994404845
 20
21.5397400741
 10
31.5940487602
 20
21.5352408728
 10
31.5780661231
 20
21.5206240605
 10
31.5629333824
 20
21.5047882543
 10
31.5486754012
 20
21.4877594723
 10
31.5353156052
 20
21.4695656928
 10
31.5228759445
 20
21.4502368081
 10
31.5113768576
 20
21.4298045755
 10
31.5008372374
 20
21.4083025651
 10
31.4912744004
 20
21.3857661046
 10
31.4827040583
 20
21.3622322215
 10
31.4751402923
 20
21.3377395818
 10
31.4685955295
 20
21.3123284269
 10
31.463080523
 20
21.2860405071
 10
31.4586043339
 20
21.2589190136
 10
31.4551743166
 20
21.2310085068
 10
31.4527961066
 20
21.2023548437
 10
31.4514736113
 20
21.1730051021
 10
31.4512090036
 20
21.1430075035
 10
31.4520027181
 20
21.112411334
 10
31.4538534509
 20
21.081266863
 10
31.4567581612
 20
21.0496252607
 10
31.4607120765
 20
21.0175385143
 10
31.4657087005
 20
20.9850593422
 10
31.471739824
 20
20.9522411075
 10
31.4787955376
 20
20.9191377305
 10
31.4868642489
 20
20.8858036001
 10
31.4959327011
 20
20.852293484
 10
31.5059859946
 20
20.8186624394
 10
31.517007612
 20
20.7849657219
 10
31.5289794447
 20
20.7512586952
 10
31.5418818231
 20
20.7175967397
 10
31.5556935486
 20
20.6840351621
 10
31.5703919286
 20
20.6506291039
 10
31.5859528136
 20
20.6174334512
 10
31.6023506372
 20
20.5845027443
 10
31.6195584578
 20
20.5518910883
 10
31.637548003
 20
20.5196520641
 10
31.656289716
 20
20.4878386403
 10
31.6757528042
 20
20.4565030862
 10
31.6959052898
 20
20.4256968862
 10
31.7167140624
 20
20.3954706547
 10
31.7381449332
 20
20.3658740533
 10
31.7601626913
 20
20.3369557091
 10
31.7827311616
 20
20.308763135
 10
31.8058132641
 20
20.2813426513
 10
31.8293710751
 20
20.2547393097
 10
31.8533658891
 20
20.2289968195
 10
31.8777582827
 20
20.2041574755
 10
31.9025081792
 20
20.1802620886
 10
31.9275749147
 20
20.157349919
 10
31.9529173045
 20
20.1354586113
 10
31.9784937112
 20
20.1146241328
 10
32.0042621129
 20
20.0948807145
 10
32.030180172
 20
20.0762607949
 10
32.0562053053
 20
20.0587949663
 10
32.0822947536
 20
20.0425119251
 10
32.1084056519
 20
20.0274384244
 10
32.1344951002
 20
20.0135992297
 10
32.1605202335
 20
20.001017079
 10
32.1864382926
 20
19.9897126445
 10
32.2122066942
 20
19.9797044996
 10
32.2377831009
 20
19.9710090874
 10
32.2631254907
 20
19.9636406947
 10
32.2881922262
 20
19.9576114275
 10
32.3129421228
 20
19.9529311921
 10
32.3373345163
 20
19.9496076779
 10
32.3613293303
 20
19.9476463456
 10
32.3848871413
 20
19.9470504176
 10
32.4079692439
 20
19.947820873
 10
32.4305377142
 20
19.9499564459
 10
32.4525554723
 20
19.9534536277
 10
32.473986343
 20
19.9583066724
 10
32.4947951156
 20
19.9645076064
 10
32.5064071072
 20
19.968657573
  0
ARC
  5
8F
330
1F
100
AcDbEntity
  8
0
  6
Continuous
 62
     7
370
    25
100
AcDbCircle
 10
33.3944335783
 20
20.1762558994
 30
0.0
 40
0.1536041177853743
100
AcDbArc
 50
181.4801347541
 51
238.5144887132
  0
ARC
  5
90
330
1F
100
AcDbEntity
  8
0
  6
Continuous
 62
     7
370
    25
100
AcDbCircle
 10
30.9522907892
 20
21.4089441913
 30
0.0
 40
0.0472206958937833
100
AcDbArc
 50
232.2252732587
 51
304.2625763174
  0
LWPOLYLINE
  5
91
330
1F
100
AcDbEntity
  8
0
  6
Continuous
 62
     7
370
    25
100
AcDbPolyline
 90
       21
 70
   128
 43
0.0
 10
30.8778797596
 20
21.5448664127
 10
30.8718398532
 20
21.5419384996
 10
30.8660905883
 20
21.5375083603
 10
30.8612095504
 20
21.5318198785
 10
30.8572707312
 20
21.5249592857
 10
30.854333839
 20
21.5170305815
 10
30.8524433943
 20
21.508153957
 10
30.8516280541
 20
21.4984639728
 10
30.8519001782
 20
21.488107519
 10
30.8532556416
 20
21.4772415892
 10
30.8556738967
 20
21.4660308995
 10
30.8591182852
 20
21.4546453928
 10
30.8635365939
 20
21.4432576616
 10
30.8688618455
 20
21.4320403323
 10
30.8750133147
 20
21.4211634483
 10
30.8818977515
 20
21.4107918919
 10
30.8894107949
 20
21.4010828855
 10
30.8974385548
 20
21.3921836077
 10
30.9058593385
 20
21.3842289624
 10
30.9145454956
 20
21.3773395339
 10
30.9233653527
 20
21.371619759
  0
ARC
  5
92
330
1F
100
AcDbEntity
  8
0
  6
Continuous
 62
     7
370
    25
100
AcDbCircle
 10
31.0517888122
 20
21.5286359366
 30
0.0
 40
0.153604117785309
100
AcDbArc
 50
181.480134754
 51
238.5144887133
  0
LWPOLYLINE
  5
93
330
1F
100
AcDbEntity
  8
0
  6
Continuous
 62
     7
370
    25
100
AcDbPolyline
 90
       87
 70
   128
 43
0.0
 10
34.0645186617
 20
20.6337849415
 10
34.0771617985
 20
20.6414240201
 10
34.0966933421
 20
20.654649207
 10
34.1154322883
 20
20.6691439572
 10
34.1333533405
 20
20.6848887035
 10
34.150432306
 20
20.7018621912
 10
34.1666461292
 20
20.7200415068
 10
34.181972922
 20
20.7394021091
 10
34.196391994
 20
20.7599178623
 10
34.2098838803
 20
20.7815610711
 10
34.2224303672
 20
20.804302518
 10
34.2340145178
 20
20.8281115033
 10
34.2446206938
 20
20.852955886
 10
34.2542345776
 20
20.8788021272
 10
34.2628431907
 20
20.9056153357
 10
34.270434912
 20
20.9333593151
 10
34.276999493
 20
20.9619966122
 10
34.2825280718
 20
20.9914885679
 10
34.2870131852
 20
21.0217953697
 10
34.2904487783
 20
21.0528761047
 10
34.2928302134
 20
21.0846888153
 10
34.2941542755
 20
21.117190556
 10
34.2944191774
 20
21.1503374508
 10
34.2936245613
 20
21.1840847531
 10
34.2917715
 20
21.2183869055
 10
34.2888624949
 20
21.2531976018
 10
34.2849014732
 20
21.2884698492
 10
34.2798937821
 20
21.3241560318
 10
34.2738461816
 20
21.3602079749
 10
34.2667668357
 20
21.39657701
 10
34.2586653013
 20
21.4332140408
 10
34.249552515
 20
21.4700696089
 10
34.2394407786
 20
21.507093961
 10
34.2283437426
 20
21.5442371161
 10
34.2162763874
 20
21.5814489325
 10
34.2032550033
 20
21.6186791762
 10
34.1892971687
 20
21.6558775879
 10
34.1744217259
 20
21.6929939517
 10
34.1586487561
 20
21.7299781621
 10
34.1419995521
 20
21.7667802922
 10
34.1244965894
 20
21.8033506609
 10
34.1061634964
 20
21.8396398999
 10
34.0870250217
 20
21.8755990203
 10
34.0671070015
 20
21.9111794792
 10
34.0464363241
 20
21.9463332445
 10
34.0250408939
 20
21.9810128604
 10
34.0029495939
 20
22.0151715109
 10
33.9801922462
 20
22.0487630834
 10
33.9567995721
 20
22.0817422311
 10
33.9328031507
 20
22.1140644334
 10
33.908235376
 20
22.1456860571
 10
33.8831294134
 20
22.1765644143
 10
33.8575191547
 20
22.2066578208
 10
33.8314391726
 20
22.2359256519
 10
33.8049246738
 20
22.2643283973
 10
33.7780114516
 20
22.2918277148
 10
33.7507358377
 20
22.3183864814
 10
33.7231346528
 20
22.3439688442
 10
33.6952451573
 20
22.3685402681
 10
33.6671050006
 20
22.3920675828
 10
33.6387521706
 20
22.4145190277
 10
33.6102249424
 20
22.4358642943
 10
33.5815618263
 20
22.4560745675
 10
33.5528015162
 20
22.4751225643
 10
33.5239828371
 20
22.4929825709
 10
33.495144693
 20
22.5096304772
 10
33.466326014
 20
22.5250438091
 10
33.4375657039
 20
22.5392017595
 10
33.4089025878
 20
22.5520852158
 10
33.3803753596
 20
22.5636767858
 10
33.3520225296
 20
22.5739608216
 10
33.3238823729
 20
22.5829234402
 10
33.2959928773
 20
22.5905525425
 10
33.2683916925
 20
22.5968378295
 10
33.2411160786
 20
22.6017708163
 10
33.2142028564
 20
22.6053448438
 10
33.1876883576
 20
22.607555087
 10
33.1616083755
 20
22.6083985624
 10
33.1359981168
 20
22.6078741312
 10
33.1108921542
 20
22.6059825014
 10
33.0863243795
 20
22.6027262266
 10
33.0623279581
 20
22.5981097026
 10
33.038935284
 20
22.5921391616
 10
33.0161779363
 20
22.5848226634
 10
32.9940866363
 20
22.576170085
 10
32.9726912061
 20
22.566193107
 10
32.9546088685
 20
22.556413416
  0
SPLINE
  5
94
330
1F
100
AcDbEntity
  8
0
  6
Continuous
 62
     7
370
    25
100
AcDbSpline
210
0.0
220
0.0
230
1.0
 70
     8
 71
     3
 72
    16
 73
    12
 74
     0
 42
0.00000001
 43
0.00000001
 40
0.0
 40
0.0
 40
0.0
 40
0.0
 40
0.0005753472803094
 40
0.1260552899288799
 40
0.2515350046561939
 40
0.3768457067110711
 40
0.5021573762019119
 40
0.6275537613370881
 40
0.7529508039363946
 40
0.8785545318475642
 40
1.0
 40
1.0
 40
1.0
 40
1.0
 10
34.05403598660519
 20
21.5945848256743
 30
0.0
 10
34.0540458174985
 20
21.59457180506042
 30
0.0
 10
34.05619970985241
 20
21.59171906322409
 30
0.0
 10
34.05937821237228
 20
21.5849022428586
 30
0.0
 10
34.06331069305482
 20
21.5744110445757
 30
0.0
 10
34.06555271226887
 20
21.56316940396499
 30
0.0
 10
34.06630060982656
 20
21.55171071754268
 30
0.0
 10
34.06543815588611
 20
21.5402894087472
 30
0.0
 10
34.06305076957764
 20
21.52926196560121
 30
0.0
 10
34.05931532787562
 20
21.51895358371436
 30
0.0
 10
34.05577590887378
 20
21.51297891337033
 30
0.0
 10
34.05403598660519
 20
21.51004186014956
 30
0.0
  0
LWPOLYLINE
  5
95
330
1F
100
AcDbEntity
  8
0
  6
Continuous
 62
     7
370
    25
100
AcDbPolyline
 90
       21
 70
   128
 43
0.0
 10
32.0953502027
 20
20.0519697443
 10
32.1211871601
 20
20.0376670946
 10
32.1469805506
 20
20.0246139789
 10
32.1726868806
 20
20.0128324077
 10
32.1982628034
 20
20.0023422476
 10
32.2236651924
 20
19.9931611871
 10
32.2488512132
 20
19.9853047078
 10
32.2737783966
 20
19.9787860573
 10
32.2984047097
 20
19.9736162276
 10
32.322688627
 20
19.9698039362
 10
32.3465892003
 20
19.9673556116
 10
32.3700661278
 20
19.966275382
 10
32.3930798221
 20
19.9665650691
 10
32.4155914768
 20
19.9682241843
 10
32.4375631324
 20
19.9712499301
 10
32.4589577395
 20
19.9756372042
 10
32.4797392221
 20
19.9813786089
 10
32.4998725378
 20
19.9884644627
 10
32.5193237374
 20
19.9968828174
 10
32.5380600217
 20
20.0066194776
 10
32.5534135859
 20
20.0159286812
  0
LWPOLYLINE
  5
96
330
1F
100
AcDbEntity
  8
0
  6
Continuous
 62
     7
370
    25
100
AcDbPolyline
 90
       60
 70
   128
 43
0.0
 10
31.6638833064
 20
21.5568072777
 10
31.661917158
 20
21.5557948002
 10
31.6435502564
 20
21.5454050061
 10
31.6259451918
 20
21.5337223589
 10
31.6091316502
 20
21.5207665581
 10
31.593137983
 20
21.5065594502
 10
31.5779911593
 20
21.4911249915
 10
31.56371672
 20
21.474489208
 10
31.5503387349
 20
21.4566801515
 10
31.5378797626
 20
21.437727852
 10
31.5263608114
 20
21.4176642674
 10
31.5158013052
 20
21.3965232294
 10
31.5062190494
 20
21.3743403866
 10
31.4976302021
 20
21.3511531443
 10
31.4900492459
 20
21.3270006015
 10
31.4834889641
 20
21.3019234847
 10
31.4779604187
 20
21.2759640797
 10
31.4734729322
 20
21.2491661599
 10
31.4700340714
 20
21.2215749127
 10
31.4676496351
 20
21.1932368631
 10
31.4663236439
 20
21.1641997956
 10
31.4660583338
 20
21.1345126731
 10
31.4668541522
 20
21.1042255548
 10
31.4687097571
 20
21.0733895118
 10
31.4716220196
 20
21.0420565406
 10
31.4755860288
 20
21.0102794755
 10
31.4805951007
 20
20.9781119001
 10
31.4866407887
 20
20.945608056
 10
31.4937128986
 20
20.912822752
 10
31.501799505
 20
20.8798112718
 10
31.5108869722
 20
20.8466292799
 10
31.5209599766
 20
20.8133327289
 10
31.5320015328
 20
20.7799777642
 10
31.5439930224
 20
20.7466206299
 10
31.5569142249
 20
20.7133175735
 10
31.5707433522
 20
20.6801247517
 10
31.5854570854
 20
20.6470981349
 10
31.6010306138
 20
20.6142934136
 10
31.6174376768
 20
20.581765904
 10
31.6346506084
 20
20.5495704547
 10
31.6526403838
 20
20.5177613546
 10
31.671376668
 20
20.486392241
 10
31.6908278676
 20
20.4555160094
 10
31.7109611833
 20
20.425184724
 10
31.7317426659
 20
20.3954495303
 10
31.753137273
 20
20.3663605685
 10
31.7751089286
 20
20.3379668892
 10
31.7976205834
 20
20.3103163706
 10
31.8206342777
 20
20.2834556377
 10
31.8441112051
 20
20.2574299838
 10
31.8680117784
 20
20.2322832939
 10
31.8922956957
 20
20.2080579712
 10
31.9169220088
 20
20.184794865
 10
31.9418491922
 20
20.1625332021
 10
31.9670352131
 20
20.1413105207
 10
31.992437602
 20
20.1211626072
 10
32.0180135249
 20
20.1021234354
 10
32.0437198549
 20
20.0842251097
 10
32.0695132453
 20
20.0674978106
 10
32.0953502027
 20
20.0519697443
  0
ARC
  5
97
330
1F
100
AcDbEntity
  8
0
  6
Continuous
 62
     7
370
    25
100
AcDbCircle
 10
32.4364074641
 20
20.4884216498
 30
0.0
 40
0.4791780032898421
100
AcDbArc
 50
235.6540613776
 51
285.084291231
  0
LWPOLYLINE
  5
98
330
1F
100
AcDbEntity
  8
0
  6
Continuous
 62
     7
370
    25
100
AcDbPolyline
 90
       56
 70
   128
 43
0.0
 10
31.6762401477
 20
21.5585574816
 10
31.6638486611
 20
21.5473798558
 10
31.6487018374
 20
21.5319453971
 10
31.6344273981
 20
21.5153096136
 10
31.6210494131
 20
21.4975005571
 10
31.6085904407
 20
21.4785482576
 10
31.5970714896
 20
21.458484673
 10
31.5865119833
 20
21.437343635
 10
31.5769297276
 20
21.4151607922
 10
31.5683408802
 20
21.3919735499
 10
31.560759924
 20
21.3678210071
 10
31.5541996422
 20
21.3427438903
 10
31.5486710968
 20
21.3167844853
 10
31.5441836103
 20
21.2899865655
 10
31.5407447495
 20
21.2623953183
 10
31.5383603132
 20
21.2340572687
 10
31.537034322
 20
21.2050202012
 10
31.536769012
 20
21.1753330787
 10
31.5375648303
 20
21.1450459604
 10
31.5394204352
 20
21.1142099174
 10
31.5423326977
 20
21.0828769462
 10
31.546296707
 20
21.0510998811
 10
31.5513057788
 20
21.0189323057
 10
31.5573514669
 20
20.9864284616
 10
31.5644235767
 20
20.9536431576
 10
31.5725101831
 20
20.9206316774
 10
31.5815976503
 20
20.8874496855
 10
31.5916706547
 20
20.8541531345
 10
31.6027122109
 20
20.8207981698
 10
31.6147037005
 20
20.7874410355
 10
31.627624903
 20
20.7541379791
 10
31.6414540304
 20
20.7209451573
 10
31.6561677636
 20
20.6879185405
 10
31.6717412919
 20
20.6551138192
 10
31.6881483549
 20
20.6225863096
 10
31.7053612865
 20
20.5903908603
 10
31.7233510619
 20
20.5585817602
 10
31.7420873461
 20
20.5272126466
 10
31.7615385457
 20
20.496336415
 10
31.7816718614
 20
20.4660051296
 10
31.802453344
 20
20.4362699359
 10
31.8238479512
 20
20.4071809741
 10
31.8458196067
 20
20.3787872948
 10
31.8683312615
 20
20.3511367762
 10
31.8913449558
 20
20.3242760433
 10
31.9148218833
 20
20.2982503894
 10
31.9387224565
 20
20.2731036995
 10
31.9630063738
 20
20.2488783768
 10
31.9876326869
 20
20.2256152706
 10
32.0125598703
 20
20.2033536077
 10
32.0377458912
 20
20.1821309263
 10
32.0631482801
 20
20.1619830128
 10
32.088724203
 20
20.142943841
 10
32.114430533
 20
20.1250455152
 10
32.1402239234
 20
20.1083182162
 10
32.1660608808
 20
20.0927901499
  0
ARC
  5
99
330
1F
100
AcDbEntity
  8
0
  6
Continuous
 62
     7
370
    25
100
AcDbCircle
 10
33.8849253342
 20
20.9610198958
 30
0.0
 40
0.3731895862339044
100
AcDbArc
 50
299.3854508359
 51
310.2667364974
  0
ARC
  5
9A
330
1F
100
AcDbEntity
  8
0
  6
Continuous
 62
     7
370
    25
100
AcDbCircle
 10
33.1482499752
 20
22.2370834031
 30
0.0
 40
0.3733666488548706
100
AcDbArc
 50
109.8266241278
 51
120.6062806211
  0
ARC
  5
9B
330
1F
100
AcDbEntity
  8
0
  6
Continuous
 62
     7
370
    25
100
AcDbCircle
 10
34.5356159688
 20
22.9286466549
 30
0.0
 40
0.4685143025496999
100
AcDbArc
 50
69.248486237
 51
117.4938212596
  0
LWPOLYLINE
  5
9C
330
1F
100
AcDbEntity
  8
0
  6
Continuous
 62
     7
370
    25
100
AcDbPolyline
 90
       72
 70
   128
 43
0.0
 10
35.4292347494
 20
21.4216187694
 10
35.432559601
 20
21.4235612996
 10
35.4524497819
 20
21.4361916365
 10
35.4715594604
 20
21.4501000297
 10
35.4898628396
 20
21.4652677036
 10
35.5073352107
 20
21.4816741826
 10
35.5239529868
 20
21.4992973186
 10
35.5396937347
 20
21.5181133213
 10
35.5545362051
 20
21.5380967899
 10
35.5684603613
 20
21.5592207477
 10
35.5814474066
 20
21.5814566784
 10
35.5934798088
 20
21.6047745645
 10
35.6045413249
 20
21.6291429279
 10
35.6146170223
 20
21.6545288724
 10
35.6236932993
 20
21.6808981284
 10
35.6317579034
 20
21.7082150984
 10
35.6387999477
 20
21.7364429059
 10
35.6448099258
 20
21.7655434447
 10
35.6497797245
 20
21.7954774304
 10
35.6537026348
 20
21.8262044535
 10
35.656573361
 20
21.857683034
 10
35.6583880277
 20
21.8898706773
 10
35.6591441852
 20
21.9227239316
 10
35.6588408127
 20
21.9561984464
 10
35.6574783198
 20
21.9902490329
 10
35.6550585457
 20
22.0248297243
 10
35.6515847571
 20
22.0598938384
 10
35.6470616434
 20
22.0953940401
 10
35.6414953106
 20
22.1312824059
 10
35.634893273
 20
22.1675104882
 10
35.627264443
 20
22.2040293808
 10
35.6186191192
 20
22.2407897848
 10
35.6089689723
 20
22.2777420756
 10
35.5983270297
 20
22.3148363691
 10
35.5867076573
 20
22.3520225899
 10
35.574126541
 20
22.3892505384
 10
35.5606006644
 20
22.4264699584
 10
35.546148287
 20
22.4636306056
 10
35.5307889188
 20
22.5006823149
 10
35.5145432942
 20
22.5375750681
 10
35.4974333441
 20
22.5742590618
 10
35.479482166
 20
22.6106847743
 10
35.4607139932
 20
22.6468030326
 10
35.4411541619
 20
22.6825650788
 10
35.4208290769
 20
22.7179226358
 10
35.3997661761
 20
22.7528279725
 10
35.3779938935
 20
22.7872339683
 10
35.3555416205
 20
22.8210941769
 10
35.3324396669
 20
22.8543628885
 10
35.308719219
 20
22.8869951919
 10
35.2844122983
 20
22.918947035
 10
35.2595517181
 20
22.9501752844
 10
35.234171039
 20
22.9806377834
 10
35.2083045238
 20
23.0102934089
 10
35.1819870909
 20
23.0391021275
 10
35.1552542677
 20
23.0670250485
 10
35.1281421422
 20
23.0940244774
 10
35.1006873146
 20
23.1200639663
 10
35.0729268475
 20
23.1451083629
 10
35.0448982163
 20
23.1691238587
 10
35.0166392584
 20
23.1920780338
 10
34.9881881219
 20
23.213939901
 10
34.9595832146
 20
23.234679948
 10
34.9308631518
 20
23.2542701767
 10
34.9020667042
 20
23.2726841411
 10
34.8732327457
 20
23.2898969833
 10
34.8444002007
 20
23.3058854668
 10
34.8156079918
 20
23.3206280078
 10
34.7868949872
 20
23.3341047045
 10
34.7582999481
 20
23.3462973642
 10
34.7298614763
 20
23.3571895273
 10
34.7016179626
 20
23.3667664898
  0
ARC
  5
9D
330
1F
100
AcDbEntity
  8
0
  6
Continuous
 62
     7
370
    25
100
AcDbCircle
 10
34.0037360398
 20
21.8803787606
 30
0.0
 40
1.657082784367417
100
AcDbArc
 50
2.5574197649
 51
57.4372037024
  0
ARC
  5
9E
330
1F
100
AcDbEntity
  8
0
  6
Continuous
 62
     7
370
    25
100
AcDbCircle
 10
36.4442132646
 20
23.318478632
 30
0.0
 40
0.0489628980701353
100
AcDbArc
 50
68.1825967279
 51
170.1511836941
  0
LWPOLYLINE
  5
9F
330
1F
100
AcDbEntity
  8
0
  6
Continuous
 62
     7
370
    25
100
AcDbPolyline
 90
       32
 70
   128
 43
0.0
 10
36.4873821915
 20
23.148083389
 10
36.4965187646
 20
23.1440237155
 10
36.5060184469
 20
23.1410134482
 10
36.5152248083
 20
23.1393642746
 10
36.524026096
 20
23.1390962133
 10
36.5323154743
 20
23.1402125184
 10
36.5399923214
 20
23.1426996392
 10
36.5469634507
 20
23.1465273857
 10
36.5531442422
 20
23.151649294
 10
36.5584596695
 20
23.1580031912
 10
36.5628452105
 20
23.1655119496
 10
36.5662476306
 20
23.174084423
 10
36.5686256291
 20
23.1836165533
 10
36.5699503402
 20
23.1939926331
 10
36.5702056839
 20
23.2050867111
 10
36.5693885605
 20
23.2167641201
 10
36.5675088889
 20
23.2288831122
 10
36.5645894857
 20
23.2412965792
 10
36.5606657884
 20
23.2538538386
 10
36.5557854256
 20
23.2664024621
 10
36.5500076381
 20
23.2787901264
 10
36.5434025605
 20
23.2908664622
 10
36.5360503695
 20
23.302484879
 10
36.5280403107
 20
23.313504345
 10
36.5194696153
 20
23.3237910988
 10
36.5104423201
 20
23.3332202732
 10
36.5010680041
 20
23.3416774107
 10
36.4914604589
 20
23.3490598532
 10
36.481736307
 20
23.3552779878
 10
36.4720135864
 20
23.3602563348
 10
36.4624103179
 20
23.3639344637
 10
36.4624103179
 20
23.3639344637
  0
ARC
  5
A0
330
1F
100
AcDbEntity
  8
0
  6
Continuous
 62
     7
370
    25
100
AcDbCircle
 10
36.4410250574
 20
23.3242792183
 30
0.0
 40
0.0524144486935807
100
AcDbArc
 50
67.7699711275
 51
167.3224316112
  0
LWPOLYLINE
  5
A1
330
1F
100
AcDbEntity
  8
0
  6
Continuous
 62
     7
370
    25
100
AcDbPolyline
 90
       34
 70
   128
 43
0.0
 10
36.4801520913
 20
23.1439095411
 10
36.4877741313
 20
23.1397040796
 10
36.4978677777
 20
23.1352270635
 10
36.5077799842
 20
23.1320860752
 10
36.5173984414
 20
23.1303167035
 10
36.5266141684
 20
23.1299389962
 10
36.5353227474
 20
23.1309572326
 10
36.5434255067
 20
23.1333598759
 10
36.5508306387
 20
23.1371197031
 10
36.5574542404
 20
23.1421941139
 10
36.5632212637
 20
23.1485256131
 10
36.5680663659
 20
23.1560424624
 10
36.5719346502
 20
23.1646594928
 10
36.5747822872
 20
23.17427907
 10
36.5765770121
 20
23.1847922003
 10
36.57729849
 20
23.1960797657
 10
36.5769385462
 20
23.2080138736
 10
36.5755012591
 20
23.2204593058
 10
36.5730029136
 20
23.2332750506
 10
36.5694718171
 20
23.2463159004
 10
36.5649479782
 20
23.2594340973
 10
36.5594826539
 20
23.2724810068
 10
36.5531377685
 20
23.2853088022
 10
36.5459852121
 20
23.2977721394
 10
36.5381060259
 20
23.3097298039
 10
36.5295894843
 20
23.3210463106
 10
36.5205320832
 20
23.3315934389
 10
36.5110364465
 20
23.3412516856
 10
36.5012101635
 20
23.349911619
 10
36.49116457
 20
23.3574751185
 10
36.4810134866
 20
23.3638564867
 10
36.4708719291
 20
23.3689834201
 10
36.4608548054
 20
23.3727978285
 10
36.4608548054
 20
23.3727978285
  0
ARC
  5
A2
330
1F
100
AcDbEntity
  8
0
  6
Continuous
 62
     7
370
    25
100
AcDbCircle
 10
36.7942011675
 20
23.5239137392
 30
0.0
 40
0.0567084880019582
100
AcDbArc
 50
69.1249204837
 51
117.6173870129
  0
LWPOLYLINE
  5
A3
330
1F
100
AcDbEntity
  8
0
  6
Continuous
 62
     7
370
    25
100
AcDbPolyline
 90
       26
 70
   128
 43
0.0
 10
36.9029021295
 20
23.3403278364
 10
36.9043840293
 20
23.3412217311
 10
36.911007631
 20
23.3462961418
 10
36.9167746543
 20
23.3526276411
 10
36.9216197565
 20
23.3601444904
 10
36.9254880407
 20
23.3687615208
 10
36.9283356778
 20
23.378381098
 10
36.9301304027
 20
23.3888942283
 10
36.9308518806
 20
23.4001817937
 10
36.9304919368
 20
23.4121159016
 10
36.9290546497
 20
23.4245613338
 10
36.9265563042
 20
23.4373770786
 10
36.9230252077
 20
23.4504179284
 10
36.9185013688
 20
23.4635361253
 10
36.9130360445
 20
23.4765830347
 10
36.9066911591
 20
23.4894108301
 10
36.8995386026
 20
23.5018741674
 10
36.8916594165
 20
23.5138318319
 10
36.8831428749
 20
23.5251483386
 10
36.8740854738
 20
23.5356954668
 10
36.8645898371
 20
23.5453537136
 10
36.8547635541
 20
23.5540136469
 10
36.8447179606
 20
23.5615771465
 10
36.8345668772
 20
23.5679585146
 10
36.8244253197
 20
23.573085448
 10
36.814408196
 20
23.5768998564
  0
LWPOLYLINE
  5
A4
330
1F
100
AcDbEntity
  8
0
  6
Continuous
 62
     7
370
    25
100
AcDbPolyline
 90
       27
 70
   128
 43
0.0
 10
37.0590555009
 20
23.4781033659
 10
37.0613423877
 20
23.4795591464
 10
37.0666034576
 20
23.4841650636
 10
37.0709792834
 20
23.4899931377
 10
37.0743986827
 20
23.4969485625
 10
37.0768060318
 20
23.5049181931
 10
37.07816217
 20
23.5137723865
 10
37.0784450367
 20
23.5233671101
 10
37.0776500306
 20
23.5335462852
 10
37.075790084
 20
23.5441443256
 10
37.0728954531
 20
23.5549888315
 10
37.0690132252
 20
23.5659033938
 10
37.064206553
 20
23.5767104636
 10
37.0585536275
 20
23.5872342408
 10
37.0521464055
 20
23.5973035336
 10
37.0450891144
 20
23.6067545433
 10
37.037496556
 20
23.615433529
 10
37.0294922396
 20
23.6231993083
 10
37.0212063726
 20
23.6299255542
 10
37.0127737424
 20
23.6355028499
 10
37.0043315238
 20
23.6398404687
 10
36.9960170476
 20
23.6428678498
 10
36.9879655667
 20
23.6445357466
 10
36.9803080556
 20
23.644817027
 10
36.9731690802
 20
23.6437071153
 10
36.9666647711
 20
23.6412240668
 10
36.9653131198
 20
23.6404875276
  0
LWPOLYLINE
  5
A5
330
1F
100
AcDbEntity
  8
0
  6
Continuous
 62
     7
370
    25
100
AcDbPolyline
 90
       15
 70
   128
 43
0.0
 10
36.9328215449
 20
23.6217305407
 10
36.9314900118
 20
23.6242106077
 10
36.9253615088
 20
23.6344747451
 10
36.9185414577
 20
23.6441826177
 10
36.9111408014
 20
23.6531763063
 10
36.9032799273
 20
23.6613095091
 10
36.8950867094
 20
23.6684499222
 10
36.8866944281
 20
23.6744813914
 10
36.8782396017
 20
23.679305802
 10
36.8698597662
 20
23.6828446745
 10
36.8616912376
 20
23.6850404417
 10
36.8538668944
 20
23.6858573845
 10
36.8465140166
 20
23.6852822138
 10
36.8397522142
 20
23.6833242859
 10
36.8359783695
 20
23.6814712312
  0
LWPOLYLINE
  5
A6
330
1F
100
AcDbEntity
  8
0
  6
Continuous
 62
     7
370
    25
100
AcDbPolyline
 90
       69
 70
   128
 43
0.0
 10
33.3439729427
 20
22.5830147025
 10
33.3722164564
 20
22.5734377399
 10
33.4006549282
 20
22.5625455769
 10
33.4292499673
 20
22.5503529172
 10
33.4579629719
 20
22.5368762204
 10
33.4867551808
 20
22.5221336794
 10
33.5155877258
 20
22.506145196
 10
33.5444216844
 20
22.4889323538
 10
33.5732181319
 20
22.4705183894
 10
33.6019381947
 20
22.4509281607
 10
33.630543102
 20
22.4301881137
 10
33.6589942385
 20
22.4083262464
 10
33.6872531964
 20
22.3853720714
 10
33.7152818276
 20
22.3613565756
 10
33.7430422947
 20
22.3363121789
 10
33.7704971223
 20
22.3102726901
 10
33.7976092478
 20
22.2832732612
 10
33.824342071
 20
22.2553503401
 10
33.8506595039
 20
22.2265416216
 10
33.8765260192
 20
22.196885996
 10
33.9019066983
 20
22.1664234971
 10
33.9267672784
 20
22.1351952477
 10
33.9510741991
 20
22.1032434046
 10
33.974794647
 20
22.0706111012
 10
33.9978966007
 20
22.0373423896
 10
34.0203488736
 20
22.003482181
 10
34.0421211562
 20
21.9690761851
 10
34.063184057
 20
21.9341708484
 10
34.083509142
 20
21.8988132914
 10
34.1030689733
 20
21.8630512453
 10
34.1218371461
 20
21.8269329869
 10
34.1397883242
 20
21.7905072744
 10
34.1568982744
 20
21.7538232807
 10
34.173143899
 20
21.7169305275
 10
34.1885032672
 20
21.6798788183
 10
34.2029556445
 20
21.6427181711
 10
34.2164815211
 20
21.605498751
 10
34.2290626375
 20
21.5682708026
 10
34.2406820098
 20
21.5310845818
 10
34.2513239524
 20
21.4939902882
 10
34.2609740993
 20
21.4570379975
 10
34.2696194231
 20
21.4202775934
 10
34.2772482531
 20
21.3837587008
 10
34.2838502908
 20
21.3475306185
 10
34.2894166236
 20
21.3116422527
 10
34.2939397373
 20
21.276142051
 10
34.2974135259
 20
21.241077937
 10
34.2998332999
 20
21.2064972456
 10
34.3011957928
 20
21.1724466591
 10
34.3014991653
 20
21.1389721442
 10
34.3007430078
 20
21.1061188899
 10
34.2989283411
 20
21.0739312467
 10
34.2960576149
 20
21.0424526662
 10
34.2921347046
 20
21.0117256431
 10
34.2871649059
 20
20.9817916574
 10
34.2811549278
 20
20.9526911186
 10
34.2741128835
 20
20.9244633111
 10
34.2660482795
 20
20.897146341
 10
34.2569720024
 20
20.8707770851
 10
34.246896305
 20
20.8453911405
 10
34.2358347889
 20
20.8210227771
 10
34.2238023867
 20
20.797704891
 10
34.2108153415
 20
20.7754689604
 10
34.1968911852
 20
20.7543450026
 10
34.1820487148
 20
20.7343615339
 10
34.1663079669
 20
20.7155455312
 10
34.1496901908
 20
20.6979223952
 10
34.1322178198
 20
20.6815159163
 10
34.1261352655
 20
20.6762599331
  0
ARC
  5
A7
330
1F
100
AcDbEntity
  8
0
  6
Continuous
 62
     7
370
    25
100
AcDbCircle
 10
33.1749866763
 20
22.1111618387
 30
0.0
 40
0.5012000431552496
100
AcDbArc
 50
70.2958583727
 51
107.8190754833
  0
LINE
  5
A8
330
1F
100
AcDbEntity
  8
0
  6
Continuous
 62
     7
370
    25
100
AcDbLine
 10
19.1415189218
 20
7.2740996229
 30
0.0
 11
20.5535623957
 21
7.2740996229
 31
0.0
  0
LINE
  5
A9
330
1F
100
AcDbEntity
  8
0
  6
Continuous
 62
     7
370
    25
100
AcDbLine
 10
18.8235623957
 20
7.2740996229
 30
0.0
 11
19.0057811648
 21
7.2740996229
 31
0.0
  0
LINE
  5
AA
330
1F
100
AcDbEntity
  8
0
  6
Continuous
 62
     7
370
    25
100
AcDbLine
 10
20.5535623957
 20
9.4940996229
 30
0.0
 11
18.8235623957
 21
9.4940996229
 31
0.0
  0
LINE
  5
AB
330
1F
100
AcDbEntity
  8
0
  6
Continuous
 62
     7
370
    25
100
AcDbLine
 10
16.8935623957
 20
9.4940996229
 30
0.0
 11
16.8635623957
 21
9.4640996229
 31
0.0
  0
LINE
  5
AC
330
1F
100
AcDbEntity
  8
0
  6
Continuous
 62
     7
370
    25
100
AcDbLine
 10
16.8635623957
 20
7.3040996229
 30
0.0
 11
16.8935623957
 21
7.2740996229
 31
0.0
  0
LINE
  5
AD
330
1F
100
AcDbEntity
  8
0
  6
Continuous
 62
     7
370
    25
100
AcDbLine
 10
16.8935623957
 20
7.2740996229
 30
0.0
 11
18.8135623957
 21
7.2740996229
 31
0.0
  0
LINE
  5
AE
330
1F
100
AcDbEntity
  8
0
  6
Continuous
 62
     7
370
    25
100
AcDbLine
 10
18.8135623957
 20
9.4940996229
 30
0.0
 11
16.8935623957
 21
9.4940996229
 31
0.0
  0
ARC
  5
AF
330
1F
100
AcDbEntity
  8
0
  6
Continuous
 62
     7
370
    25
100
AcDbCircle
 10
18.8135623957
 20
9.4840996229
 30
0.0
 40
0.0100000000000016
100
AcDbArc
 50
360.0
 51
90.0
  0
ARC
  5
B0
330
1F
100
AcDbEntity
  8
0
  6
Continuous
 62
     7
370
    25
100
AcDbCircle
 10
18.8135623957
 20
7.2840996229
 30
0.0
 40
0.0100000000000016
100
AcDbArc
 50
270.0
 51
0.0
  0
LINE
  5
B1
330
1F
100
AcDbEntity
  8
0
  6
Continuous
 62
     7
370
    25
100
AcDbLine
 10
14.2115623957
 20
8.2697230001
 30
0.0
 11
14.7115623957
 21
8.2697230001
 31
0.0
  0
LINE
  5
B2
330
1F
100
AcDbEntity
  8
0
  6
Continuous
 62
     7
370
    25
100
AcDbLine
 10
14.7115623957
 20
8.5397230001
 30
0.0
 11
14.2115623957
 21
8.5397230001
 31
0.0
  0
LINE
  5
B3
330
1F
100
AcDbEntity
  8
0
  6
Continuous
 62
     7
370
    25
100
AcDbLine
 10
13.9615623957
 20
8.2697262456
 30
0.0
 11
16.4760623957
 21
8.2697262456
 31
0.0
  0
LINE
  5
B4
330
1F
100
AcDbEntity
  8
0
  6
Continuous
 62
     7
370
    25
100
AcDbLine
 10
16.4760623957
 20
8.4572262456
 30
0.0
 11
13.9615623957
 21
8.4572262456
 31
0.0
  0
LINE
  5
B5
330
1F
100
AcDbEntity
  8
0
  6
Continuous
 62
     7
370
    25
100
AcDbLine
 10
16.4760623957
 20
8.4984730001
 30
0.0
 11
14.7115623957
 21
8.4984730001
 31
0.0
  0
LINE
  5
B6
330
1F
100
AcDbEntity
  8
0
  6
Continuous
 62
     7
370
    25
100
AcDbLine
 10
14.2115623957
 20
8.4984730001
 30
0.0
 11
13.9615623957
 21
8.4984730001
 31
0.0
  0
LINE
  5
B7
330
1F
100
AcDbEntity
  8
0
  6
Continuous
 62
     7
370
    25
100
AcDbLine
 10
16.7385623957
 20
7.8890996229
 30
0.0
 11
16.8635623957
 21
7.8890996229
 31
0.0
  0
LINE
  5
B8
330
1F
100
AcDbEntity
  8
0
  6
Continuous
 62
     7
370
    25
100
AcDbLine
 10
16.8635623957
 20
8.8790996229
 30
0.0
 11
16.7385623957
 21
8.8790996229
 31
0.0
  0
LINE
  5
B9
330
1F
100
AcDbEntity
  8
0
  6
Continuous
 62
     7
370
    25
100
AcDbLine
 10
16.7385623957
 20
8.7278496229
 30
0.0
 11
16.7255623957
 21
8.7278496229
 31
0.0
  0
LINE
  5
BA
330
1F
100
AcDbEntity
  8
0
  6
Continuous
 62
     7
370
    25
100
AcDbLine
 10
16.7255623957
 20
8.0403496229
 30
0.0
 11
16.7385623957
 21
8.0403496229
 31
0.0
  0
LINE
  5
BB
330
1F
100
AcDbEntity
  8
0
  6
Continuous
 62
     7
370
    25
100
AcDbLine
 10
16.4960623957
 20
8.724540639
 30
0.0
 11
16.4760623957
 21
8.6898996229
 31
0.0
  0
LINE
  5
BC
330
1F
100
AcDbEntity
  8
0
  6
Continuous
 62
     7
370
    25
100
AcDbLine
 10
16.5160623957
 20
8.6898996229
 30
0.0
 11
16.4960623957
 21
8.724540639
 31
0.0
  0
LINE
  5
BD
330
1F
100
AcDbEntity
  8
0
  6
Continuous
 62
     7
370
    25
100
AcDbLine
 10
16.5960623957
 20
8.6898996229
 30
0.0
 11
16.5760623957
 21
8.724540639
 31
0.0
  0
LINE
  5
BE
330
1F
100
AcDbEntity
  8
0
  6
Continuous
 62
     7
370
    25
100
AcDbLine
 10
16.6160623957
 20
8.724540639
 30
0.0
 11
16.5960623957
 21
8.6898996229
 31
0.0
  0
LINE
  5
BF
330
1F
100
AcDbEntity
  8
0
  6
Continuous
 62
     7
370
    25
100
AcDbLine
 10
16.5360623957
 20
8.724540639
 30
0.0
 11
16.5160623957
 21
8.6898996229
 31
0.0
  0
LINE
  5
C0
330
1F
100
AcDbEntity
  8
0
  6
Continuous
 62
     7
370
    25
100
AcDbLine
 10
16.5560623957
 20
8.6898996229
 30
0.0
 11
16.5360623957
 21
8.724540639
 31
0.0
  0
LINE
  5
C1
330
1F
100
AcDbEntity
  8
0
  6
Continuous
 62
     7
370
    25
100
AcDbLine
 10
16.6360623957
 20
8.6898996229
 30
0.0
 11
16.6160623957
 21
8.724540639
 31
0.0
  0
LINE
  5
C2
330
1F
100
AcDbEntity
  8
0
  6
Continuous
 62
     7
370
    25
100
AcDbLine
 10
16.5760623957
 20
8.724540639
 30
0.0
 11
16.5560623957
 21
8.6898996229
 31
0.0
  0
LINE
  5
C3
330
1F
100
AcDbEntity
  8
0
  6
Continuous
 62
     7
370
    25
100
AcDbLine
 10
16.6555623957
 20
8.7236746136
 30
0.0
 11
16.6360623957
 21
8.6898996229
 31
0.0
  0
LINE
  5
C4
330
1F
100
AcDbEntity
  8
0
  6
Continuous
 62
     7
370
    25
100
AcDbLine
 10
16.7255623957
 20
8.6840996229
 30
0.0
 11
16.6555623957
 21
8.6840996229
 31
0.0
  0
LINE
  5
C5
330
1F
100
AcDbEntity
  8
0
  6
Continuous
 62
     7
370
    25
100
AcDbLine
 10
16.6555623957
 20
8.0840996229
 30
0.0
 11
16.7255623957
 21
8.0840996229
 31
0.0
  0
LINE
  5
C6
330
1F
100
AcDbEntity
  8
0
  6
Continuous
 62
     7
370
    25
100
AcDbLine
 10
16.4760623957
 20
8.0782996229
 30
0.0
 11
16.4960623957
 21
8.0436586067
 31
0.0
  0
LINE
  5
C7
330
1F
100
AcDbEntity
  8
0
  6
Continuous
 62
     7
370
    25
100
AcDbLine
 10
16.4960623957
 20
8.0436586067
 30
0.0
 11
16.5160623957
 21
8.0782996229
 31
0.0
  0
LINE
  5
C8
330
1F
100
AcDbEntity
  8
0
  6
Continuous
 62
     7
370
    25
100
AcDbLine
 10
16.5760623957
 20
8.0436586067
 30
0.0
 11
16.5960623957
 21
8.0782996229
 31
0.0
  0
LINE
  5
C9
330
1F
100
AcDbEntity
  8
0
  6
Continuous
 62
     7
370
    25
100
AcDbLine
 10
16.5160623957
 20
8.0782996229
 30
0.0
 11
16.5360623957
 21
8.0436586067
 31
0.0
  0
LINE
  5
CA
330
1F
100
AcDbEntity
  8
0
  6
Continuous
 62
     7
370
    25
100
AcDbLine
 10
16.5960623957
 20
8.0782996229
 30
0.0
 11
16.6160623957
 21
8.0436586067
 31
0.0
  0
LINE
  5
CB
330
1F
100
AcDbEntity
  8
0
  6
Continuous
 62
     7
370
    25
100
AcDbLine
 10
16.5360623957
 20
8.0436586067
 30
0.0
 11
16.5560623957
 21
8.0782996229
 31
0.0
  0
LINE
  5
CC
330
1F
100
AcDbEntity
  8
0
  6
Continuous
 62
     7
370
    25
100
AcDbLine
 10
16.5560623957
 20
8.0782996229
 30
0.0
 11
16.5760623957
 21
8.0436586067
 31
0.0
  0
LINE
  5
CD
330
1F
100
AcDbEntity
  8
0
  6
Continuous
 62
     7
370
    25
100
AcDbLine
 10
16.6160623957
 20
8.0436586067
 30
0.0
 11
16.6360623957
 21
8.0782996229
 31
0.0
  0
LINE
  5
CE
330
1F
100
AcDbEntity
  8
0
  6
Continuous
 62
     7
370
    25
100
AcDbLine
 10
16.6360623957
 20
8.0782996229
 30
0.0
 11
16.6555623957
 21
8.0445246321
 31
0.0
  0
LINE
  5
CF
330
1F
100
AcDbEntity
  8
0
  6
Continuous
 62
     7
370
    25
100
AcDbLine
 10
20.9435623957
 20
10.8840996229
 30
0.0
 11
20.9435623957
 21
5.8840996229
 31
0.0
  0
LINE
  5
D0
330
1F
100
AcDbEntity
  8
0
  6
Continuous
 62
     7
370
    25
100
AcDbLine
 10
20.9435623957
 20
5.8840996229
 30
0.0
 11
20.5535623957
 21
5.8840996229
 31
0.0
  0
LINE
  5
D1
330
1F
100
AcDbEntity
  8
0
  6
Continuous
 62
     7
370
    25
100
AcDbLine
 10
20.5535623957
 20
5.8840996229
 30
0.0
 11
20.5535623957
 21
10.8840996229
 31
0.0
  0
LINE
  5
D2
330
1F
100
AcDbEntity
  8
0
  6
Continuous
 62
     7
370
    25
100
AcDbLine
 10
20.9435623957
 20
10.8840996229
 30
0.0
 11
20.5535623957
 21
10.8840996229
 31
0.0
  0
LINE
  5
D3
330
1F
100
AcDbEntity
  8
0
  6
Continuous
 62
     7
370
    25
100
AcDbLine
 10
18.8235623957
 20
9.4940996229
 30
0.0
 11
18.8235623957
 21
7.2740996229
 31
0.0
  0
SPLINE
  5
D4
330
1F
100
AcDbEntity
  8
0
  6
Continuous
 62
     7
370
    25
100
AcDbSpline
210
0.0
220
0.0
230
1.0
 70
     8
 71
     3
 72
    26
 73
    22
 74
     0
 42
0.00000001
 43
0.00000001
 40
0.0
 40
0.0
 40
0.0
 40
0.0
 40
0.0366214964884567
 40
0.0894453430016899
 40
0.1437992306352682
 40
0.1966606285712184
 40
0.2510500574716318
 40
0.3039963223031528
 40
0.3584776806048291
 40
0.4114239354211645
 40
0.465910475021097
 40
0.5187714412319946
 40
0.5731678399642125
 40
0.6259914691702988
 40
0.6803432448079265
 40
0.7332356294019717
 40
0.7876577885963916
 40
0.8406177944135172
 40
0.8951155732594267
 40
0.9480366217047792
 40
0.9999999999999999
 40
0.9999999999999999
 40
0.9999999999999999
 40
0.9999999999999999
 10
19.00578116482454
 20
7.274112991757266
 30
0.0
 10
19.00578124342817
 20
7.27411302249357
 30
0.0
 10
19.00578143541181
 20
7.274113097564756
 30
0.0
 10
19.0079994809889
 20
7.274247779452785
 30
0.0
 10
19.0120391181711
 20
7.274481207844422
 30
0.0
 10
19.01793970744978
 20
7.274795702586353
 30
0.0
 10
19.02533900415509
 20
7.275145431291606
 30
0.0
 10
19.03418867679179
 20
7.275498299010009
 30
0.0
 10
19.04407600804291
 20
7.275808420852503
 30
0.0
 10
19.0548970862948
 20
7.276045717891229
 30
0.0
 10
19.06614415153239
 20
7.276179377027606
 30
0.0
 10
19.07769965876168
 20
7.276196612863393
 30
0.0
 10
19.08902459051916
 20
7.276095447108621
 30
0.0
 10
19.10000854352411
 20
7.275885792168618
 30
0.0
 10
19.11014865337052
 20
7.275594664875215
 30
0.0
 10
19.11934470072802
 20
7.275249889678578
 30
0.0
 10
19.12717068216186
 20
7.274895833297364
 30
0.0
 10
19.13355515012438
 20
7.274565849297006
 30
0.0
 10
19.1381456793846
 20
7.274305774078996
 30
0.0
 10
19.14104526267321
 20
7.274131521603274
 30
0.0
 10
19.14136199941828
 20
7.274111960511727
 30
0.0
 10
19.14151892177383
 20
7.274102269269362
 30
0.0
  0
SPLINE
  5
D5
330
1F
100
AcDbEntity
  8
0
  6
Continuous
 62
     7
370
    25
100
AcDbSpline
210
0.0
220
0.0
230
1.0
 70
    11
 71
     3
 72
    44
 73
    40
 74
     0
 42
0.00000001
 43
0.00000001
 40
0.0
 40
0.0
 40
0.0
 40
0.0
 40
0.0268132602862638
 40
0.0536266644322141
 40
0.0804383625137264
 40
0.1072502668899067
 40
0.1340938280604559
 40
0.1609373368108821
 40
0.1878020595931767
 40
0.2146665517760578
 40
0.241496842751852
 40
0.2683270849932152
 40
0.2951211887164674
 40
0.3219154992981856
 40
0.3487279238935026
 40
0.3755404890686893
 40
0.4023972479766815
 40
0.4292538607291186
 40
0.4561119243343703
 40
0.4829697810762895
 40
0.5097838560717294
 40
0.5365979871666201
 40
0.5633915041607779
 40
0.5901852501849754
 40
0.617013651591512
 40
0.6438420984067947
 40
0.670706422996376
 40
0.6975705372492023
 40
0.7244158069054045
 40
0.7512609385190689
 40
0.7780620098939783
 40
0.8048632293856225
 40
0.8316638205822756
 40
0.8584646143373593
 40
0.8853091099274684
 40
0.9121535471252122
 40
0.9390180776821766
 40
0.9658823768778756
 40
1.0
 40
1.0
 40
1.0
 40
1.0
 10
19.07356239567592
 20
8.87916747500072
 30
0.0
 10
19.06974364742686
 20
8.879338090581271
 30
0.0
 10
19.06210613044023
 20
8.879679322657765
 30
0.0
 10
19.05096905695061
 20
8.882338135621094
 30
0.0
 10
19.04048690308897
 20
8.886531392562397
 30
0.0
 10
19.03091965932462
 20
8.892225632118357
 30
0.0
 10
19.02258232707288
 20
8.899263383090904
 30
0.0
 10
19.01565597600755
 20
8.907396110308833
 30
0.0
 10
19.01040504510719
 20
8.91641474096093
 30
0.0
 10
19.00691160948332
 20
8.926019907395288
 30
0.0
 10
19.00535068167606
 20
8.935943760707852
 30
0.0
 10
19.00568501648194
 20
8.945890002277288
 30
0.0
 10
19.00798098004605
 20
8.95557418461362
 30
0.0
 10
19.01209283806405
 20
8.964748000556064
 30
0.0
 10
19.01797975669917
 20
8.973138066494371
 30
0.0
 10
19.02541223995975
 20
8.980561380216527
 30
0.0
 10
19.03424218483131
 20
8.986774434886877
 30
0.0
 10
19.0441716755347
 20
8.99166554777538
 30
0.0
 10
19.05495508320579
 20
8.995047891171177
 30
0.0
 10
19.06625196851861
 20
8.996894742808127
 30
0.0
 10
19.07775493545995
 20
8.99709783773884
 30
0.0
 10
19.08913197286429
 20
8.99572005073514
 30
0.0
 10
19.10005481089686
 20
8.992734317725375
 30
0.0
 10
19.11024390809096
 20
8.98827818809815
 30
0.0
 10
19.11937669799218
 20
8.982404745136343
 30
0.0
 10
19.1272452151531
 20
8.97531381992383
 30
0.0
 10
19.13356321812532
 20
8.967144144217764
 30
0.0
 10
19.13821385305272
 20
8.95815335050955
 30
0.0
 10
19.14098980320932
 20
8.948558823949485
 30
0.0
 10
19.14188988602611
 20
8.93865289732482
 30
0.0
 10
19.14081290738501
 20
8.928703887540866
 30
0.0
 10
19.13787284203825
 20
8.91899503555688
 30
0.0
 10
19.13307658905795
 20
8.909817470734234
 30
0.0
 10
19.12662908961722
 20
8.901410581045768
 30
0.0
 10
19.11864424796279
 20
8.894066862829737
 30
0.0
 10
19.1094000210226
 20
8.887950040138431
 30
0.0
 10
19.09911282222867
 20
8.883354760874207
 30
0.0
 10
19.08712259008535
 20
8.87990838722868
 30
0.0
 10
19.07842720969983
 20
8.879433282413817
 30
0.0
 10
19.07356239567592
 20
8.87916747500072
 30
0.0
  0
LWPOLYLINE
  5
D6
330
1F
100
AcDbEntity
  8
0
  6
Continuous
 62
     7
370
    25
100
AcDbPolyline
 90
       51
 70
   128
 43
0.0
 10
19.1353808876
 20
8.9269125171
 10
19.1366571769
 20
8.9337185043
 10
19.1369384238
 20
8.9406093549
 10
19.136220193
 20
8.9474763961
 10
19.1345138112
 20
8.9542113306
 10
19.1318461892
 20
8.9607079444
 10
19.1282593969
 20
8.9668637821
 10
19.1238100003
 20
8.9725817625
 10
19.1185681689
 20
8.9777717094
 10
19.1126165696
 20
8.9823517745
 10
19.1060490627
 20
8.9862497273
 10
19.0989692216
 20
8.9894040948
 10
19.0914886997
 20
8.9917651307
 10
19.0837254692
 20
8.9932956001
 10
19.075801961
 20
8.9939713666
 10
19.0678431336
 20
8.9937817729
 10
19.0599745023
 20
8.992729809
 10
19.0523201602
 20
8.990832065
 10
19.0450008208
 20
8.9881184696
 10
19.0381319146
 20
8.9846318176
 10
19.0318217682
 20
8.9804270957
 10
19.0261698964
 20
8.9755706149
 10
19.0212654327
 20
8.9701389647
 10
19.0171857233
 20
8.9642178056
 10
19.0139951077
 20
8.9579005178
 10
19.0117439038
 20
8.9512867286
 10
19.0104676145
 20
8.9444807414
 10
19.0101863675
 20
8.9375898908
 10
19.0109045984
 20
8.9307228496
 10
19.0126109802
 20
8.9239879151
 10
19.0152786022
 20
8.9174913013
 10
19.0188653944
 20
8.9113354636
 10
19.023314791
 20
8.9056174833
 10
19.0285566224
 20
8.9004275363
 10
19.0345082217
 20
8.8958474712
 10
19.0410757287
 20
8.8919495184
 10
19.0481555698
 20
8.8887951509
 10
19.0556360917
 20
8.886434115
 10
19.0633993221
 20
8.8849036456
 10
19.0713228303
 20
8.8842278791
 10
19.0792816578
 20
8.8844174728
 10
19.0871502891
 20
8.8854694367
 10
19.0948046312
 20
8.8873671807
 10
19.1021239705
 20
8.8900807762
 10
19.1089928768
 20
8.8935674281
 10
19.1153030232
 20
8.89777215
 10
19.1209548949
 20
8.9026286308
 10
19.1258593587
 20
8.908060281
 10
19.1299390681
 20
8.9139814401
 10
19.1331296837
 20
8.9202987279
 10
19.1353808876
 20
8.9269125171
  0
LINE
  5
D7
330
1F
100
AcDbEntity
  8
0
  6
Continuous
 62
     7
370
    25
100
AcDbLine
 10
19.0602639706
 20
8.9763603786
 30
0.0
 11
19.0296524274
 21
8.9477561819
 31
0.0
  0
LINE
  5
D8
330
1F
100
AcDbEntity
  8
0
  6
Continuous
 62
     7
370
    25
100
AcDbLine
 10
19.0429508525
 20
8.9104954262
 30
0.0
 11
19.0296524274
 21
8.9477561819
 31
0.0
  0
LINE
  5
D9
330
1F
100
AcDbEntity
  8
0
  6
Continuous
 62
     7
370
    25
100
AcDbLine
 10
19.0868608208
 20
8.9018388671
 30
0.0
 11
19.0429508525
 21
8.9104954262
 31
0.0
  0
LINE
  5
DA
330
1F
100
AcDbEntity
  8
0
  6
Continuous
 62
     7
370
    25
100
AcDbLine
 10
19.0868608208
 20
8.9018388671
 30
0.0
 11
19.117472364
 21
8.9304430638
 31
0.0
  0
LINE
  5
DB
330
1F
100
AcDbEntity
  8
0
  6
Continuous
 62
     7
370
    25
100
AcDbLine
 10
19.1041739389
 20
8.9677038195
 30
0.0
 11
19.117472364
 21
8.9304430638
 31
0.0
  0
LINE
  5
DC
330
1F
100
AcDbEntity
  8
0
  6
Continuous
 62
     7
370
    25
100
AcDbLine
 10
19.1041739389
 20
8.9677038195
 30
0.0
 11
19.0602639706
 21
8.9763603786
 31
0.0
  0
LINE
  5
DD
330
1F
100
AcDbEntity
  8
0
  6
Continuous
 62
     7
370
    25
100
AcDbLine
 10
19.1041739389
 20
8.9227038195
 30
0.0
 11
19.1054284198
 21
8.9191888991
 31
0.0
  0
LINE
  5
DE
330
1F
100
AcDbEntity
  8
0
  6
Continuous
 62
     7
370
    25
100
AcDbLine
 10
19.1041739389
 20
8.9227038195
 30
0.0
 11
19.1041739389
 21
8.9677038195
 31
0.0
  0
LINE
  5
DF
330
1F
100
AcDbEntity
  8
0
  6
Continuous
 62
     7
370
    25
100
AcDbLine
 10
19.0602639706
 20
8.9313603786
 30
0.0
 11
19.0602639706
 21
8.9763603786
 31
0.0
  0
LINE
  5
E0
330
1F
100
AcDbEntity
  8
0
  6
Continuous
 62
     7
370
    25
100
AcDbLine
 10
19.0602639706
 20
8.9313603786
 30
0.0
 11
19.0416963716
 21
8.9140103466
 31
0.0
  0
LINE
  5
E1
330
1F
100
AcDbEntity
  8
0
  6
Continuous
 62
     7
370
    25
100
AcDbLine
 10
19.1041739389
 20
8.9227038195
 30
0.0
 11
19.0602639706
 21
8.9313603786
 31
0.0
  0
LINE
  5
E2
330
1F
100
AcDbEntity
  8
0
  6
Continuous
 62
     7
370
    25
100
AcDbLine
 10
16.8935623957
 20
9.4669088135
 30
0.0
 11
16.8935623957
 21
7.2740996229
 31
0.0
  0
LINE
  5
E3
330
1F
100
AcDbEntity
  8
0
  6
Continuous
 62
     7
370
    25
100
AcDbLine
 10
16.8935623957
 20
9.4940996229
 30
0.0
 11
16.8935623957
 21
9.4669088135
 31
0.0
  0
LINE
  5
E4
330
1F
100
AcDbEntity
  8
0
  6
Continuous
 62
     7
370
    25
100
AcDbLine
 10
16.8635623957
 20
9.4376437003
 30
0.0
 11
16.8635623957
 21
9.4640996229
 31
0.0
  0
LINE
  5
E5
330
1F
100
AcDbEntity
  8
0
  6
Continuous
 62
     7
370
    25
100
AcDbLine
 10
16.8635623957
 20
7.3040996229
 30
0.0
 11
16.8635623957
 21
9.4376437003
 31
0.0
  0
LINE
  5
E6
330
1F
100
AcDbEntity
  8
0
  6
Continuous
 62
     7
370
    25
100
AcDbLine
 10
14.2115623957
 20
8.5364160098
 30
0.0
 11
14.2115623957
 21
8.4572262456
 31
0.0
  0
LINE
  5
E7
330
1F
100
AcDbEntity
  8
0
  6
Continuous
 62
     7
370
    25
100
AcDbLine
 10
14.2115623957
 20
8.2697262456
 30
0.0
 11
14.2115623957
 21
8.2697230001
 31
0.0
  0
LINE
  5
E8
330
1F
100
AcDbEntity
  8
0
  6
Continuous
 62
     7
370
    25
100
AcDbLine
 10
14.2115623957
 20
8.5397230001
 30
0.0
 11
14.2115623957
 21
8.5364160098
 31
0.0
  0
LINE
  5
E9
330
1F
100
AcDbEntity
  8
0
  6
Continuous
 62
     7
370
    25
100
AcDbLine
 10
14.7115623957
 20
8.5364160098
 30
0.0
 11
14.7115623957
 21
8.4572262456
 31
0.0
  0
LINE
  5
EA
330
1F
100
AcDbEntity
  8
0
  6
Continuous
 62
     7
370
    25
100
AcDbLine
 10
14.7115623957
 20
8.2697262456
 30
0.0
 11
14.7115623957
 21
8.2697230001
 31
0.0
  0
LINE
  5
EB
330
1F
100
AcDbEntity
  8
0
  6
Continuous
 62
     7
370
    25
100
AcDbLine
 10
14.7115623957
 20
8.5397230001
 30
0.0
 11
14.7115623957
 21
8.5364160098
 31
0.0
  0
LINE
  5
EC
330
1F
100
AcDbEntity
  8
0
  6
Continuous
 62
     7
370
    25
100
AcDbLine
 10
13.9615623957
 20
8.4572262456
 30
0.0
 11
13.9615623957
 21
8.2697262456
 31
0.0
  0
LINE
  5
ED
330
1F
100
AcDbEntity
  8
0
  6
Continuous
 62
     7
370
    25
100
AcDbLine
 10
13.9615623957
 20
8.4984730001
 30
0.0
 11
13.9615623957
 21
8.4572262456
 31
0.0
  0
LINE
  5
EE
330
1F
100
AcDbEntity
  8
0
  6
Continuous
 62
     7
370
    25
100
AcDbLine
 10
16.7385623957
 20
8.8790996229
 30
0.0
 11
16.7385623957
 21
7.8890996229
 31
0.0
  0
LINE
  5
EF
330
1F
100
AcDbEntity
  8
0
  6
Continuous
 62
     7
370
    25
100
AcDbLine
 10
16.7255623957
 20
8.7278496229
 30
0.0
 11
16.7255623957
 21
8.0403496229
 31
0.0
  0
LINE
  5
F0
330
1F
100
AcDbEntity
  8
0
  6
Continuous
 62
     7
370
    25
100
AcDbLine
 10
16.4760623957
 20
8.6898996229
 30
0.0
 11
16.4760623957
 21
8.439339024
 31
0.0
  0
LINE
  5
F1
330
1F
100
AcDbEntity
  8
0
  6
Continuous
 62
     7
370
    25
100
AcDbLine
 10
16.4960623957
 20
8.5093598059
 30
0.0
 11
16.4960623957
 21
8.724540639
 31
0.0
  0
SPLINE
  5
F2
330
1F
100
AcDbEntity
  8
0
  6
Continuous
 62
     7
370
    25
100
AcDbSpline
210
0.0
220
0.0
230
1.0
 70
     8
 71
     3
 72
     9
 73
     5
 74
     0
 42
0.00000001
 43
0.00000001
 40
0.0
 40
0.0
 40
0.0
 40
0.0
 40
0.4995107894512584
 40
0.9999999999999999
 40
0.9999999999999999
 40
0.9999999999999999
 40
0.9999999999999999
 10
16.49606239567591
 20
8.509359805865396
 30
0.0
 10
16.49232223689495
 20
8.49781256806239
 30
0.0
 10
16.48483459326453
 20
8.474695474204037
 30
0.0
 10
16.47898836822876
 20
8.451132192353757
 30
0.0
 10
16.47606239567592
 20
8.439339024022573
 30
0.0
  0
LINE
  5
F3
330
1F
100
AcDbEntity
  8
0
  6
Continuous
 62
     7
370
    25
100
AcDbLine
 10
16.5160623957
 20
8.6898996229
 30
0.0
 11
16.5160623957
 21
8.439339024
 31
0.0
  0
SPLINE
  5
F4
330
1F
100
AcDbEntity
  8
0
  6
Continuous
 62
     7
370
    25
100
AcDbSpline
210
0.0
220
0.0
230
1.0
 70
     8
 71
     3
 72
    10
 73
     6
 74
     0
 42
0.00000001
 43
0.00000001
 40
0.0
 40
0.0
 40
0.0
 40
0.0
 40
0.4661492107783555
 40
0.933226270697228
 40
1.0
 40
1.0
 40
1.0
 40
1.0
 10
16.51606239567592
 20
8.439339024022573
 30
0.0
 10
16.5133345031624
 20
8.450320675954805
 30
0.0
 10
16.50787328838741
 20
8.47230583830593
 30
0.0
 10
16.50065395200211
 20
8.495509524606808
 30
0.0
 10
16.49657285658743
 20
8.50782001702394
 30
0.0
 10
16.49606239567591
 20
8.509359805865396
 30
0.0
  0
LINE
  5
F5
330
1F
100
AcDbEntity
  8
0
  6
Continuous
 62
     7
370
    25
100
AcDbLine
 10
16.5760623957
 20
8.5093598059
 30
0.0
 11
16.5760623957
 21
8.724540639
 31
0.0
  0
LINE
  5
F6
330
1F
100
AcDbEntity
  8
0
  6
Continuous
 62
     7
370
    25
100
AcDbLine
 10
16.5960623957
 20
8.6898996229
 30
0.0
 11
16.5960623957
 21
8.439339024
 31
0.0
  0
SPLINE
  5
F7
330
1F
100
AcDbEntity
  8
0
  6
Continuous
 62
     7
370
    25
100
AcDbSpline
210
0.0
220
0.0
230
1.0
 70
     8
 71
     3
 72
    10
 73
     6
 74
     0
 42
0.00000001
 43
0.00000001
 40
0.0
 40
0.0
 40
0.0
 40
0.0
 40
0.4661492107783562
 40
0.9332262706972299
 40
1.0
 40
1.0
 40
1.0
 40
1.0
 10
16.59606239567592
 20
8.439339024022573
 30
0.0
 10
16.5933345031624
 20
8.450320675954805
 30
0.0
 10
16.58787328838741
 20
8.47230583830593
 30
0.0
 10
16.58065395200212
 20
8.495509524606808
 30
0.0
 10
16.57657285658743
 20
8.50782001702394
 30
0.0
 10
16.57606239567592
 20
8.509359805865396
 30
0.0
  0
LINE
  5
F8
330
1F
100
AcDbEntity
  8
0
  6
Continuous
 62
     7
370
    25
100
AcDbLine
 10
16.6160623957
 20
8.5093598059
 30
0.0
 11
16.6160623957
 21
8.724540639
 31
0.0
  0
SPLINE
  5
F9
330
1F
100
AcDbEntity
  8
0
  6
Continuous
 62
     7
370
    25
100
AcDbSpline
210
0.0
220
0.0
230
1.0
 70
     8
 71
     3
 72
     9
 73
     5
 74
     0
 42
0.00000001
 43
0.00000001
 40
0.0
 40
0.0
 40
0.0
 40
0.0
 40
0.4995107894512587
 40
1.0
 40
1.0
 40
1.0
 40
1.0
 10
16.61606239567592
 20
8.509359805865396
 30
0.0
 10
16.61232223689495
 20
8.497812568062391
 30
0.0
 10
16.60483459326453
 20
8.474695474204038
 30
0.0
 10
16.59898836822876
 20
8.451132192353757
 30
0.0
 10
16.59606239567592
 20
8.439339024022573
 30
0.0
  0
LINE
  5
FA
330
1F
100
AcDbEntity
  8
0
  6
Continuous
 62
     7
370
    25
100
AcDbLine
 10
16.5360623957
 20
8.5093598059
 30
0.0
 11
16.5360623957
 21
8.724540639
 31
0.0
  0
SPLINE
  5
FB
330
1F
100
AcDbEntity
  8
0
  6
Continuous
 62
     7
370
    25
100
AcDbSpline
210
0.0
220
0.0
230
1.0
 70
     8
 71
     3
 72
     9
 73
     5
 74
     0
 42
0.00000001
 43
0.00000001
 40
0.0
 40
0.0
 40
0.0
 40
0.0
 40
0.4995107894512586
 40
1.0
 40
1.0
 40
1.0
 40
1.0
 10
16.53606239567592
 20
8.509359805865396
 30
0.0
 10
16.53232223689495
 20
8.49781256806239
 30
0.0
 10
16.52483459326453
 20
8.474695474204038
 30
0.0
 10
16.51898836822876
 20
8.451132192353757
 30
0.0
 10
16.51606239567592
 20
8.439339024022573
 30
0.0
  0
LINE
  5
FC
330
1F
100
AcDbEntity
  8
0
  6
Continuous
 62
     7
370
    25
100
AcDbLine
 10
16.5560623957
 20
8.6898996229
 30
0.0
 11
16.5560623957
 21
8.439339024
 31
0.0
  0
SPLINE
  5
FD
330
1F
100
AcDbEntity
  8
0
  6
Continuous
 62
     7
370
    25
100
AcDbSpline
210
0.0
220
0.0
230
1.0
 70
     8
 71
     3
 72
    10
 73
     6
 74
     0
 42
0.00000001
 43
0.00000001
 40
0.0
 40
0.0
 40
0.0
 40
0.0
 40
0.4661492107783596
 40
0.9332262706972254
 40
0.9999999999999999
 40
0.9999999999999999
 40
0.9999999999999999
 40
0.9999999999999999
 10
16.55606239567592
 20
8.439339024022575
 30
0.0
 10
16.5533345031624
 20
8.450320675954803
 30
0.0
 10
16.5478732883874
 20
8.472305838305928
 30
0.0
 10
16.54065395200212
 20
8.495509524606808
 30
0.0
 10
16.53657285658743
 20
8.50782001702394
 30
0.0
 10
16.53606239567592
 20
8.509359805865396
 30
0.0
  0
LINE
  5
FE
330
1F
100
AcDbEntity
  8
0
  6
Continuous
 62
     7
370
    25
100
AcDbLine
 10
16.6360623957
 20
8.6898996229
 30
0.0
 11
16.6360623957
 21
8.439339024
 31
0.0
  0
SPLINE
  5
FF
330
1F
100
AcDbEntity
  8
0
  6
Continuous
 62
     7
370
    25
100
AcDbSpline
210
0.0
220
0.0
230
1.0
 70
     8
 71
     3
 72
    10
 73
     6
 74
     0
 42
0.00000001
 43
0.00000001
 40
0.0
 40
0.0
 40
0.0
 40
0.0
 40
0.4661492107783707
 40
0.9332262706972592
 40
1.0
 40
1.0
 40
1.0
 40
1.0
 10
16.63606239567592
 20
8.439339024022575
 30
0.0
 10
16.6333345031624
 20
8.450320675954806
 30
0.0
 10
16.62787328838742
 20
8.472305838305932
 30
0.0
 10
16.6206539520021
 20
8.495509524606803
 30
0.0
 10
16.61657285658743
 20
8.50782001702394
 30
0.0
 10
16.61606239567592
 20
8.509359805865396
 30
0.0
  0
SPLINE
  5
100
330
1F
100
AcDbEntity
  8
0
  6
Continuous
 62
     7
370
    25
100
AcDbSpline
210
0.0
220
0.0
230
1.0
 70
     8
 71
     3
 72
     9
 73
     5
 74
     0
 42
0.00000001
 43
0.00000001
 40
0.0
 40
0.0
 40
0.0
 40
0.0
 40
0.4995107894512588
 40
1.0
 40
1.0
 40
1.0
 40
1.0
 10
16.57606239567592
 20
8.509359805865396
 30
0.0
 10
16.57232223689495
 20
8.497812568062391
 30
0.0
 10
16.56483459326452
 20
8.474695474204038
 30
0.0
 10
16.55898836822876
 20
8.451132192353757
 30
0.0
 10
16.55606239567592
 20
8.439339024022575
 30
0.0
  0
SPLINE
  5
101
330
1F
100
AcDbEntity
  8
0
  6
Continuous
 62
     7
370
    25
100
AcDbSpline
210
0.0
220
0.0
230
1.0
 70
     8
 71
     3
 72
     9
 73
     5
 74
     0
 42
0.00000001
 43
0.00000001
 40
0.0
 40
0.0
 40
0.0
 40
0.0
 40
0.4995271105052539
 40
1.0
 40
1.0
 40
1.0
 40
1.0
 10
16.65556239567591
 20
8.507856381343178
 30
0.0
 10
16.65192123133863
 20
8.496554401287174
 30
0.0
 10
16.64463200867042
 20
8.473929042586272
 30
0.0
 10
16.63892073387532
 20
8.450876297811025
 30
0.0
 10
16.63606239567592
 20
8.439339024022575
 30
0.0
  0
LINE
  5
102
330
1F
100
AcDbEntity
  8
0
  6
Continuous
 62
     7
370
    25
100
AcDbLine
 10
16.6555623957
 20
8.7236746136
 30
0.0
 11
16.6555623957
 21
8.5078563813
 31
0.0
  0
LINE
  5
103
330
1F
100
AcDbEntity
  8
0
  6
Continuous
 62
     7
370
    25
100
AcDbLine
 10
16.7255623957
 20
8.4240677753
 30
0.0
 11
16.6555623957
 21
8.4240677753
 31
0.0
  0
SPLINE
  5
104
330
1F
100
AcDbEntity
  8
0
  6
Continuous
 62
     7
370
    25
100
AcDbSpline
210
0.0
220
0.0
230
1.0
 70
     8
 71
     3
 72
    10
 73
     6
 74
     0
 42
0.00000001
 43
0.00000001
 40
0.0
 40
0.0
 40
0.0
 40
0.0
 40
0.4765077511737041
 40
0.9539639696989636
 40
1.0
 40
1.0
 40
1.0
 40
1.0
 10
16.63606239567591
 20
8.205119958121724
 30
0.0
 10
16.63878982293496
 20
8.194138176673473
 30
0.0
 10
16.64425010627495
 20
8.172152755032513
 30
0.0
 10
16.65131739321962
 20
8.149454841564985
 30
0.0
 10
16.65521926423036
 20
8.137641471331245
 30
0.0
 10
16.65556239567592
 20
8.136602600801151
 30
0.0
  0
SPLINE
  5
105
330
1F
100
AcDbEntity
  8
0
  6
Continuous
 62
     7
370
    25
100
AcDbSpline
210
0.0
220
0.0
230
1.0
 70
     8
 71
     3
 72
     9
 73
     5
 74
     0
 42
0.00000001
 43
0.00000001
 40
0.0
 40
0.0
 40
0.0
 40
0.0
 40
0.4995107894512557
 40
1.0
 40
1.0
 40
1.0
 40
1.0
 10
16.61606239567593
 20
8.13509917627892
 30
0.0
 10
16.61980255445689
 20
8.14664641408193
 30
0.0
 10
16.62729019808731
 20
8.169763507940292
 30
0.0
 10
16.63313642312307
 20
8.19332678979055
 30
0.0
 10
16.63606239567591
 20
8.205119958121724
 30
0.0
  0
SPLINE
  5
106
330
1F
100
AcDbEntity
  8
0
  6
Continuous
 62
     7
370
    25
100
AcDbSpline
210
0.0
220
0.0
230
1.0
 70
     8
 71
     3
 72
    10
 73
     6
 74
     0
 42
0.00000001
 43
0.00000001
 40
0.0
 40
0.0
 40
0.0
 40
0.0
 40
0.4661492107782161
 40
0.9332262706969428
 40
1.0
 40
1.0
 40
1.0
 40
1.0
 10
16.59606239567591
 20
8.205119958121724
 30
0.0
 10
16.59879028818943
 20
8.194138306189508
 30
0.0
 10
16.60425150296443
 20
8.172153143838411
 30
0.0
 10
16.61147083934972
 20
8.148949457537524
 30
0.0
 10
16.61555193476441
 20
8.136638965120383
 30
0.0
 10
16.61606239567593
 20
8.13509917627892
 30
0.0
  0
SPLINE
  5
107
330
1F
100
AcDbEntity
  8
0
  6
Continuous
 62
     7
370
    25
100
AcDbSpline
210
0.0
220
0.0
230
1.0
 70
     8
 71
     3
 72
     9
 73
     5
 74
     0
 42
0.00000001
 43
0.00000001
 40
0.0
 40
0.0
 40
0.0
 40
0.0
 40
0.4995107894512537
 40
1.0
 40
1.0
 40
1.0
 40
1.0
 10
16.57606239567592
 20
8.13509917627892
 30
0.0
 10
16.57980255445689
 20
8.14664641408193
 30
0.0
 10
16.58729019808732
 20
8.16976350794029
 30
0.0
 10
16.59313642312307
 20
8.19332678979055
 30
0.0
 10
16.59606239567591
 20
8.205119958121724
 30
0.0
  0
SPLINE
  5
108
330
1F
100
AcDbEntity
  8
0
  6
Continuous
 62
     7
370
    25
100
AcDbSpline
210
0.0
220
0.0
230
1.0
 70
     8
 71
     3
 72
    10
 73
     6
 74
     0
 42
0.00000001
 43
0.00000001
 40
0.0
 40
0.0
 40
0.0
 40
0.0
 40
0.4661492107782299
 40
0.9332262706969764
 40
1.0
 40
1.0
 40
1.0
 40
1.0
 10
16.55606239567591
 20
8.205119958121724
 30
0.0
 10
16.55879028818942
 20
8.194138306189506
 30
0.0
 10
16.56425150296442
 20
8.172153143838408
 30
0.0
 10
16.57147083934974
 20
8.148949457537531
 30
0.0
 10
16.57555193476441
 20
8.136638965120383
 30
0.0
 10
16.57606239567592
 20
8.13509917627892
 30
0.0
  0
SPLINE
  5
109
330
1F
100
AcDbEntity
  8
0
  6
Continuous
 62
     7
370
    25
100
AcDbSpline
210
0.0
220
0.0
230
1.0
 70
     8
 71
     3
 72
     9
 73
     5
 74
     0
 42
0.00000001
 43
0.00000001
 40
0.0
 40
0.0
 40
0.0
 40
0.0
 40
0.4995107894512538
 40
1.0
 40
1.0
 40
1.0
 40
1.0
 10
16.53606239567593
 20
8.13509917627892
 30
0.0
 10
16.53980255445689
 20
8.14664641408193
 30
0.0
 10
16.54729019808731
 20
8.169763507940292
 30
0.0
 10
16.55313642312307
 20
8.19332678979055
 30
0.0
 10
16.55606239567591
 20
8.205119958121724
 30
0.0
  0
SPLINE
  5
10A
330
1F
100
AcDbEntity
  8
0
  6
Continuous
 62
     7
370
    25
100
AcDbSpline
210
0.0
220
0.0
230
1.0
 70
     8
 71
     3
 72
    10
 73
     6
 74
     0
 42
0.00000001
 43
0.00000001
 40
0.0
 40
0.0
 40
0.0
 40
0.0
 40
0.466149210778215
 40
0.9332262706969401
 40
1.0
 40
1.0
 40
1.0
 40
1.0
 10
16.51606239567591
 20
8.205119958121724
 30
0.0
 10
16.51879028818943
 20
8.194138306189508
 30
0.0
 10
16.52425150296443
 20
8.172153143838411
 30
0.0
 10
16.53147083934972
 20
8.148949457537523
 30
0.0
 10
16.53555193476441
 20
8.136638965120383
 30
0.0
 10
16.53606239567593
 20
8.13509917627892
 30
0.0
  0
SPLINE
  5
10B
330
1F
100
AcDbEntity
  8
0
  6
Continuous
 62
     7
370
    25
100
AcDbSpline
210
0.0
220
0.0
230
1.0
 70
     8
 71
     3
 72
     9
 73
     5
 74
     0
 42
0.00000001
 43
0.00000001
 40
0.0
 40
0.0
 40
0.0
 40
0.0
 40
0.4995107894512538
 40
1.0
 40
1.0
 40
1.0
 40
1.0
 10
16.49606239567592
 20
8.13509917627892
 30
0.0
 10
16.49980255445688
 20
8.14664641408193
 30
0.0
 10
16.50729019808731
 20
8.16976350794029
 30
0.0
 10
16.51313642312307
 20
8.19332678979055
 30
0.0
 10
16.51606239567591
 20
8.205119958121724
 30
0.0
  0
SPLINE
  5
10C
330
1F
100
AcDbEntity
  8
0
  6
Continuous
 62
     7
370
    25
100
AcDbSpline
210
0.0
220
0.0
230
1.0
 70
     8
 71
     3
 72
    10
 73
     6
 74
     0
 42
0.00000001
 43
0.00000001
 40
0.0
 40
0.0
 40
0.0
 40
0.0
 40
0.4661492107782288
 40
0.9332262706969717
 40
1.0
 40
1.0
 40
1.0
 40
1.0
 10
16.47606239567592
 20
8.205119958121724
 30
0.0
 10
16.47879028818944
 20
8.194138306189506
 30
0.0
 10
16.48425150296443
 20
8.172153143838408
 30
0.0
 10
16.49147083934973
 20
8.14894945753753
 30
0.0
 10
16.49555193476441
 20
8.136638965120381
 30
0.0
 10
16.49606239567592
 20
8.13509917627892
 30
0.0
  0
LINE
  5
10D
330
1F
100
AcDbEntity
  8
0
  6
Continuous
 62
     7
370
    25
100
AcDbLine
 10
16.6555623957
 20
8.2203912069
 30
0.0
 11
16.7255623957
 21
8.2203912069
 31
0.0
  0
LINE
  5
10E
330
1F
100
AcDbEntity
  8
0
  6
Continuous
 62
     7
370
    25
100
AcDbLine
 10
16.6555623957
 20
8.1366026008
 30
0.0
 11
16.6555623957
 21
8.2203912069
 31
0.0
  0
LINE
  5
10F
330
1F
100
AcDbEntity
  8
0
  6
Continuous
 62
     7
370
    25
100
AcDbLine
 10
16.4760623957
 20
8.439339024
 30
0.0
 11
16.4760623957
 21
8.2051199581
 31
0.0
  0
LINE
  5
110
330
1F
100
AcDbEntity
  8
0
  6
Continuous
 62
     7
370
    25
100
AcDbLine
 10
16.6555623957
 20
8.4240677753
 30
0.0
 11
16.6555623957
 21
8.5078563813
 31
0.0
  0
LINE
  5
111
330
1F
100
AcDbEntity
  8
0
  6
Continuous
 62
     7
370
    25
100
AcDbLine
 10
16.4960623957
 20
8.0436586067
 30
0.0
 11
16.4960623957
 21
8.1350991763
 31
0.0
  0
LINE
  5
112
330
1F
100
AcDbEntity
  8
0
  6
Continuous
 62
     7
370
    25
100
AcDbLine
 10
16.4760623957
 20
8.2051199581
 30
0.0
 11
16.4760623957
 21
8.0782996229
 31
0.0
  0
LINE
  5
113
330
1F
100
AcDbEntity
  8
0
  6
Continuous
 62
     7
370
    25
100
AcDbLine
 10
16.5160623957
 20
8.2051199581
 30
0.0
 11
16.5160623957
 21
8.0782996229
 31
0.0
  0
LINE
  5
114
330
1F
100
AcDbEntity
  8
0
  6
Continuous
 62
     7
370
    25
100
AcDbLine
 10
16.5960623957
 20
8.2051199581
 30
0.0
 11
16.5960623957
 21
8.0782996229
 31
0.0
  0
LINE
  5
115
330
1F
100
AcDbEntity
  8
0
  6
Continuous
 62
     7
370
    25
100
AcDbLine
 10
16.5760623957
 20
8.0436586067
 30
0.0
 11
16.5760623957
 21
8.1350991763
 31
0.0
  0
LINE
  5
116
330
1F
100
AcDbEntity
  8
0
  6
Continuous
 62
     7
370
    25
100
AcDbLine
 10
16.5360623957
 20
8.0436586067
 30
0.0
 11
16.5360623957
 21
8.1350991763
 31
0.0
  0
LINE
  5
117
330
1F
100
AcDbEntity
  8
0
  6
Continuous
 62
     7
370
    25
100
AcDbLine
 10
16.6160623957
 20
8.0436586067
 30
0.0
 11
16.6160623957
 21
8.1350991763
 31
0.0
  0
LINE
  5
118
330
1F
100
AcDbEntity
  8
0
  6
Continuous
 62
     7
370
    25
100
AcDbLine
 10
16.5560623957
 20
8.2051199581
 30
0.0
 11
16.5560623957
 21
8.0782996229
 31
0.0
  0
LINE
  5
119
330
1F
100
AcDbEntity
  8
0
  6
Continuous
 62
     7
370
    25
100
AcDbLine
 10
16.6360623957
 20
8.2051199581
 30
0.0
 11
16.6360623957
 21
8.0782996229
 31
0.0
  0
LINE
  5
11A
330
1F
100
AcDbEntity
  8
0
  6
Continuous
 62
     7
370
    25
100
AcDbLine
 10
16.6555623957
 20
8.1366026008
 30
0.0
 11
16.6555623957
 21
8.0445246321
 31
0.0
  0
LINE
  5
11B
330
1F
100
AcDbEntity
  8
0
  6
Continuous
 62
     7
370
    25
100
AcDbLine
 10
18.8135623957
 20
9.4669088135
 30
0.0
 11
18.8135623957
 21
9.4940996229
 31
0.0
  0
LINE
  5
11C
330
1F
100
AcDbEntity
  8
0
  6
Continuous
 62
     7
370
    25
100
AcDbLine
 10
18.8135623957
 20
7.2740996229
 30
0.0
 11
18.8135623957
 21
9.4669088135
 31
0.0
  0
POINT
  5
11D
330
1F
100
AcDbEntity
  8
VP
100
AcDbPoint
 10
21.5935623957
 20
8.3840996229
 30
0.0
  0
DIMENSION
  5
11E
330
1F
100
AcDbEntity
  8
0
  6
Continuous
 62
     7
370
    18
100
AcDbDimension
  2
_D
 10
10.4969954665
 20
7.2740996229
 30
0.0
 11
10.4969954665
 21
8.3840996229
 31
0.0
 70
   160
  1
%%c<>
 71
     2
 42
-1.0
  3
SLDDIMSTYLE0
100
AcDbAlignedDimension
 13
16.8935623957
 23
9.4940996229
 33
0.0
 14
16.8935623957
 24
7.2740996229
 34
0.0
 50
90.0
100
AcDbRotatedDimension
  0
DIMENSION
  5
133
330
1F
100
AcDbEntity
  8
0
  6
Continuous
 62
     7
370
    18
100
AcDbDimension
  2
_D_1
 10
20.9435623957
 20
12.4589027725
 30
0.0
 11
24.0685174999
 21
12.4589027725
 31
0.0
 70
   160
  1
<>
 71
     2
 42
-1.0
  3
SLDDIMSTYLE0
100
AcDbAlignedDimension
 13
20.5535623957
 23
10.8840996229
 33
0.0
 14
20.9435623957
 24
10.8840996229
 34
0.0
100
AcDbRotatedDimension
  0
DIMENSION
  5
147
330
1F
100
AcDbEntity
  8
0
  6
Continuous
 62
     7
370
    18
100
AcDbDimension
  2
_D_2
 10
16.4760623957
 20
12.4589027725
 30
0.0
 11
18.5148123957
 21
12.4589027725
 31
0.0
 70
   160
  1
<>
 71
     2
 42
-1.0
  3
SLDDIMSTYLE1
100
AcDbAlignedDimension
 13
20.5535623957
 23
10.8840996229
 33
0.0
 14
16.4760623957
 24
8.439339024
 34
0.0
 50
0.0
100
AcDbRotatedDimension
  0
LINE
  5
15C
330
1F
100
AcDbEntity
  8
0
  6
Continuous
 62
     7
370
    25
100
AcDbLine
 10
33.1011557296
 20
5.8840996229
 30
0.0
 11
33.1011557296
 21
10.8840996229
 31
0.0
  0
LINE
  5
15D
330
1F
100
AcDbEntity
  8
0
  6
Continuous
 62
     7
370
    25
100
AcDbLine
 10
33.1011557296
 20
10.8840996229
 30
0.0
 11
28.1011557296
 21
10.8840996229
 31
0.0
  0
CIRCLE
  5
15E
330
1F
100
AcDbEntity
  8
0
  6
Continuous
 62
     7
370
    25
100
AcDbCircle
 10
28.9446557296
 20
8.3840996229
 30
0.0
 40
0.2050000000000001
  0
CIRCLE
  5
15F
330
1F
100
AcDbEntity
  8
0
  6
Continuous
 62
     7
370
    25
100
AcDbCircle
 10
32.2576557296
 20
8.3840996229
 30
0.0
 40
0.2050000000000001
  0
CIRCLE
  5
160
330
1F
100
AcDbEntity
  8
0
  6
Continuous
 62
     7
370
    25
100
AcDbCircle
 10
30.6011557296
 20
8.3840996229
 30
0.0
 40
0.9110000000000005
  0
LINE
  5
161
330
1F
100
AcDbEntity
  8
0
  6
Continuous
 62
     7
370
    25
100
AcDbLine
 10
28.1011557296
 20
10.8840996229
 30
0.0
 11
28.1011557296
 21
5.8840996229
 31
0.0
  0
LINE
  5
162
330
1F
100
AcDbEntity
  8
0
  6
Continuous
 62
     7
370
    25
100
AcDbLine
 10
28.1011557296
 20
5.8840996229
 30
0.0
 11
33.1011557296
 21
5.8840996229
 31
0.0
  0
CIRCLE
  5
163
330
1F
100
AcDbEntity
  8
0
  6
Continuous
 62
     7
370
    25
100
AcDbCircle
 10
28.9446557296
 20
8.3840996229
 30
0.0
 40
0.1014999999999997
  0
CIRCLE
  5
164
330
1F
100
AcDbEntity
  8
0
  6
Continuous
 62
     7
370
    25
100
AcDbCircle
 10
32.2576557296
 20
8.3840996229
 30
0.0
 40
0.1014999999999997
  0
CIRCLE
  5
165
330
1F
100
AcDbEntity
  8
0
  6
Continuous
 62
     7
370
    25
100
AcDbCircle
 10
30.6011557296
 20
8.3840996229
 30
0.0
 40
0.8899999999999988
  0
ARC
  5
166
330
1F
100
AcDbEntity
  8
0
  6
Continuous
 62
     7
370
    25
100
AcDbCircle
 10
30.6011557296
 20
8.3840996229
 30
0.0
 40
0.2890000000000004
100
AcDbArc
 50
281.3894313547
 51
291.220868467
  0
ARC
  5
167
330
1F
100
AcDbEntity
  8
0
  6
Continuous
 62
     7
370
    25
100
AcDbCircle
 10
30.6011557296
 20
8.3840996229
 30
0.0
 40
0.2890000000000005
100
AcDbArc
 50
93.946421133
 51
111.220868467
  0
ARC
  5
168
330
1F
100
AcDbEntity
  8
0
  6
Continuous
 62
     7
370
    25
100
AcDbCircle
 10
30.6011557296
 20
8.3840996229
 30
0.0
 40
0.2890000000000008
100
AcDbArc
 50
273.946421133
 51
281.3894313547
  0
CIRCLE
  5
169
330
1F
100
AcDbEntity
  8
0
  6
Continuous
 62
     7
370
    25
100
AcDbCircle
 10
30.6011557296
 20
8.3840996229
 30
0.0
 40
0.2999999999999996
  0
LINE
  5
16A
330
1F
100
AcDbEntity
  8
0
  6
Continuous
 62
     7
370
    25
100
AcDbLine
 10
30.7090836965
 20
8.3179440942
 30
0.0
 11
30.7460611852
 21
8.3026907232
 31
0.0
  0
ARC
  5
16B
330
1F
100
AcDbEntity
  8
0
  6
Continuous
 62
     7
370
    25
100
AcDbCircle
 10
30.7536878707
 20
8.3211794676
 30
0.0
 40
0.0199999999999999
100
AcDbArc
 50
247.5836448
 51
67.5836448
  0
LINE
  5
16C
330
1F
100
AcDbEntity
  8
0
  6
Continuous
 62
     7
370
    25
100
AcDbLine
 10
30.7613145562
 20
8.3396682119
 30
0.0
 11
30.7243370675
 21
8.3549215829
 31
0.0
  0
ARC
  5
16D
330
1F
100
AcDbEntity
  8
0
  6
Continuous
 62
     7
370
    25
100
AcDbCircle
 10
30.716710382
 20
8.3364328386
 30
0.0
 40
0.0200000000000013
100
AcDbArc
 50
67.5836448
 51
247.5836448
  0
LINE
  5
16E
330
1F
100
AcDbEntity
  8
0
  6
Continuous
 62
     7
370
    25
100
AcDbLine
 10
30.4409969137
 20
8.4285310294
 30
0.0
 11
30.4779743918
 21
8.4132776628
 31
0.0
  0
LINE
  5
16F
330
1F
100
AcDbEntity
  8
0
  6
Continuous
 62
     7
370
    25
100
AcDbLine
 10
30.4932277628
 20
8.4502551515
 30
0.0
 11
30.4562502847
 21
8.4655085181
 31
0.0
  0
ARC
  5
170
330
1F
100
AcDbEntity
  8
0
  6
Continuous
 62
     7
370
    25
100
AcDbCircle
 10
30.4486235992
 20
8.4470197737
 30
0.0
 40
0.0200000000000013
100
AcDbArc
 50
67.5836448
 51
247.5836448
  0
ARC
  5
171
330
1F
100
AcDbEntity
  8
0
  6
Continuous
 62
     7
370
    25
100
AcDbCircle
 10
30.5497396711
 20
8.6144306649
 30
0.0
 40
0.1050000000000021
100
AcDbArc
 50
192.5836448
 51
264.337593912
  0
ARC
  5
172
330
1F
100
AcDbEntity
  8
0
  6
Continuous
 62
     7
370
    25
100
AcDbCircle
 10
30.5497396711
 20
8.6144306649
 30
0.0
 40
0.1050000000000017
100
AcDbArc
 50
300.5495811209
 51
12.5836448
  0
LINE
  5
173
330
1F
100
AcDbEntity
  8
0
  6
Continuous
 62
     7
370
    25
100
AcDbLine
 10
30.6522174652
 20
8.6373064537
 30
0.0
 11
30.6424081287
 21
8.6812498198
 31
0.0
  0
LINE
  5
174
330
1F
100
AcDbEntity
  8
0
  6
Continuous
 62
     7
370
    25
100
AcDbLine
 10
30.7648589188
 20
8.1327010034
 30
0.0
 11
30.7550495823
 21
8.1766443696
 31
0.0
  0
ARC
  5
175
330
1F
100
AcDbEntity
  8
0
  6
Continuous
 62
     7
370
    25
100
AcDbCircle
 10
30.6525717882
 20
8.1537685808
 30
0.0
 40
0.1050000000000017
100
AcDbArc
 50
12.5836448
 51
84.337593912
  0
ARC
  5
176
330
1F
100
AcDbEntity
  8
0
  6
Continuous
 62
     7
370
    25
100
AcDbCircle
 10
30.6525717882
 20
8.1537685808
 30
0.0
 40
0.104999999999999
100
AcDbArc
 50
120.5495811209
 51
192.5836448
  0
LINE
  5
177
330
1F
100
AcDbEntity
  8
0
  6
Continuous
 62
     7
370
    25
100
AcDbLine
 10
30.5500939941
 20
8.1308927921
 30
0.0
 11
30.5599033306
 21
8.0869494259
 31
0.0
  0
LINE
  5
178
330
1F
100
AcDbEntity
  8
0
  6
Continuous
 62
     7
370
    25
100
AcDbLine
 10
30.4374525405
 20
8.6354982423
 30
0.0
 11
30.4472618769
 21
8.5915548761
 31
0.0
  0
ARC
  5
179
330
1F
100
AcDbEntity
  8
0
  6
Continuous
 62
     7
370
    25
100
AcDbCircle
 10
30.4856010773
 20
8.4317664072
 30
0.0
 40
0.0200000000000029
100
AcDbArc
 50
247.5836448
 51
67.5836448
  0
ARC
  5
17A
330
1F
100
AcDbEntity
  8
0
  6
Continuous
 62
     7
370
    25
100
AcDbCircle
 10
30.6525717882
 20
8.1537685808
 30
0.0
 40
0.0660000000000016
100
AcDbArc
 50
298.5651134081
 51
212.5836448
  0
ARC
  5
17B
330
1F
100
AcDbEntity
  8
0
  6
Continuous
 62
     7
370
    25
100
AcDbCircle
 10
30.6525717882
 20
8.1537685808
 30
0.0
 40
0.0660000000000016
100
AcDbArc
 50
212.5836448
 51
266.6021761919
  0
ARC
  5
17C
330
1F
100
AcDbEntity
  8
0
  6
Continuous
 62
     7
370
    25
100
AcDbCircle
 10
30.5497396711
 20
8.6144306649
 30
0.0
 40
0.0660000000000007
100
AcDbArc
 50
118.5651134081
 51
212.5836448
  0
ARC
  5
17D
330
1F
100
AcDbEntity
  8
0
  6
Continuous
 62
     7
370
    25
100
AcDbCircle
 10
30.5497396711
 20
8.6144306649
 30
0.0
 40
0.0660000000000007
100
AcDbArc
 50
321.2313246963
 51
86.6021761919
  0
ARC
  5
17E
330
1F
100
AcDbEntity
  8
0
  6
Continuous
 62
     7
370
    25
100
AcDbCircle
 10
30.5497396711
 20
8.6144306649
 30
0.0
 40
0.0660000000000007
100
AcDbArc
 50
253.0897600661
 51
311.7974149669
  0
ARC
  5
17F
330
1F
100
AcDbEntity
  8
0
  6
Continuous
 62
     7
370
    25
100
AcDbCircle
 10
30.5497396711
 20
8.6144306649
 30
0.0
 40
0.0660000000000006
100
AcDbArc
 50
212.5836448
 51
243.6558503367
  0
ARC
  5
180
330
1F
100
AcDbEntity
  8
0
  6
Continuous
 62
     7
370
    25
100
AcDbCircle
 10
30.5736578933
 20
8.5060375948
 30
0.0
 40
0.0625000000000007
100
AcDbArc
 50
102.7080163432
 51
170.4226838592
  0
ARC
  5
181
330
1F
100
AcDbEntity
  8
0
  6
Continuous
 62
     7
370
    25
100
AcDbCircle
 10
30.5736578933
 20
8.5060375948
 30
0.0
 40
0.0625000000000017
100
AcDbArc
 50
34.4644911737
 51
102.7080163432
  0
ARC
  5
182
330
1F
100
AcDbEntity
  8
0
  6
Continuous
 62
     7
370
    25
100
AcDbCircle
 10
30.5736578933
 20
8.5060375948
 30
0.0
 40
0.072500000000002
100
AcDbArc
 50
102.7080163432
 51
168.4204942543
  0
ARC
  5
183
330
1F
100
AcDbEntity
  8
0
  6
Continuous
 62
     7
370
    25
100
AcDbCircle
 10
30.5736578933
 20
8.5060375948
 30
0.0
 40
0.072500000000002
100
AcDbArc
 50
36.4666807786
 51
102.7080163432
  0
CIRCLE
  5
184
330
1F
100
AcDbEntity
  8
0
  6
Continuous
 62
     7
370
    25
100
AcDbCircle
 10
30.628653566
 20
8.2621616509
 30
0.0
 40
0.0245
  0
CIRCLE
  5
185
330
1F
100
AcDbEntity
  8
0
  6
Continuous
 62
     7
370
    25
100
AcDbCircle
 10
30.628653566
 20
8.2621616509
 30
0.0
 40
0.0344999999999978
  0
CIRCLE
  5
186
330
1F
100
AcDbEntity
  8
0
  6
Continuous
 62
     7
370
    25
100
AcDbCircle
 10
30.5736578933
 20
8.5060375948
 30
0.0
 40
0.0245
  0
CIRCLE
  5
187
330
1F
100
AcDbEntity
  8
0
  6
Continuous
 62
     7
370
    25
100
AcDbCircle
 10
30.5736578933
 20
8.5060375948
 30
0.0
 40
0.0345000000000003
  0
ARC
  5
188
330
1F
100
AcDbEntity
  8
0
  6
Continuous
 62
     7
370
    25
100
AcDbCircle
 10
30.6011557296
 20
8.3840996229
 30
0.0
 40
0.1960000000000001
100
AcDbArc
 50
268.5631835421
 51
296.604106058
  0
ARC
  5
189
330
1F
100
AcDbEntity
  8
0
  6
Continuous
 62
     7
370
    25
100
AcDbCircle
 10
30.6011557296
 20
8.3840996229
 30
0.0
 40
0.1960000000000002
100
AcDbArc
 50
88.5631835421
 51
97.335592334
  0
ARC
  5
18A
330
1F
100
AcDbEntity
  8
0
  6
Continuous
 62
     7
370
    25
100
AcDbCircle
 10
30.6011557296
 20
8.3840996229
 30
0.0
 40
0.1960000000000001
100
AcDbArc
 50
108.0804403524
 51
116.604106058
  0
ARC
  5
18B
330
1F
100
AcDbEntity
  8
0
  6
Continuous
 62
     7
370
    25
100
AcDbCircle
 10
30.6011557296
 20
8.3840996229
 30
0.0
 40
0.2812500000000002
100
AcDbArc
 50
271.882979415
 51
293.284310185
  0
ARC
  5
18C
330
1F
100
AcDbEntity
  8
0
  6
Continuous
 62
     7
370
    25
100
AcDbCircle
 10
30.6011557296
 20
8.3840996229
 30
0.0
 40
0.2812500000000007
100
AcDbArc
 50
91.882979415
 51
113.284310185
  0
ARC
  5
18D
330
1F
100
AcDbEntity
  8
0
  6
Continuous
 62
     7
370
    25
100
AcDbCircle
 10
30.5736578933
 20
8.5060375948
 30
0.0
 40
0.055000000000001
100
AcDbArc
 50
76.6132516016
 51
128.2739234313
  0
ARC
  5
18E
330
1F
100
AcDbEntity
  8
0
  6
Continuous
 62
     7
370
    25
100
AcDbCircle
 10
30.628653566
 20
8.2621616509
 30
0.0
 40
0.0830000000000015
100
AcDbArc
 50
246.1647111731
 51
318.7224638598
  0
ARC
  5
18F
330
1F
100
AcDbEntity
  8
0
  6
Continuous
 62
     7
370
    25
100
AcDbCircle
 10
30.628653566
 20
8.2621616509
 30
0.0
 40
0.1000000000000029
100
AcDbArc
 50
246.4649343448
 51
318.4222406882
  0
ARC
  5
190
330
1F
100
AcDbEntity
  8
0
  6
Continuous
 62
     7
370
    25
100
AcDbCircle
 10
30.5736578933
 20
8.5060375948
 30
0.0
 40
0.0830000000000002
100
AcDbArc
 50
66.1647111731
 51
138.7224638598
  0
ARC
  5
191
330
1F
100
AcDbEntity
  8
0
  6
Continuous
 62
     7
370
    25
100
AcDbCircle
 10
30.5736578933
 20
8.5060375948
 30
0.0
 40
0.100000000000001
100
AcDbArc
 50
66.4649343447
 51
138.4222406882
  0
DIMENSION
  5
192
330
1F
100
AcDbEntity
  8
0
  6
Continuous
 62
     7
370
    18
100
AcDbDimension
  2
_D_3
 10
36.1189205788
 20
10.8840996229
 30
0.0
 11
36.1189205788
 21
8.3840996229
 31
0.0
 70
   160
  1
<>
 71
     2
 42
-1.0
  3
SLDDIMSTYLE2
100
AcDbAlignedDimension
 13
33.1011557296
 23
5.8840996229
 33
0.0
 14
33.1011557296
 24
10.8840996229
 34
0.0
 50
90.0
100
AcDbRotatedDimension
  0
DIMENSION
  5
1A7
330
1F
100
AcDbEntity
  8
0
  6
Continuous
 62
     7
370
    18
100
AcDbDimension
  2
_D_4
 10
28.9446557296
 20
12.4589027725
 30
0.0
 11
30.6011557296
 21
12.4589027725
 31
0.0
 70
   160
  1
<>
 71
     2
 42
-1.0
  3
SLDDIMSTYLE0
100
AcDbAlignedDimension
 13
32.2576557296
 23
8.3840996229
 33
0.0
 14
28.9446557296
 24
8.3840996229
 34
0.0
100
AcDbRotatedDimension
  0
DIMENSION
  5
1BB
330
1F
100
AcDbEntity
  8
0
  6
Continuous
 62
     7
370
    18
100
AcDbDimension
  2
_D_5
 10
30.1456557296
 20
9.1730487657
 30
0.0
 11
36.2531027028
 21
3.1706522665
 31
0.0
 70
   163
  1
<>
 71
     1
 42
-1.0
  3
SLDDIMSTYLE3
100
AcDbDiametricDimension
 15
31.0566557296
 25
7.59515048
 35
0.0
 40
0.0
  0
ENDSEC
  0
SECTION
  2
OBJECTS
  0
DICTIONARY
  5
C
330
0
100
AcDbDictionary
281
     1
  3
ACAD_GROUP
350
D
  3
ACAD_LAYOUT
350
1A
  3
ACAD_MLINESTYLE
350
17
  3
ACAD_PLOTSETTINGS
350
19
  3
ACAD_PLOTSTYLENAME
350
E
  3
ACAD_SCALELIST
350
47
  3
DWGPROPS
350
1CC
  0
DICTIONARY
  5
D
102
{ACAD_REACTORS
330
C
102
}
330
C
100
AcDbDictionary
281
     1
  0
DICTIONARY
  5
1A
102
{ACAD_REACTORS
330
C
102
}
330
C
100
AcDbDictionary
281
     1
  3
Layout1
350
1E
  3
Layout2
350
26
  3
Model
350
22
  0
DICTIONARY
  5
17
102
{ACAD_REACTORS
330
C
102
}
330
C
100
AcDbDictionary
281
     1
  3
Standard
350
18
  0
DICTIONARY
  5
19
102
{ACAD_REACTORS
330
C
102
}
330
C
100
AcDbDictionary
281
     1
  0
ACDBDICTIONARYWDFLT
  5
E
102
{ACAD_REACTORS
330
C
102
}
330
C
100
AcDbDictionary
281
     1
  3
Normal
350
F
100
AcDbDictionaryWithDefault
340
F
  0
DICTIONARY
  5
47
102
{ACAD_REACTORS
330
C
102
}
330
C
100
AcDbDictionary
281
     1
  3
A0
350
48
  3
A1
350
49
  3
A2
350
4A
  3
A3
350
4B
  3
A4
350
4C
  3
A5
350
4D
  3
A6
350
4E
  3
A7
350
4F
  3
A8
350
50
  3
A9
350
51
  3
B1
350
52
  3
B2
350
53
  3
B3
350
54
  3
B4
350
55
  3
B5
350
56
  3
B6
350
57
  3
B7
350
58
  0
XRECORD
  5
1CC
102
{ACAD_REACTORS
330
C
102
}
330
C
100
AcDbXrecord
280
     1
  1
DWGPROPS COOKIE
  2

  3

  4

  6

  7

  8
gurisher.rai
  9

300
=
301
=
302
=
303
=
304
=
305
=
306
=
307
=
308
=
309
=
 40
0.0
 41
2460566.626468611
 42
2460566.62646897
  1

 90
        0
  0
LAYOUT
  5
1E
102
{ACAD_REACTORS
330
1A
102
}
330
1A
100
AcDbPlotSettings
  1

  2
none_device
  4

  6

 40
0.0
 41
0.0
 42
0.0
 43
0.0
 44
0.0
 45
0.0
 46
0.0
 47
0.0
 48
0.0
 49
0.0
140
0.0
141
0.0
142
1.0
143
1.0
 70
   688
 72
     0
 73
     0
 74
     5
  7

 75
    16
147
1.0
148
0.0
149
0.0
100
AcDbLayout
  1
Layout1
 70
     1
 71
     1
 10
0.0
 20
0.0
 11
12.0
 21
9.0
 12
0.0
 22
0.0
 32
0.0
 14
1.0000000000E+20
 24
1.0000000000E+20
 34
1.0000000000E+20
 15
-1.0000000000E+20
 25
-1.0000000000E+20
 35
-1.0000000000E+20
146
0.0
 13
0.0
 23
0.0
 33
0.0
 16
1.0
 26
0.0
 36
0.0
 17
0.0
 27
1.0
 37
0.0
 76
     0
330
1B
  0
LAYOUT
  5
26
102
{ACAD_REACTORS
330
1A
102
}
330
1A
100
AcDbPlotSettings
  1

  2
none_device
  4

  6

 40
0.0
 41
0.0
 42
0.0
 43
0.0
 44
0.0
 45
0.0
 46
0.0
 47
0.0
 48
0.0
 49
0.0
140
0.0
141
0.0
142
1.0
143
1.0
 70
   688
 72
     0
 73
     0
 74
     5
  7

 75
    16
147
1.0
148
0.0
149
0.0
100
AcDbLayout
  1
Layout2
 70
     1
 71
     2
 10
0.0
 20
0.0
 11
0.0
 21
0.0
 12
0.0
 22
0.0
 32
0.0
 14
0.0
 24
0.0
 34
0.0
 15
0.0
 25
0.0
 35
0.0
146
0.0
 13
0.0
 23
0.0
 33
0.0
 16
1.0
 26
0.0
 36
0.0
 17
0.0
 27
1.0
 37
0.0
 76
     0
330
23
  0
LAYOUT
  5
22
102
{ACAD_REACTORS
330
1A
102
}
330
1A
100
AcDbPlotSettings
  1

  2
none_device
  4
Letter_(8.50_x_11.00_Inches)
  6

 40
6.35
 41
6.35
 42
6.35000508
 43
6.35000508
 44
215.9
 45
279.4
 46
0.0
 47
0.0
 48
0.0
 49
0.0
140
0.0
141
0.0
142
1.0
143
1.0
 70
  1712
 72
     0
 73
     0
 74
     0
  7

 75
     0
147
1.0
148
0.0
149
0.0
100
AcDbLayout
  1
Model
 70
     1
 71
     0
 10
0.0
 20
0.0
 11
44.0
 21
34.0
 12
0.0
 22
0.0
 32
0.0
 14
0.0
 24
0.0
 34
0.0
 15
44.0
 25
34.0
 35
0.0
146
0.0
 13
0.0
 23
0.0
 33
0.0
 16
1.0
 26
0.0
 36
0.0
 17
0.0
 27
1.0
 37
0.0
 76
     0
330
1F
331
29
  0
MLINESTYLE
  5
18
102
{ACAD_REACTORS
330
17
102
}
330
17
100
AcDbMlineStyle
  2
Standard
 70
     0
  3

 62
   256
 51
90.0
 52
90.0
 71
     2
 49
0.5
 62
   256
  6
BYLAYER
 49
-0.5
 62
   256
  6
BYLAYER
  0
ACDBPLACEHOLDER
  5
F
102
{ACAD_REACTORS
330
E
102
}
330
E
  0
SCALE
  5
48
102
{ACAD_REACTORS
330
47
102
}
330
47
100
AcDbScale
 70
     0
300
1:1
140
1.0
141
1.0
290
     1
  0
SCALE
  5
49
102
{ACAD_REACTORS
330
47
102
}
330
47
100
AcDbScale
 70
     0
300
1/128" = 1'-0"
140
0.0078125
141
12.0
290
     0
  0
SCALE
  5
4A
102
{ACAD_REACTORS
330
47
102
}
330
47
100
AcDbScale
 70
     0
300
1/64" = 1'-0"
140
0.015625
141
12.0
290
     0
  0
SCALE
  5
4B
102
{ACAD_REACTORS
330
47
102
}
330
47
100
AcDbScale
 70
     0
300
1/32" = 1'-0"
140
0.03125
141
12.0
290
     0
  0
SCALE
  5
4C
102
{ACAD_REACTORS
330
47
102
}
330
47
100
AcDbScale
 70
     0
300
1/16" = 1'-0"
140
0.0625
141
12.0
290
     0
  0
SCALE
  5
4D
102
{ACAD_REACTORS
330
47
102
}
330
47
100
AcDbScale
 70
     0
300
3/32" = 1'-0"
140
0.09375
141
12.0
290
     0
  0
SCALE
  5
4E
102
{ACAD_REACTORS
330
47
102
}
330
47
100
AcDbScale
 70
     0
300
1/8" = 1'-0"
140
0.125
141
12.0
290
     0
  0
SCALE
  5
4F
102
{ACAD_REACTORS
330
47
102
}
330
47
100
AcDbScale
 70
     0
300
3/16" = 1'-0"
140
0.1875
141
12.0
290
     0
  0
SCALE
  5
50
102
{ACAD_REACTORS
330
47
102
}
330
47
100
AcDbScale
 70
     0
300
1/4" = 1'-0"
140
0.25
141
12.0
290
     0
  0
SCALE
  5
51
102
{ACAD_REACTORS
330
47
102
}
330
47
100
AcDbScale
 70
     0
300
3/8" = 1'-0"
140
0.375
141
12.0
290
     0
  0
SCALE
  5
52
102
{ACAD_REACTORS
330
47
102
}
330
47
100
AcDbScale
 70
     0
300
1/2" = 1'-0"
140
0.5
141
12.0
290
     0
  0
SCALE
  5
53
102
{ACAD_REACTORS
330
47
102
}
330
47
100
AcDbScale
 70
     0
300
3/4" = 1'-0"
140
0.75
141
12.0
290
     0
  0
SCALE
  5
54
102
{ACAD_REACTORS
330
47
102
}
330
47
100
AcDbScale
 70
     0
300
1" = 1'-0"
140
1.0
141
12.0
290
     0
  0
SCALE
  5
55
102
{ACAD_REACTORS
330
47
102
}
330
47
100
AcDbScale
 70
     0
300
1-1/2" = 1'-0"
140
1.5
141
12.0
290
     0
  0
SCALE
  5
56
102
{ACAD_REACTORS
330
47
102
}
330
47
100
AcDbScale
 70
     0
300
3" = 1'-0"
140
3.0
141
12.0
290
     0
  0
SCALE
  5
57
102
{ACAD_REACTORS
330
47
102
}
330
47
100
AcDbScale
 70
     0
300
6" = 1'-0"
140
6.0
141
12.0
290
     0
  0
SCALE
  5
58
102
{ACAD_REACTORS
330
47
102
}
330
47
100
AcDbScale
 70
     0
300
1'-0" = 1'-0"
140
12.0
141
12.0
290
     0
  0
ENDSEC
  0
EOF
